  0
SECTION
  2
HEADER
  9
$ACADVER
  1
AC1014
  9
$ACADMAINTVER
 70
     9
  9
$DWGCODEPAGE
  3
ANSI_932
  9
$INSBASE
 10
0.0
 20
0.0
 30
0.0
  9
$EXTMIN
 10
-169.3500000000002
 20
-51.74999999999994
 30
0.0
  9
$EXTMAX
 10
7.499999999999831
 20
31.81941282097474
 30
0.0
  9
$LIMMIN
 10
-179.1950441638127
 20
-67.94310994259672
  9
$LIMMAX
 10
26.08256365137845
 20
26.68217724423323
  9
$ORTHOMODE
 70
     0
  9
$REGENMODE
 70
     1
  9
$FILLMODE
 70
     1
  9
$QTEXTMODE
 70
     0
  9
$MIRRTEXT
 70
     0
  9
$DRAGMODE
 70
     2
  9
$LTSCALE
 40
1.0
  9
$OSMODE
 70
    55
  9
$ATTMODE
 70
     1
  9
$TEXTSIZE
 40
2.5
  9
$TRACEWID
 40
1.0
  9
$TEXTSTYLE
  7
STANDARD
  9
$CLAYER
  8
AM_0
  9
$CELTYPE
  6
BYLAYER
  9
$CECOLOR
 62
   256
  9
$CELTSCALE
 40
1.0
  9
$DELOBJ
 70
     1
  9
$DISPSILH
 70
     0
  9
$DIMSCALE
 40
0.5
  9
$DIMASZ
 40
2.5
  9
$DIMEXO
 40
1.0
  9
$DIMDLI
 40
12.0
  9
$DIMRND
 40
0.0
  9
$DIMDLE
 40
0.0
  9
$DIMEXE
 40
1.0
  9
$DIMTP
 40
0.1
  9
$DIMTM
 40
0.1
  9
$DIMTXT
 40
3.2
  9
$DIMCEN
 40
0.0
  9
$DIMTSZ
 40
0.0
  9
$DIMTOL
 70
     0
  9
$DIMLIM
 70
     0
  9
$DIMTIH
 70
     0
  9
$DIMTOH
 70
     0
  9
$DIMSE1
 70
     0
  9
$DIMSE2
 70
     0
  9
$DIMTAD
 70
     3
  9
$DIMZIN
 70
     8
  9
$DIMBLK
  1
OPEN30
  9
$DIMASO
 70
     1
  9
$DIMSHO
 70
     1
  9
$DIMPOST
  1

  9
$DIMAPOST
  1
"
  9
$DIMALT
 70
     0
  9
$DIMALTD
 70
     2
  9
$DIMALTF
 40
0.0393701
  9
$DIMLFAC
 40
1.0
  9
$DIMTOFL
 70
     1
  9
$DIMTVP
 40
0.0
  9
$DIMTIX
 70
     0
  9
$DIMSOXD
 70
     0
  9
$DIMSAH
 70
     0
  9
$DIMBLK1
  1

  9
$DIMBLK2
  1

  9
$DIMSTYLE
  2
AM_JIS
  9
$DIMCLRD
 70
   256
  9
$DIMCLRE
 70
   256
  9
$DIMCLRT
 70
     2
  9
$DIMTFAC
 40
0.71
  9
$DIMGAP
 40
1.5
  9
$DIMJUST
 70
     0
  9
$DIMSD1
 70
     0
  9
$DIMSD2
 70
     0
  9
$DIMTOLJ
 70
     0
  9
$DIMTZIN
 70
     0
  9
$DIMALTZ
 70
     0
  9
$DIMALTTZ
 70
     0
  9
$DIMFIT
 70
     3
  9
$DIMUPT
 70
     0
  9
$DIMUNIT
 70
     2
  9
$DIMDEC
 70
     3
  9
$DIMTDEC
 70
     3
  9
$DIMALTU
 70
     2
  9
$DIMALTTD
 70
     2
  9
$DIMTXSTY
  7
ASAMI
  9
$DIMAUNIT
 70
     0
  9
$LUNITS
 70
     2
  9
$LUPREC
 70
     2
  9
$SKETCHINC
 40
1.0
  9
$FILLETRAD
 40
0.5
  9
$AUNITS
 70
     0
  9
$AUPREC
 70
     0
  9
$MENU
  1
.
  9
$ELEVATION
 40
0.0
  9
$PELEVATION
 40
0.0
  9
$THICKNESS
 40
0.0
  9
$LIMCHECK
 70
     0
  9
$BLIPMODE
 70
     0
  9
$CHAMFERA
 40
1.5
  9
$CHAMFERB
 40
1.5
  9
$CHAMFERC
 40
20.0
  9
$CHAMFERD
 40
0.0
  9
$SKPOLY
 70
     0
  9
$TDCREATE
 40
2452802.716478761
  9
$TDUPDATE
 40
2453152.423139409
  9
$TDINDWG
 40
0.6432260417
  9
$TDUSRTIMER
 40
0.6432260417
  9
$USRTIMER
 70
     1
  9
$ANGBASE
 50
0.0
  9
$ANGDIR
 70
     0
  9
$PDMODE
 70
     0
  9
$PDSIZE
 40
0.0
  9
$PLINEWID
 40
0.0
  9
$COORDS
 70
     1
  9
$SPLFRAME
 70
     0
  9
$SPLINETYPE
 70
     6
  9
$SPLINESEGS
 70
     8
  9
$ATTDIA
 70
     1
  9
$ATTREQ
 70
     1
  9
$HANDLING
 70
 12289
  9
$HANDSEED
  5
41F4
  9
$SURFTAB1
 70
     6
  9
$SURFTAB2
 70
     6
  9
$SURFTYPE
 70
     6
  9
$SURFU
 70
     6
  9
$SURFV
 70
     6
  9
$UCSNAME
  2

  9
$UCSORG
 10
-0.0000000000002682
 20
0.000000000000161
 30
0.0
  9
$UCSXDIR
 10
1.0
 20
0.000000000000002
 30
0.0
  9
$UCSYDIR
 10
-0.000000000000002
 20
1.0
 30
0.0
  9
$PUCSNAME
  2

  9
$PUCSORG
 10
0.0
 20
0.0
 30
0.0
  9
$PUCSXDIR
 10
1.0
 20
0.0
 30
0.0
  9
$PUCSYDIR
 10
0.0
 20
1.0
 30
0.0
  9
$USERI1
 70
     0
  9
$USERI2
 70
     0
  9
$USERI3
 70
     0
  9
$USERI4
 70
     0
  9
$USERI5
 70
     0
  9
$USERR1
 40
0.0
  9
$USERR2
 40
0.0
  9
$USERR3
 40
0.0
  9
$USERR4
 40
0.0
  9
$USERR5
 40
0.0
  9
$WORLDVIEW
 70
     1
  9
$SHADEDGE
 70
     3
  9
$SHADEDIF
 70
    70
  9
$TILEMODE
 70
     1
  9
$MAXACTVP
 70
    64
  9
$PINSBASE
 10
0.0
 20
0.0
 30
0.0
  9
$PLIMCHECK
 70
     0
  9
$PEXTMIN
 10
1.000000000000000E+20
 20
1.000000000000000E+20
 30
1.000000000000000E+20
  9
$PEXTMAX
 10
-1.000000000000000E+20
 20
-1.000000000000000E+20
 30
-1.000000000000000E+20
  9
$PLIMMIN
 10
0.0
 20
0.0
  9
$PLIMMAX
 10
841.0
 20
594.0
  9
$UNITMODE
 70
     0
  9
$VISRETAIN
 70
     1
  9
$PLINEGEN
 70
     0
  9
$PSLTSCALE
 70
     0
  9
$TREEDEPTH
 70
  3020
  9
$PICKSTYLE
 70
     0
  9
$CMLSTYLE
  2
STANDARD
  9
$CMLJUST
 70
     0
  9
$CMLSCALE
 40
20.0
  9
$PROXYGRAPHICS
 70
     1
  9
$MEASUREMENT
 70
     1
  0
ENDSEC
  0
SECTION
  2
CLASSES
  0
CLASS
  1
ACDBDICTIONARYWDFLT
  2
AcDbDictionaryWithDefault
  3
AutoCAD 2000
 90
        0
280
     0
281
     0
  0
CLASS
  1
ACDBPLACEHOLDER
  2
AcDbPlaceHolder
  3
AutoCAD 2000
 90
        0
280
     0
281
     0
  0
CLASS
  1
LAYOUT
  2
AcDbLayout
  3
AutoCAD 2000
 90
        0
280
     0
281
     0
  0
CLASS
  1
AMGSETTINGSOBJ
  2
AmgSettingsObj
  3
"AcadM|Product Description: AutoCAD Mechanical 2000|Company: Autodesk"
 90
        0
280
     0
281
     0
  0
CLASS
  1
ACME_DOCUMENT
  2
AcMeDbDoc
  3
AcMeServices
 90
        0
280
     0
281
     0
  0
CLASS
  1
ACMESCOPE
  2
AcMeScope
  3
AcMeServices
 90
        0
280
     0
281
     0
  0
CLASS
  1
ACMECOMMANDHISTORY
  2
AcMeCommandHistory
  3
AcMeServices
 90
        0
280
     0
281
     0
  0
CLASS
  1
DICTIONARYVAR
  2
AcDbDictionaryVar
  3
AutoCAD 2000
 90
        0
280
     0
281
     0
  0
CLASS
  1
ACIMSYSVARMAN
  2
AcImSysVarManager
  3
AcMeServices
 90
        0
280
     0
281
     0
  0
CLASS
  1
ACIMREALSYSVAR
  2
AcImRealSysVar
  3
AcMeServices
 90
        0
280
     0
281
     0
  0
CLASS
  1
ACIMINTSYSVAR
  2
AcImIntSysVar
  3
AcMeServices
 90
        0
280
     0
281
     0
  0
CLASS
  1
ACMEDRAWINGMAN
  2
AcMeDrawingMan
  3
AcMeServices
 90
        0
280
     0
281
     0
  0
CLASS
  1
ACMEVIEW
  2
AcMeView
  3
AcMeServices
 90
        0
280
     0
281
     0
  0
CLASS
  1
ACDBENTITYCACHE
  2
AcMeEntityCache
  3
AcMeServices
 90
        0
280
     0
281
     0
  0
CLASS
  1
GSMANAGER
  2
AcMeGSManager
  3
AcMeServices
 90
        0
280
     0
281
     0
  0
CLASS
  1
AmdtInternalReactor
  2
AmdtInternalReactor
  3
AcMeServices
 90
        0
280
     0
281
     0
  0
CLASS
  1
ACMESTATEMGR
  2
AcMeStateMgr
  3
AcMeServices
 90
        0
280
     0
281
     0
  0
CLASS
  1
ACME_DATABASE
  2
AcMeDbDatabase
  3
AcMeServices
 90
        0
280
     0
281
     0
  0
CLASS
  1
ACRFINSADJUSTERMGR
  2
AcRfInsAdjusterMgr
  3
AcMeServices
 90
        0
280
     0
281
     0
  0
CLASS
  1
ACMDATADICTIONARY
  2
AcmDataDictionary
  3
"AcmSymBB|Product Description: AutoCAD Mechanical 2000|Company: Autodesk"
 90
        0
280
     0
281
     0
  0
CLASS
  1
ACMDATAENTRYBLOCK
  2
AcmDataEntryBlock
  3
"AcmSymBB|Product Description: AutoCAD Mechanical 2000|Company: Autodesk"
 90
        0
280
     0
281
     0
  0
CLASS
  1
AMGOBJPROPCFG
  2
AmgObjPropCfg
  3
"AmgLay|Product Description: AutoCAD Mechanical 2000|Company: Autodesk"
 90
        1
280
     0
281
     0
  0
CLASS
  1
ACAMGFILTERDAT
  2
AcAmgFilterDat
  3
"AcadM|Product Description: AutoCAD Mechanical 2000|Company: Autodesk"
 90
        0
280
     0
281
     0
  0
CLASS
  1
LAYER_INDEX
  2
AcDbLayerIndex
  3
AutoCAD 2000
 90
        0
280
     0
281
     0
  0
CLASS
  1
IDBUFFER
  2
AcDbIdBuffer
  3
AutoCAD 2000
 90
        0
280
     0
281
     0
  0
CLASS
  1
ACIMSTRSYSVAR
  2
AcImStrSysVar
  3
AcMeServices
 90
        0
280
     0
281
     0
  0
CLASS
  1
ACMSTANDARDJIS
  2
AcmStandardJIS
  3
"AcmSymBB|Product Description: AutoCAD Mechanical 2000|Company: Autodesk"
 90
        0
280
     0
281
     0
  0
CLASS
  1
ACMSURFSTANDARDJIS
  2
AcmSurfTextStdJIS
  3
"AcmSymBB|Product Description: AutoCAD Mechanical 2000|Company: Autodesk"
 90
        0
280
     0
281
     0
  0
CLASS
  1
ACMFCFSTANDARDJIS
  2
AcmFCFStdJIS
  3
"AcmSymBB|Product Description: AutoCAD Mechanical 2000|Company: Autodesk"
 90
        0
280
     0
281
     0
  0
CLASS
  1
ACMWELDSTANDARDJIS
  2
AcmWeldingStdJIS
  3
"AcmSymBB|Product Description: AutoCAD Mechanical 2000|Company: Autodesk"
 90
        0
280
     0
281
     0
  0
CLASS
  1
ACMIDSTANDARDJIS
  2
AcmIdStdJIS
  3
"AcmSymBB|Product Description: AutoCAD Mechanical 2000|Company: Autodesk"
 90
        0
280
     0
281
     0
  0
CLASS
  1
ACMDATUMSTANDARDJIS
  2
AcmDatumStdJIS
  3
"AcmSymBB|Product Description: AutoCAD Mechanical 2000|Company: Autodesk"
 90
        0
280
     0
281
     0
  0
CLASS
  1
ACMBOMSTANDARDJIS
  2
AcmBOMStdJIS
  3
"AcmSymBB|Product Description: AutoCAD Mechanical 2000|Company: Autodesk"
 90
        0
280
     0
281
     0
  0
CLASS
  1
ACMSTANDARDANSI
  2
AcmStandardANSI
  3
"AcmSymBB|Product Description: AutoCAD Mechanical 2000|Company: Autodesk"
 90
        0
280
     0
281
     0
  0
CLASS
  1
ACMSURFSTANDARDANSI
  2
AcmSurfTextStdANSI
  3
"AcmSymBB|Product Description: AutoCAD Mechanical 2000|Company: Autodesk"
 90
        0
280
     0
281
     0
  0
CLASS
  1
ACMFCFSTANDARDANSI
  2
AcmFCFStdANSI
  3
"AcmSymBB|Product Description: AutoCAD Mechanical 2000|Company: Autodesk"
 90
        0
280
     0
281
     0
  0
CLASS
  1
ACMWELDSTANDARDANSI
  2
AcmWeldingStdANSI
  3
"AcmSymBB|Product Description: AutoCAD Mechanical 2000|Company: Autodesk"
 90
        0
280
     0
281
     0
  0
CLASS
  1
ACMIDSTANDARDANSI
  2
AcmIdStdANSI
  3
"AcmSymBB|Product Description: AutoCAD Mechanical 2000|Company: Autodesk"
 90
        0
280
     0
281
     0
  0
CLASS
  1
ACMDATUMSTANDARDANSI
  2
AcmDatumStdANSI
  3
"AcmSymBB|Product Description: AutoCAD Mechanical 2000|Company: Autodesk"
 90
        0
280
     0
281
     0
  0
CLASS
  1
ACMBOMSTANDARDANSI
  2
AcmBOMStdANSI
  3
"AcmSymBB|Product Description: AutoCAD Mechanical 2000|Company: Autodesk"
 90
        0
280
     0
281
     0
  0
CLASS
  1
ACMSTANDARDBSI
  2
AcmStandardBSI
  3
"AcmSymBB|Product Description: AutoCAD Mechanical 2000|Company: Autodesk"
 90
        0
280
     0
281
     0
  0
CLASS
  1
ACMSURFSTANDARDBSI
  2
AcmSurfTextStdBSI
  3
"AcmSymBB|Product Description: AutoCAD Mechanical 2000|Company: Autodesk"
 90
        0
280
     0
281
     0
  0
CLASS
  1
ACMFCFSTANDARDBSI
  2
AcmFCFStdBSI
  3
"AcmSymBB|Product Description: AutoCAD Mechanical 2000|Company: Autodesk"
 90
        0
280
     0
281
     0
  0
CLASS
  1
ACMWELDSTANDARDBSI
  2
AcmWeldingStdBSI
  3
"AcmSymBB|Product Description: AutoCAD Mechanical 2000|Company: Autodesk"
 90
        0
280
     0
281
     0
  0
CLASS
  1
ACMIDSTANDARDBSI
  2
AcmIdStdBSI
  3
"AcmSymBB|Product Description: AutoCAD Mechanical 2000|Company: Autodesk"
 90
        0
280
     0
281
     0
  0
CLASS
  1
ACMDATUMSTANDARDBSI
  2
AcmDatumStdBSI
  3
"AcmSymBB|Product Description: AutoCAD Mechanical 2000|Company: Autodesk"
 90
        0
280
     0
281
     0
  0
CLASS
  1
ACMBOMSTANDARDBSI
  2
AcmBOMStdBSI
  3
"AcmSymBB|Product Description: AutoCAD Mechanical 2000|Company: Autodesk"
 90
        0
280
     0
281
     0
  0
CLASS
  1
STDPART2D
  2
AmgStdPart
  3
"AmgStdPart|Product Description: AutoCAD Mechanical 2000|Company: Autodesk"
 90
     1023
280
     0
281
     1
  0
CLASS
  1
LONG_TRANSACTION
  2
AcDbLongTransaction
  3
AutoCAD 2000
 90
        0
280
     0
281
     0
  0
CLASS
  1
LWPOLYLINE
  2
AcDbPolyline
  3
AutoCAD 2000
 90
        0
280
     0
281
     1
  0
CLASS
  1
HATCH
  2
AcDbHatch
  3
AutoCAD 2000
 90
        0
280
     0
281
     1
  0
CLASS
  1
XRECORD
  2
AcDbXrecord
  3
AutoCAD 2000
 90
        0
280
     0
281
     0
  0
ENDSEC
  0
SECTION
  2
TABLES
  0
TABLE
  2
VPORT
  5
8
330
0
100
AcDbSymbolTable
 70
     3
  0
VPORT
  5
41C9
330
8
100
AcDbSymbolTableRecord
100
AcDbViewportTableRecord
  2
*ACTIVE
 70
     0
 10
0.0
 20
0.0
 11
1.0
 21
1.0
 12
-80.91795042913814
 22
-6.673154711712072
 13
0.0
 23
0.0
 14
2.5
 24
2.5
 15
10.0
 25
10.0
 16
0.0
 26
0.0
 36
1.0
 17
0.0
 27
0.0
 37
0.0
 40
113.61583847999
 41
1.56570841889117
 42
50.0
 43
0.0
 44
0.0
 50
0.0
 51
0.0
 71
     0
 72
   100
 73
     1
 74
     3
 75
     0
 76
     0
 77
     0
 78
     0
  0
ENDTAB
  0
TABLE
  2
LTYPE
  5
5
330
0
100
AcDbSymbolTable
 70
    10
  0
LTYPE
  5
14
330
5
100
AcDbSymbolTableRecord
100
AcDbLinetypeTableRecord
  2
BYBLOCK
 70
     0
  3

 72
    65
 73
     0
 40
0.0
  0
LTYPE
  5
15
330
5
100
AcDbSymbolTableRecord
100
AcDbLinetypeTableRecord
  2
BYLAYER
 70
     0
  3

 72
    65
 73
     0
 40
0.0
  0
LTYPE
  5
16
330
5
100
AcDbSymbolTableRecord
100
AcDbLinetypeTableRecord
  2
CONTINUOUS
 70
     0
  3
Solid line
 72
    65
 73
     0
 40
0.0
  0
LTYPE
  5
4B
330
5
100
AcDbSymbolTableRecord
100
AcDbLinetypeTableRecord
  2
AM_ISO02W050
 70
     0
  3
__ __ __ __ __ __ __ __ __ __ __ __ __ __ __
 72
    65
 73
     2
 40
7.5
 49
6.0
 74
     0
 49
-1.5
 74
     0
  0
LTYPE
  5
4C
330
5
100
AcDbSymbolTableRecord
100
AcDbLinetypeTableRecord
  2
AM_ISO08W050
 70
     0
  3
____ . ____ . ____ . ____ . ____ . ____ . ____
 72
    65
 73
     4
 40
18.0
 49
12.0
 74
     0
 49
-1.5
 74
     0
 49
3.0
 74
     0
 49
-1.5
 74
     0
  0
LTYPE
  5
4D
330
5
100
AcDbSymbolTableRecord
100
AcDbLinetypeTableRecord
  2
AM_ISO09W050
 70
     0
  3
_____ . . _____ . . _____ . . ____ .. ____
 72
    65
 73
     6
 40
22.5
 49
12.0
 74
     0
 49
-1.5
 74
     0
 49
3.0
 74
     0
 49
-1.5
 74
     0
 49
3.0
 74
     0
 49
-1.5
 74
     0
  0
LTYPE
  5
4E
330
5
100
AcDbSymbolTableRecord
100
AcDbLinetypeTableRecord
  2
AMCONSTR
 70
     0
  3
_______________________
 72
    65
 73
     2
 40
9999.0
 49
9999.0
 74
     0
 49
0.0
 74
     0
  0
LTYPE
  5
4F
330
5
100
AcDbSymbolTableRecord
100
AcDbLinetypeTableRecord
  2
AM_ISO02W050X2
 70
     0
  3
 _ _ _ _ _ _ _ _ _ _ _ _
 72
    65
 73
     2
 40
3.75
 49
3.0
 74
     0
 49
-0.75
 74
     0
  0
LTYPE
  5
50
330
5
100
AcDbSymbolTableRecord
100
AcDbLinetypeTableRecord
  2
AM_ISO08W050X2
 70
     0
  3
__ . __ . __ . __ . __ . __
 72
    65
 73
     4
 40
9.0
 49
6.0
 74
     0
 49
-0.75
 74
     0
 49
1.5
 74
     0
 49
-0.75
 74
     0
  0
LTYPE
  5
53
330
5
100
AcDbSymbolTableRecord
100
AcDbLinetypeTableRecord
  2
AMZIGZAG
 70
     0
  3
/\/-/\/-/\/-/\/-/\/-/\/
 72
    65
 73
     2
 40
11.00009999999999
 49
0.0001
 74
     4
 75
   135
340
52
 46
0.04
 50
0.0
 44
0.0
 45
0.0
 49
-11.0
 74
     0
  0
LTYPE
  5
166
330
5
100
AcDbSymbolTableRecord
100
AcDbLinetypeTableRecord
  2
ACJISTGL
 70
     0
  3
_ _ _ _ _
 72
    65
 73
     2
 40
3.0
 49
2.0
 74
     0
 49
-1.0
 74
     0
  0
LTYPE
  5
26A
330
5
100
AcDbSymbolTableRecord
100
AcDbLinetypeTableRecord
  2
ACJISTGB
 70
     0
  3
__ . . __ . .
 72
    65
 73
     6
 40
9.0
 49
4.0
 74
     0
 49
-1.0
 74
     0
 49
1.0
 74
     0
 49
-1.0
 74
     0
 49
1.0
 74
     0
 49
-1.0
 74
     0
  0
ENDTAB
  0
TABLE
  2
LAYER
  5
2
330
0
100
AcDbSymbolTable
 70
     9
  0
LAYER
  5
10
330
2
100
AcDbSymbolTableRecord
100
AcDbLayerTableRecord
  2
0
 70
     0
 62
     7
  6
CONTINUOUS
  0
LAYER
  5
3F9
330
2
100
AcDbSymbolTableRecord
100
AcDbLayerTableRecord
  2
AM_0
 70
     0
 62
     7
  6
CONTINUOUS
  0
LAYER
  5
BA4
330
2
100
AcDbSymbolTableRecord
100
AcDbLayerTableRecord
  2
AM_5
 70
     0
 62
     3
  6
CONTINUOUS
  0
LAYER
  5
BA5
330
2
100
AcDbSymbolTableRecord
100
AcDbLayerTableRecord
  2
AM_11
 70
     0
 62
     3
  6
AM_ISO09W050
  0
LAYER
  5
BA6
330
2
100
AcDbSymbolTableRecord
100
AcDbLayerTableRecord
  2
AM_7
 70
     0
 62
     4
  6
AM_ISO08W050
  0
LAYER
  5
E64
330
2
100
AcDbSymbolTableRecord
100
AcDbLayerTableRecord
  2
AM_6
 70
     0
 62
     2
  6
CONTINUOUS
  0
LAYER
  5
F4D
330
2
100
AcDbSymbolTableRecord
100
AcDbLayerTableRecord
  2
DEFPOINTS
 70
     0
 62
     7
  6
CONTINUOUS
  0
LAYER
  5
22B5
330
2
100
AcDbSymbolTableRecord
100
AcDbLayerTableRecord
  2
AM_4
 70
     0
 62
     3
  6
CONTINUOUS
  0
LAYER
  5
2382
330
2
100
AcDbSymbolTableRecord
100
AcDbLayerTableRecord
  2
AM_3
 70
     0
 62
     6
  6
ACJISTGL
  0
ENDTAB
  0
TABLE
  2
STYLE
  5
3
330
0
100
AcDbSymbolTable
 70
     5
  0
STYLE
  5
11
330
3
100
AcDbSymbolTableRecord
100
AcDbTextStyleTableRecord
  2
STANDARD
 70
     0
 40
0.0
 41
1.0
 50
0.0
 71
     0
 42
2.5
  3
simplex.shx
  4
EXTFONT.SHX
  0
STYLE
  5
52
330
3
100
AcDbSymbolTableRecord
100
AcDbTextStyleTableRecord
  2

 70
     1
 40
0.0
 41
1.0
 50
0.0
 71
     0
 42
2.5
  3
ltypeshp.shx
  4

  0
STYLE
  5
6B
330
3
100
AcDbSymbolTableRecord
100
AcDbTextStyleTableRecord
  2
ASAMI
 70
     0
 40
0.0
 41
1.0
 50
0.0
 71
     0
 42
2.5
  3
simplex.shx
  4
EXTFONT.SHX
  0
STYLE
  5
262
330
3
100
AcDbSymbolTableRecord
100
AcDbTextStyleTableRecord
  2
ACJISTS
 70
     0
 40
1.0
 41
1.0
 50
0.0
 71
     0
 42
2.5
  3
simplex.shx
  4
bigfont.shx
  0
STYLE
  5
269
330
3
100
AcDbSymbolTableRecord
100
AcDbTextStyleTableRecord
  2
ACJISGDT
 70
     0
 40
0.0
 41
1.0
 50
0.0
 71
     0
 42
2.5
  3
amgdtans.shx
  4

  0
ENDTAB
  0
TABLE
  2
VIEW
  5
6
330
0
100
AcDbSymbolTable
 70
     0
  0
ENDTAB
  0
TABLE
  2
UCS
  5
7
330
0
100
AcDbSymbolTable
 70
     0
  0
ENDTAB
  0
TABLE
  2
APPID
  5
9
330
0
100
AcDbSymbolTable
 70
    24
  0
APPID
  5
12
330
9
100
AcDbSymbolTableRecord
100
AcDbRegAppTableRecord
  2
ACAD
 70
     0
  0
APPID
  5
30
330
9
100
AcDbSymbolTableRecord
100
AcDbRegAppTableRecord
  2
MCAD_NO_VIS
 70
     0
  0
APPID
  5
31
330
9
100
AcDbSymbolTableRecord
100
AcDbRegAppTableRecord
  2
ACAD_TEMP_GRAPHIC
 70
     0
  0
APPID
  5
2C2
330
9
100
AcDbSymbolTableRecord
100
AcDbRegAppTableRecord
  2
GENIUS_GENDTOL_13
 70
     0
  0
APPID
  5
339
330
9
100
AcDbSymbolTableRecord
100
AcDbRegAppTableRecord
  2
GENIUS_GENODEF_13
 70
     0
  0
APPID
  5
33A
330
9
100
AcDbSymbolTableRecord
100
AcDbRegAppTableRecord
  2
GENIUS_GENOBJ-N-RSBK_13
 70
     0
  0
APPID
  5
33B
330
9
100
AcDbSymbolTableRecord
100
AcDbRegAppTableRecord
  2
GENIUS_GENOBJ-N-LIB_13
 70
     0
  0
APPID
  5
33C
330
9
100
AcDbSymbolTableRecord
100
AcDbRegAppTableRecord
  2
GENIUS_GENSCALE_13
 70
     0
  0
APPID
  5
378
330
9
100
AcDbSymbolTableRecord
100
AcDbRegAppTableRecord
  2
GENIUS_GENDIMSH_14
 70
     0
  0
APPID
  5
BB0
330
9
100
AcDbSymbolTableRecord
100
AcDbRegAppTableRecord
  2
GENIUS_GENOBJ-N-CEN_13
 70
     0
  0
APPID
  5
BB1
330
9
100
AcDbSymbolTableRecord
100
AcDbRegAppTableRecord
  2
GENIUS_GENFIL_13
 70
     0
  0
APPID
  5
BB2
330
9
100
AcDbSymbolTableRecord
100
AcDbRegAppTableRecord
  2
GENIUS_GENOBJ-N-CHA_13
 70
     0
  0
APPID
  5
1FAF
330
9
100
AcDbSymbolTableRecord
100
AcDbRegAppTableRecord
  2
GENIUS_GENOBJ-N-CRS_13
 70
     0
  0
APPID
  5
1FB0
330
9
100
AcDbSymbolTableRecord
100
AcDbRegAppTableRecord
  2
GENIUS_GENOENT_13
 70
     0
  0
APPID
  5
1FB1
330
9
100
AcDbSymbolTableRecord
100
AcDbRegAppTableRecord
  2
GENIUS_GENOREF_13
 70
     0
  0
APPID
  5
1FB2
330
9
100
AcDbSymbolTableRecord
100
AcDbRegAppTableRecord
  2
GENIUS_GENOLIS_13
 70
     0
  0
APPID
  5
1FB7
330
9
100
AcDbSymbolTableRecord
100
AcDbRegAppTableRecord
  2
GENIUS_GENOBJ-N-FIL_13
 70
     0
  0
APPID
  5
22A8
330
9
100
AcDbSymbolTableRecord
100
AcDbRegAppTableRecord
  2
GEVID1056506048
 70
     0
  0
APPID
  5
22A9
330
9
100
AcDbSymbolTableRecord
100
AcDbRegAppTableRecord
  2
GEVDC
 70
     0
  0
APPID
  5
22AC
330
9
100
AcDbSymbolTableRecord
100
AcDbRegAppTableRecord
  2
GENIUS_GENBH_13
 70
     0
  0
APPID
  5
22B8
330
9
100
AcDbSymbolTableRecord
100
AcDbRegAppTableRecord
  2
GENIUS_GENOBJ-NBEHI-BHF_13
 70
     0
  0
APPID
  5
22BA
330
9
100
AcDbSymbolTableRecord
100
AcDbRegAppTableRecord
  2
GENIUS_GENOBJ-NBEHI-BHB_13
 70
     0
  0
APPID
  5
35C9
330
9
100
AcDbSymbolTableRecord
100
AcDbRegAppTableRecord
  2
GENIUS_GENREC_14
 70
     0
  0
APPID
  5
35CA
330
9
100
AcDbSymbolTableRecord
100
AcDbRegAppTableRecord
  2
GENIUS_GENOBJ-N-REC_13
 70
     0
  0
ENDTAB
  0
TABLE
  2
DIMSTYLE
  5
A
330
0
100
AcDbSymbolTable
 70
     8
  0
DIMSTYLE
105
58
102
{ACAD_REACTORS
330
36BB
330
389E
330
388E
330
387E
330
3FB9
102
}
330
A
100
AcDbSymbolTableRecord
100
AcDbDimStyleTableRecord
  2
AM_JIS
 70
     0
  3

  4
"
  5
OPEN30
  6

  7

 40
0.5
 41
2.5
 42
1.0
 43
12.0
 44
1.0
 45
0.0
 46
0.0
 47
0.1
 48
0.1
140
3.2
141
0.0
142
0.0
143
0.0393701
144
1.0
145
0.0
146
0.71
147
1.5
 71
     0
 72
     0
 73
     0
 74
     0
 75
     0
 76
     0
 77
     3
 78
     8
170
     0
171
     2
172
     1
173
     0
174
     0
175
     0
176
   256
177
   256
178
     2
270
     2
271
     3
272
     3
273
     2
274
     2
340
6B
275
     0
280
     0
281
     0
282
     0
283
     0
284
     0
285
     0
286
     0
287
     3
288
     0
  0
DIMSTYLE
105
5F
330
A
100
AcDbSymbolTableRecord
100
AcDbDimStyleTableRecord
  2
AM_JIS$3
 70
     0
  3

  4
"
  5
OPEN30
  6

  7

 40
0.5
 41
2.5
 42
1.0
 43
10.0
 44
1.0
 45
0.0
 46
0.0
 47
0.1
 48
0.1
140
3.2
141
0.0
142
0.0
143
0.0393701
144
1.0
145
0.0
146
0.71
147
1.5
 71
     0
 72
     0
 73
     0
 74
     1
 75
     0
 76
     0
 77
     3
 78
     8
170
     0
171
     2
172
     0
173
     0
174
     0
175
     0
176
   256
177
   256
178
     2
270
     2
271
     2
272
     3
273
     2
274
     2
340
6B
275
     0
280
     0
281
     0
282
     0
283
     0
284
     0
285
     0
286
     0
287
     0
288
     1
  0
DIMSTYLE
105
60
330
A
100
AcDbSymbolTableRecord
100
AcDbDimStyleTableRecord
  2
AM_JIS$4
 70
     0
  3

  4
"
  5
OPEN30
  6

  7

 40
0.5
 41
2.5
 42
1.0
 43
10.0
 44
1.0
 45
0.0
 46
0.0
 47
0.1
 48
0.1
140
3.2
141
0.0
142
0.0
143
0.0393701
144
1.0
145
0.0
146
0.71
147
1.5
 71
     0
 72
     0
 73
     0
 74
     1
 75
     0
 76
     0
 77
     3
 78
     8
170
     0
171
     2
172
     0
173
     0
174
     0
175
     0
176
   256
177
   256
178
     2
270
     2
271
     2
272
     3
273
     2
274
     2
340
6B
275
     0
280
     0
281
     0
282
     0
283
     0
284
     0
285
     0
286
     0
287
     0
288
     1
  0
DIMSTYLE
105
61
330
A
100
AcDbSymbolTableRecord
100
AcDbDimStyleTableRecord
  2
AM_JIS$6
 70
     0
  3

  4
"
  5
OPEN30
  6

  7

 40
0.5
 41
2.5
 42
1.0
 43
10.0
 44
1.0
 45
0.0
 46
0.0
 47
0.1
 48
0.1
140
3.2
141
0.0
142
0.0
143
0.0393701
144
1.0
145
0.0
146
0.71
147
1.5
 71
     0
 72
     0
 73
     0
 74
     0
 75
     0
 76
     0
 77
     0
 78
     8
170
     0
171
     2
172
     1
173
     0
174
     0
175
     0
176
   256
177
   256
178
     2
270
     2
271
     2
272
     2
273
     2
274
     2
340
6B
275
     0
280
     0
281
     0
282
     0
283
     0
284
     0
285
     0
286
     0
287
     3
288
     0
  0
DIMSTYLE
105
62
330
A
100
AcDbSymbolTableRecord
100
AcDbDimStyleTableRecord
  2
AM_JIS$7
 70
     0
  3

  4
"
  5
OPEN30
  6

  7

 40
0.5
 41
2.5
 42
1.0
 43
10.0
 44
1.0
 45
0.0
 46
0.0
 47
0.1
 48
0.1
140
3.2
141
0.0
142
0.0
143
0.0393701
144
1.0
145
0.0
146
0.71
147
1.5
 71
     0
 72
     0
 73
     0
 74
     0
 75
     0
 76
     0
 77
     3
 78
     8
170
     0
171
     2
172
     1
173
     0
174
     0
175
     0
176
   256
177
   256
178
     2
270
     2
271
     2
272
     3
273
     2
274
     2
340
6B
275
     0
280
     0
281
     0
282
     0
283
     0
284
     0
285
     0
286
     0
287
     3
288
     0
  0
DIMSTYLE
105
63
330
A
100
AcDbSymbolTableRecord
100
AcDbDimStyleTableRecord
  2
AM_JIS$SF
 70
     0
  3

  4
"
  5
OPEN30
  6

  7

 40
0.5
 41
2.5
 42
1.0
 43
10.0
 44
1.0
 45
0.0
 46
0.0
 47
0.1
 48
0.1
140
3.2
141
0.0
142
0.0
143
0.0393701
144
1.0
145
0.0
146
0.71
147
1.5
 71
     0
 72
     0
 73
     0
 74
     0
 75
     1
 76
     1
 77
     3
 78
     8
170
     0
171
     2
172
     1
173
     0
174
     0
175
     0
176
   256
177
   256
178
     2
270
     2
271
     2
272
     2
273
     2
274
     2
340
6B
275
     0
280
     0
281
     0
282
     0
283
     0
284
     0
285
     0
286
     0
287
     3
288
     0
  0
DIMSTYLE
105
68
330
A
100
AcDbSymbolTableRecord
100
AcDbDimStyleTableRecord
  2
AM_JIS$SH
 70
     0
  3

  4
"
  5

  6
GENAXEH
  7
OPEN30
 40
0.5
 41
2.5
 42
1.0
 43
10.0
 44
1.0
 45
0.0
 46
0.0
 47
0.1
 48
0.1
140
3.2
141
0.0
142
0.0
143
0.0393701
144
2.0
145
0.0
146
0.71
147
1.5
 71
     0
 72
     0
 73
     0
 74
     0
 75
     1
 76
     1
 77
     3
 78
     8
170
     0
171
     2
172
     1
173
     1
174
     0
175
     0
176
   256
177
   256
178
     2
270
     2
271
     2
272
     2
273
     2
274
     2
340
6B
275
     0
280
     0
281
     0
282
     0
283
     0
284
     0
285
     0
286
     0
287
     3
288
     0
  0
DIMSTYLE
105
B34
330
A
100
AcDbSymbolTableRecord
100
AcDbDimStyleTableRecord
  2
AM_JIS$2
 70
     0
  3

  4
"
  5
OPEN30
  6

  7

 40
0.5
 41
2.5
 42
1.0
 43
12.0
 44
1.0
 45
0.0
 46
0.0
 47
0.1
 48
0.1
140
3.2
141
0.0
142
0.0
143
0.0393701
144
1.0
145
0.0
146
0.71
147
1.5
 71
     0
 72
     0
 73
     0
 74
     0
 75
     0
 76
     0
 77
     3
 78
     8
170
     0
171
     2
172
     1
173
     0
174
     0
175
     0
176
   256
177
   256
178
     2
270
     2
271
     3
272
     3
273
     2
274
     2
340
6B
275
     0
280
     0
281
     0
282
     0
283
     0
284
     0
285
     0
286
     0
287
     3
288
     0
  0
ENDTAB
  0
TABLE
  2
BLOCK_RECORD
  5
1
330
0
100
AcDbSymbolTable
 70
    12
  0
BLOCK_RECORD
  5
1F
102
{ACAD_XDICTIONARY
360
74
102
}
330
1
100
AcDbSymbolTableRecord
100
AcDbBlockTableRecord
  2
*MODEL_SPACE
  0
BLOCK_RECORD
  5
101
102
{ACAD_XDICTIONARY
360
41F2
102
}
330
1
100
AcDbSymbolTableRecord
100
AcDbBlockTableRecord
  2
*PAPER_SPACE
  0
BLOCK_RECORD
  5
59
330
1
100
AcDbSymbolTableRecord
100
AcDbBlockTableRecord
  2
_OPEN30
  0
BLOCK_RECORD
  5
64
330
1
100
AcDbSymbolTableRecord
100
AcDbBlockTableRecord
  2
GENAXEH
  0
BLOCK_RECORD
  5
36BC
330
1
100
AcDbSymbolTableRecord
100
AcDbBlockTableRecord
  2
*D5
  0
BLOCK_RECORD
  5
387F
330
1
100
AcDbSymbolTableRecord
100
AcDbBlockTableRecord
  2
*D6
  0
BLOCK_RECORD
  5
388F
330
1
100
AcDbSymbolTableRecord
100
AcDbBlockTableRecord
  2
*D7
  0
BLOCK_RECORD
  5
389F
330
1
100
AcDbSymbolTableRecord
100
AcDbBlockTableRecord
  2
*D8
  0
BLOCK_RECORD
  5
3FBA
330
1
100
AcDbSymbolTableRecord
100
AcDbBlockTableRecord
  2
*D9
  0
ENDTAB
  0
ENDSEC
  0
SECTION
  2
BLOCKS
  0
BLOCK
  5
20
330
1F
100
AcDbEntity
  8
0
100
AcDbBlockBegin
  2
*MODEL_SPACE
 70
     0
 10
0.0
 20
0.0
 30
0.0
  3
*MODEL_SPACE
  1

  0
ENDBLK
  5
21
330
1F
100
AcDbEntity
  8
0
100
AcDbBlockEnd
  0
BLOCK
  5
103
330
101
100
AcDbEntity
 67
     1
  8
0
100
AcDbBlockBegin
  2
*PAPER_SPACE
 70
     0
 10
0.0
 20
0.0
 30
0.0
  3
*PAPER_SPACE
  1

  0
ENDBLK
  5
104
330
101
100
AcDbEntity
 67
     1
  8
0
100
AcDbBlockEnd
  0
BLOCK
  5
5D
330
59
100
AcDbEntity
  8
0
100
AcDbBlockBegin
  2
_OPEN30
 70
     0
 10
0.0
 20
0.0
 30
0.0
  3
_OPEN30
  1

  0
LINE
  5
5A
330
59
100
AcDbEntity
  8
0
 62
     0
100
AcDbLine
 10
-1.0
 20
0.26794919
 30
0.0
 11
0.0
 21
0.0
 31
0.0
  0
LINE
  5
5B
330
59
100
AcDbEntity
  8
0
 62
     0
100
AcDbLine
 10
0.0
 20
0.0
 30
0.0
 11
-1.0
 21
-0.26794919
 31
0.0
  0
LINE
  5
5C
330
59
100
AcDbEntity
  8
0
 62
     0
100
AcDbLine
 10
0.0
 20
0.0
 30
0.0
 11
-1.0
 21
0.0
 31
0.0
  0
ENDBLK
  5
5E
330
59
100
AcDbEntity
  8
0
100
AcDbBlockEnd
  0
BLOCK
  5
66
330
64
100
AcDbEntity
  8
0
100
AcDbBlockBegin
  2
GENAXEH
 70
     0
 10
0.0
 20
0.0
 30
0.0
  3
GENAXEH
  1

  0
LINE
  5
65
330
64
100
AcDbEntity
  8
0
100
AcDbLine
 10
-1.0
 20
0.0
 30
0.0
 11
1.0
 21
0.0
 31
0.0
  0
ENDBLK
  5
67
330
64
100
AcDbEntity
  8
0
100
AcDbBlockEnd
  0
BLOCK
  5
36C6
330
36BC
100
AcDbEntity
  8
0
100
AcDbBlockBegin
  2
*D5
 70
     1
 10
0.0
 20
0.0
 30
0.0
  3
*D5
  1

  0
LINE
  5
3DAB
330
36BC
100
AcDbEntity
  8
AM_5
100
AcDbLine
 10
0.5000000000007571
 20
17.50000000000015
 30
0.0
 11
7.499999999999761
 21
17.50000000000017
 31
0.0
  0
LINE
  5
3DAC
330
36BC
100
AcDbEntity
  8
AM_5
100
AcDbLine
 10
0.4999999999987955
 20
-17.49999999999984
 30
0.0
 11
7.499999999999831
 21
-17.49999999999982
 31
0.0
  0
LINE
  5
3DAD
330
36BC
100
AcDbEntity
  8
AM_5
100
AcDbLine
 10
6.999999999999763
 20
16.25000000000017
 30
0.0
 11
6.999999999999829
 21
-16.24999999999982
 31
0.0
  0
INSERT
  5
3DAE
330
36BC
100
AcDbEntity
  8
AM_5
100
AcDbBlockReference
  2
_OPEN30
 10
6.999999999999761
 20
17.50000000000017
 30
0.0
 41
1.25
 42
1.25
 43
1.25
 50
90.0000000000001
  0
INSERT
  5
3DAF
330
36BC
100
AcDbEntity
  8
AM_5
100
AcDbBlockReference
  2
_OPEN30
 10
6.999999999999831
 20
-17.49999999999982
 30
0.0
 41
1.25
 42
1.25
 43
1.25
 50
270.0000000000001
  0
MTEXT
  5
3DB0
330
36BC
100
AcDbEntity
  8
AM_5
 62
     2
100
AcDbMText
 10
5.449999999999796
 20
0.0000000000001689
 30
0.0
 40
1.6
 41
0.0
 71
     5
 72
     1
  1
%%c35
  7
ASAMI
 11
-0.000000000000002
 21
1.0
 31
0.0
1001
ACAD
1000
MTEXTBEGIN
1070
    73
1070
     1
1070
    44
1040
1.0
1070
    74
1070
     0
1000
MTEXTEND
  0
POINT
  5
3DB1
330
36BC
100
AcDbEntity
  8
DEFPOINTS
 62
     0
100
AcDbPoint
 10
0.0000000000007959
 20
17.50000000000015
 30
0.0
  0
POINT
  5
3DB2
330
36BC
100
AcDbEntity
  8
DEFPOINTS
 62
     0
100
AcDbPoint
 10
-0.0000000000012434
 20
-17.49999999999984
 30
0.0
  0
POINT
  5
3DB3
330
36BC
100
AcDbEntity
  8
DEFPOINTS
 62
     0
100
AcDbPoint
 10
6.999999999999793
 20
-17.49999999999984
 30
0.0
  0
ENDBLK
  5
36C7
330
36BC
100
AcDbEntity
  8
0
100
AcDbBlockEnd
  0
BLOCK
  5
3889
330
387F
100
AcDbEntity
  8
0
100
AcDbBlockBegin
  2
*D6
 70
     1
 10
0.0
 20
0.0
 30
0.0
  3
*D6
  1

  0
LINE
  5
3DC3
330
387F
100
AcDbEntity
  8
AM_5
100
AcDbLine
 10
-160.0000000000003
 20
-15.00000000000007
 30
0.0
 11
-160.0000000000003
 21
-31.00000000000002
 31
0.0
  0
LINE
  5
3DC4
330
387F
100
AcDbEntity
  8
AM_5
100
AcDbLine
 10
-0.0000000000012014
 20
-17.99999999999984
 30
0.0
 11
-0.0000000000011875
 21
-30.99999999999984
 31
0.0
  0
LINE
  5
3DC5
330
387F
100
AcDbEntity
  8
AM_5
100
AcDbLine
 10
-158.7500000000002
 20
-30.50000000000002
 30
0.0
 11
-1.250000000001187
 21
-30.49999999999984
 31
0.0
  0
INSERT
  5
3DC6
330
387F
100
AcDbEntity
  8
AM_5
100
AcDbBlockReference
  2
_OPEN30
 10
-160.0000000000003
 20
-30.50000000000002
 30
0.0
 41
1.25
 42
1.25
 43
1.25
 50
180.0
  0
INSERT
  5
3DC7
330
387F
100
AcDbEntity
  8
AM_5
100
AcDbBlockReference
  2
_OPEN30
 10
-0.000000000001188
 20
-30.49999999999984
 30
0.0
 41
1.25
 42
1.25
 43
1.25
 50
0.0000000000000509
  0
MTEXT
  5
3DC8
330
387F
100
AcDbEntity
  8
AM_5
 62
     2
100
AcDbMText
 10
-80.00000000000074
 20
-28.94999999999993
 30
0.0
 40
1.6
 41
0.0
 71
     5
 72
     1
  1
160
  7
ASAMI
1001
ACAD
1000
MTEXTBEGIN
1070
    73
1070
     1
1070
    44
1040
1.0
1070
    74
1070
     0
1000
MTEXTEND
  0
POINT
  5
3DC9
330
387F
100
AcDbEntity
  8
DEFPOINTS
 62
     0
100
AcDbPoint
 10
-160.0000000000003
 20
-14.49999999999988
 30
0.0
  0
POINT
  5
3DCA
330
387F
100
AcDbEntity
  8
DEFPOINTS
 62
     0
100
AcDbPoint
 10
-0.0000000000012218
 20
-17.49999999999984
 30
0.0
  0
POINT
  5
3DCB
330
387F
100
AcDbEntity
  8
DEFPOINTS
 62
     0
100
AcDbPoint
 10
-0.0000000000012226
 20
-30.49999999999984
 30
0.0
  0
ENDBLK
  5
388A
330
387F
100
AcDbEntity
  8
0
100
AcDbBlockEnd
  0
BLOCK
  5
3899
330
388F
100
AcDbEntity
  8
0
100
AcDbBlockBegin
  2
*D7
 70
     1
 10
0.0
 20
0.0
 30
0.0
  3
*D7
  1

  0
LINE
  5
3E53
330
388F
100
AcDbEntity
  8
AM_5
100
AcDbLine
 10
-160.0000000000003
 20
-15.00000000000007
 30
0.0
 11
-160.0000000000003
 21
-25.00000000000006
 31
0.0
  0
LINE
  5
3E54
330
388F
100
AcDbEntity
  8
AM_5
100
AcDbLine
 10
-40.00000000000026
 20
-16.84999999999999
 30
0.0
 11
-40.00000000000025
 21
-24.99999999999992
 31
0.0
  0
LINE
  5
3E55
330
388F
100
AcDbEntity
  8
AM_5
100
AcDbLine
 10
-158.7500000000002
 20
-24.50000000000006
 30
0.0
 11
-41.25000000000025
 21
-24.49999999999993
 31
0.0
  0
INSERT
  5
3E56
330
388F
100
AcDbEntity
  8
AM_5
100
AcDbBlockReference
  2
_OPEN30
 10
-160.0000000000003
 20
-24.50000000000006
 30
0.0
 41
1.25
 42
1.25
 43
1.25
 50
180.0
  0
INSERT
  5
3E57
330
388F
100
AcDbEntity
  8
AM_5
100
AcDbBlockReference
  2
_OPEN30
 10
-40.00000000000025
 20
-24.49999999999993
 30
0.0
 41
1.25
 42
1.25
 43
1.25
 50
0.0000000000000509
  0
MTEXT
  5
3E58
330
388F
100
AcDbEntity
  8
AM_5
 62
     2
100
AcDbMText
 10
-100.0000000000002
 20
-22.94999999999999
 30
0.0
 40
1.6
 41
0.0
 71
     5
 72
     1
  1
120
  7
ASAMI
1001
ACAD
1000
MTEXTBEGIN
1070
    73
1070
     1
1070
    44
1040
1.0
1070
    74
1070
     0
1000
MTEXTEND
  0
POINT
  5
3E59
330
388F
100
AcDbEntity
  8
DEFPOINTS
 62
     0
100
AcDbPoint
 10
-160.0000000000003
 20
-14.49999999999988
 30
0.0
  0
POINT
  5
3E5A
330
388F
100
AcDbEntity
  8
DEFPOINTS
 62
     0
100
AcDbPoint
 10
-40.00000000000028
 20
-16.34999999999994
 30
0.0
  0
POINT
  5
3E5B
330
388F
100
AcDbEntity
  8
DEFPOINTS
 62
     0
100
AcDbPoint
 10
-40.00000000000028
 20
-24.49999999999988
 30
0.0
  0
ENDBLK
  5
389A
330
388F
100
AcDbEntity
  8
0
100
AcDbBlockEnd
  0
BLOCK
  5
38A9
330
389F
100
AcDbEntity
  8
0
100
AcDbBlockBegin
  2
*D8
 70
     1
 10
0.0
 20
0.0
 30
0.0
  3
*D8
  1

  0
LINE
  5
3DB5
330
389F
100
AcDbEntity
  8
AM_5
100
AcDbLine
 10
-158.8076923076926
 20
-16.00000000000043
 30
0.0
 11
-167.5000000000002
 21
-16.00000000000045
 31
0.0
  0
LINE
  5
3DB6
330
389F
100
AcDbEntity
  8
AM_5
100
AcDbLine
 10
-158.8076923076926
 20
15.99999999999935
 30
0.0
 11
-167.5000000000003
 21
15.99999999999933
 31
0.0
  0
LINE
  5
3DB7
330
389F
100
AcDbEntity
  8
AM_5
100
AcDbLine
 10
-167.0000000000002
 20
-14.75000000000045
 30
0.0
 11
-167.0000000000003
 21
14.74999999999933
 31
0.0
  0
INSERT
  5
3DB8
330
389F
100
AcDbEntity
  8
AM_5
100
AcDbBlockReference
  2
_OPEN30
 10
-167.0000000000002
 20
-16.00000000000045
 30
0.0
 41
1.25
 42
1.25
 43
1.25
 50
270.0000000000001
  0
INSERT
  5
3DB9
330
389F
100
AcDbEntity
  8
AM_5
100
AcDbBlockReference
  2
_OPEN30
 10
-167.0000000000003
 20
15.99999999999933
 30
0.0
 41
1.25
 42
1.25
 43
1.25
 50
90.00000000000015
  0
MTEXT
  5
3DBA
330
389F
100
AcDbEntity
  8
AM_5
 62
     2
100
AcDbMText
 10
-168.5500000000002
 20
-0.0000000000005572
 30
0.0
 40
1.6
 41
0.0
 71
     5
 72
     1
  1
%%c32
  7
ASAMI
 11
-0.0000000000000028
 21
1.0
 31
0.0
1001
ACAD
1000
MTEXTBEGIN
1070
    73
1070
     1
1070
    44
1040
1.0
1070
    74
1070
     0
1000
MTEXTEND
  0
POINT
  5
3DBB
330
389F
100
AcDbEntity
  8
DEFPOINTS
 62
     0
100
AcDbPoint
 10
-158.3076923076927
 20
-15.99999999999993
 30
0.0
  0
POINT
  5
3DBC
330
389F
100
AcDbEntity
  8
DEFPOINTS
 62
     0
100
AcDbPoint
 10
-158.3076923076925
 20
15.99999999999985
 30
0.0
  0
POINT
  5
3DBD
330
389F
100
AcDbEntity
  8
DEFPOINTS
 62
     0
100
AcDbPoint
 10
-167.0000000000002
 20
15.99999999999985
 30
0.0
  0
ENDBLK
  5
38AA
330
389F
100
AcDbEntity
  8
0
100
AcDbBlockEnd
  0
BLOCK
  5
3FC4
330
3FBA
100
AcDbEntity
  8
0
100
AcDbBlockBegin
  2
*D9
 70
     1
 10
0.0
 20
0.0
 30
0.0
  3
*D9
  1

  0
LINE
  5
4032
330
3FBA
100
AcDbEntity
  8
AM_5
100
AcDbLine
 10
-12.99999999999924
 20
18.00000000000009
 30
0.0
 11
-12.99999999999928
 21
29.96941282097471
 31
0.0
  0
LINE
  5
4033
330
3FBA
100
AcDbEntity
  8
AM_5
100
AcDbLine
 10
0.0000000000005362
 20
18.00000000000015
 30
0.0
 11
0.0000000000004914
 21
29.96941282097476
 31
0.0
  0
LINE
  5
4034
330
3FBA
100
AcDbEntity
  8
AM_5
100
AcDbLine
 10
-11.74999999999928
 20
29.46941282097471
 30
0.0
 11
-1.249999999999506
 21
29.46941282097476
 31
0.0
  0
INSERT
  5
4035
330
3FBA
100
AcDbEntity
  8
AM_5
100
AcDbBlockReference
  2
_OPEN30
 10
-12.99999999999928
 20
29.46941282097471
 30
0.0
 41
1.25
 42
1.25
 43
1.25
 50
180.0000000000002
  0
INSERT
  5
4036
330
3FBA
100
AcDbEntity
  8
AM_5
100
AcDbBlockReference
  2
_OPEN30
 10
0.0000000000004933
 20
29.46941282097476
 30
0.0
 41
1.25
 42
1.25
 43
1.25
 50
0.0000000000002036
  0
MTEXT
  5
4037
330
3FBA
100
AcDbEntity
  8
AM_5
 62
     2
100
AcDbMText
 10
-6.499999999999403
 20
31.01941282097474
 30
0.0
 40
1.6
 41
0.0
 71
     5
 72
     1
  1
13
  7
ASAMI
1001
ACAD
1000
MTEXTBEGIN
1070
    73
1070
     1
1070
    44
1040
1.0
1070
    74
1070
     0
1000
MTEXTEND
  0
POINT
  5
4038
330
3FBA
100
AcDbEntity
  8
DEFPOINTS
 62
     0
100
AcDbPoint
 10
-12.9999999999992
 20
17.50000000000012
 30
0.0
  0
POINT
  5
4039
330
3FBA
100
AcDbEntity
  8
DEFPOINTS
 62
     0
100
AcDbPoint
 10
0.0000000000005734
 20
17.50000000000015
 30
0.0
  0
POINT
  5
403A
330
3FBA
100
AcDbEntity
  8
DEFPOINTS
 62
     0
100
AcDbPoint
 10
0.0000000000005529
 20
29.46941282097476
 30
0.0
  0
ENDBLK
  5
3FC5
330
3FBA
100
AcDbEntity
  8
0
100
AcDbBlockEnd
  0
ENDSEC
  0
SECTION
  2
ENTITIES
  0
LINE
  5
2FA8
330
1F
100
AcDbEntity
  8
AM_7
100
AcDbLine
 10
1.684283577216224
 20
0.0000000000001643
 30
0.0
 11
-163.8632787607169
 21
-0.0000000000001635
 31
0.0
1001
GENIUS_GENODEF_13
1002
{
1000
HIER
1070
     0
1002
}
1002
{
1000
MANEDIT
1070
     0
1002
}
1002
{
1000
NOSEL
1070
     0
1002
}
1002
{
1000
BEHIND
1070
     0
1002
}
1002
{
1000
REACTOR
1002
}
1001
GENIUS_GENOBJ-N-CEN_13
1002
{
1000
OWNER
1000
GEN
1002
}
  0
POINT
  5
2FC5
330
1F
100
AcDbEntity
  8
0
 60
     1
100
AcDbPoint
 10
66.68948384583128
 20
-34.14755652543707
 30
0.0
1001
GENIUS_GENODEF_13
1002
{
1000
HIER
1070
    10
1002
}
1002
{
1000
MANEDIT
1070
     0
1002
}
1002
{
1000
NOSEL
1070
     0
1002
}
1002
{
1000
BEHIND
1070
     0
1002
}
1002
{
1000
REACTOR
1002
}
1001
GENIUS_GENOBJ-N-CRS_13
1002
{
1000
OWNER
1000
GEN
1002
}
1001
GENIUS_GENOENT_13
1002
{
1000
MYREF
1005
2FC5
1002
}
1002
{
1000
GRP
1005
0
1002
}
1001
GENIUS_GENOLIS_13
1002
{
1000
ENT
1005
2FC2
1005
2FB5
1005
2F9B
1005
2FB9
1002
}
  0
POINT
  5
2FC6
330
1F
100
AcDbEntity
  8
0
 60
     1
100
AcDbPoint
 10
147.6660815233313
 20
-58.83729403551202
 30
0.0
1001
GENIUS_GENODEF_13
1002
{
1000
HIER
1070
    10
1002
}
1002
{
1000
MANEDIT
1070
     0
1002
}
1002
{
1000
NOSEL
1070
     0
1002
}
1002
{
1000
BEHIND
1070
     0
1002
}
1002
{
1000
REACTOR
1002
}
1001
GENIUS_GENOBJ-N-CRS_13
1002
{
1000
OWNER
1000
GEN
1002
}
1001
GENIUS_GENOENT_13
1002
{
1000
MYREF
1005
2FC6
1002
}
1002
{
1000
GRP
1005
0
1002
}
1001
GENIUS_GENOLIS_13
1002
{
1000
ENT
1005
2FC1
1005
2FB3
1005
2FC0
1005
2FBF
1002
}
  0
LINE
  5
3658
330
1F
100
AcDbEntity
  8
AM_11
100
AcDbLine
 10
0.0000000000007959
 20
17.50000000000015
 30
0.0
 11
-0.0000000000013328
 21
-17.49999999999984
 31
0.0
  0
LINE
  5
3677
330
1F
100
AcDbEntity
  8
AM_11
100
AcDbLine
 10
-12.9999999999992
 20
17.50000000000011
 30
0.0
 11
0.0000000000005734
 21
17.50000000000015
 31
0.0
  0
DIMENSION
  5
36BB
330
1F
100
AcDbEntity
  8
AM_5
100
AcDbDimension
  2
*D5
 10
6.999999999999793
 20
-17.49999999999984
 30
0.0
 11
5.449999999999796
 21
0.0000000000001579
 31
0.0
 70
    32
  1
%%c<>
 51
359.9999999999998
  3
AM_JIS
100
AcDbAlignedDimension
 13
0.0000000000007959
 23
17.50000000000015
 33
0.0
 14
-0.0000000000012434
 24
-17.49999999999984
 34
0.0
 50
90.00000000000019
100
AcDbRotatedDimension
1001
GENIUS_GENDTOL_13
1000

1000
h7
1000

1040
0.0
  0
DIMENSION
  5
387E
330
1F
100
AcDbEntity
  8
AM_5
100
AcDbDimension
  2
*D6
 10
-0.0000000000012226
 20
-30.49999999999984
 30
0.0
 11
-80.00000000000076
 21
-28.94999999999984
 31
0.0
 70
    32
  1
<>
 51
359.9999999999999
  3
AM_JIS
100
AcDbAlignedDimension
 13
-160.0000000000003
 23
-14.49999999999988
 33
0.0
 14
-0.0000000000012218
 24
-17.49999999999984
 34
0.0
 50
0.0000000000000534
100
AcDbRotatedDimension
1001
GENIUS_GENDTOL_13
1000

1000
h7
1000

1040
0.0
  0
LINE
  5
388C
330
1F
100
AcDbEntity
  8
AM_0
100
AcDbLine
 10
-43.00000000000029
 20
-15.99999999999996
 30
0.0
 11
-158.5000000000003
 21
-15.99999999999983
 31
0.0
  0
TEXT
  5
388D
330
1F
100
AcDbEntity
  8
AM_6
100
AcDbText
 10
-86.90476190476259
 20
-51.74999999999992
 30
0.0
 40
2.5
  1
FMS335
 50
359.9999999999998
 51
359.9999999999998
 72
     4
 11
-80.00000000000069
 21
-50.49999999999993
 31
0.0
100
AcDbText
  0
DIMENSION
  5
388E
330
1F
100
AcDbEntity
  8
AM_5
100
AcDbDimension
  2
*D7
 10
-40.00000000000028
 20
-24.49999999999988
 30
0.0
 11
-100.0000000000003
 21
-22.94999999999988
 31
0.0
 70
    32
  1
<>
 51
359.9999999999999
  3
AM_JIS
100
AcDbAlignedDimension
 13
-160.0000000000003
 23
-14.49999999999988
 33
0.0
 14
-40.00000000000028
 24
-16.34999999999994
 34
0.0
 50
0.0000000000000534
100
AcDbRotatedDimension
1001
GENIUS_GENDTOL_13
1000

1000
h7
1000

1040
0.0
  0
LINE
  5
389C
330
1F
100
AcDbEntity
  8
AM_0
100
AcDbLine
 10
-158.5000000000003
 20
-15.99999999999983
 30
0.0
 11
-158.5000000000002
 21
16.0
 31
0.0
  0
LINE
  5
389D
330
1F
100
AcDbEntity
  8
AM_0
100
AcDbLine
 10
-160.0000000000003
 20
-14.49999999999983
 30
0.0
 11
-160.0000000000002
 21
14.49999999999984
 31
0.0
  0
DIMENSION
  5
389E
330
1F
100
AcDbEntity
  8
AM_5
100
AcDbDimension
  2
*D8
 10
-167.0000000000002
 20
15.99999999999985
 30
0.0
 11
-168.5500000000002
 21
-0.0000000000000669
 31
0.0
 70
    32
  1
%%c<>
 51
359.9999999999998
  3
AM_JIS
100
AcDbAlignedDimension
 13
-158.3076923076927
 23
-15.99999999999993
 33
0.0
 14
-158.3076923076925
 24
15.99999999999985
 34
0.0
 50
270.0
100
AcDbRotatedDimension
1001
GENIUS_GENDTOL_13
1000

1000
h7
1000

1040
0.0
  0
LINE
  5
38AB
330
1F
100
AcDbEntity
  8
AM_0
100
AcDbLine
 10
-158.5000000000001
 20
15.99999999999984
 30
0.0
 11
-43.00000000000023
 21
16.00000000000007
 31
0.0
  0
LINE
  5
38CE
330
1F
100
AcDbEntity
  8
AM_0
100
AcDbLine
 10
-40.00000000000029
 20
-16.34999999999994
 30
0.0
 11
-40.00000000000023
 21
16.35000000000009
 31
0.0
  0
LINE
  5
3B28
330
1F
100
AcDbEntity
  8
AM_7
  6
AM_ISO08W050X2
100
AcDbLine
 10
-7.663251324991144
 20
18.55807556952063
 30
0.0
 11
-7.66325132499103
 21
1.881131595498667
 31
0.0
1001
GENIUS_GENOREF_13
1005
2FC5
  0
LINE
  5
3B2A
330
1F
100
AcDbEntity
  8
AM_0
100
AcDbLine
 10
-8.356071648018629
 20
4.412500000000131
 30
0.0
 11
-10.52078556393907
 21
8.161894486225721
 31
0.0
  0
LINE
  5
3B2C
330
1F
100
AcDbEntity
  8
AM_0
100
AcDbLine
 10
-7.66898977779293
 20
10.89313911735584
 30
0.0
 11
-14.21661927383675
 21
4.6222911153445
 31
0.0
  0
LINE
  5
3B2D
330
1F
100
AcDbEntity
  8
AM_0
100
AcDbLine
 10
-8.725535432144864
 20
13.15890858494739
 30
0.0
 11
-17.73801881060433
 21
12.17395679182011
 31
0.0
  0
ARC
  5
3B2E
330
1F
100
AcDbEntity
  8
AM_0
100
AcDbCircle
 10
-7.663251324991078
 20
4.812500000000129
 30
0.0
 40
2.097421202999999
100
AcDbArc
 50
142.4217159177906
 51
37.57828408220957
  0
LINE
  5
3B2F
330
1F
100
AcDbEntity
  8
AM_7
  6
AM_ISO08W050X2
100
AcDbLine
 10
-24.56369739871131
 20
4.394229970133476
 30
0.0
 11
-7.308155003002044
 21
12.44062153487268
 31
0.0
1001
GENIUS_GENOREF_13
1005
0
  0
CIRCLE
  5
3B32
330
1F
100
AcDbEntity
  8
AM_0
100
AcDbCircle
 10
-17.2599999999998
 20
7.800000000000126
 30
0.0
 40
2.458499999999999
  0
CIRCLE
  5
3B33
330
1F
100
AcDbEntity
  8
AM_4
100
AcDbCircle
 10
-17.2599999999998
 20
7.800000000000126
 30
0.0
 40
3.0
  0
ARC
  5
3B34
330
1F
100
AcDbEntity
  8
AM_0
100
AcDbCircle
 10
-17.2599999999998
 20
7.800000000000126
 30
0.0
 40
4.4
100
AcDbArc
 50
96.23696028531927
 51
313.7630397146901
  0
LINE
  5
3B35
330
1F
100
AcDbEntity
  8
AM_7
  6
AM_ISO08W050X2
100
AcDbLine
 10
-19.65805508919327
 20
12.94264573453761
 30
0.0
 11
-14.97664326018687
 21
2.903325669480217
 31
0.0
1001
GENIUS_GENOREF_13
1005
0
  0
ARC
  5
3B36
330
1F
100
AcDbEntity
  8
AM_0
100
AcDbCircle
 10
-21.88216971388654
 20
5.644646865122165
 30
0.0
 40
1.400000000000001
100
AcDbArc
 50
115.0000000000048
 51
295.0000000000047
  0
LINE
  5
3B37
330
1F
100
AcDbEntity
  8
AM_0
100
AcDbLine
 10
-21.29050414744945
 20
4.375815963270908
 30
0.0
 11
-20.44884395005277
 21
4.768288558881332
 31
0.0
1001
GENIUS_GENOREF_13
1005
0
  0
LINE
  5
3B38
330
1F
100
AcDbEntity
  8
AM_0
100
AcDbLine
 10
-22.47383528032363
 20
6.913477766973438
 30
0.0
 11
-21.63217508292692
 21
7.305950362583849
 31
0.0
1001
GENIUS_GENOREF_13
1005
0
  0
LINE
  5
3B39
330
1F
100
AcDbEntity
  8
AM_0
100
AcDbLine
 10
-13.1280281724486
 20
12.67777115182258
 30
0.0
 11
-15.21932297301034
 21
16.30000000000012
 31
0.0
  0
LINE
  5
3B3B
330
1F
100
AcDbEntity
  8
AM_0
100
AcDbLine
 10
-6.970431001963526
 20
4.412500000000131
 30
0.0
 11
-0.1071796769718723
 21
16.30000000000016
 31
0.0
  0
LINE
  5
3B3C
330
1F
100
AcDbEntity
  8
AM_0
100
AcDbLine
 10
-8.725535432144864
 20
13.15890858494739
 30
0.0
 11
-7.66898977779293
 21
10.89313911735584
 31
0.0
  0
LINE
  5
3B3F
330
1F
100
AcDbEntity
  8
AM_7
  6
AM_ISO08W050X2
100
AcDbLine
 10
-13.62546159312096
 20
12.73750000000012
 30
0.0
 11
-0.9589645666182585
 21
12.73750000000015
 31
0.0
  0
ARC
  5
3B43
330
1F
100
AcDbEntity
  8
AM_0
100
AcDbCircle
 10
-14.52650264998279
 20
16.70000000000012
 30
0.0
 40
0.8
100
AcDbArc
 50
90.00000000000012
 51
210.0
  0
ARC
  5
3B44
330
1F
100
AcDbEntity
  8
AM_0
100
AcDbCircle
 10
-7.663251324991078
 20
4.812500000000129
 30
0.0
 40
0.8
100
AcDbArc
 50
210.0
 51
330.0000000000001
  0
ARC
  5
3B45
330
1F
100
AcDbEntity
  8
AM_0
100
AcDbCircle
 10
-0.7999999999994244
 20
16.70000000000015
 30
0.0
 40
0.8
100
AcDbArc
 50
330.0000000000001
 51
90.00000000000017
  0
LINE
  5
3B4B
330
1F
100
AcDbEntity
  8
AM_0
100
AcDbLine
 10
-14.52650264998279
 20
17.50000000000012
 30
0.0
 11
-0.7999999999994265
 21
17.50000000000015
 31
0.0
  0
LINE
  5
3B4D
330
1F
100
AcDbEntity
  8
AM_0
100
AcDbLine
 10
-14.52650264998461
 20
-17.49999999999986
 30
0.0
 11
-0.8000000000012432
 21
-17.49999999999984
 31
0.0
  0
LINE
  5
3B4E
330
1F
100
AcDbEntity
  8
AM_11
100
AcDbLine
 10
-13.00000000000133
 20
-17.49999999999985
 30
0.0
 11
-0.0000000000012434
 21
-17.49999999999984
 31
0.0
  0
LINE
  5
3B4F
330
1F
100
AcDbEntity
  8
AM_3
100
AcDbLine
 10
-8.356071648020508
 20
-4.41249999999983
 30
0.0
 11
-15.21932297301216
 21
-16.29999999999987
 31
0.0
  0
ARC
  5
3B50
330
1F
100
AcDbEntity
  8
AM_0
100
AcDbCircle
 10
-0.8000000000012443
 20
-16.69999999999984
 30
0.0
 40
0.8
100
AcDbArc
 50
270.0
 51
30.0000000000001
  0
LINE
  5
3B51
330
1F
100
AcDbEntity
  8
AM_3
100
AcDbLine
 10
-6.970431001965395
 20
-4.412499999999839
 30
0.0
 11
-0.9136206679785871
 21
-14.90320323027317
 31
0.0
  0
ARC
  5
3B52
330
1F
100
AcDbEntity
  8
AM_3
100
AcDbCircle
 10
-7.663251324992946
 20
-4.812499999999841
 30
0.0
 40
0.8
100
AcDbArc
 50
30.0000000000001
 51
150.0000000000001
  0
ARC
  5
3B53
330
1F
100
AcDbEntity
  8
AM_3
100
AcDbCircle
 10
-14.5265026499846
 20
-16.69999999999986
 30
0.0
 40
0.8
100
AcDbArc
 50
150.0000000000001
 51
202.0243128370426
  0
ARC
  5
3B54
330
1F
100
AcDbEntity
  8
AM_0
100
AcDbCircle
 10
-14.5265026499846
 20
-16.69999999999986
 30
0.0
 40
0.8
100
AcDbArc
 50
202.0243128370424
 51
270.0000000000001
  0
LINE
  5
3B55
330
1F
100
AcDbEntity
  8
AM_0
100
AcDbLine
 10
-0.9136206679785868
 20
-14.90320323027318
 30
0.0
 11
-0.1071796769736939
 21
-16.29999999999984
 31
0.0
  0
LINE
  5
3B7E
330
1F
100
AcDbEntity
  8
AM_0
100
AcDbLine
 10
-43.00000000000029
 20
-15.99999999999999
 30
0.0
 11
-43.00000000000023
 21
16.00000000000007
 31
0.0
  0
LINE
  5
3BAC
330
1F
100
AcDbEntity
  8
AM_0
100
AcDbLine
 10
-40.50000000000023
 20
15.50000000000008
 30
0.0
 11
-42.50000000000023
 21
15.50000000000007
 31
0.0
1001
GENIUS_GENODEF_13
1002
{
1000
HIER
1070
     0
1002
}
1002
{
1000
MANEDIT
1070
     0
1002
}
1002
{
1000
NOSEL
1070
     0
1002
}
1002
{
1000
BEHIND
1070
     0
1002
}
1002
{
1000
REACTOR
1002
}
1001
GENIUS_GENOBJ-N-CEN_13
1002
{
1000
OWNER
1000
GEN
1002
}
  0
LINE
  5
3BAD
330
1F
100
AcDbEntity
  8
AM_0
100
AcDbLine
 10
-40.50000000000017
 20
-15.49999999999992
 30
0.0
 11
-42.50000000000016
 21
-15.49999999999992
 31
0.0
1001
GENIUS_GENODEF_13
1002
{
1000
HIER
1070
     0
1002
}
1002
{
1000
MANEDIT
1070
     0
1002
}
1002
{
1000
NOSEL
1070
     0
1002
}
1002
{
1000
BEHIND
1070
     0
1002
}
1002
{
1000
REACTOR
1002
}
1001
GENIUS_GENOBJ-N-CEN_13
1002
{
1000
OWNER
1000
GEN
1002
}
  0
LINE
  5
3BAE
330
1F
100
AcDbEntity
  8
AM_0
100
AcDbLine
 10
-43.00000000000022
 20
16.00000000000007
 30
0.0
 11
-43.00000000000022
 21
16.00000000000009
 31
0.0
  0
ARC
  5
3BB0
330
1F
100
AcDbEntity
  8
AM_0
100
AcDbCircle
 10
-42.50000000000023
 20
16.00000000000007
 30
0.0
 40
0.5
100
AcDbArc
 50
180.0
 51
270.0000000000002
  0
ARC
  5
3BB1
330
1F
100
AcDbEntity
  8
AM_0
100
AcDbCircle
 10
-40.50000000000023
 20
16.00000000000008
 30
0.0
 40
0.5
100
AcDbArc
 50
270.0000000000001
 51
359.9999999999997
  0
ARC
  5
3BB2
330
1F
100
AcDbEntity
  8
AM_0
100
AcDbCircle
 10
-42.50000000000016
 20
-15.99999999999992
 30
0.0
 40
0.5
100
AcDbArc
 50
90.00000000000003
 51
180.0000000000002
  0
ARC
  5
3BB3
330
1F
100
AcDbEntity
  8
AM_0
100
AcDbCircle
 10
-40.50000000000017
 20
-15.99999999999992
 30
0.0
 40
0.5
100
AcDbArc
 50
0.0000000000004949
 51
90.00000000000012
  0
LINE
  5
3BBE
330
1F
100
AcDbEntity
  8
AM_0
100
AcDbLine
 10
-39.50000000000029
 20
-16.84999999999993
 30
0.0
 11
-39.50000000000024
 21
16.85000000000009
 31
0.0
  0
LINE
  5
3BBF
330
1F
100
AcDbEntity
  8
AM_0
100
AcDbLine
 10
-39.50000000000024
 20
16.85000000000009
 30
0.0
 11
-40.00000000000023
 21
16.35000000000009
 31
0.0
  0
LINE
  5
3BC0
330
1F
100
AcDbEntity
  8
AM_0
100
AcDbLine
 10
-40.00000000000029
 20
-16.34999999999993
 30
0.0
 11
-39.50000000000029
 21
-16.84999999999993
 31
0.0
  0
LINE
  5
3CE2
330
1F
100
AcDbEntity
  8
AM_11
100
AcDbLine
 10
-12.9999999999992
 20
17.50000000000011
 30
0.0
 11
-13.00000000000133
 21
-17.49999999999985
 31
0.0
  0
LINE
  5
3DC1
330
1F
100
AcDbEntity
  8
AM_0
100
AcDbLine
 10
-160.0000000000002
 20
14.49999999999984
 30
0.0
 11
-158.5000000000001
 21
15.99999999999984
 31
0.0
1001
GENIUS_GENFIL_13
1070
     0
1040
1.5
1040
1.5
1040
20.0
1040
0.0
1002
{
1002
}
1001
GENIUS_GENODEF_13
1002
{
1000
HIER
1070
     0
1002
}
1002
{
1000
MANEDIT
1070
     0
1002
}
1002
{
1000
NOSEL
1070
     0
1002
}
1002
{
1000
BEHIND
1070
     0
1002
}
1002
{
1000
REACTOR
1002
}
1001
GENIUS_GENOBJ-N-CHA_13
1002
{
1000
OWNER
1000
GEN
1002
}
  0
LINE
  5
3DC2
330
1F
100
AcDbEntity
  8
AM_0
100
AcDbLine
 10
-158.5000000000003
 20
-15.99999999999983
 30
0.0
 11
-160.0000000000003
 21
-14.49999999999983
 31
0.0
1001
GENIUS_GENFIL_13
1070
     0
1040
1.5
1040
1.5
1040
20.0
1040
0.0
1002
{
1002
}
1001
GENIUS_GENODEF_13
1002
{
1000
HIER
1070
     0
1002
}
1002
{
1000
MANEDIT
1070
     0
1002
}
1002
{
1000
NOSEL
1070
     0
1002
}
1002
{
1000
BEHIND
1070
     0
1002
}
1002
{
1000
REACTOR
1002
}
1001
GENIUS_GENOBJ-N-CHA_13
1002
{
1000
OWNER
1000
GEN
1002
}
  0
LINE
  5
3E4D
330
1F
100
AcDbEntity
  8
AM_0
100
AcDbLine
 10
-1.000000000001293
 20
-16.84999999999983
 30
0.0
 11
-39.50000000000028
 21
-16.84999999999993
 31
0.0
  0
LINE
  5
3E51
330
1F
100
AcDbEntity
  8
AM_0
100
AcDbLine
 10
-15.26812249869235
 20
16.85000000000012
 30
0.0
 11
-39.50000000000024
 21
16.8500000000001
 31
0.0
  0
LINE
  5
3F9E
330
1F
100
AcDbEntity
  8
AM_0
100
AcDbLine
 10
-0.9999999999993709
 20
14.75358983848646
 30
0.0
 11
-1.000000000001293
 21
-16.84999999999983
 31
0.0
  0
DIMENSION
  5
3FB9
330
1F
100
AcDbEntity
  8
AM_5
100
AcDbDimension
  2
*D9
 10
0.0000000000005529
 20
29.46941282097476
 30
0.0
 11
-6.49999999999934
 21
31.01941282097475
 31
0.0
 70
    32
  1
<>
 51
359.9999999999998
  3
AM_JIS
100
AcDbAlignedDimension
 13
-12.9999999999992
 23
17.50000000000012
 33
0.0
 14
0.0000000000005734
 24
17.50000000000015
 34
0.0
 50
180.0000000000002
100
AcDbRotatedDimension
1001
GENIUS_GENDTOL_13
1000

1000
h7
1000

1040
0.0
  0
VIEWPORT
  5
110
330
101
100
AcDbEntity
 67
     1
  8
0
100
AcDbViewport
 10
420.5
 20
297.0
 30
0.0
 40
948.9782706766916
 41
628.452
 68
     1
 69
     1
1001
ACAD
1000
MVIEW
1002
{
1070
    16
1010
0.0
1020
0.0
1030
0.0
1010
0.0
1020
0.0
1030
1.0
1040
0.0
1040
628.452
1040
420.5
1040
297.0
1040
50.0
1040
0.0
1040
0.0
1070
     0
1070
   100
1070
     1
1070
     1
1070
     0
1070
     0
1070
     0
1070
     0
1040
0.0
1040
0.0
1040
0.0
1040
10.0
1040
10.0
1040
10.0
1040
10.0
1070
     0
1002
{
1002
}
1002
}
  0
ENDSEC
  0
SECTION
  2
OBJECTS
  0
DICTIONARY
  5
C
330
0
100
AcDbDictionary
  3
ACAD_GROUP
350
D
  3
ACAD_LAYOUT
350
1A
  3
ACAD_MLINESTYLE
350
17
  3
ACAD_PLOTSETTINGS
350
19
  3
ACAD_PLOTSTYLENAME
350
E
  3
ACDBVARIABLEDICTIONARY
350
34
  3
ACMDICTIONARY
350
43
  3
AMG
350
2B
  3
AMGSNAPSETTINGS
350
6E
  3
DWGPROPS
350
41BC
  3
ACDBHEADERROUNDTRIPXREC
350
41CA
  0
DICTIONARY
  5
74
330
1F
100
AcDbDictionary
280
     1
  3
ACAD_INDEX
360
41BE
  3
ACAD_LAYOUTSELFREF
360
41ED
  0
DICTIONARY
  5
41F2
330
101
100
AcDbDictionary
280
     1
  3
ACAD_LAYOUTSELFREF
360
41F3
  0
DICTIONARY
  5
D
102
{ACAD_REACTORS
330
C
102
}
330
C
100
AcDbDictionary
  0
DICTIONARY
  5
1A
102
{ACAD_REACTORS
330
C
102
}
330
C
100
AcDbDictionary
  0
DICTIONARY
  5
17
102
{ACAD_REACTORS
330
C
102
}
330
C
100
AcDbDictionary
  3
STANDARD
350
18
  0
DICTIONARY
  5
19
102
{ACAD_REACTORS
330
C
102
}
330
C
100
AcDbDictionary
  0
ACDBDICTIONARYWDFLT
  5
E
102
{ACAD_REACTORS
330
C
102
}
330
C
100
AcDbDictionary
281
     1
  3
Normal
350
F
100
AcDbDictionaryWithDefault
340
F
  0
DICTIONARY
  5
34
102
{ACAD_REACTORS
330
C
102
}
330
C
100
AcDbDictionary
  3
INDEXCTL
350
35
  3
SORTENTS
350
B5E
  0
DICTIONARY
  5
43
102
{ACAD_REACTORS
330
C
102
}
330
C
100
AcDbDictionary
  3
ACMSTDDICTIONARY
350
260
  0
DICTIONARY
  5
2B
102
{ACAD_REACTORS
330
C
102
}
330
C
100
AcDbDictionary
  3
ACMGSETTINGS
350
2C
  0
DICTIONARY
  5
6E
102
{ACAD_REACTORS
330
C
102
}
330
C
100
AcDbDictionary
  0
XRECORD
  5
41BC
102
{ACAD_REACTORS
330
C
102
}
330
C
100
AcDbXrecord
  1
DWGPROPS COOKIE
  2

  3

  4

  6

  7

  8

  9

300
AmdtFileType=82
301
=
302
=
303
=
304
=
305
=
306
=
307
=
308
=
309
=
 40
0.643116076388889
 41
2452802.716478761
 42
2452871.727517939
  1

 90
        1
  0
DICTIONARY
  5
41CA
102
{ACAD_REACTORS
330
C
102
}
330
C
100
AcDbDictionary
  3
TSTACKALIGN
350
41CB
  3
TSTACKSIZE
350
41CC
  3
HYPERLINKBASE
350
41CD
  3
STYLESHEET
350
41CE
  3
LAYOUTDICT
350
41CF
  3
PLOTSETDICT
350
41D0
  3
PLOTSTYLNAMDICT
350
41D1
  3
LWETCUNION
350
41D2
  3
INSUNITS
350
41D3
  3
CEPSNTYPE
350
41D4
  3
FINGERPRINTGUID
350
41D5
  3
VERSIONGUID
350
41D6
  3
PSVPSCALE
350
41D7
  3
DIMSTYLEDATA
350
41D8
  3
PUCSORTHOREF
350
41D9
  3
PUCSORTHOVIEW
350
41DA
  3
PUCSBASE
350
41DB
  3
PUCSORGTOP
350
41DC
  3
PUCSORGBOTTOM
350
41DD
  3
PUCSORGLEFT
350
41DE
  3
PUCSORGRIGHT
350
41DF
  3
PUCSORGFRONT
350
41E0
  3
PUCSORGBACK
350
41E1
  3
UCSORTHOREF
350
41E2
  3
UCSORTHOVIEW
350
41E3
  3
UCSBASE
350
41E4
  3
UCSORGTOP
350
41E5
  3
UCSORGBOTTOM
350
41E6
  3
UCSORGLEFT
350
41E7
  3
UCSORGRIGHT
350
41E8
  3
UCSORGFRONT
350
41E9
  3
UCSORGBACK
350
41EA
  0
DICTIONARY
  5
41BE
102
{ACAD_REACTORS
330
74
102
}
330
74
100
AcDbDictionary
  3
*A1
350
41BF
  0
XRECORD
  5
41ED
102
{ACAD_REACTORS
330
74
102
}
330
74
100
AcDbXrecord
340
1F
  0
XRECORD
  5
41F3
102
{ACAD_REACTORS
330
41F2
102
}
330
41F2
100
AcDbXrecord
340
101
  0
MLINESTYLE
  5
18
102
{ACAD_REACTORS
330
17
102
}
330
17
100
AcDbMlineStyle
  2
STANDARD
 70
     0
  3

 62
   256
 51
90.0
 52
90.0
 71
     2
 49
0.5
 62
   256
  6
BYLAYER
 49
-0.5
 62
   256
  6
BYLAYER
  0
ACDBPLACEHOLDER
  5
F
102
{ACAD_REACTORS
330
E
102
}
330
E
100
AcDbPlaceHolder
280
     0
  0
DICTIONARYVAR
  5
35
102
{ACAD_REACTORS
330
34
102
}
330
34
100
DictionaryVariables
280
     0
  1
1
  0
DICTIONARYVAR
  5
B5E
102
{ACAD_REACTORS
330
34
102
}
330
34
100
DictionaryVariables
280
     0
  1
96
  0
DICTIONARY
  5
260
102
{ACAD_REACTORS
330
43
102
}
330
43
100
AcDbDictionary
  0
DICTIONARY
  5
2C
102
{ACAD_REACTORS
330
2B
102
}
330
2B
100
AcDbDictionary
  3
DWGSETTINGS
350
2D
  0
XRECORD
  5
41CB
102
{ACAD_REACTORS
330
41CA
102
}
330
41CA
100
AcDbXrecord
 90
        1
  0
XRECORD
  5
41CC
102
{ACAD_REACTORS
330
41CA
102
}
330
41CA
100
AcDbXrecord
 90
       70
  0
XRECORD
  5
41CD
102
{ACAD_REACTORS
330
41CA
102
}
330
41CA
100
AcDbXrecord
  1

  0
XRECORD
  5
41CE
102
{ACAD_REACTORS
330
41CA
102
}
330
41CA
100
AcDbXrecord
  1
ASAMI.ctb
  0
XRECORD
  5
41CF
102
{ACAD_REACTORS
330
41CA
102
}
330
41CA
100
AcDbXrecord
340
1A
  0
XRECORD
  5
41D0
102
{ACAD_REACTORS
330
41CA
102
}
330
41CA
100
AcDbXrecord
340
19
  0
XRECORD
  5
41D1
102
{ACAD_REACTORS
330
41CA
102
}
330
41CA
100
AcDbXrecord
340
E
  0
XRECORD
  5
41D2
102
{ACAD_REACTORS
330
41CA
102
}
330
41CA
100
AcDbXrecord
 90
    10781
  0
XRECORD
  5
41D3
102
{ACAD_REACTORS
330
41CA
102
}
330
41CA
100
AcDbXrecord
 90
        4
  0
XRECORD
  5
41D4
102
{ACAD_REACTORS
330
41CA
102
}
330
41CA
100
AcDbXrecord
 90
        0
  0
XRECORD
  5
41D5
102
{ACAD_REACTORS
330
41CA
102
}
330
41CA
100
AcDbXrecord
  1
{AFB28963-8C59-40AE-9337-C84526B81ACE}
  0
XRECORD
  5
41D6
102
{ACAD_REACTORS
330
41CA
102
}
330
41CA
100
AcDbXrecord
  1
{F99ECE2F-205E-476E-BF55-413646BA4A50}
  0
XRECORD
  5
41D7
102
{ACAD_REACTORS
330
41CA
102
}
330
41CA
100
AcDbXrecord
 40
0.0
  0
XRECORD
  5
41D8
102
{ACAD_REACTORS
330
41CA
102
}
330
41CA
100
AcDbXrecord
1000
DSTYLE
1002
{
1070
    79
 70
     2
1070
   341
340
59
1070
   342
340
59
1070
   371
 70
    -1
1070
   372
 70
    -1
1002
}
  0
XRECORD
  5
41D9
102
{ACAD_REACTORS
330
41CA
102
}
330
41CA
100
AcDbXrecord
340
0
  0
XRECORD
  5
41DA
102
{ACAD_REACTORS
330
41CA
102
}
330
41CA
100
AcDbXrecord
 70
     0
  0
XRECORD
  5
41DB
102
{ACAD_REACTORS
330
41CA
102
}
330
41CA
100
AcDbXrecord
340
0
  0
XRECORD
  5
41DC
102
{ACAD_REACTORS
330
41CA
102
}
330
41CA
100
AcDbXrecord
 10
0.0
 20
0.0
 30
0.0
  0
XRECORD
  5
41DD
102
{ACAD_REACTORS
330
41CA
102
}
330
41CA
100
AcDbXrecord
 10
0.0
 20
0.0
 30
0.0
  0
XRECORD
  5
41DE
102
{ACAD_REACTORS
330
41CA
102
}
330
41CA
100
AcDbXrecord
 10
0.0
 20
0.0
 30
0.0
  0
XRECORD
  5
41DF
102
{ACAD_REACTORS
330
41CA
102
}
330
41CA
100
AcDbXrecord
 10
0.0
 20
0.0
 30
0.0
  0
XRECORD
  5
41E0
102
{ACAD_REACTORS
330
41CA
102
}
330
41CA
100
AcDbXrecord
 10
0.0
 20
0.0
 30
0.0
  0
XRECORD
  5
41E1
102
{ACAD_REACTORS
330
41CA
102
}
330
41CA
100
AcDbXrecord
 10
0.0
 20
0.0
 30
0.0
  0
XRECORD
  5
41E2
102
{ACAD_REACTORS
330
41CA
102
}
330
41CA
100
AcDbXrecord
340
0
  0
XRECORD
  5
41E3
102
{ACAD_REACTORS
330
41CA
102
}
330
41CA
100
AcDbXrecord
 70
     0
  0
XRECORD
  5
41E4
102
{ACAD_REACTORS
330
41CA
102
}
330
41CA
100
AcDbXrecord
340
0
  0
XRECORD
  5
41E5
102
{ACAD_REACTORS
330
41CA
102
}
330
41CA
100
AcDbXrecord
 10
0.0
 20
0.0
 30
0.0
  0
XRECORD
  5
41E6
102
{ACAD_REACTORS
330
41CA
102
}
330
41CA
100
AcDbXrecord
 10
0.0
 20
0.0
 30
0.0
  0
XRECORD
  5
41E7
102
{ACAD_REACTORS
330
41CA
102
}
330
41CA
100
AcDbXrecord
 10
0.0
 20
0.0
 30
0.0
  0
XRECORD
  5
41E8
102
{ACAD_REACTORS
330
41CA
102
}
330
41CA
100
AcDbXrecord
 10
0.0
 20
0.0
 30
0.0
  0
XRECORD
  5
41E9
102
{ACAD_REACTORS
330
41CA
102
}
330
41CA
100
AcDbXrecord
 10
0.0
 20
0.0
 30
0.0
  0
XRECORD
  5
41EA
102
{ACAD_REACTORS
330
41CA
102
}
330
41CA
100
AcDbXrecord
 10
0.0
 20
0.0
 30
0.0
  0
LAYER_INDEX
  5
41BF
102
{ACAD_REACTORS
330
41BE
102
}
330
41BE
100
AcDbIndex
 40
2453152.423139409
100
AcDbLayerIndex
  8
0
360
41C0
 90
        2
  8
AM_0
360
41C1
 90
       41
  8
AM_5
360
41C2
 90
        5
  8
AM_11
360
41C3
 90
        4
  8
AM_7
360
41C4
 90
        5
  8
AM_6
360
41C5
 90
        1
  8
Defpoints
360
41C6
 90
        0
  8
AM_4
360
41C7
 90
        1
  8
AM_3
360
41C8
 90
        4
  0
XRECORD
  5
2D
102
{ACAD_REACTORS
330
2C
102
}
330
2C
100
AcDbXrecord
  1
VERSION
140
15.0
  1
PRODUCT
  2
AutoCAD Mechanical 2000
  0
IDBUFFER
  5
41C0
330
0
100
AcDbIdBuffer
330
2FC5
330
2FC6
  0
IDBUFFER
  5
41C1
330
0
100
AcDbIdBuffer
330
3B3C
330
3B43
330
3B44
330
3B45
330
3B4B
330
3B4D
330
3B50
330
3B54
330
3B55
330
3B7E
330
3BAC
330
3BAD
330
3BAE
330
3BB0
330
3BB1
330
3BB2
330
3BB3
330
3BBE
330
3BBF
330
3BC0
330
3DC1
330
3DC2
330
3E4D
330
3E51
330
3F9E
330
388C
330
389C
330
389D
330
38AB
330
38CE
330
3B2A
330
3B2C
330
3B2D
330
3B2E
330
3B32
330
3B34
330
3B36
330
3B37
330
3B38
330
3B39
330
3B3B
  0
IDBUFFER
  5
41C2
330
0
100
AcDbIdBuffer
330
36BB
330
387E
330
388E
330
389E
330
3FB9
  0
IDBUFFER
  5
41C3
330
0
100
AcDbIdBuffer
330
3658
330
3677
330
3B4E
330
3CE2
  0
IDBUFFER
  5
41C4
330
0
100
AcDbIdBuffer
330
2FA8
330
3B28
330
3B2F
330
3B35
330
3B3F
  0
IDBUFFER
  5
41C5
330
0
100
AcDbIdBuffer
330
388D
  0
IDBUFFER
  5
41C6
330
0
100
AcDbIdBuffer
  0
IDBUFFER
  5
41C7
330
0
100
AcDbIdBuffer
330
3B33
  0
IDBUFFER
  5
41C8
330
0
100
AcDbIdBuffer
330
3B4F
330
3B51
330
3B52
330
3B53
  0
ENDSEC
  0
EOF
