  0
SECTION
  2
HEADER
  9
$ACADVER
  1
AC1014
  9
$ACADMAINTVER
 70
     9
  9
$DWGCODEPAGE
  3
ANSI_932
  9
$INSBASE
 10
0.0
 20
0.0
 30
0.0
  9
$EXTMIN
 10
-169.3500000000002
 20
-54.24999999999986
 30
0.0
  9
$EXTMAX
 10
7.499999999999846
 20
34.40912174842049
 30
0.0
  9
$LIMMIN
 10
-181.0838876011515
 20
-68.67814424955446
  9
$LIMMAX
 10
27.48970284053416
 20
28.89905780045808
  9
$ORTHOMODE
 70
     0
  9
$REGENMODE
 70
     1
  9
$FILLMODE
 70
     1
  9
$QTEXTMODE
 70
     0
  9
$MIRRTEXT
 70
     0
  9
$DRAGMODE
 70
     2
  9
$LTSCALE
 40
1.0
  9
$OSMODE
 70
    55
  9
$ATTMODE
 70
     1
  9
$TEXTSIZE
 40
2.5
  9
$TRACEWID
 40
1.0
  9
$TEXTSTYLE
  7
STANDARD
  9
$CLAYER
  8
AM_0
  9
$CELTYPE
  6
BYLAYER
  9
$CECOLOR
 62
   256
  9
$CELTSCALE
 40
1.0
  9
$DELOBJ
 70
     1
  9
$DISPSILH
 70
     0
  9
$DIMSCALE
 40
0.5
  9
$DIMASZ
 40
2.5
  9
$DIMEXO
 40
1.0
  9
$DIMDLI
 40
12.0
  9
$DIMRND
 40
0.0
  9
$DIMDLE
 40
0.0
  9
$DIMEXE
 40
1.0
  9
$DIMTP
 40
0.1
  9
$DIMTM
 40
0.1
  9
$DIMTXT
 40
3.2
  9
$DIMCEN
 40
0.0
  9
$DIMTSZ
 40
0.0
  9
$DIMTOL
 70
     0
  9
$DIMLIM
 70
     0
  9
$DIMTIH
 70
     0
  9
$DIMTOH
 70
     0
  9
$DIMSE1
 70
     0
  9
$DIMSE2
 70
     0
  9
$DIMTAD
 70
     3
  9
$DIMZIN
 70
     8
  9
$DIMBLK
  1
OPEN30
  9
$DIMASO
 70
     1
  9
$DIMSHO
 70
     1
  9
$DIMPOST
  1

  9
$DIMAPOST
  1
"
  9
$DIMALT
 70
     0
  9
$DIMALTD
 70
     2
  9
$DIMALTF
 40
0.0393701
  9
$DIMLFAC
 40
1.0
  9
$DIMTOFL
 70
     1
  9
$DIMTVP
 40
0.0
  9
$DIMTIX
 70
     0
  9
$DIMSOXD
 70
     0
  9
$DIMSAH
 70
     0
  9
$DIMBLK1
  1

  9
$DIMBLK2
  1

  9
$DIMSTYLE
  2
AM_JIS
  9
$DIMCLRD
 70
   256
  9
$DIMCLRE
 70
   256
  9
$DIMCLRT
 70
     2
  9
$DIMTFAC
 40
0.71
  9
$DIMGAP
 40
1.5
  9
$DIMJUST
 70
     0
  9
$DIMSD1
 70
     0
  9
$DIMSD2
 70
     0
  9
$DIMTOLJ
 70
     0
  9
$DIMTZIN
 70
     0
  9
$DIMALTZ
 70
     0
  9
$DIMALTTZ
 70
     0
  9
$DIMFIT
 70
     3
  9
$DIMUPT
 70
     0
  9
$DIMUNIT
 70
     2
  9
$DIMDEC
 70
     3
  9
$DIMTDEC
 70
     3
  9
$DIMALTU
 70
     2
  9
$DIMALTTD
 70
     2
  9
$DIMTXSTY
  7
ASAMI
  9
$DIMAUNIT
 70
     0
  9
$LUNITS
 70
     2
  9
$LUPREC
 70
     2
  9
$SKETCHINC
 40
1.0
  9
$FILLETRAD
 40
0.8
  9
$AUNITS
 70
     0
  9
$AUPREC
 70
     0
  9
$MENU
  1
.
  9
$ELEVATION
 40
0.0
  9
$PELEVATION
 40
0.0
  9
$THICKNESS
 40
0.0
  9
$LIMCHECK
 70
     0
  9
$BLIPMODE
 70
     0
  9
$CHAMFERA
 40
1.5
  9
$CHAMFERB
 40
1.5
  9
$CHAMFERC
 40
20.0
  9
$CHAMFERD
 40
0.0
  9
$SKPOLY
 70
     0
  9
$TDCREATE
 40
2452802.716478761
  9
$TDUPDATE
 40
2453152.423279560
  9
$TDINDWG
 40
0.6590456366
  9
$TDUSRTIMER
 40
0.6590456366
  9
$USRTIMER
 70
     1
  9
$ANGBASE
 50
0.0
  9
$ANGDIR
 70
     0
  9
$PDMODE
 70
     0
  9
$PDSIZE
 40
0.0
  9
$PLINEWID
 40
0.0
  9
$COORDS
 70
     1
  9
$SPLFRAME
 70
     0
  9
$SPLINETYPE
 70
     6
  9
$SPLINESEGS
 70
     8
  9
$ATTDIA
 70
     1
  9
$ATTREQ
 70
     1
  9
$HANDLING
 70
 12289
  9
$HANDSEED
  5
42BC
  9
$SURFTAB1
 70
     6
  9
$SURFTAB2
 70
     6
  9
$SURFTYPE
 70
     6
  9
$SURFU
 70
     6
  9
$SURFV
 70
     6
  9
$UCSNAME
  2

  9
$UCSORG
 10
-0.0000000000002682
 20
0.000000000000161
 30
0.0
  9
$UCSXDIR
 10
1.0
 20
0.000000000000002
 30
0.0
  9
$UCSYDIR
 10
-0.000000000000002
 20
1.0
 30
0.0
  9
$PUCSNAME
  2

  9
$PUCSORG
 10
0.0
 20
0.0
 30
0.0
  9
$PUCSXDIR
 10
1.0
 20
0.0
 30
0.0
  9
$PUCSYDIR
 10
0.0
 20
1.0
 30
0.0
  9
$USERI1
 70
     0
  9
$USERI2
 70
     0
  9
$USERI3
 70
     0
  9
$USERI4
 70
     0
  9
$USERI5
 70
     0
  9
$USERR1
 40
0.0
  9
$USERR2
 40
0.0
  9
$USERR3
 40
0.0
  9
$USERR4
 40
0.0
  9
$USERR5
 40
0.0
  9
$WORLDVIEW
 70
     1
  9
$SHADEDGE
 70
     3
  9
$SHADEDIF
 70
    70
  9
$TILEMODE
 70
     1
  9
$MAXACTVP
 70
    64
  9
$PINSBASE
 10
0.0
 20
0.0
 30
0.0
  9
$PLIMCHECK
 70
     0
  9
$PEXTMIN
 10
1.000000000000000E+20
 20
1.000000000000000E+20
 30
1.000000000000000E+20
  9
$PEXTMAX
 10
-1.000000000000000E+20
 20
-1.000000000000000E+20
 30
-1.000000000000000E+20
  9
$PLIMMIN
 10
0.0
 20
0.0
  9
$PLIMMAX
 10
841.0
 20
594.0
  9
$UNITMODE
 70
     0
  9
$VISRETAIN
 70
     1
  9
$PLINEGEN
 70
     0
  9
$PSLTSCALE
 70
     0
  9
$TREEDEPTH
 70
  3020
  9
$PICKSTYLE
 70
     0
  9
$CMLSTYLE
  2
STANDARD
  9
$CMLJUST
 70
     0
  9
$CMLSCALE
 40
20.0
  9
$PROXYGRAPHICS
 70
     1
  9
$MEASUREMENT
 70
     1
  0
ENDSEC
  0
SECTION
  2
CLASSES
  0
CLASS
  1
ACDBDICTIONARYWDFLT
  2
AcDbDictionaryWithDefault
  3
AutoCAD 2000
 90
        0
280
     0
281
     0
  0
CLASS
  1
ACDBPLACEHOLDER
  2
AcDbPlaceHolder
  3
AutoCAD 2000
 90
        0
280
     0
281
     0
  0
CLASS
  1
LAYOUT
  2
AcDbLayout
  3
AutoCAD 2000
 90
        0
280
     0
281
     0
  0
CLASS
  1
AMGSETTINGSOBJ
  2
AmgSettingsObj
  3
"AcadM|Product Description: AutoCAD Mechanical 2000|Company: Autodesk"
 90
        0
280
     0
281
     0
  0
CLASS
  1
ACME_DOCUMENT
  2
AcMeDbDoc
  3
AcMeServices
 90
        0
280
     0
281
     0
  0
CLASS
  1
ACMESCOPE
  2
AcMeScope
  3
AcMeServices
 90
        0
280
     0
281
     0
  0
CLASS
  1
ACMECOMMANDHISTORY
  2
AcMeCommandHistory
  3
AcMeServices
 90
        0
280
     0
281
     0
  0
CLASS
  1
DICTIONARYVAR
  2
AcDbDictionaryVar
  3
AutoCAD 2000
 90
        0
280
     0
281
     0
  0
CLASS
  1
ACIMSYSVARMAN
  2
AcImSysVarManager
  3
AcMeServices
 90
        0
280
     0
281
     0
  0
CLASS
  1
ACIMREALSYSVAR
  2
AcImRealSysVar
  3
AcMeServices
 90
        0
280
     0
281
     0
  0
CLASS
  1
ACIMINTSYSVAR
  2
AcImIntSysVar
  3
AcMeServices
 90
        0
280
     0
281
     0
  0
CLASS
  1
ACMEDRAWINGMAN
  2
AcMeDrawingMan
  3
AcMeServices
 90
        0
280
     0
281
     0
  0
CLASS
  1
ACMEVIEW
  2
AcMeView
  3
AcMeServices
 90
        0
280
     0
281
     0
  0
CLASS
  1
ACDBENTITYCACHE
  2
AcMeEntityCache
  3
AcMeServices
 90
        0
280
     0
281
     0
  0
CLASS
  1
GSMANAGER
  2
AcMeGSManager
  3
AcMeServices
 90
        0
280
     0
281
     0
  0
CLASS
  1
AmdtInternalReactor
  2
AmdtInternalReactor
  3
AcMeServices
 90
        0
280
     0
281
     0
  0
CLASS
  1
ACMESTATEMGR
  2
AcMeStateMgr
  3
AcMeServices
 90
        0
280
     0
281
     0
  0
CLASS
  1
ACME_DATABASE
  2
AcMeDbDatabase
  3
AcMeServices
 90
        0
280
     0
281
     0
  0
CLASS
  1
ACRFINSADJUSTERMGR
  2
AcRfInsAdjusterMgr
  3
AcMeServices
 90
        0
280
     0
281
     0
  0
CLASS
  1
ACMDATADICTIONARY
  2
AcmDataDictionary
  3
"AcmSymBB|Product Description: AutoCAD Mechanical 2000|Company: Autodesk"
 90
        0
280
     0
281
     0
  0
CLASS
  1
ACMDATAENTRYBLOCK
  2
AcmDataEntryBlock
  3
"AcmSymBB|Product Description: AutoCAD Mechanical 2000|Company: Autodesk"
 90
        0
280
     0
281
     0
  0
CLASS
  1
AMGOBJPROPCFG
  2
AmgObjPropCfg
  3
"AmgLay|Product Description: AutoCAD Mechanical 2000|Company: Autodesk"
 90
        1
280
     0
281
     0
  0
CLASS
  1
ACAMGFILTERDAT
  2
AcAmgFilterDat
  3
"AcadM|Product Description: AutoCAD Mechanical 2000|Company: Autodesk"
 90
        0
280
     0
281
     0
  0
CLASS
  1
LAYER_INDEX
  2
AcDbLayerIndex
  3
AutoCAD 2000
 90
        0
280
     0
281
     0
  0
CLASS
  1
IDBUFFER
  2
AcDbIdBuffer
  3
AutoCAD 2000
 90
        0
280
     0
281
     0
  0
CLASS
  1
ACIMSTRSYSVAR
  2
AcImStrSysVar
  3
AcMeServices
 90
        0
280
     0
281
     0
  0
CLASS
  1
ACMSTANDARDJIS
  2
AcmStandardJIS
  3
"AcmSymBB|Product Description: AutoCAD Mechanical 2000|Company: Autodesk"
 90
        0
280
     0
281
     0
  0
CLASS
  1
ACMSURFSTANDARDJIS
  2
AcmSurfTextStdJIS
  3
"AcmSymBB|Product Description: AutoCAD Mechanical 2000|Company: Autodesk"
 90
        0
280
     0
281
     0
  0
CLASS
  1
ACMFCFSTANDARDJIS
  2
AcmFCFStdJIS
  3
"AcmSymBB|Product Description: AutoCAD Mechanical 2000|Company: Autodesk"
 90
        0
280
     0
281
     0
  0
CLASS
  1
ACMWELDSTANDARDJIS
  2
AcmWeldingStdJIS
  3
"AcmSymBB|Product Description: AutoCAD Mechanical 2000|Company: Autodesk"
 90
        0
280
     0
281
     0
  0
CLASS
  1
ACMIDSTANDARDJIS
  2
AcmIdStdJIS
  3
"AcmSymBB|Product Description: AutoCAD Mechanical 2000|Company: Autodesk"
 90
        0
280
     0
281
     0
  0
CLASS
  1
ACMDATUMSTANDARDJIS
  2
AcmDatumStdJIS
  3
"AcmSymBB|Product Description: AutoCAD Mechanical 2000|Company: Autodesk"
 90
        0
280
     0
281
     0
  0
CLASS
  1
ACMBOMSTANDARDJIS
  2
AcmBOMStdJIS
  3
"AcmSymBB|Product Description: AutoCAD Mechanical 2000|Company: Autodesk"
 90
        0
280
     0
281
     0
  0
CLASS
  1
ACMSTANDARDANSI
  2
AcmStandardANSI
  3
"AcmSymBB|Product Description: AutoCAD Mechanical 2000|Company: Autodesk"
 90
        0
280
     0
281
     0
  0
CLASS
  1
ACMSURFSTANDARDANSI
  2
AcmSurfTextStdANSI
  3
"AcmSymBB|Product Description: AutoCAD Mechanical 2000|Company: Autodesk"
 90
        0
280
     0
281
     0
  0
CLASS
  1
ACMFCFSTANDARDANSI
  2
AcmFCFStdANSI
  3
"AcmSymBB|Product Description: AutoCAD Mechanical 2000|Company: Autodesk"
 90
        0
280
     0
281
     0
  0
CLASS
  1
ACMWELDSTANDARDANSI
  2
AcmWeldingStdANSI
  3
"AcmSymBB|Product Description: AutoCAD Mechanical 2000|Company: Autodesk"
 90
        0
280
     0
281
     0
  0
CLASS
  1
ACMIDSTANDARDANSI
  2
AcmIdStdANSI
  3
"AcmSymBB|Product Description: AutoCAD Mechanical 2000|Company: Autodesk"
 90
        0
280
     0
281
     0
  0
CLASS
  1
ACMDATUMSTANDARDANSI
  2
AcmDatumStdANSI
  3
"AcmSymBB|Product Description: AutoCAD Mechanical 2000|Company: Autodesk"
 90
        0
280
     0
281
     0
  0
CLASS
  1
ACMBOMSTANDARDANSI
  2
AcmBOMStdANSI
  3
"AcmSymBB|Product Description: AutoCAD Mechanical 2000|Company: Autodesk"
 90
        0
280
     0
281
     0
  0
CLASS
  1
ACMSTANDARDBSI
  2
AcmStandardBSI
  3
"AcmSymBB|Product Description: AutoCAD Mechanical 2000|Company: Autodesk"
 90
        0
280
     0
281
     0
  0
CLASS
  1
ACMSURFSTANDARDBSI
  2
AcmSurfTextStdBSI
  3
"AcmSymBB|Product Description: AutoCAD Mechanical 2000|Company: Autodesk"
 90
        0
280
     0
281
     0
  0
CLASS
  1
ACMFCFSTANDARDBSI
  2
AcmFCFStdBSI
  3
"AcmSymBB|Product Description: AutoCAD Mechanical 2000|Company: Autodesk"
 90
        0
280
     0
281
     0
  0
CLASS
  1
ACMWELDSTANDARDBSI
  2
AcmWeldingStdBSI
  3
"AcmSymBB|Product Description: AutoCAD Mechanical 2000|Company: Autodesk"
 90
        0
280
     0
281
     0
  0
CLASS
  1
ACMIDSTANDARDBSI
  2
AcmIdStdBSI
  3
"AcmSymBB|Product Description: AutoCAD Mechanical 2000|Company: Autodesk"
 90
        0
280
     0
281
     0
  0
CLASS
  1
ACMDATUMSTANDARDBSI
  2
AcmDatumStdBSI
  3
"AcmSymBB|Product Description: AutoCAD Mechanical 2000|Company: Autodesk"
 90
        0
280
     0
281
     0
  0
CLASS
  1
ACMBOMSTANDARDBSI
  2
AcmBOMStdBSI
  3
"AcmSymBB|Product Description: AutoCAD Mechanical 2000|Company: Autodesk"
 90
        0
280
     0
281
     0
  0
CLASS
  1
STDPART2D
  2
AmgStdPart
  3
"AmgStdPart|Product Description: AutoCAD Mechanical 2000|Company: Autodesk"
 90
     1023
280
     0
281
     1
  0
CLASS
  1
LONG_TRANSACTION
  2
AcDbLongTransaction
  3
AutoCAD 2000
 90
        0
280
     0
281
     0
  0
CLASS
  1
LWPOLYLINE
  2
AcDbPolyline
  3
AutoCAD 2000
 90
        0
280
     0
281
     1
  0
CLASS
  1
HATCH
  2
AcDbHatch
  3
AutoCAD 2000
 90
        0
280
     0
281
     1
  0
CLASS
  1
XRECORD
  2
AcDbXrecord
  3
AutoCAD 2000
 90
        0
280
     0
281
     0
  0
ENDSEC
  0
SECTION
  2
TABLES
  0
TABLE
  2
VPORT
  5
8
330
0
100
AcDbSymbolTable
 70
     3
  0
VPORT
  5
4291
330
8
100
AcDbSymbolTableRecord
100
AcDbViewportTableRecord
  2
*ACTIVE
 70
     0
 10
0.0
 20
0.0
 11
1.0
 21
1.0
 12
-80.92648999516674
 22
-6.626426907567982
 13
0.0
 23
0.0
 14
2.5
 24
2.5
 15
10.0
 25
10.0
 16
0.0
 26
0.0
 36
1.0
 17
0.0
 27
0.0
 37
0.0
 40
113.6276538551101
 41
1.56570841889117
 42
50.0
 43
0.0
 44
0.0
 50
0.0
 51
0.0
 71
     0
 72
   100
 73
     1
 74
     3
 75
     0
 76
     0
 77
     0
 78
     0
  0
ENDTAB
  0
TABLE
  2
LTYPE
  5
5
330
0
100
AcDbSymbolTable
 70
    10
  0
LTYPE
  5
14
330
5
100
AcDbSymbolTableRecord
100
AcDbLinetypeTableRecord
  2
BYBLOCK
 70
     0
  3

 72
    65
 73
     0
 40
0.0
  0
LTYPE
  5
15
330
5
100
AcDbSymbolTableRecord
100
AcDbLinetypeTableRecord
  2
BYLAYER
 70
     0
  3

 72
    65
 73
     0
 40
0.0
  0
LTYPE
  5
16
330
5
100
AcDbSymbolTableRecord
100
AcDbLinetypeTableRecord
  2
CONTINUOUS
 70
     0
  3
Solid line
 72
    65
 73
     0
 40
0.0
  0
LTYPE
  5
4B
330
5
100
AcDbSymbolTableRecord
100
AcDbLinetypeTableRecord
  2
AM_ISO02W050
 70
     0
  3
__ __ __ __ __ __ __ __ __ __ __ __ __ __ __
 72
    65
 73
     2
 40
7.5
 49
6.0
 74
     0
 49
-1.5
 74
     0
  0
LTYPE
  5
4C
330
5
100
AcDbSymbolTableRecord
100
AcDbLinetypeTableRecord
  2
AM_ISO08W050
 70
     0
  3
____ . ____ . ____ . ____ . ____ . ____ . ____
 72
    65
 73
     4
 40
18.0
 49
12.0
 74
     0
 49
-1.5
 74
     0
 49
3.0
 74
     0
 49
-1.5
 74
     0
  0
LTYPE
  5
4D
330
5
100
AcDbSymbolTableRecord
100
AcDbLinetypeTableRecord
  2
AM_ISO09W050
 70
     0
  3
_____ . . _____ . . _____ . . ____ .. ____
 72
    65
 73
     6
 40
22.5
 49
12.0
 74
     0
 49
-1.5
 74
     0
 49
3.0
 74
     0
 49
-1.5
 74
     0
 49
3.0
 74
     0
 49
-1.5
 74
     0
  0
LTYPE
  5
4E
330
5
100
AcDbSymbolTableRecord
100
AcDbLinetypeTableRecord
  2
AMCONSTR
 70
     0
  3
_______________________
 72
    65
 73
     2
 40
9999.0
 49
9999.0
 74
     0
 49
0.0
 74
     0
  0
LTYPE
  5
4F
330
5
100
AcDbSymbolTableRecord
100
AcDbLinetypeTableRecord
  2
AM_ISO02W050X2
 70
     0
  3
 _ _ _ _ _ _ _ _ _ _ _ _
 72
    65
 73
     2
 40
3.75
 49
3.0
 74
     0
 49
-0.75
 74
     0
  0
LTYPE
  5
50
330
5
100
AcDbSymbolTableRecord
100
AcDbLinetypeTableRecord
  2
AM_ISO08W050X2
 70
     0
  3
__ . __ . __ . __ . __ . __
 72
    65
 73
     4
 40
9.0
 49
6.0
 74
     0
 49
-0.75
 74
     0
 49
1.5
 74
     0
 49
-0.75
 74
     0
  0
LTYPE
  5
53
330
5
100
AcDbSymbolTableRecord
100
AcDbLinetypeTableRecord
  2
AMZIGZAG
 70
     0
  3
/\/-/\/-/\/-/\/-/\/-/\/
 72
    65
 73
     2
 40
11.00009999999999
 49
0.0001
 74
     4
 75
   135
340
52
 46
0.04
 50
0.0
 44
0.0
 45
0.0
 49
-11.0
 74
     0
  0
LTYPE
  5
166
330
5
100
AcDbSymbolTableRecord
100
AcDbLinetypeTableRecord
  2
ACJISTGL
 70
     0
  3
_ _ _ _ _
 72
    65
 73
     2
 40
3.0
 49
2.0
 74
     0
 49
-1.0
 74
     0
  0
LTYPE
  5
26A
330
5
100
AcDbSymbolTableRecord
100
AcDbLinetypeTableRecord
  2
ACJISTGB
 70
     0
  3
__ . . __ . .
 72
    65
 73
     6
 40
9.0
 49
4.0
 74
     0
 49
-1.0
 74
     0
 49
1.0
 74
     0
 49
-1.0
 74
     0
 49
1.0
 74
     0
 49
-1.0
 74
     0
  0
ENDTAB
  0
TABLE
  2
LAYER
  5
2
330
0
100
AcDbSymbolTable
 70
     9
  0
LAYER
  5
10
330
2
100
AcDbSymbolTableRecord
100
AcDbLayerTableRecord
  2
0
 70
     0
 62
     7
  6
CONTINUOUS
  0
LAYER
  5
3F9
330
2
100
AcDbSymbolTableRecord
100
AcDbLayerTableRecord
  2
AM_0
 70
     0
 62
     7
  6
CONTINUOUS
  0
LAYER
  5
BA4
330
2
100
AcDbSymbolTableRecord
100
AcDbLayerTableRecord
  2
AM_5
 70
     0
 62
     3
  6
CONTINUOUS
  0
LAYER
  5
BA5
330
2
100
AcDbSymbolTableRecord
100
AcDbLayerTableRecord
  2
AM_11
 70
     0
 62
     3
  6
AM_ISO09W050
  0
LAYER
  5
BA6
330
2
100
AcDbSymbolTableRecord
100
AcDbLayerTableRecord
  2
AM_7
 70
     0
 62
     4
  6
AM_ISO08W050
  0
LAYER
  5
E64
330
2
100
AcDbSymbolTableRecord
100
AcDbLayerTableRecord
  2
AM_6
 70
     0
 62
     2
  6
CONTINUOUS
  0
LAYER
  5
F4D
330
2
100
AcDbSymbolTableRecord
100
AcDbLayerTableRecord
  2
DEFPOINTS
 70
     0
 62
     7
  6
CONTINUOUS
  0
LAYER
  5
22B5
330
2
100
AcDbSymbolTableRecord
100
AcDbLayerTableRecord
  2
AM_4
 70
     0
 62
     3
  6
CONTINUOUS
  0
LAYER
  5
2382
330
2
100
AcDbSymbolTableRecord
100
AcDbLayerTableRecord
  2
AM_3
 70
     0
 62
     6
  6
ACJISTGL
  0
ENDTAB
  0
TABLE
  2
STYLE
  5
3
330
0
100
AcDbSymbolTable
 70
     5
  0
STYLE
  5
11
330
3
100
AcDbSymbolTableRecord
100
AcDbTextStyleTableRecord
  2
STANDARD
 70
     0
 40
0.0
 41
1.0
 50
0.0
 71
     0
 42
2.5
  3
simplex.shx
  4
EXTFONT.SHX
  0
STYLE
  5
52
330
3
100
AcDbSymbolTableRecord
100
AcDbTextStyleTableRecord
  2

 70
     1
 40
0.0
 41
1.0
 50
0.0
 71
     0
 42
2.5
  3
ltypeshp.shx
  4

  0
STYLE
  5
6B
330
3
100
AcDbSymbolTableRecord
100
AcDbTextStyleTableRecord
  2
ASAMI
 70
     0
 40
0.0
 41
1.0
 50
0.0
 71
     0
 42
2.5
  3
simplex.shx
  4
EXTFONT.SHX
  0
STYLE
  5
262
330
3
100
AcDbSymbolTableRecord
100
AcDbTextStyleTableRecord
  2
ACJISTS
 70
     0
 40
1.0
 41
1.0
 50
0.0
 71
     0
 42
2.5
  3
simplex.shx
  4
bigfont.shx
  0
STYLE
  5
269
330
3
100
AcDbSymbolTableRecord
100
AcDbTextStyleTableRecord
  2
ACJISGDT
 70
     0
 40
0.0
 41
1.0
 50
0.0
 71
     0
 42
2.5
  3
amgdtans.shx
  4

  0
ENDTAB
  0
TABLE
  2
VIEW
  5
6
330
0
100
AcDbSymbolTable
 70
     0
  0
ENDTAB
  0
TABLE
  2
UCS
  5
7
330
0
100
AcDbSymbolTable
 70
     0
  0
ENDTAB
  0
TABLE
  2
APPID
  5
9
330
0
100
AcDbSymbolTable
 70
    24
  0
APPID
  5
12
330
9
100
AcDbSymbolTableRecord
100
AcDbRegAppTableRecord
  2
ACAD
 70
     0
  0
APPID
  5
30
330
9
100
AcDbSymbolTableRecord
100
AcDbRegAppTableRecord
  2
MCAD_NO_VIS
 70
     0
  0
APPID
  5
31
330
9
100
AcDbSymbolTableRecord
100
AcDbRegAppTableRecord
  2
ACAD_TEMP_GRAPHIC
 70
     0
  0
APPID
  5
2C2
330
9
100
AcDbSymbolTableRecord
100
AcDbRegAppTableRecord
  2
GENIUS_GENDTOL_13
 70
     0
  0
APPID
  5
339
330
9
100
AcDbSymbolTableRecord
100
AcDbRegAppTableRecord
  2
GENIUS_GENODEF_13
 70
     0
  0
APPID
  5
33A
330
9
100
AcDbSymbolTableRecord
100
AcDbRegAppTableRecord
  2
GENIUS_GENOBJ-N-RSBK_13
 70
     0
  0
APPID
  5
33B
330
9
100
AcDbSymbolTableRecord
100
AcDbRegAppTableRecord
  2
GENIUS_GENOBJ-N-LIB_13
 70
     0
  0
APPID
  5
33C
330
9
100
AcDbSymbolTableRecord
100
AcDbRegAppTableRecord
  2
GENIUS_GENSCALE_13
 70
     0
  0
APPID
  5
378
330
9
100
AcDbSymbolTableRecord
100
AcDbRegAppTableRecord
  2
GENIUS_GENDIMSH_14
 70
     0
  0
APPID
  5
BB0
330
9
100
AcDbSymbolTableRecord
100
AcDbRegAppTableRecord
  2
GENIUS_GENOBJ-N-CEN_13
 70
     0
  0
APPID
  5
BB1
330
9
100
AcDbSymbolTableRecord
100
AcDbRegAppTableRecord
  2
GENIUS_GENFIL_13
 70
     0
  0
APPID
  5
BB2
330
9
100
AcDbSymbolTableRecord
100
AcDbRegAppTableRecord
  2
GENIUS_GENOBJ-N-CHA_13
 70
     0
  0
APPID
  5
1FAF
330
9
100
AcDbSymbolTableRecord
100
AcDbRegAppTableRecord
  2
GENIUS_GENOBJ-N-CRS_13
 70
     0
  0
APPID
  5
1FB0
330
9
100
AcDbSymbolTableRecord
100
AcDbRegAppTableRecord
  2
GENIUS_GENOENT_13
 70
     0
  0
APPID
  5
1FB1
330
9
100
AcDbSymbolTableRecord
100
AcDbRegAppTableRecord
  2
GENIUS_GENOREF_13
 70
     0
  0
APPID
  5
1FB2
330
9
100
AcDbSymbolTableRecord
100
AcDbRegAppTableRecord
  2
GENIUS_GENOLIS_13
 70
     0
  0
APPID
  5
1FB7
330
9
100
AcDbSymbolTableRecord
100
AcDbRegAppTableRecord
  2
GENIUS_GENOBJ-N-FIL_13
 70
     0
  0
APPID
  5
22A8
330
9
100
AcDbSymbolTableRecord
100
AcDbRegAppTableRecord
  2
GEVID1056506048
 70
     0
  0
APPID
  5
22A9
330
9
100
AcDbSymbolTableRecord
100
AcDbRegAppTableRecord
  2
GEVDC
 70
     0
  0
APPID
  5
22AC
330
9
100
AcDbSymbolTableRecord
100
AcDbRegAppTableRecord
  2
GENIUS_GENBH_13
 70
     0
  0
APPID
  5
22B8
330
9
100
AcDbSymbolTableRecord
100
AcDbRegAppTableRecord
  2
GENIUS_GENOBJ-NBEHI-BHF_13
 70
     0
  0
APPID
  5
22BA
330
9
100
AcDbSymbolTableRecord
100
AcDbRegAppTableRecord
  2
GENIUS_GENOBJ-NBEHI-BHB_13
 70
     0
  0
APPID
  5
35C9
330
9
100
AcDbSymbolTableRecord
100
AcDbRegAppTableRecord
  2
GENIUS_GENREC_14
 70
     0
  0
APPID
  5
35CA
330
9
100
AcDbSymbolTableRecord
100
AcDbRegAppTableRecord
  2
GENIUS_GENOBJ-N-REC_13
 70
     0
  0
ENDTAB
  0
TABLE
  2
DIMSTYLE
  5
A
330
0
100
AcDbSymbolTable
 70
     8
  0
DIMSTYLE
105
58
102
{ACAD_REACTORS
330
36BB
330
389E
330
388E
330
3C25
330
400C
102
}
330
A
100
AcDbSymbolTableRecord
100
AcDbDimStyleTableRecord
  2
AM_JIS
 70
     0
  3

  4
"
  5
OPEN30
  6

  7

 40
0.5
 41
2.5
 42
1.0
 43
12.0
 44
1.0
 45
0.0
 46
0.0
 47
0.1
 48
0.1
140
3.2
141
0.0
142
0.0
143
0.0393701
144
1.0
145
0.0
146
0.71
147
1.5
 71
     0
 72
     0
 73
     0
 74
     0
 75
     0
 76
     0
 77
     3
 78
     8
170
     0
171
     2
172
     1
173
     0
174
     0
175
     0
176
   256
177
   256
178
     2
270
     2
271
     3
272
     3
273
     2
274
     2
340
6B
275
     0
280
     0
281
     0
282
     0
283
     0
284
     0
285
     0
286
     0
287
     3
288
     0
  0
DIMSTYLE
105
5F
330
A
100
AcDbSymbolTableRecord
100
AcDbDimStyleTableRecord
  2
AM_JIS$3
 70
     0
  3

  4
"
  5
OPEN30
  6

  7

 40
0.5
 41
2.5
 42
1.0
 43
10.0
 44
1.0
 45
0.0
 46
0.0
 47
0.1
 48
0.1
140
3.2
141
0.0
142
0.0
143
0.0393701
144
1.0
145
0.0
146
0.71
147
1.5
 71
     0
 72
     0
 73
     0
 74
     1
 75
     0
 76
     0
 77
     3
 78
     8
170
     0
171
     2
172
     0
173
     0
174
     0
175
     0
176
   256
177
   256
178
     2
270
     2
271
     2
272
     3
273
     2
274
     2
340
6B
275
     0
280
     0
281
     0
282
     0
283
     0
284
     0
285
     0
286
     0
287
     0
288
     1
  0
DIMSTYLE
105
60
330
A
100
AcDbSymbolTableRecord
100
AcDbDimStyleTableRecord
  2
AM_JIS$4
 70
     0
  3

  4
"
  5
OPEN30
  6

  7

 40
0.5
 41
2.5
 42
1.0
 43
10.0
 44
1.0
 45
0.0
 46
0.0
 47
0.1
 48
0.1
140
3.2
141
0.0
142
0.0
143
0.0393701
144
1.0
145
0.0
146
0.71
147
1.5
 71
     0
 72
     0
 73
     0
 74
     1
 75
     0
 76
     0
 77
     3
 78
     8
170
     0
171
     2
172
     0
173
     0
174
     0
175
     0
176
   256
177
   256
178
     2
270
     2
271
     2
272
     3
273
     2
274
     2
340
6B
275
     0
280
     0
281
     0
282
     0
283
     0
284
     0
285
     0
286
     0
287
     0
288
     1
  0
DIMSTYLE
105
61
330
A
100
AcDbSymbolTableRecord
100
AcDbDimStyleTableRecord
  2
AM_JIS$6
 70
     0
  3

  4
"
  5
OPEN30
  6

  7

 40
0.5
 41
2.5
 42
1.0
 43
10.0
 44
1.0
 45
0.0
 46
0.0
 47
0.1
 48
0.1
140
3.2
141
0.0
142
0.0
143
0.0393701
144
1.0
145
0.0
146
0.71
147
1.5
 71
     0
 72
     0
 73
     0
 74
     0
 75
     0
 76
     0
 77
     0
 78
     8
170
     0
171
     2
172
     1
173
     0
174
     0
175
     0
176
   256
177
   256
178
     2
270
     2
271
     2
272
     2
273
     2
274
     2
340
6B
275
     0
280
     0
281
     0
282
     0
283
     0
284
     0
285
     0
286
     0
287
     3
288
     0
  0
DIMSTYLE
105
62
330
A
100
AcDbSymbolTableRecord
100
AcDbDimStyleTableRecord
  2
AM_JIS$7
 70
     0
  3

  4
"
  5
OPEN30
  6

  7

 40
0.5
 41
2.5
 42
1.0
 43
10.0
 44
1.0
 45
0.0
 46
0.0
 47
0.1
 48
0.1
140
3.2
141
0.0
142
0.0
143
0.0393701
144
1.0
145
0.0
146
0.71
147
1.5
 71
     0
 72
     0
 73
     0
 74
     0
 75
     0
 76
     0
 77
     3
 78
     8
170
     0
171
     2
172
     1
173
     0
174
     0
175
     0
176
   256
177
   256
178
     2
270
     2
271
     2
272
     3
273
     2
274
     2
340
6B
275
     0
280
     0
281
     0
282
     0
283
     0
284
     0
285
     0
286
     0
287
     3
288
     0
  0
DIMSTYLE
105
63
330
A
100
AcDbSymbolTableRecord
100
AcDbDimStyleTableRecord
  2
AM_JIS$SF
 70
     0
  3

  4
"
  5
OPEN30
  6

  7

 40
0.5
 41
2.5
 42
1.0
 43
10.0
 44
1.0
 45
0.0
 46
0.0
 47
0.1
 48
0.1
140
3.2
141
0.0
142
0.0
143
0.0393701
144
1.0
145
0.0
146
0.71
147
1.5
 71
     0
 72
     0
 73
     0
 74
     0
 75
     1
 76
     1
 77
     3
 78
     8
170
     0
171
     2
172
     1
173
     0
174
     0
175
     0
176
   256
177
   256
178
     2
270
     2
271
     2
272
     2
273
     2
274
     2
340
6B
275
     0
280
     0
281
     0
282
     0
283
     0
284
     0
285
     0
286
     0
287
     3
288
     0
  0
DIMSTYLE
105
68
330
A
100
AcDbSymbolTableRecord
100
AcDbDimStyleTableRecord
  2
AM_JIS$SH
 70
     0
  3

  4
"
  5

  6
GENAXEH
  7
OPEN30
 40
0.5
 41
2.5
 42
1.0
 43
10.0
 44
1.0
 45
0.0
 46
0.0
 47
0.1
 48
0.1
140
3.2
141
0.0
142
0.0
143
0.0393701
144
2.0
145
0.0
146
0.71
147
1.5
 71
     0
 72
     0
 73
     0
 74
     0
 75
     1
 76
     1
 77
     3
 78
     8
170
     0
171
     2
172
     1
173
     1
174
     0
175
     0
176
   256
177
   256
178
     2
270
     2
271
     2
272
     2
273
     2
274
     2
340
6B
275
     0
280
     0
281
     0
282
     0
283
     0
284
     0
285
     0
286
     0
287
     3
288
     0
  0
DIMSTYLE
105
B34
330
A
100
AcDbSymbolTableRecord
100
AcDbDimStyleTableRecord
  2
AM_JIS$2
 70
     0
  3

  4
"
  5
OPEN30
  6

  7

 40
0.5
 41
2.5
 42
1.0
 43
12.0
 44
1.0
 45
0.0
 46
0.0
 47
0.1
 48
0.1
140
3.2
141
0.0
142
0.0
143
0.0393701
144
1.0
145
0.0
146
0.71
147
1.5
 71
     0
 72
     0
 73
     0
 74
     0
 75
     0
 76
     0
 77
     3
 78
     8
170
     0
171
     2
172
     1
173
     0
174
     0
175
     0
176
   256
177
   256
178
     2
270
     2
271
     3
272
     3
273
     2
274
     2
340
6B
275
     0
280
     0
281
     0
282
     0
283
     0
284
     0
285
     0
286
     0
287
     3
288
     0
  0
ENDTAB
  0
TABLE
  2
BLOCK_RECORD
  5
1
330
0
100
AcDbSymbolTable
 70
    13
  0
BLOCK_RECORD
  5
1F
102
{ACAD_XDICTIONARY
360
74
102
}
330
1
100
AcDbSymbolTableRecord
100
AcDbBlockTableRecord
  2
*MODEL_SPACE
  0
BLOCK_RECORD
  5
101
102
{ACAD_XDICTIONARY
360
42BA
102
}
330
1
100
AcDbSymbolTableRecord
100
AcDbBlockTableRecord
  2
*PAPER_SPACE
  0
BLOCK_RECORD
  5
59
330
1
100
AcDbSymbolTableRecord
100
AcDbBlockTableRecord
  2
_OPEN30
  0
BLOCK_RECORD
  5
64
330
1
100
AcDbSymbolTableRecord
100
AcDbBlockTableRecord
  2
GENAXEH
  0
BLOCK_RECORD
  5
36BC
330
1
100
AcDbSymbolTableRecord
100
AcDbBlockTableRecord
  2
*D5
  0
BLOCK_RECORD
  5
388F
330
1
100
AcDbSymbolTableRecord
100
AcDbBlockTableRecord
  2
*D6
  0
BLOCK_RECORD
  5
389F
330
1
100
AcDbSymbolTableRecord
100
AcDbBlockTableRecord
  2
*D7
  0
BLOCK_RECORD
  5
3C26
330
1
100
AcDbSymbolTableRecord
100
AcDbBlockTableRecord
  2
*D8
  0
BLOCK_RECORD
  5
400D
330
1
100
AcDbSymbolTableRecord
100
AcDbBlockTableRecord
  2
*D9
  0
ENDTAB
  0
ENDSEC
  0
SECTION
  2
BLOCKS
  0
BLOCK
  5
20
330
1F
100
AcDbEntity
  8
0
100
AcDbBlockBegin
  2
*MODEL_SPACE
 70
     0
 10
0.0
 20
0.0
 30
0.0
  3
*MODEL_SPACE
  1

  0
ENDBLK
  5
21
330
1F
100
AcDbEntity
  8
0
100
AcDbBlockEnd
  0
BLOCK
  5
103
330
101
100
AcDbEntity
 67
     1
  8
0
100
AcDbBlockBegin
  2
*PAPER_SPACE
 70
     0
 10
0.0
 20
0.0
 30
0.0
  3
*PAPER_SPACE
  1

  0
ENDBLK
  5
104
330
101
100
AcDbEntity
 67
     1
  8
0
100
AcDbBlockEnd
  0
BLOCK
  5
5D
330
59
100
AcDbEntity
  8
0
100
AcDbBlockBegin
  2
_OPEN30
 70
     0
 10
0.0
 20
0.0
 30
0.0
  3
_OPEN30
  1

  0
LINE
  5
5A
330
59
100
AcDbEntity
  8
0
 62
     0
100
AcDbLine
 10
-1.0
 20
0.26794919
 30
0.0
 11
0.0
 21
0.0
 31
0.0
  0
LINE
  5
5B
330
59
100
AcDbEntity
  8
0
 62
     0
100
AcDbLine
 10
0.0
 20
0.0
 30
0.0
 11
-1.0
 21
-0.26794919
 31
0.0
  0
LINE
  5
5C
330
59
100
AcDbEntity
  8
0
 62
     0
100
AcDbLine
 10
0.0
 20
0.0
 30
0.0
 11
-1.0
 21
0.0
 31
0.0
  0
ENDBLK
  5
5E
330
59
100
AcDbEntity
  8
0
100
AcDbBlockEnd
  0
BLOCK
  5
66
330
64
100
AcDbEntity
  8
0
100
AcDbBlockBegin
  2
GENAXEH
 70
     0
 10
0.0
 20
0.0
 30
0.0
  3
GENAXEH
  1

  0
LINE
  5
65
330
64
100
AcDbEntity
  8
0
100
AcDbLine
 10
-1.0
 20
0.0
 30
0.0
 11
1.0
 21
0.0
 31
0.0
  0
ENDBLK
  5
67
330
64
100
AcDbEntity
  8
0
100
AcDbBlockEnd
  0
BLOCK
  5
36C6
330
36BC
100
AcDbEntity
  8
0
100
AcDbBlockBegin
  2
*D5
 70
     1
 10
0.0
 20
0.0
 30
0.0
  3
*D5
  1

  0
LINE
  5
3F96
330
36BC
100
AcDbEntity
  8
AM_5
100
AcDbLine
 10
0.5000000000009037
 20
20.00000000000015
 30
0.0
 11
7.499999999999766
 21
20.00000000000017
 31
0.0
  0
LINE
  5
3F97
330
36BC
100
AcDbEntity
  8
AM_5
100
AcDbLine
 10
0.4999999999988046
 20
-19.99999999999984
 30
0.0
 11
7.499999999999846
 21
-19.99999999999982
 31
0.0
  0
LINE
  5
3F98
330
36BC
100
AcDbEntity
  8
AM_5
100
AcDbLine
 10
6.999999999999769
 20
18.75000000000017
 30
0.0
 11
6.999999999999843
 21
-18.74999999999982
 31
0.0
  0
INSERT
  5
3F99
330
36BC
100
AcDbEntity
  8
AM_5
100
AcDbBlockReference
  2
_OPEN30
 10
6.999999999999766
 20
20.00000000000017
 30
0.0
 41
1.25
 42
1.25
 43
1.25
 50
90.0000000000001
  0
INSERT
  5
3F9A
330
36BC
100
AcDbEntity
  8
AM_5
100
AcDbBlockReference
  2
_OPEN30
 10
6.999999999999846
 20
-19.99999999999982
 30
0.0
 41
1.25
 42
1.25
 43
1.25
 50
270.0000000000001
  0
MTEXT
  5
3F9B
330
36BC
100
AcDbEntity
  8
AM_5
 62
     2
100
AcDbMText
 10
5.449999999999805
 20
0.0000000000001689
 30
0.0
 40
1.6
 41
0.0
 71
     5
 72
     1
  1
%%c40
  7
ASAMI
 11
-0.000000000000002
 21
1.0
 31
0.0
1001
ACAD
1000
MTEXTBEGIN
1070
    73
1070
     1
1070
    44
1040
1.0
1070
    74
1070
     0
1000
MTEXTEND
  0
POINT
  5
3F9C
330
36BC
100
AcDbEntity
  8
DEFPOINTS
 62
     0
100
AcDbPoint
 10
0.000000000000948
 20
20.00000000000015
 30
0.0
  0
POINT
  5
3F9D
330
36BC
100
AcDbEntity
  8
DEFPOINTS
 62
     0
100
AcDbPoint
 10
-0.0000000000012399
 20
-19.99999999999984
 30
0.0
  0
POINT
  5
3F9E
330
36BC
100
AcDbEntity
  8
DEFPOINTS
 62
     0
100
AcDbPoint
 10
6.999999999999801
 20
-19.99999999999984
 30
0.0
  0
ENDBLK
  5
36C7
330
36BC
100
AcDbEntity
  8
0
100
AcDbBlockEnd
  0
BLOCK
  5
3899
330
388F
100
AcDbEntity
  8
0
100
AcDbBlockBegin
  2
*D6
 70
     1
 10
0.0
 20
0.0
 30
0.0
  3
*D6
  1

  0
LINE
  5
3FC2
330
388F
100
AcDbEntity
  8
AM_5
100
AcDbLine
 10
-160.0000000000003
 20
-15.00000000000003
 30
0.0
 11
-160.0000000000003
 21
-27.50000000000007
 31
0.0
  0
LINE
  5
3FC3
330
388F
100
AcDbEntity
  8
AM_5
100
AcDbLine
 10
-40.00000000000027
 20
-18.49999999999998
 30
0.0
 11
-40.00000000000026
 21
-27.49999999999993
 31
0.0
  0
LINE
  5
3FC4
330
388F
100
AcDbEntity
  8
AM_5
100
AcDbLine
 10
-158.7500000000002
 20
-27.00000000000007
 30
0.0
 11
-41.25000000000026
 21
-26.99999999999993
 31
0.0
  0
INSERT
  5
3FC5
330
388F
100
AcDbEntity
  8
AM_5
100
AcDbBlockReference
  2
_OPEN30
 10
-160.0000000000003
 20
-27.00000000000007
 30
0.0
 41
1.25
 42
1.25
 43
1.25
 50
180.0
  0
INSERT
  5
3FC6
330
388F
100
AcDbEntity
  8
AM_5
100
AcDbBlockReference
  2
_OPEN30
 10
-40.00000000000026
 20
-26.99999999999993
 30
0.0
 41
1.25
 42
1.25
 43
1.25
 50
0.0000000000000509
  0
MTEXT
  5
3FC7
330
388F
100
AcDbEntity
  8
AM_5
 62
     2
100
AcDbMText
 10
-100.0000000000002
 20
-25.45
 30
0.0
 40
1.6
 41
0.0
 71
     5
 72
     1
  1
120
  7
ASAMI
1001
ACAD
1000
MTEXTBEGIN
1070
    73
1070
     1
1070
    44
1040
1.0
1070
    74
1070
     0
1000
MTEXTEND
  0
POINT
  5
3FC8
330
388F
100
AcDbEntity
  8
DEFPOINTS
 62
     0
100
AcDbPoint
 10
-160.0000000000003
 20
-14.49999999999985
 30
0.0
  0
POINT
  5
3FC9
330
388F
100
AcDbEntity
  8
DEFPOINTS
 62
     0
100
AcDbPoint
 10
-40.00000000000029
 20
-17.99999999999993
 30
0.0
  0
POINT
  5
3FCA
330
388F
100
AcDbEntity
  8
DEFPOINTS
 62
     0
100
AcDbPoint
 10
-40.00000000000029
 20
-26.99999999999989
 30
0.0
  0
ENDBLK
  5
389A
330
388F
100
AcDbEntity
  8
0
100
AcDbBlockEnd
  0
BLOCK
  5
38A9
330
389F
100
AcDbEntity
  8
0
100
AcDbBlockBegin
  2
*D7
 70
     1
 10
0.0
 20
0.0
 30
0.0
  3
*D7
  1

  0
LINE
  5
3FA0
330
389F
100
AcDbEntity
  8
AM_5
100
AcDbLine
 10
-158.8076923076926
 20
-16.00000000000043
 30
0.0
 11
-167.5000000000002
 21
-16.00000000000045
 31
0.0
  0
LINE
  5
3FA1
330
389F
100
AcDbEntity
  8
AM_5
100
AcDbLine
 10
-158.8076923076926
 20
15.99999999999935
 30
0.0
 11
-167.5000000000003
 21
15.99999999999933
 31
0.0
  0
LINE
  5
3FA2
330
389F
100
AcDbEntity
  8
AM_5
100
AcDbLine
 10
-167.0000000000002
 20
-14.75000000000045
 30
0.0
 11
-167.0000000000003
 21
14.74999999999933
 31
0.0
  0
INSERT
  5
3FA3
330
389F
100
AcDbEntity
  8
AM_5
100
AcDbBlockReference
  2
_OPEN30
 10
-167.0000000000002
 20
-16.00000000000045
 30
0.0
 41
1.25
 42
1.25
 43
1.25
 50
270.0000000000001
  0
INSERT
  5
3FA4
330
389F
100
AcDbEntity
  8
AM_5
100
AcDbBlockReference
  2
_OPEN30
 10
-167.0000000000003
 20
15.99999999999933
 30
0.0
 41
1.25
 42
1.25
 43
1.25
 50
90.00000000000015
  0
MTEXT
  5
3FA5
330
389F
100
AcDbEntity
  8
AM_5
 62
     2
100
AcDbMText
 10
-168.5500000000002
 20
-0.0000000000005572
 30
0.0
 40
1.6
 41
0.0
 71
     5
 72
     1
  1
%%c32
  7
ASAMI
 11
-0.0000000000000028
 21
1.0
 31
0.0
1001
ACAD
1000
MTEXTBEGIN
1070
    73
1070
     1
1070
    44
1040
1.0
1070
    74
1070
     0
1000
MTEXTEND
  0
POINT
  5
3FA6
330
389F
100
AcDbEntity
  8
DEFPOINTS
 62
     0
100
AcDbPoint
 10
-158.3076923076927
 20
-15.99999999999993
 30
0.0
  0
POINT
  5
3FA7
330
389F
100
AcDbEntity
  8
DEFPOINTS
 62
     0
100
AcDbPoint
 10
-158.3076923076925
 20
15.99999999999985
 30
0.0
  0
POINT
  5
3FA8
330
389F
100
AcDbEntity
  8
DEFPOINTS
 62
     0
100
AcDbPoint
 10
-167.0000000000002
 20
15.99999999999985
 30
0.0
  0
ENDBLK
  5
38AA
330
389F
100
AcDbEntity
  8
0
100
AcDbBlockEnd
  0
BLOCK
  5
3C30
330
3C26
100
AcDbEntity
  8
0
100
AcDbBlockBegin
  2
*D8
 70
     1
 10
0.0
 20
0.0
 30
0.0
  3
*D8
  1

  0
LINE
  5
3FB9
330
3C26
100
AcDbEntity
  8
AM_5
100
AcDbLine
 10
-160.0000000000003
 20
-15.00000000000017
 30
0.0
 11
-160.0000000000002
 21
-33.50000000000001
 31
0.0
  0
LINE
  5
3FBA
330
3C26
100
AcDbEntity
  8
AM_5
100
AcDbLine
 10
-0.0000000000011985
 20
-20.49999999999984
 30
0.0
 11
-0.000000000001173
 21
-33.49999999999969
 31
0.0
  0
LINE
  5
3FBB
330
3C26
100
AcDbEntity
  8
AM_5
100
AcDbLine
 10
-158.7500000000002
 20
-33.0
 30
0.0
 11
-1.250000000001174
 21
-32.99999999999968
 31
0.0
  0
INSERT
  5
3FBC
330
3C26
100
AcDbEntity
  8
AM_5
100
AcDbBlockReference
  2
_OPEN30
 10
-160.0000000000002
 20
-33.00000000000001
 30
0.0
 41
1.25
 42
1.25
 43
1.25
 50
180.0000000000001
  0
INSERT
  5
3FBD
330
3C26
100
AcDbEntity
  8
AM_5
100
AcDbBlockReference
  2
_OPEN30
 10
-0.000000000001174
 20
-32.99999999999968
 30
0.0
 41
1.25
 42
1.25
 43
1.25
 50
0.0000000000001018
  0
MTEXT
  5
3FBE
330
3C26
100
AcDbEntity
  8
AM_5
 62
     2
100
AcDbMText
 10
-80.00000000000072
 20
-31.44999999999985
 30
0.0
 40
1.6
 41
0.0
 71
     5
 72
     1
  1
160
  7
ASAMI
1001
ACAD
1000
MTEXTBEGIN
1070
    73
1070
     1
1070
    44
1040
1.0
1070
    74
1070
     0
1000
MTEXTEND
  0
POINT
  5
3FBF
330
3C26
100
AcDbEntity
  8
DEFPOINTS
 62
     0
100
AcDbPoint
 10
-160.0000000000003
 20
-14.49999999999985
 30
0.0
  0
POINT
  5
3FC0
330
3C26
100
AcDbEntity
  8
DEFPOINTS
 62
     0
100
AcDbPoint
 10
-0.0000000000012399
 20
-19.99999999999984
 30
0.0
  0
POINT
  5
3FC1
330
3C26
100
AcDbEntity
  8
DEFPOINTS
 62
     0
100
AcDbPoint
 10
-0.0000000000012407
 20
-32.99999999999968
 30
0.0
  0
ENDBLK
  5
3C31
330
3C26
100
AcDbEntity
  8
0
100
AcDbBlockEnd
  0
BLOCK
  5
4017
330
400D
100
AcDbEntity
  8
0
100
AcDbBlockBegin
  2
*D9
 70
     1
 10
0.0
 20
0.0
 30
0.0
  3
*D9
  1

  0
LINE
  5
4085
330
400D
100
AcDbEntity
  8
AM_5
100
AcDbLine
 10
-18.99999999999909
 20
20.50000000000006
 30
0.0
 11
-18.99999999999912
 21
32.55912174842048
 31
0.0
  0
LINE
  5
4086
330
400D
100
AcDbEntity
  8
AM_5
100
AcDbLine
 10
0.0000000000009066
 20
20.50000000000015
 30
0.0
 11
0.000000000000883
 21
32.55912174842052
 31
0.0
  0
LINE
  5
4087
330
400D
100
AcDbEntity
  8
AM_5
100
AcDbLine
 10
-17.74999999999911
 20
32.05912174842048
 30
0.0
 11
-1.249999999999116
 21
32.05912174842052
 31
0.0
  0
INSERT
  5
4088
330
400D
100
AcDbEntity
  8
AM_5
100
AcDbBlockReference
  2
_OPEN30
 10
-18.99999999999911
 20
32.05912174842048
 30
0.0
 41
1.25
 42
1.25
 43
1.25
 50
180.0000000000001
  0
INSERT
  5
4089
330
400D
100
AcDbEntity
  8
AM_5
100
AcDbBlockReference
  2
_OPEN30
 10
0.0000000000008839
 20
32.05912174842052
 30
0.0
 41
1.25
 42
1.25
 43
1.25
 50
0.0000000000001018
  0
MTEXT
  5
408A
330
400D
100
AcDbEntity
  8
AM_5
 62
     2
100
AcDbMText
 10
-9.49999999999912
 20
33.6091217484205
 30
0.0
 40
1.6
 41
0.0
 71
     5
 72
     1
  1
19
  7
ASAMI
1001
ACAD
1000
MTEXTBEGIN
1070
    73
1070
     1
1070
    44
1040
1.0
1070
    74
1070
     0
1000
MTEXTEND
  0
POINT
  5
408B
330
400D
100
AcDbEntity
  8
DEFPOINTS
 62
     0
100
AcDbPoint
 10
-18.99999999999905
 20
20.0000000000001
 30
0.0
  0
POINT
  5
408C
330
400D
100
AcDbEntity
  8
DEFPOINTS
 62
     0
100
AcDbPoint
 10
0.000000000000948
 20
20.00000000000015
 30
0.0
  0
POINT
  5
408D
330
400D
100
AcDbEntity
  8
DEFPOINTS
 62
     0
100
AcDbPoint
 10
0.0000000000009487
 20
32.05912174842052
 30
0.0
  0
ENDBLK
  5
4018
330
400D
100
AcDbEntity
  8
0
100
AcDbBlockEnd
  0
ENDSEC
  0
SECTION
  2
ENTITIES
  0
LINE
  5
2FA8
330
1F
100
AcDbEntity
  8
AM_7
100
AcDbLine
 10
1.684283577216224
 20
0.0000000000001643
 30
0.0
 11
-163.8632787607169
 21
-0.0000000000001635
 31
0.0
1001
GENIUS_GENODEF_13
1002
{
1000
HIER
1070
     0
1002
}
1002
{
1000
MANEDIT
1070
     0
1002
}
1002
{
1000
NOSEL
1070
     0
1002
}
1002
{
1000
BEHIND
1070
     0
1002
}
1002
{
1000
REACTOR
1002
}
1001
GENIUS_GENOBJ-N-CEN_13
1002
{
1000
OWNER
1000
GEN
1002
}
  0
LINE
  5
2FA9
330
1F
100
AcDbEntity
  8
AM_0
100
AcDbLine
 10
-1.200000000001423
 20
-18.99999999999982
 30
0.0
 11
-39.00000000000029
 21
-18.99999999999993
 31
0.0
  0
POINT
  5
2FC5
330
1F
100
AcDbEntity
  8
0
 60
     1
100
AcDbPoint
 10
66.68948384583128
 20
-34.14755652543707
 30
0.0
1001
GENIUS_GENODEF_13
1002
{
1000
HIER
1070
    10
1002
}
1002
{
1000
MANEDIT
1070
     0
1002
}
1002
{
1000
NOSEL
1070
     0
1002
}
1002
{
1000
BEHIND
1070
     0
1002
}
1002
{
1000
REACTOR
1002
}
1001
GENIUS_GENOBJ-N-CRS_13
1002
{
1000
OWNER
1000
GEN
1002
}
1001
GENIUS_GENOENT_13
1002
{
1000
MYREF
1005
2FC5
1002
}
1002
{
1000
GRP
1005
0
1002
}
1001
GENIUS_GENOLIS_13
1002
{
1000
ENT
1005
2FC2
1005
2FB5
1005
2F9B
1005
2FB9
1002
}
  0
POINT
  5
2FC6
330
1F
100
AcDbEntity
  8
0
 60
     1
100
AcDbPoint
 10
147.6660815233313
 20
-58.83729403551202
 30
0.0
1001
GENIUS_GENODEF_13
1002
{
1000
HIER
1070
    10
1002
}
1002
{
1000
MANEDIT
1070
     0
1002
}
1002
{
1000
NOSEL
1070
     0
1002
}
1002
{
1000
BEHIND
1070
     0
1002
}
1002
{
1000
REACTOR
1002
}
1001
GENIUS_GENOBJ-N-CRS_13
1002
{
1000
OWNER
1000
GEN
1002
}
1001
GENIUS_GENOENT_13
1002
{
1000
MYREF
1005
2FC6
1002
}
1002
{
1000
GRP
1005
0
1002
}
1001
GENIUS_GENOLIS_13
1002
{
1000
ENT
1005
2FC1
1005
2FB3
1005
2FC0
1005
2FBF
1002
}
  0
LINE
  5
3658
330
1F
100
AcDbEntity
  8
AM_11
100
AcDbLine
 10
0.000000000000948
 20
20.00000000000015
 30
0.0
 11
-0.0000000000014848
 21
-19.99999999999983
 31
0.0
  0
LINE
  5
3677
330
1F
100
AcDbEntity
  8
AM_11
100
AcDbLine
 10
-18.99999999999905
 20
20.0000000000001
 30
0.0
 11
0.0000000000005697
 21
20.00000000000015
 31
0.0
  0
DIMENSION
  5
36BB
330
1F
100
AcDbEntity
  8
AM_5
100
AcDbDimension
  2
*D5
 10
6.999999999999801
 20
-19.99999999999984
 30
0.0
 11
5.449999999999805
 21
0.0000000000001579
 31
0.0
 70
    32
  1
%%c<>
 51
359.9999999999998
  3
AM_JIS
100
AcDbAlignedDimension
 13
0.000000000000948
 23
20.00000000000015
 33
0.0
 14
-0.0000000000012399
 24
-19.99999999999984
 34
0.0
 50
90.00000000000019
100
AcDbRotatedDimension
1001
GENIUS_GENDTOL_13
1000

1000
h7
1000

1040
0.0
  0
LINE
  5
3819
330
1F
100
AcDbEntity
  8
AM_0
100
AcDbLine
 10
-20.76738381272354
 20
19.00000000000011
 30
0.0
 11
-39.00000000000023
 21
19.0000000000001
 31
0.0
  0
LINE
  5
388C
330
1F
100
AcDbEntity
  8
AM_0
100
AcDbLine
 10
-43.00000000000029
 20
-15.99999999999996
 30
0.0
 11
-158.5000000000003
 21
-15.99999999999982
 31
0.0
  0
TEXT
  5
388D
330
1F
100
AcDbEntity
  8
AM_6
100
AcDbText
 10
-86.90476190476259
 20
-54.24999999999982
 30
0.0
 40
2.5
  1
FMS440
 50
359.9999999999998
 51
359.9999999999998
 72
     4
 11
-80.00000000000069
 21
-52.99999999999984
 31
0.0
100
AcDbText
  0
DIMENSION
  5
388E
330
1F
100
AcDbEntity
  8
AM_5
100
AcDbDimension
  2
*D6
 10
-40.00000000000029
 20
-26.99999999999989
 30
0.0
 11
-100.0000000000003
 21
-25.44999999999989
 31
0.0
 70
    32
  1
<>
 51
359.9999999999999
  3
AM_JIS
100
AcDbAlignedDimension
 13
-160.0000000000003
 23
-14.49999999999985
 33
0.0
 14
-40.00000000000029
 24
-17.99999999999993
 34
0.0
 50
0.0000000000000534
100
AcDbRotatedDimension
1001
GENIUS_GENDTOL_13
1000

1000
h7
1000

1040
0.0
  0
LINE
  5
389C
330
1F
100
AcDbEntity
  8
AM_0
100
AcDbLine
 10
-158.3076923076927
 20
-15.99999999999998
 30
0.0
 11
-158.3076923076925
 21
15.99999999999984
 31
0.0
  0
LINE
  5
389D
330
1F
100
AcDbEntity
  8
AM_0
100
AcDbLine
 10
-160.0000000000003
 20
-14.49999999999982
 30
0.0
 11
-160.0000000000002
 21
14.49999999999984
 31
0.0
  0
DIMENSION
  5
389E
330
1F
100
AcDbEntity
  8
AM_5
100
AcDbDimension
  2
*D7
 10
-167.0000000000002
 20
15.99999999999985
 30
0.0
 11
-168.5500000000002
 21
-0.0000000000000669
 31
0.0
 70
    32
  1
%%c<>
 51
359.9999999999998
  3
AM_JIS
100
AcDbAlignedDimension
 13
-158.3076923076927
 23
-15.99999999999993
 33
0.0
 14
-158.3076923076925
 24
15.99999999999985
 34
0.0
 50
270.0
100
AcDbRotatedDimension
1001
GENIUS_GENDTOL_13
1000

1000
h7
1000

1040
0.0
  0
LINE
  5
38AB
330
1F
100
AcDbEntity
  8
AM_0
100
AcDbLine
 10
-158.5000000000002
 20
15.99999999999985
 30
0.0
 11
-43.00000000000023
 21
16.00000000000007
 31
0.0
  0
LINE
  5
38CE
330
1F
100
AcDbEntity
  8
AM_0
100
AcDbLine
 10
-40.00000000000029
 20
-17.99999999999993
 30
0.0
 11
-40.00000000000023
 21
18.00000000000009
 31
0.0
  0
LINE
  5
3B4E
330
1F
100
AcDbEntity
  8
AM_11
100
AcDbLine
 10
-19.00000000000148
 20
-19.99999999999985
 30
0.0
 11
-0.0000000000012399
 21
-19.99999999999984
 31
0.0
  0
LINE
  5
3B7E
330
1F
100
AcDbEntity
  8
AM_0
100
AcDbLine
 10
-43.00000000000029
 20
-15.99999999999999
 30
0.0
 11
-43.00000000000023
 21
16.00000000000007
 31
0.0
  0
LINE
  5
3BAC
330
1F
100
AcDbEntity
  8
AM_0
100
AcDbLine
 10
-40.50000000000023
 20
15.50000000000008
 30
0.0
 11
-42.50000000000023
 21
15.50000000000007
 31
0.0
1001
GENIUS_GENODEF_13
1002
{
1000
HIER
1070
     0
1002
}
1002
{
1000
MANEDIT
1070
     0
1002
}
1002
{
1000
NOSEL
1070
     0
1002
}
1002
{
1000
BEHIND
1070
     0
1002
}
1002
{
1000
REACTOR
1002
}
1001
GENIUS_GENOBJ-N-CEN_13
1002
{
1000
OWNER
1000
GEN
1002
}
  0
LINE
  5
3BAD
330
1F
100
AcDbEntity
  8
AM_0
100
AcDbLine
 10
-40.50000000000017
 20
-15.49999999999992
 30
0.0
 11
-42.50000000000016
 21
-15.49999999999992
 31
0.0
1001
GENIUS_GENODEF_13
1002
{
1000
HIER
1070
     0
1002
}
1002
{
1000
MANEDIT
1070
     0
1002
}
1002
{
1000
NOSEL
1070
     0
1002
}
1002
{
1000
BEHIND
1070
     0
1002
}
1002
{
1000
REACTOR
1002
}
1001
GENIUS_GENOBJ-N-CEN_13
1002
{
1000
OWNER
1000
GEN
1002
}
  0
LINE
  5
3BAE
330
1F
100
AcDbEntity
  8
AM_0
100
AcDbLine
 10
-43.00000000000022
 20
16.00000000000007
 30
0.0
 11
-43.00000000000022
 21
16.00000000000009
 31
0.0
  0
ARC
  5
3BB0
330
1F
100
AcDbEntity
  8
AM_0
100
AcDbCircle
 10
-42.50000000000023
 20
16.00000000000007
 30
0.0
 40
0.5
100
AcDbArc
 50
180.0
 51
270.0000000000002
  0
ARC
  5
3BB1
330
1F
100
AcDbEntity
  8
AM_0
100
AcDbCircle
 10
-40.50000000000023
 20
16.00000000000008
 30
0.0
 40
0.5
100
AcDbArc
 50
270.0000000000001
 51
359.9999999999997
  0
ARC
  5
3BB2
330
1F
100
AcDbEntity
  8
AM_0
100
AcDbCircle
 10
-42.50000000000016
 20
-15.99999999999992
 30
0.0
 40
0.5
100
AcDbArc
 50
90.00000000000003
 51
180.0000000000002
  0
ARC
  5
3BB3
330
1F
100
AcDbEntity
  8
AM_0
100
AcDbCircle
 10
-40.50000000000017
 20
-15.99999999999992
 30
0.0
 40
0.5
100
AcDbArc
 50
0.0000000000004949
 51
90.00000000000012
  0
LINE
  5
3BC0
330
1F
100
AcDbEntity
  8
AM_7
  6
AM_ISO08W050X2
100
AcDbLine
 10
-10.41288198200676
 20
21.50737933479339
 30
0.0
 11
-10.41288198200662
 21
0.4496877149586851
 31
0.0
1001
GENIUS_GENOREF_13
1005
2FC5
  0
LINE
  5
3BC2
330
1F
100
AcDbEntity
  8
AM_7
  6
AM_ISO08W050X2
100
AcDbLine
 10
-20.13039149302774
 20
13.65000000000011
 30
0.0
 11
-1.613410476031229
 21
13.65000000000016
 31
0.0
  0
LINE
  5
3BC3
330
1F
100
AcDbEntity
  8
AM_0
100
AcDbLine
 10
-12.28019898831097
 20
14.78638381698087
 30
0.0
 11
-9.955798548736728
 21
9.801690988279485
 31
0.0
  0
LINE
  5
3BC4
330
1F
100
AcDbEntity
  8
AM_7
  6
AM_ISO08W050X2
100
AcDbLine
 10
-31.75525132158595
 20
2.670728493856455
 30
0.0
 11
-10.22889116655699
 21
12.70863508635123
 31
0.0
1001
GENIUS_GENOREF_13
1005
0
  0
ARC
  5
3BC5
330
1F
100
AcDbEntity
  8
AM_0
100
AcDbCircle
 10
-10.41288198200663
 20
2.550000000000103
 30
0.0
 40
2.097421202999999
100
AcDbArc
 50
142.4217159177912
 51
37.57828408221025
  0
LINE
  5
3BC8
330
1F
100
AcDbEntity
  8
AM_7
  6
AM_ISO08W050X2
100
AcDbLine
 10
-26.52590073595045
 20
14.57576922132523
 30
0.0
 11
-19.11374048146428
 21
-1.319659740342852
 31
0.0
1001
GENIUS_GENOREF_13
1005
0
  0
LINE
  5
3BCE
330
1F
100
AcDbEntity
  8
AM_0
100
AcDbLine
 10
-11.10570230503421
 20
2.150000000000105
 30
0.0
 11
-13.71080041863297
 21
6.662162291455003
 31
0.0
  0
LINE
  5
3BD1
330
1F
100
AcDbEntity
  8
AM_0
100
AcDbLine
 10
-17.83045158152231
 20
13.79760741503949
 30
0.0
 11
-20.71858428704153
 21
18.80000000000011
 31
0.0
  0
LINE
  5
3BD2
330
1F
100
AcDbEntity
  8
AM_0
100
AcDbLine
 10
-9.720061658979112
 20
2.150000000000105
 30
0.0
 11
-0.1071796769718768
 21
18.80000000000016
 31
0.0
  0
LINE
  5
3BD8
330
1F
100
AcDbEntity
  8
AM_0
100
AcDbLine
 10
-29.23145219823067
 20
5.944013398750957
 30
0.0
 11
-28.86097288835697
 21
6.116770738133076
 31
0.0
1001
GENIUS_GENOREF_13
1005
0
  0
LINE
  5
3BD9
330
1F
100
AcDbEntity
  8
AM_0
100
AcDbLine
 10
-27.62550280361573
 20
2.500043808011829
 30
0.0
 11
-27.25502349374203
 21
2.672801147393955
 31
0.0
1001
GENIUS_GENOREF_13
1005
0
  0
ARC
  5
3BDA
330
1F
100
AcDbEntity
  8
AM_0
100
AcDbCircle
 10
-28.4284775009232
 20
4.222028603381395
 30
0.0
 40
1.899999999999997
100
AcDbArc
 50
115.0000000000046
 51
295.0000000000046
  0
ARC
  5
3BDB
330
1F
100
AcDbEntity
  8
AM_0
100
AcDbCircle
 10
-22.89999999999984
 20
6.800000000000114
 30
0.0
 40
6.0
100
AcDbArc
 50
100.1012590605785
 51
309.8987409394308
  0
CIRCLE
  5
3BDC
330
1F
100
AcDbEntity
  8
AM_4
100
AcDbCircle
 10
-22.89999999999984
 20
6.800000000000114
 30
0.0
 40
4.0
  0
CIRCLE
  5
3BDD
330
1F
100
AcDbEntity
  8
AM_0
100
AcDbCircle
 10
-22.89999999999984
 20
6.800000000000114
 30
0.0
 40
3.3235
  0
LINE
  5
3BE2
330
1F
100
AcDbEntity
  8
AM_0
100
AcDbLine
 10
-12.28019898831097
 20
14.78638381698087
 30
0.0
 11
-23.95233016158046
 21
12.70699595657801
 31
0.0
  0
LINE
  5
3BE3
330
1F
100
AcDbEntity
  8
AM_0
100
AcDbLine
 10
-9.955798548736728
 20
9.801690988279485
 30
0.0
 11
-19.05140336109976
 21
2.196924516038656
 31
0.0
  0
ARC
  5
3BE8
330
1F
100
AcDbEntity
  8
AM_0
100
AcDbCircle
 10
-20.02576396401397
 20
19.20000000000011
 30
0.0
 40
0.8
100
AcDbArc
 50
90.00000000000017
 51
210.0
  0
ARC
  5
3BE9
330
1F
100
AcDbEntity
  8
AM_0
100
AcDbCircle
 10
-0.7999999999994289
 20
19.20000000000015
 30
0.0
 40
0.8
100
AcDbArc
 50
330.0000000000001
 51
90.00000000000017
  0
ARC
  5
3BEA
330
1F
100
AcDbEntity
  8
AM_0
100
AcDbCircle
 10
-10.41288198200666
 20
2.550000000000103
 30
0.0
 40
0.8
100
AcDbArc
 50
209.9999999999999
 51
330.0000000000001
  0
LINE
  5
3BF2
330
1F
100
AcDbEntity
  8
AM_0
100
AcDbLine
 10
-20.02576396401392
 20
20.0000000000001
 30
0.0
 11
-0.7999999999993738
 21
20.00000000000014
 31
0.0
  0
LINE
  5
3BF3
330
1F
100
AcDbEntity
  8
AM_0
100
AcDbLine
 10
-20.02576396401384
 20
-19.99999999999985
 30
0.0
 11
-0.7999999999992973
 21
-19.99999999999982
 31
0.0
  0
ARC
  5
3BF4
330
1F
100
AcDbEntity
  8
AM_3
100
AcDbCircle
 10
-20.0257639640139
 20
-19.19999999999987
 30
0.0
 40
0.8
100
AcDbArc
 50
150.0000000000001
 51
165.5224878140709
  0
LINE
  5
3BF5
330
1F
100
AcDbEntity
  8
AM_3
100
AcDbLine
 10
-11.1057023050342
 20
-2.149999999999828
 30
0.0
 11
-20.71858428704146
 21
-18.79999999999987
 31
0.0
  0
ARC
  5
3BF6
330
1F
100
AcDbEntity
  8
AM_0
100
AcDbCircle
 10
-0.7999999999993555
 20
-19.19999999999983
 30
0.0
 40
0.8
100
AcDbArc
 50
270.0
 51
30.0000000000001
  0
LINE
  5
3BF7
330
1F
100
AcDbEntity
  8
AM_3
100
AcDbLine
 10
-9.720061658979107
 20
-2.14999999999982
 30
0.0
 11
-1.200000000001296
 21
-16.90717967696893
 31
0.0
  0
ARC
  5
3BF8
330
1F
100
AcDbEntity
  8
AM_3
100
AcDbCircle
 10
-10.41288198200665
 20
-2.549999999999823
 30
0.0
 40
0.8
100
AcDbArc
 50
30.0000000000001
 51
150.0000000000002
  0
LINE
  5
3BF9
330
1F
100
AcDbEntity
  8
AM_0
100
AcDbLine
 10
-1.200000000001296
 20
-16.90717967696892
 30
0.0
 11
-0.107179676971805
 21
-18.79999999999983
 31
0.0
  0
ARC
  5
3BFA
330
1F
100
AcDbEntity
  8
AM_0
100
AcDbCircle
 10
-20.0257639640139
 20
-19.19999999999987
 30
0.0
 40
0.8
100
AcDbArc
 50
165.5224878140707
 51
270.0
  0
DIMENSION
  5
3C25
330
1F
100
AcDbEntity
  8
AM_5
100
AcDbDimension
  2
*D8
 10
-0.0000000000012407
 20
-32.99999999999968
 30
0.0
 11
-80.00000000000078
 21
-31.44999999999968
 31
0.0
 70
    32
 51
359.9999999999998
  3
AM_JIS
100
AcDbAlignedDimension
 13
-160.0000000000003
 23
-14.49999999999985
 33
0.0
 14
-0.0000000000012399
 24
-19.99999999999984
 34
0.0
 50
0.0000000000001132
100
AcDbRotatedDimension
  0
LINE
  5
3C43
330
1F
100
AcDbEntity
  8
AM_0
100
AcDbLine
 10
-39.00000000000029
 20
-18.99999999999993
 30
0.0
 11
-39.00000000000023
 21
19.0000000000001
 31
0.0
  0
LINE
  5
3C44
330
1F
100
AcDbEntity
  8
AM_0
100
AcDbLine
 10
-39.00000000000023
 20
19.0000000000001
 30
0.0
 11
-40.00000000000023
 21
18.00000000000009
 31
0.0
  0
LINE
  5
3C45
330
1F
100
AcDbEntity
  8
AM_0
100
AcDbLine
 10
-40.00000000000029
 20
-17.99999999999993
 30
0.0
 11
-39.00000000000029
 21
-18.99999999999993
 31
0.0
  0
LINE
  5
3EE6
330
1F
100
AcDbEntity
  8
AM_0
100
AcDbLine
 10
-1.199999999999239
 20
16.90717967697292
 30
0.0
 11
-1.200000000001423
 21
-18.99999999999982
 31
0.0
  0
LINE
  5
3EF0
330
1F
100
AcDbEntity
  8
AM_11
100
AcDbLine
 10
-18.99999999999905
 20
20.0000000000001
 30
0.0
 11
-19.00000000000148
 21
-19.99999999999985
 31
0.0
  0
LINE
  5
3FB7
330
1F
100
AcDbEntity
  8
AM_0
100
AcDbLine
 10
-158.5000000000003
 20
-15.99999999999982
 30
0.0
 11
-160.0000000000003
 21
-14.49999999999982
 31
0.0
1001
GENIUS_GENFIL_13
1070
     0
1040
1.5
1040
1.5
1040
20.0
1040
0.0
1002
{
1002
}
1001
GENIUS_GENODEF_13
1002
{
1000
HIER
1070
     0
1002
}
1002
{
1000
MANEDIT
1070
     0
1002
}
1002
{
1000
NOSEL
1070
     0
1002
}
1002
{
1000
BEHIND
1070
     0
1002
}
1002
{
1000
REACTOR
1002
}
1001
GENIUS_GENOBJ-N-CHA_13
1002
{
1000
OWNER
1000
GEN
1002
}
  0
LINE
  5
3FB8
330
1F
100
AcDbEntity
  8
AM_0
100
AcDbLine
 10
-160.0000000000002
 20
14.49999999999984
 30
0.0
 11
-158.5000000000002
 21
15.99999999999985
 31
0.0
1001
GENIUS_GENFIL_13
1070
     0
1040
1.5
1040
1.5
1040
20.0
1040
0.0
1002
{
1002
}
1001
GENIUS_GENODEF_13
1002
{
1000
HIER
1070
     0
1002
}
1002
{
1000
MANEDIT
1070
     0
1002
}
1002
{
1000
NOSEL
1070
     0
1002
}
1002
{
1000
BEHIND
1070
     0
1002
}
1002
{
1000
REACTOR
1002
}
1001
GENIUS_GENOBJ-N-CHA_13
1002
{
1000
OWNER
1000
GEN
1002
}
  0
DIMENSION
  5
400C
330
1F
100
AcDbEntity
  8
AM_5
100
AcDbDimension
  2
*D9
 10
0.0000000000009487
 20
32.05912174842052
 30
0.0
 11
-9.499999999999053
 21
33.60912174842052
 31
0.0
 70
    32
  1
<>
 51
359.9999999999998
  3
AM_JIS
100
AcDbAlignedDimension
 13
-18.99999999999905
 23
20.0000000000001
 33
0.0
 14
0.000000000000948
 24
20.00000000000015
 34
0.0
 50
180.0000000000001
100
AcDbRotatedDimension
1001
GENIUS_GENDTOL_13
1000

1000
h7
1000

1040
0.0
  0
VIEWPORT
  5
110
330
101
100
AcDbEntity
 67
     1
  8
0
100
AcDbViewport
 10
420.5
 20
297.0
 30
0.0
 40
948.9782706766916
 41
628.452
 68
     1
 69
     1
1001
ACAD
1000
MVIEW
1002
{
1070
    16
1010
0.0
1020
0.0
1030
0.0
1010
0.0
1020
0.0
1030
1.0
1040
0.0
1040
628.452
1040
420.5
1040
297.0
1040
50.0
1040
0.0
1040
0.0
1070
     0
1070
   100
1070
     1
1070
     1
1070
     0
1070
     0
1070
     0
1070
     0
1040
0.0
1040
0.0
1040
0.0
1040
10.0
1040
10.0
1040
10.0
1040
10.0
1070
     0
1002
{
1002
}
1002
}
  0
ENDSEC
  0
SECTION
  2
OBJECTS
  0
DICTIONARY
  5
C
330
0
100
AcDbDictionary
  3
ACAD_GROUP
350
D
  3
ACAD_LAYOUT
350
1A
  3
ACAD_MLINESTYLE
350
17
  3
ACAD_PLOTSETTINGS
350
19
  3
ACAD_PLOTSTYLENAME
350
E
  3
ACDBVARIABLEDICTIONARY
350
34
  3
ACMDICTIONARY
350
43
  3
AMG
350
2B
  3
AMGSNAPSETTINGS
350
6E
  3
DWGPROPS
350
4284
  3
ACDBHEADERROUNDTRIPXREC
350
4292
  0
DICTIONARY
  5
74
330
1F
100
AcDbDictionary
280
     1
  3
ACAD_INDEX
360
4286
  3
ACAD_LAYOUTSELFREF
360
42B5
  0
DICTIONARY
  5
42BA
330
101
100
AcDbDictionary
280
     1
  3
ACAD_LAYOUTSELFREF
360
42BB
  0
DICTIONARY
  5
D
102
{ACAD_REACTORS
330
C
102
}
330
C
100
AcDbDictionary
  0
DICTIONARY
  5
1A
102
{ACAD_REACTORS
330
C
102
}
330
C
100
AcDbDictionary
  0
DICTIONARY
  5
17
102
{ACAD_REACTORS
330
C
102
}
330
C
100
AcDbDictionary
  3
STANDARD
350
18
  0
DICTIONARY
  5
19
102
{ACAD_REACTORS
330
C
102
}
330
C
100
AcDbDictionary
  0
ACDBDICTIONARYWDFLT
  5
E
102
{ACAD_REACTORS
330
C
102
}
330
C
100
AcDbDictionary
281
     1
  3
Normal
350
F
100
AcDbDictionaryWithDefault
340
F
  0
DICTIONARY
  5
34
102
{ACAD_REACTORS
330
C
102
}
330
C
100
AcDbDictionary
  3
INDEXCTL
350
35
  3
SORTENTS
350
B5E
  0
DICTIONARY
  5
43
102
{ACAD_REACTORS
330
C
102
}
330
C
100
AcDbDictionary
  3
ACMSTDDICTIONARY
350
260
  0
DICTIONARY
  5
2B
102
{ACAD_REACTORS
330
C
102
}
330
C
100
AcDbDictionary
  3
ACMGSETTINGS
350
2C
  0
DICTIONARY
  5
6E
102
{ACAD_REACTORS
330
C
102
}
330
C
100
AcDbDictionary
  0
XRECORD
  5
4284
102
{ACAD_REACTORS
330
C
102
}
330
C
100
AcDbXrecord
  1
DWGPROPS COOKIE
  2

  3

  4

  6

  7

  8

  9

300
AmdtFileType=82
301
=
302
=
303
=
304
=
305
=
306
=
307
=
308
=
309
=
 40
0.6589364120370371
 41
2452802.716478761
 42
2452871.727529398
  1

 90
        1
  0
DICTIONARY
  5
4292
102
{ACAD_REACTORS
330
C
102
}
330
C
100
AcDbDictionary
  3
TSTACKALIGN
350
4293
  3
TSTACKSIZE
350
4294
  3
HYPERLINKBASE
350
4295
  3
STYLESHEET
350
4296
  3
LAYOUTDICT
350
4297
  3
PLOTSETDICT
350
4298
  3
PLOTSTYLNAMDICT
350
4299
  3
LWETCUNION
350
429A
  3
INSUNITS
350
429B
  3
CEPSNTYPE
350
429C
  3
FINGERPRINTGUID
350
429D
  3
VERSIONGUID
350
429E
  3
PSVPSCALE
350
429F
  3
DIMSTYLEDATA
350
42A0
  3
PUCSORTHOREF
350
42A1
  3
PUCSORTHOVIEW
350
42A2
  3
PUCSBASE
350
42A3
  3
PUCSORGTOP
350
42A4
  3
PUCSORGBOTTOM
350
42A5
  3
PUCSORGLEFT
350
42A6
  3
PUCSORGRIGHT
350
42A7
  3
PUCSORGFRONT
350
42A8
  3
PUCSORGBACK
350
42A9
  3
UCSORTHOREF
350
42AA
  3
UCSORTHOVIEW
350
42AB
  3
UCSBASE
350
42AC
  3
UCSORGTOP
350
42AD
  3
UCSORGBOTTOM
350
42AE
  3
UCSORGLEFT
350
42AF
  3
UCSORGRIGHT
350
42B0
  3
UCSORGFRONT
350
42B1
  3
UCSORGBACK
350
42B2
  0
DICTIONARY
  5
4286
102
{ACAD_REACTORS
330
74
102
}
330
74
100
AcDbDictionary
  3
*A1
350
4287
  0
XRECORD
  5
42B5
102
{ACAD_REACTORS
330
74
102
}
330
74
100
AcDbXrecord
340
1F
  0
XRECORD
  5
42BB
102
{ACAD_REACTORS
330
42BA
102
}
330
42BA
100
AcDbXrecord
340
101
  0
MLINESTYLE
  5
18
102
{ACAD_REACTORS
330
17
102
}
330
17
100
AcDbMlineStyle
  2
STANDARD
 70
     0
  3

 62
   256
 51
90.0
 52
90.0
 71
     2
 49
0.5
 62
   256
  6
BYLAYER
 49
-0.5
 62
   256
  6
BYLAYER
  0
ACDBPLACEHOLDER
  5
F
102
{ACAD_REACTORS
330
E
102
}
330
E
100
AcDbPlaceHolder
280
     0
  0
DICTIONARYVAR
  5
35
102
{ACAD_REACTORS
330
34
102
}
330
34
100
DictionaryVariables
280
     0
  1
1
  0
DICTIONARYVAR
  5
B5E
102
{ACAD_REACTORS
330
34
102
}
330
34
100
DictionaryVariables
280
     0
  1
96
  0
DICTIONARY
  5
260
102
{ACAD_REACTORS
330
43
102
}
330
43
100
AcDbDictionary
  0
DICTIONARY
  5
2C
102
{ACAD_REACTORS
330
2B
102
}
330
2B
100
AcDbDictionary
  3
DWGSETTINGS
350
2D
  0
XRECORD
  5
4293
102
{ACAD_REACTORS
330
4292
102
}
330
4292
100
AcDbXrecord
 90
        1
  0
XRECORD
  5
4294
102
{ACAD_REACTORS
330
4292
102
}
330
4292
100
AcDbXrecord
 90
       70
  0
XRECORD
  5
4295
102
{ACAD_REACTORS
330
4292
102
}
330
4292
100
AcDbXrecord
  1

  0
XRECORD
  5
4296
102
{ACAD_REACTORS
330
4292
102
}
330
4292
100
AcDbXrecord
  1
ASAMI.ctb
  0
XRECORD
  5
4297
102
{ACAD_REACTORS
330
4292
102
}
330
4292
100
AcDbXrecord
340
1A
  0
XRECORD
  5
4298
102
{ACAD_REACTORS
330
4292
102
}
330
4292
100
AcDbXrecord
340
19
  0
XRECORD
  5
4299
102
{ACAD_REACTORS
330
4292
102
}
330
4292
100
AcDbXrecord
340
E
  0
XRECORD
  5
429A
102
{ACAD_REACTORS
330
4292
102
}
330
4292
100
AcDbXrecord
 90
    10781
  0
XRECORD
  5
429B
102
{ACAD_REACTORS
330
4292
102
}
330
4292
100
AcDbXrecord
 90
        4
  0
XRECORD
  5
429C
102
{ACAD_REACTORS
330
4292
102
}
330
4292
100
AcDbXrecord
 90
        0
  0
XRECORD
  5
429D
102
{ACAD_REACTORS
330
4292
102
}
330
4292
100
AcDbXrecord
  1
{AFB28963-8C59-40AE-9337-C84526B81ACE}
  0
XRECORD
  5
429E
102
{ACAD_REACTORS
330
4292
102
}
330
4292
100
AcDbXrecord
  1
{6401BCE1-4771-4666-AC0A-2F84F4E72234}
  0
XRECORD
  5
429F
102
{ACAD_REACTORS
330
4292
102
}
330
4292
100
AcDbXrecord
 40
0.0
  0
XRECORD
  5
42A0
102
{ACAD_REACTORS
330
4292
102
}
330
4292
100
AcDbXrecord
1000
DSTYLE
1002
{
1070
    79
 70
     2
1070
   341
340
59
1070
   342
340
59
1070
   371
 70
    -1
1070
   372
 70
    -1
1002
}
  0
XRECORD
  5
42A1
102
{ACAD_REACTORS
330
4292
102
}
330
4292
100
AcDbXrecord
340
0
  0
XRECORD
  5
42A2
102
{ACAD_REACTORS
330
4292
102
}
330
4292
100
AcDbXrecord
 70
     0
  0
XRECORD
  5
42A3
102
{ACAD_REACTORS
330
4292
102
}
330
4292
100
AcDbXrecord
340
0
  0
XRECORD
  5
42A4
102
{ACAD_REACTORS
330
4292
102
}
330
4292
100
AcDbXrecord
 10
0.0
 20
0.0
 30
0.0
  0
XRECORD
  5
42A5
102
{ACAD_REACTORS
330
4292
102
}
330
4292
100
AcDbXrecord
 10
0.0
 20
0.0
 30
0.0
  0
XRECORD
  5
42A6
102
{ACAD_REACTORS
330
4292
102
}
330
4292
100
AcDbXrecord
 10
0.0
 20
0.0
 30
0.0
  0
XRECORD
  5
42A7
102
{ACAD_REACTORS
330
4292
102
}
330
4292
100
AcDbXrecord
 10
0.0
 20
0.0
 30
0.0
  0
XRECORD
  5
42A8
102
{ACAD_REACTORS
330
4292
102
}
330
4292
100
AcDbXrecord
 10
0.0
 20
0.0
 30
0.0
  0
XRECORD
  5
42A9
102
{ACAD_REACTORS
330
4292
102
}
330
4292
100
AcDbXrecord
 10
0.0
 20
0.0
 30
0.0
  0
XRECORD
  5
42AA
102
{ACAD_REACTORS
330
4292
102
}
330
4292
100
AcDbXrecord
340
0
  0
XRECORD
  5
42AB
102
{ACAD_REACTORS
330
4292
102
}
330
4292
100
AcDbXrecord
 70
     0
  0
XRECORD
  5
42AC
102
{ACAD_REACTORS
330
4292
102
}
330
4292
100
AcDbXrecord
340
0
  0
XRECORD
  5
42AD
102
{ACAD_REACTORS
330
4292
102
}
330
4292
100
AcDbXrecord
 10
0.0
 20
0.0
 30
0.0
  0
XRECORD
  5
42AE
102
{ACAD_REACTORS
330
4292
102
}
330
4292
100
AcDbXrecord
 10
0.0
 20
0.0
 30
0.0
  0
XRECORD
  5
42AF
102
{ACAD_REACTORS
330
4292
102
}
330
4292
100
AcDbXrecord
 10
0.0
 20
0.0
 30
0.0
  0
XRECORD
  5
42B0
102
{ACAD_REACTORS
330
4292
102
}
330
4292
100
AcDbXrecord
 10
0.0
 20
0.0
 30
0.0
  0
XRECORD
  5
42B1
102
{ACAD_REACTORS
330
4292
102
}
330
4292
100
AcDbXrecord
 10
0.0
 20
0.0
 30
0.0
  0
XRECORD
  5
42B2
102
{ACAD_REACTORS
330
4292
102
}
330
4292
100
AcDbXrecord
 10
0.0
 20
0.0
 30
0.0
  0
LAYER_INDEX
  5
4287
102
{ACAD_REACTORS
330
4286
102
}
330
4286
100
AcDbIndex
 40
2453152.42327956
100
AcDbLayerIndex
  8
0
360
4288
 90
        2
  8
AM_0
360
4289
 90
       41
  8
AM_5
360
428A
 90
        5
  8
AM_11
360
428B
 90
        4
  8
AM_7
360
428C
 90
        5
  8
AM_6
360
428D
 90
        1
  8
Defpoints
360
428E
 90
        0
  8
AM_4
360
428F
 90
        1
  8
AM_3
360
4290
 90
        4
  0
XRECORD
  5
2D
102
{ACAD_REACTORS
330
2C
102
}
330
2C
100
AcDbXrecord
  1
VERSION
140
15.0
  1
PRODUCT
  2
AutoCAD Mechanical 2000
  0
IDBUFFER
  5
4288
330
0
100
AcDbIdBuffer
330
2FC5
330
2FC6
  0
IDBUFFER
  5
4289
330
0
100
AcDbIdBuffer
330
3BC5
330
3BCE
330
3BD1
330
3BD2
330
3BD8
330
3BD9
330
3BDA
330
3BDB
330
3BDD
330
3BE2
330
3BE3
330
3BE8
330
3BE9
330
3BEA
330
3BF2
330
3BF3
330
3BF6
330
3BF9
330
3BFA
330
3C43
330
3C44
330
3C45
330
3EE6
330
3FB7
330
3FB8
330
2FA9
330
3819
330
388C
330
389C
330
389D
330
38AB
330
38CE
330
3B7E
330
3BAC
330
3BAD
330
3BAE
330
3BB0
330
3BB1
330
3BB2
330
3BB3
330
3BC3
  0
IDBUFFER
  5
428A
330
0
100
AcDbIdBuffer
330
36BB
330
388E
330
389E
330
3C25
330
400C
  0
IDBUFFER
  5
428B
330
0
100
AcDbIdBuffer
330
3658
330
3677
330
3B4E
330
3EF0
  0
IDBUFFER
  5
428C
330
0
100
AcDbIdBuffer
330
2FA8
330
3BC0
330
3BC2
330
3BC4
330
3BC8
  0
IDBUFFER
  5
428D
330
0
100
AcDbIdBuffer
330
388D
  0
IDBUFFER
  5
428E
330
0
100
AcDbIdBuffer
  0
IDBUFFER
  5
428F
330
0
100
AcDbIdBuffer
330
3BDC
  0
IDBUFFER
  5
4290
330
0
100
AcDbIdBuffer
330
3BF4
330
3BF5
330
3BF7
330
3BF8
  0
ENDSEC
  0
EOF
