  0
SECTION
  2
HEADER
  9
$ACADVER
  1
AC1014
  9
$ACADMAINTVER
 70
     9
  9
$DWGCODEPAGE
  3
ANSI_932
  9
$INSBASE
 10
0.0
 20
0.0
 30
0.0
  9
$EXTMIN
 10
-59.35000000000007
 20
-37.82067890975973
 30
-0.00000001
  9
$EXTMAX
 10
7.499999999999929
 20
9.245238095235796
 30
0.00000001
  9
$LIMMIN
 10
-76.58553569277074
 20
-49.46993272111075
  9
$LIMMAX
 10
27.07747642625224
 20
27.30113155222039
  9
$ORTHOMODE
 70
     0
  9
$REGENMODE
 70
     1
  9
$FILLMODE
 70
     1
  9
$QTEXTMODE
 70
     0
  9
$MIRRTEXT
 70
     0
  9
$DRAGMODE
 70
     2
  9
$LTSCALE
 40
0.3
  9
$OSMODE
 70
    55
  9
$ATTMODE
 70
     1
  9
$TEXTSIZE
 40
2.5
  9
$TRACEWID
 40
1.0
  9
$TEXTSTYLE
  7
STANDARD
  9
$CLAYER
  8
AM_0
  9
$CELTYPE
  6
BYLAYER
  9
$CECOLOR
 62
   256
  9
$CELTSCALE
 40
1.0
  9
$DELOBJ
 70
     1
  9
$DISPSILH
 70
     0
  9
$DIMSCALE
 40
0.5
  9
$DIMASZ
 40
2.5
  9
$DIMEXO
 40
1.0
  9
$DIMDLI
 40
12.0
  9
$DIMRND
 40
0.0
  9
$DIMDLE
 40
0.0
  9
$DIMEXE
 40
1.0
  9
$DIMTP
 40
0.1
  9
$DIMTM
 40
0.1
  9
$DIMTXT
 40
3.2
  9
$DIMCEN
 40
0.0
  9
$DIMTSZ
 40
0.0
  9
$DIMTOL
 70
     0
  9
$DIMLIM
 70
     0
  9
$DIMTIH
 70
     0
  9
$DIMTOH
 70
     0
  9
$DIMSE1
 70
     0
  9
$DIMSE2
 70
     0
  9
$DIMTAD
 70
     3
  9
$DIMZIN
 70
     8
  9
$DIMBLK
  1
OPEN30
  9
$DIMASO
 70
     1
  9
$DIMSHO
 70
     1
  9
$DIMPOST
  1

  9
$DIMAPOST
  1
"
  9
$DIMALT
 70
     0
  9
$DIMALTD
 70
     2
  9
$DIMALTF
 40
0.0393701
  9
$DIMLFAC
 40
1.0
  9
$DIMTOFL
 70
     1
  9
$DIMTVP
 40
0.0
  9
$DIMTIX
 70
     0
  9
$DIMSOXD
 70
     0
  9
$DIMSAH
 70
     0
  9
$DIMBLK1
  1

  9
$DIMBLK2
  1

  9
$DIMSTYLE
  2
AM_JIS
  9
$DIMCLRD
 70
   256
  9
$DIMCLRE
 70
   256
  9
$DIMCLRT
 70
     2
  9
$DIMTFAC
 40
0.71
  9
$DIMGAP
 40
1.5
  9
$DIMJUST
 70
     0
  9
$DIMSD1
 70
     0
  9
$DIMSD2
 70
     0
  9
$DIMTOLJ
 70
     0
  9
$DIMTZIN
 70
     0
  9
$DIMALTZ
 70
     0
  9
$DIMALTTZ
 70
     0
  9
$DIMFIT
 70
     3
  9
$DIMUPT
 70
     0
  9
$DIMUNIT
 70
     2
  9
$DIMDEC
 70
     3
  9
$DIMTDEC
 70
     3
  9
$DIMALTU
 70
     2
  9
$DIMALTTD
 70
     2
  9
$DIMTXSTY
  7
ASAMI
  9
$DIMAUNIT
 70
     0
  9
$LUNITS
 70
     2
  9
$LUPREC
 70
     2
  9
$SKETCHINC
 40
1.0
  9
$FILLETRAD
 40
0.5
  9
$AUNITS
 70
     0
  9
$AUPREC
 70
     0
  9
$MENU
  1
.
  9
$ELEVATION
 40
0.0
  9
$PELEVATION
 40
0.0
  9
$THICKNESS
 40
0.0
  9
$LIMCHECK
 70
     0
  9
$BLIPMODE
 70
     0
  9
$CHAMFERA
 40
2.5
  9
$CHAMFERB
 40
2.5
  9
$CHAMFERC
 40
20.0
  9
$CHAMFERD
 40
0.0
  9
$SKPOLY
 70
     0
  9
$TDCREATE
 40
2452838.620506898
  9
$TDUPDATE
 40
2453152.355612175
  9
$TDINDWG
 40
0.3291890972
  9
$TDUSRTIMER
 40
0.3291890972
  9
$USRTIMER
 70
     1
  9
$ANGBASE
 50
0.0
  9
$ANGDIR
 70
     0
  9
$PDMODE
 70
     0
  9
$PDSIZE
 40
0.0
  9
$PLINEWID
 40
0.0
  9
$COORDS
 70
     1
  9
$SPLFRAME
 70
     0
  9
$SPLINETYPE
 70
     6
  9
$SPLINESEGS
 70
     8
  9
$ATTDIA
 70
     1
  9
$ATTREQ
 70
     1
  9
$HANDLING
 70
 12289
  9
$HANDSEED
  5
20F9
  9
$SURFTAB1
 70
     6
  9
$SURFTAB2
 70
     6
  9
$SURFTYPE
 70
     6
  9
$SURFU
 70
     6
  9
$SURFV
 70
     6
  9
$UCSNAME
  2

  9
$UCSORG
 10
-0.0000000000000568
 20
-0.0000000000000036
 30
0.0
  9
$UCSXDIR
 10
1.0
 20
0.0
 30
0.0
  9
$UCSYDIR
 10
0.0
 20
1.0
 30
0.0
  9
$PUCSNAME
  2

  9
$PUCSORG
 10
0.0
 20
0.0
 30
0.0
  9
$PUCSXDIR
 10
1.0
 20
0.0
 30
0.0
  9
$PUCSYDIR
 10
0.0
 20
1.0
 30
0.0
  9
$USERI1
 70
     0
  9
$USERI2
 70
     0
  9
$USERI3
 70
     0
  9
$USERI4
 70
     0
  9
$USERI5
 70
     0
  9
$USERR1
 40
0.0
  9
$USERR2
 40
0.0
  9
$USERR3
 40
0.0
  9
$USERR4
 40
0.0
  9
$USERR5
 40
0.0
  9
$WORLDVIEW
 70
     1
  9
$SHADEDGE
 70
     3
  9
$SHADEDIF
 70
    70
  9
$TILEMODE
 70
     1
  9
$MAXACTVP
 70
    64
  9
$PINSBASE
 10
0.0
 20
0.0
 30
0.0
  9
$PLIMCHECK
 70
     0
  9
$PEXTMIN
 10
1.000000000000000E+20
 20
1.000000000000000E+20
 30
1.000000000000000E+20
  9
$PEXTMAX
 10
-1.000000000000000E+20
 20
-1.000000000000000E+20
 30
-1.000000000000000E+20
  9
$PLIMMIN
 10
0.0
 20
0.0
  9
$PLIMMAX
 10
841.0
 20
594.0
  9
$UNITMODE
 70
     0
  9
$VISRETAIN
 70
     1
  9
$PLINEGEN
 70
     0
  9
$PSLTSCALE
 70
     0
  9
$TREEDEPTH
 70
  3020
  9
$PICKSTYLE
 70
     0
  9
$CMLSTYLE
  2
STANDARD
  9
$CMLJUST
 70
     0
  9
$CMLSCALE
 40
20.0
  9
$PROXYGRAPHICS
 70
     1
  9
$MEASUREMENT
 70
     1
  0
ENDSEC
  0
SECTION
  2
CLASSES
  0
CLASS
  1
ACDBDICTIONARYWDFLT
  2
AcDbDictionaryWithDefault
  3
AutoCAD 2000
 90
        0
280
     0
281
     0
  0
CLASS
  1
ACDBPLACEHOLDER
  2
AcDbPlaceHolder
  3
AutoCAD 2000
 90
        0
280
     0
281
     0
  0
CLASS
  1
LAYOUT
  2
AcDbLayout
  3
AutoCAD 2000
 90
        0
280
     0
281
     0
  0
CLASS
  1
AMGSETTINGSOBJ
  2
AmgSettingsObj
  3
"AcadM|Product Description: AutoCAD Mechanical 2000|Company: Autodesk"
 90
        0
280
     0
281
     0
  0
CLASS
  1
ACME_DOCUMENT
  2
AcMeDbDoc
  3
AcMeServices
 90
        0
280
     0
281
     0
  0
CLASS
  1
ACMESCOPE
  2
AcMeScope
  3
AcMeServices
 90
        0
280
     0
281
     0
  0
CLASS
  1
ACMECOMMANDHISTORY
  2
AcMeCommandHistory
  3
AcMeServices
 90
        0
280
     0
281
     0
  0
CLASS
  1
DICTIONARYVAR
  2
AcDbDictionaryVar
  3
AutoCAD 2000
 90
        0
280
     0
281
     0
  0
CLASS
  1
ACIMSYSVARMAN
  2
AcImSysVarManager
  3
AcMeServices
 90
        0
280
     0
281
     0
  0
CLASS
  1
ACIMREALSYSVAR
  2
AcImRealSysVar
  3
AcMeServices
 90
        0
280
     0
281
     0
  0
CLASS
  1
ACIMINTSYSVAR
  2
AcImIntSysVar
  3
AcMeServices
 90
        0
280
     0
281
     0
  0
CLASS
  1
ACMEDRAWINGMAN
  2
AcMeDrawingMan
  3
AcMeServices
 90
        0
280
     0
281
     0
  0
CLASS
  1
ACMEVIEW
  2
AcMeView
  3
AcMeServices
 90
        0
280
     0
281
     0
  0
CLASS
  1
ACDBENTITYCACHE
  2
AcMeEntityCache
  3
AcMeServices
 90
        0
280
     0
281
     0
  0
CLASS
  1
GSMANAGER
  2
AcMeGSManager
  3
AcMeServices
 90
        0
280
     0
281
     0
  0
CLASS
  1
AmdtInternalReactor
  2
AmdtInternalReactor
  3
AcMeServices
 90
        0
280
     0
281
     0
  0
CLASS
  1
ACMESTATEMGR
  2
AcMeStateMgr
  3
AcMeServices
 90
        0
280
     0
281
     0
  0
CLASS
  1
ACME_DATABASE
  2
AcMeDbDatabase
  3
AcMeServices
 90
        0
280
     0
281
     0
  0
CLASS
  1
ACRFINSADJUSTERMGR
  2
AcRfInsAdjusterMgr
  3
AcMeServices
 90
        0
280
     0
281
     0
  0
CLASS
  1
ACMDATADICTIONARY
  2
AcmDataDictionary
  3
"AcmSymBB|Product Description: AutoCAD Mechanical 2000|Company: Autodesk"
 90
        0
280
     0
281
     0
  0
CLASS
  1
ACMDATAENTRYBLOCK
  2
AcmDataEntryBlock
  3
"AcmSymBB|Product Description: AutoCAD Mechanical 2000|Company: Autodesk"
 90
        0
280
     0
281
     0
  0
CLASS
  1
AMGOBJPROPCFG
  2
AmgObjPropCfg
  3
"AmgLay|Product Description: AutoCAD Mechanical 2000|Company: Autodesk"
 90
        1
280
     0
281
     0
  0
CLASS
  1
ACAMGFILTERDAT
  2
AcAmgFilterDat
  3
"AcadM|Product Description: AutoCAD Mechanical 2000|Company: Autodesk"
 90
        0
280
     0
281
     0
  0
CLASS
  1
LAYER_INDEX
  2
AcDbLayerIndex
  3
AutoCAD 2000
 90
        0
280
     0
281
     0
  0
CLASS
  1
IDBUFFER
  2
AcDbIdBuffer
  3
AutoCAD 2000
 90
        0
280
     0
281
     0
  0
CLASS
  1
ACIMSTRSYSVAR
  2
AcImStrSysVar
  3
AcMeServices
 90
        0
280
     0
281
     0
  0
CLASS
  1
ACMSTANDARDJIS
  2
AcmStandardJIS
  3
"AcmSymBB|Product Description: AutoCAD Mechanical 2000|Company: Autodesk"
 90
        0
280
     0
281
     0
  0
CLASS
  1
ACMSURFSTANDARDJIS
  2
AcmSurfTextStdJIS
  3
"AcmSymBB|Product Description: AutoCAD Mechanical 2000|Company: Autodesk"
 90
        0
280
     0
281
     0
  0
CLASS
  1
ACMFCFSTANDARDJIS
  2
AcmFCFStdJIS
  3
"AcmSymBB|Product Description: AutoCAD Mechanical 2000|Company: Autodesk"
 90
        0
280
     0
281
     0
  0
CLASS
  1
ACMWELDSTANDARDJIS
  2
AcmWeldingStdJIS
  3
"AcmSymBB|Product Description: AutoCAD Mechanical 2000|Company: Autodesk"
 90
        0
280
     0
281
     0
  0
CLASS
  1
ACMIDSTANDARDJIS
  2
AcmIdStdJIS
  3
"AcmSymBB|Product Description: AutoCAD Mechanical 2000|Company: Autodesk"
 90
        0
280
     0
281
     0
  0
CLASS
  1
ACMDATUMSTANDARDJIS
  2
AcmDatumStdJIS
  3
"AcmSymBB|Product Description: AutoCAD Mechanical 2000|Company: Autodesk"
 90
        0
280
     0
281
     0
  0
CLASS
  1
ACMBOMSTANDARDJIS
  2
AcmBOMStdJIS
  3
"AcmSymBB|Product Description: AutoCAD Mechanical 2000|Company: Autodesk"
 90
        0
280
     0
281
     0
  0
CLASS
  1
ACMSTANDARDANSI
  2
AcmStandardANSI
  3
"AcmSymBB|Product Description: AutoCAD Mechanical 2000|Company: Autodesk"
 90
        0
280
     0
281
     0
  0
CLASS
  1
ACMSURFSTANDARDANSI
  2
AcmSurfTextStdANSI
  3
"AcmSymBB|Product Description: AutoCAD Mechanical 2000|Company: Autodesk"
 90
        0
280
     0
281
     0
  0
CLASS
  1
ACMFCFSTANDARDANSI
  2
AcmFCFStdANSI
  3
"AcmSymBB|Product Description: AutoCAD Mechanical 2000|Company: Autodesk"
 90
        0
280
     0
281
     0
  0
CLASS
  1
ACMWELDSTANDARDANSI
  2
AcmWeldingStdANSI
  3
"AcmSymBB|Product Description: AutoCAD Mechanical 2000|Company: Autodesk"
 90
        0
280
     0
281
     0
  0
CLASS
  1
ACMIDSTANDARDANSI
  2
AcmIdStdANSI
  3
"AcmSymBB|Product Description: AutoCAD Mechanical 2000|Company: Autodesk"
 90
        0
280
     0
281
     0
  0
CLASS
  1
ACMDATUMSTANDARDANSI
  2
AcmDatumStdANSI
  3
"AcmSymBB|Product Description: AutoCAD Mechanical 2000|Company: Autodesk"
 90
        0
280
     0
281
     0
  0
CLASS
  1
ACMBOMSTANDARDANSI
  2
AcmBOMStdANSI
  3
"AcmSymBB|Product Description: AutoCAD Mechanical 2000|Company: Autodesk"
 90
        0
280
     0
281
     0
  0
CLASS
  1
ACMSTANDARDBSI
  2
AcmStandardBSI
  3
"AcmSymBB|Product Description: AutoCAD Mechanical 2000|Company: Autodesk"
 90
        0
280
     0
281
     0
  0
CLASS
  1
ACMSURFSTANDARDBSI
  2
AcmSurfTextStdBSI
  3
"AcmSymBB|Product Description: AutoCAD Mechanical 2000|Company: Autodesk"
 90
        0
280
     0
281
     0
  0
CLASS
  1
ACMFCFSTANDARDBSI
  2
AcmFCFStdBSI
  3
"AcmSymBB|Product Description: AutoCAD Mechanical 2000|Company: Autodesk"
 90
        0
280
     0
281
     0
  0
CLASS
  1
ACMWELDSTANDARDBSI
  2
AcmWeldingStdBSI
  3
"AcmSymBB|Product Description: AutoCAD Mechanical 2000|Company: Autodesk"
 90
        0
280
     0
281
     0
  0
CLASS
  1
ACMIDSTANDARDBSI
  2
AcmIdStdBSI
  3
"AcmSymBB|Product Description: AutoCAD Mechanical 2000|Company: Autodesk"
 90
        0
280
     0
281
     0
  0
CLASS
  1
ACMDATUMSTANDARDBSI
  2
AcmDatumStdBSI
  3
"AcmSymBB|Product Description: AutoCAD Mechanical 2000|Company: Autodesk"
 90
        0
280
     0
281
     0
  0
CLASS
  1
ACMBOMSTANDARDBSI
  2
AcmBOMStdBSI
  3
"AcmSymBB|Product Description: AutoCAD Mechanical 2000|Company: Autodesk"
 90
        0
280
     0
281
     0
  0
CLASS
  1
LONG_TRANSACTION
  2
AcDbLongTransaction
  3
AutoCAD 2000
 90
        0
280
     0
281
     0
  0
CLASS
  1
LWPOLYLINE
  2
AcDbPolyline
  3
AutoCAD 2000
 90
        0
280
     0
281
     1
  0
CLASS
  1
HATCH
  2
AcDbHatch
  3
AutoCAD 2000
 90
        0
280
     0
281
     1
  0
CLASS
  1
XRECORD
  2
AcDbXrecord
  3
AutoCAD 2000
 90
        0
280
     0
281
     0
  0
ENDSEC
  0
SECTION
  2
TABLES
  0
TABLE
  2
VPORT
  5
8
330
0
100
AcDbSymbolTable
 70
     3
  0
VPORT
  5
20C8
330
8
100
AcDbSymbolTableRecord
100
AcDbViewportTableRecord
  2
*ACTIVE
 70
     0
 10
0.0
 20
0.0
 11
1.0
 21
1.0
 12
-16.76193675640398
 22
-3.519695617174399
 13
0.0
 23
0.0
 14
2.5
 24
2.5
 15
10.0
 25
10.0
 16
0.0
 26
0.0
 36
1.0
 17
0.0
 27
0.0
 37
0.0
 40
102.1462150301727
 41
1.56570841889117
 42
50.0
 43
0.0
 44
0.0
 50
0.0
 51
0.0
 71
     0
 72
   100
 73
     1
 74
     3
 75
     0
 76
     0
 77
     0
 78
     0
  0
ENDTAB
  0
TABLE
  2
LTYPE
  5
5
330
0
100
AcDbSymbolTable
 70
    10
  0
LTYPE
  5
14
330
5
100
AcDbSymbolTableRecord
100
AcDbLinetypeTableRecord
  2
BYBLOCK
 70
     0
  3

 72
    65
 73
     0
 40
0.0
  0
LTYPE
  5
15
330
5
100
AcDbSymbolTableRecord
100
AcDbLinetypeTableRecord
  2
BYLAYER
 70
     0
  3

 72
    65
 73
     0
 40
0.0
  0
LTYPE
  5
16
330
5
100
AcDbSymbolTableRecord
100
AcDbLinetypeTableRecord
  2
CONTINUOUS
 70
     0
  3
Solid line
 72
    65
 73
     0
 40
0.0
  0
LTYPE
  5
4B
330
5
100
AcDbSymbolTableRecord
100
AcDbLinetypeTableRecord
  2
AM_ISO02W050
 70
     0
  3
__ __ __ __ __ __ __ __ __ __ __ __ __ __ __
 72
    65
 73
     2
 40
7.5
 49
6.0
 74
     0
 49
-1.5
 74
     0
  0
LTYPE
  5
4C
330
5
100
AcDbSymbolTableRecord
100
AcDbLinetypeTableRecord
  2
AM_ISO08W050
 70
     0
  3
____ . ____ . ____ . ____ . ____ . ____ . ____
 72
    65
 73
     4
 40
18.0
 49
12.0
 74
     0
 49
-1.5
 74
     0
 49
3.0
 74
     0
 49
-1.5
 74
     0
  0
LTYPE
  5
4D
330
5
100
AcDbSymbolTableRecord
100
AcDbLinetypeTableRecord
  2
AM_ISO09W050
 70
     0
  3
_____ . . _____ . . _____ . . ____ .. ____
 72
    65
 73
     6
 40
22.5
 49
12.0
 74
     0
 49
-1.5
 74
     0
 49
3.0
 74
     0
 49
-1.5
 74
     0
 49
3.0
 74
     0
 49
-1.5
 74
     0
  0
LTYPE
  5
4E
330
5
100
AcDbSymbolTableRecord
100
AcDbLinetypeTableRecord
  2
AMCONSTR
 70
     0
  3
_______________________
 72
    65
 73
     2
 40
9999.0
 49
9999.0
 74
     0
 49
0.0
 74
     0
  0
LTYPE
  5
4F
330
5
100
AcDbSymbolTableRecord
100
AcDbLinetypeTableRecord
  2
AM_ISO02W050X2
 70
     0
  3
 _ _ _ _ _ _ _ _ _ _ _ _
 72
    65
 73
     2
 40
3.75
 49
3.0
 74
     0
 49
-0.75
 74
     0
  0
LTYPE
  5
50
330
5
100
AcDbSymbolTableRecord
100
AcDbLinetypeTableRecord
  2
AM_ISO08W050X2
 70
     0
  3
__ . __ . __ . __ . __ . __
 72
    65
 73
     4
 40
9.0
 49
6.0
 74
     0
 49
-0.75
 74
     0
 49
1.5
 74
     0
 49
-0.75
 74
     0
  0
LTYPE
  5
53
330
5
100
AcDbSymbolTableRecord
100
AcDbLinetypeTableRecord
  2
AMZIGZAG
 70
     0
  3
/\/-/\/-/\/-/\/-/\/-/\/
 72
    65
 73
     2
 40
11.00009999999999
 49
0.0001
 74
     4
 75
   135
340
52
 46
0.04
 50
0.0
 44
0.0
 45
0.0
 49
-11.0
 74
     0
  0
LTYPE
  5
166
330
5
100
AcDbSymbolTableRecord
100
AcDbLinetypeTableRecord
  2
ACJISTGL
 70
     0
  3
_ _ _ _ _
 72
    65
 73
     2
 40
3.0
 49
2.0
 74
     0
 49
-1.0
 74
     0
  0
LTYPE
  5
26A
330
5
100
AcDbSymbolTableRecord
100
AcDbLinetypeTableRecord
  2
ACJISTGB
 70
     0
  3
__ . . __ . .
 72
    65
 73
     6
 40
9.0
 49
4.0
 74
     0
 49
-1.0
 74
     0
 49
1.0
 74
     0
 49
-1.0
 74
     0
 49
1.0
 74
     0
 49
-1.0
 74
     0
  0
ENDTAB
  0
TABLE
  2
LAYER
  5
2
330
0
100
AcDbSymbolTable
 70
     7
  0
LAYER
  5
10
330
2
100
AcDbSymbolTableRecord
100
AcDbLayerTableRecord
  2
0
 70
     0
 62
     7
  6
CONTINUOUS
  0
LAYER
  5
3F9
330
2
100
AcDbSymbolTableRecord
100
AcDbLayerTableRecord
  2
AM_0
 70
     0
 62
     7
  6
CONTINUOUS
  0
LAYER
  5
BD6
330
2
100
AcDbSymbolTableRecord
100
AcDbLayerTableRecord
  2
AM_11
 70
     0
 62
     3
  6
AM_ISO09W050
  0
LAYER
  5
BD7
330
2
100
AcDbSymbolTableRecord
100
AcDbLayerTableRecord
  2
AM_7
 70
     0
 62
     4
  6
AM_ISO08W050
  0
LAYER
  5
BD8
330
2
100
AcDbSymbolTableRecord
100
AcDbLayerTableRecord
  2
AM_5
 70
     0
 62
     3
  6
CONTINUOUS
  0
LAYER
  5
BD9
330
2
100
AcDbSymbolTableRecord
100
AcDbLayerTableRecord
  2
DEFPOINTS
 70
     0
 62
     7
  6
CONTINUOUS
  0
LAYER
  5
BDA
330
2
100
AcDbSymbolTableRecord
100
AcDbLayerTableRecord
  2
AM_6
 70
     0
 62
     2
  6
CONTINUOUS
  0
ENDTAB
  0
TABLE
  2
STYLE
  5
3
330
0
100
AcDbSymbolTable
 70
     5
  0
STYLE
  5
11
330
3
100
AcDbSymbolTableRecord
100
AcDbTextStyleTableRecord
  2
STANDARD
 70
     0
 40
0.0
 41
1.0
 50
0.0
 71
     0
 42
2.5
  3
simplex.shx
  4
EXTFONT.SHX
  0
STYLE
  5
52
330
3
100
AcDbSymbolTableRecord
100
AcDbTextStyleTableRecord
  2

 70
     1
 40
0.0
 41
1.0
 50
0.0
 71
     0
 42
2.5
  3
ltypeshp.shx
  4

  0
STYLE
  5
6B
330
3
100
AcDbSymbolTableRecord
100
AcDbTextStyleTableRecord
  2
ASAMI
 70
     0
 40
0.0
 41
1.0
 50
0.0
 71
     0
 42
2.5
  3
simplex.shx
  4
EXTFONT.SHX
  0
STYLE
  5
262
330
3
100
AcDbSymbolTableRecord
100
AcDbTextStyleTableRecord
  2
ACJISTS
 70
     0
 40
1.0
 41
1.0
 50
0.0
 71
     0
 42
2.5
  3
simplex.shx
  4
bigfont.shx
  0
STYLE
  5
269
330
3
100
AcDbSymbolTableRecord
100
AcDbTextStyleTableRecord
  2
ACJISGDT
 70
     0
 40
0.0
 41
1.0
 50
0.0
 71
     0
 42
2.5
  3
amgdtans.shx
  4

  0
ENDTAB
  0
TABLE
  2
VIEW
  5
6
330
0
100
AcDbSymbolTable
 70
     0
  0
ENDTAB
  0
TABLE
  2
UCS
  5
7
330
0
100
AcDbSymbolTable
 70
     0
  0
ENDTAB
  0
TABLE
  2
APPID
  5
9
330
0
100
AcDbSymbolTable
 70
    13
  0
APPID
  5
12
330
9
100
AcDbSymbolTableRecord
100
AcDbRegAppTableRecord
  2
ACAD
 70
     0
  0
APPID
  5
30
330
9
100
AcDbSymbolTableRecord
100
AcDbRegAppTableRecord
  2
MCAD_NO_VIS
 70
     0
  0
APPID
  5
31
330
9
100
AcDbSymbolTableRecord
100
AcDbRegAppTableRecord
  2
ACAD_TEMP_GRAPHIC
 70
     0
  0
APPID
  5
2C2
330
9
100
AcDbSymbolTableRecord
100
AcDbRegAppTableRecord
  2
GENIUS_GENDTOL_13
 70
     0
  0
APPID
  5
339
330
9
100
AcDbSymbolTableRecord
100
AcDbRegAppTableRecord
  2
GENIUS_GENODEF_13
 70
     0
  0
APPID
  5
33A
330
9
100
AcDbSymbolTableRecord
100
AcDbRegAppTableRecord
  2
GENIUS_GENOBJ-N-RSBK_13
 70
     0
  0
APPID
  5
33B
330
9
100
AcDbSymbolTableRecord
100
AcDbRegAppTableRecord
  2
GENIUS_GENOBJ-N-LIB_13
 70
     0
  0
APPID
  5
33C
330
9
100
AcDbSymbolTableRecord
100
AcDbRegAppTableRecord
  2
GENIUS_GENSCALE_13
 70
     0
  0
APPID
  5
378
330
9
100
AcDbSymbolTableRecord
100
AcDbRegAppTableRecord
  2
GENIUS_GENDIMSH_14
 70
     0
  0
APPID
  5
BDB
330
9
100
AcDbSymbolTableRecord
100
AcDbRegAppTableRecord
  2
GENIUS_GENOBJ-N-CEN_13
 70
     0
  0
APPID
  5
BDC
330
9
100
AcDbSymbolTableRecord
100
AcDbRegAppTableRecord
  2
GENIUS_GENFIL_13
 70
     0
  0
APPID
  5
BDD
330
9
100
AcDbSymbolTableRecord
100
AcDbRegAppTableRecord
  2
GENIUS_GENOBJ-N-FIL_13
 70
     0
  0
APPID
  5
12AD
330
9
100
AcDbSymbolTableRecord
100
AcDbRegAppTableRecord
  2
GENIUS_GENOREF_13
 70
     0
  0
ENDTAB
  0
TABLE
  2
DIMSTYLE
  5
A
330
0
100
AcDbSymbolTable
 70
     8
  0
DIMSTYLE
105
58
102
{ACAD_REACTORS
330
C4F
330
18C3
330
194C
330
195B
330
1CC3
102
}
330
A
100
AcDbSymbolTableRecord
100
AcDbDimStyleTableRecord
  2
AM_JIS
 70
     0
  3

  4
"
  5
OPEN30
  6

  7

 40
0.5
 41
2.5
 42
1.0
 43
12.0
 44
1.0
 45
0.0
 46
0.0
 47
0.1
 48
0.1
140
3.2
141
0.0
142
0.0
143
0.0393701
144
1.0
145
0.0
146
0.71
147
1.5
 71
     0
 72
     0
 73
     0
 74
     0
 75
     0
 76
     0
 77
     3
 78
     8
170
     0
171
     2
172
     1
173
     0
174
     0
175
     0
176
   256
177
   256
178
     2
270
     2
271
     3
272
     3
273
     2
274
     2
340
6B
275
     0
280
     0
281
     0
282
     0
283
     0
284
     0
285
     0
286
     0
287
     3
288
     0
  0
DIMSTYLE
105
5F
330
A
100
AcDbSymbolTableRecord
100
AcDbDimStyleTableRecord
  2
AM_JIS$3
 70
     0
  3

  4
"
  5
OPEN30
  6

  7

 40
0.5
 41
2.5
 42
1.0
 43
10.0
 44
1.0
 45
0.0
 46
0.0
 47
0.1
 48
0.1
140
3.2
141
0.0
142
0.0
143
0.0393701
144
1.0
145
0.0
146
0.71
147
1.5
 71
     0
 72
     0
 73
     0
 74
     1
 75
     0
 76
     0
 77
     3
 78
     8
170
     0
171
     2
172
     0
173
     0
174
     0
175
     0
176
   256
177
   256
178
     2
270
     2
271
     2
272
     3
273
     2
274
     2
340
6B
275
     0
280
     0
281
     0
282
     0
283
     0
284
     0
285
     0
286
     0
287
     0
288
     1
  0
DIMSTYLE
105
60
102
{ACAD_REACTORS
330
2008
102
}
330
A
100
AcDbSymbolTableRecord
100
AcDbDimStyleTableRecord
  2
AM_JIS$4
 70
     0
  3

  4
"
  5
OPEN30
  6

  7

 40
0.5
 41
2.5
 42
1.0
 43
10.0
 44
1.0
 45
0.0
 46
0.0
 47
0.1
 48
0.1
140
3.2
141
0.0
142
0.0
143
0.0393701
144
1.0
145
0.0
146
0.71
147
1.5
 71
     0
 72
     0
 73
     0
 74
     1
 75
     0
 76
     0
 77
     3
 78
     8
170
     0
171
     2
172
     0
173
     0
174
     0
175
     0
176
   256
177
   256
178
     2
270
     2
271
     2
272
     3
273
     2
274
     2
340
6B
275
     0
280
     0
281
     0
282
     0
283
     0
284
     0
285
     0
286
     0
287
     0
288
     1
  0
DIMSTYLE
105
61
330
A
100
AcDbSymbolTableRecord
100
AcDbDimStyleTableRecord
  2
AM_JIS$6
 70
     0
  3

  4
"
  5
OPEN30
  6

  7

 40
0.5
 41
2.5
 42
1.0
 43
10.0
 44
1.0
 45
0.0
 46
0.0
 47
0.1
 48
0.1
140
3.2
141
0.0
142
0.0
143
0.0393701
144
1.0
145
0.0
146
0.71
147
1.5
 71
     0
 72
     0
 73
     0
 74
     0
 75
     0
 76
     0
 77
     0
 78
     8
170
     0
171
     2
172
     1
173
     0
174
     0
175
     0
176
   256
177
   256
178
     2
270
     2
271
     2
272
     2
273
     2
274
     2
340
6B
275
     0
280
     0
281
     0
282
     0
283
     0
284
     0
285
     0
286
     0
287
     3
288
     0
  0
DIMSTYLE
105
62
330
A
100
AcDbSymbolTableRecord
100
AcDbDimStyleTableRecord
  2
AM_JIS$7
 70
     0
  3

  4
"
  5
OPEN30
  6

  7

 40
0.5
 41
2.5
 42
1.0
 43
10.0
 44
1.0
 45
0.0
 46
0.0
 47
0.1
 48
0.1
140
3.2
141
0.0
142
0.0
143
0.0393701
144
1.0
145
0.0
146
0.71
147
1.5
 71
     0
 72
     0
 73
     0
 74
     0
 75
     0
 76
     0
 77
     3
 78
     8
170
     0
171
     2
172
     1
173
     0
174
     0
175
     0
176
   256
177
   256
178
     2
270
     2
271
     2
272
     3
273
     2
274
     2
340
6B
275
     0
280
     0
281
     0
282
     0
283
     0
284
     0
285
     0
286
     0
287
     3
288
     0
  0
DIMSTYLE
105
63
330
A
100
AcDbSymbolTableRecord
100
AcDbDimStyleTableRecord
  2
AM_JIS$SF
 70
     0
  3

  4
"
  5
OPEN30
  6

  7

 40
0.5
 41
2.5
 42
1.0
 43
10.0
 44
1.0
 45
0.0
 46
0.0
 47
0.1
 48
0.1
140
3.2
141
0.0
142
0.0
143
0.0393701
144
1.0
145
0.0
146
0.71
147
1.5
 71
     0
 72
     0
 73
     0
 74
     0
 75
     1
 76
     1
 77
     3
 78
     8
170
     0
171
     2
172
     1
173
     0
174
     0
175
     0
176
   256
177
   256
178
     2
270
     2
271
     2
272
     2
273
     2
274
     2
340
6B
275
     0
280
     0
281
     0
282
     0
283
     0
284
     0
285
     0
286
     0
287
     3
288
     0
  0
DIMSTYLE
105
68
330
A
100
AcDbSymbolTableRecord
100
AcDbDimStyleTableRecord
  2
AM_JIS$SH
 70
     0
  3

  4
"
  5

  6
GENAXEH
  7
OPEN30
 40
0.5
 41
2.5
 42
1.0
 43
10.0
 44
1.0
 45
0.0
 46
0.0
 47
0.1
 48
0.1
140
3.2
141
0.0
142
0.0
143
0.0393701
144
2.0
145
0.0
146
0.71
147
1.5
 71
     0
 72
     0
 73
     0
 74
     0
 75
     1
 76
     1
 77
     3
 78
     8
170
     0
171
     2
172
     1
173
     1
174
     0
175
     0
176
   256
177
   256
178
     2
270
     2
271
     2
272
     2
273
     2
274
     2
340
6B
275
     0
280
     0
281
     0
282
     0
283
     0
284
     0
285
     0
286
     0
287
     3
288
     0
  0
DIMSTYLE
105
B34
330
A
100
AcDbSymbolTableRecord
100
AcDbDimStyleTableRecord
  2
AM_JIS$2
 70
     0
  3

  4
"
  5
OPEN30
  6

  7

 40
0.5
 41
2.5
 42
1.0
 43
12.0
 44
1.0
 45
0.0
 46
0.0
 47
0.1
 48
0.1
140
3.2
141
0.0
142
0.0
143
0.0393701
144
1.0
145
0.0
146
0.71
147
1.5
 71
     0
 72
     0
 73
     0
 74
     0
 75
     0
 76
     0
 77
     3
 78
     8
170
     0
171
     2
172
     1
173
     0
174
     0
175
     0
176
   256
177
   256
178
     2
270
     2
271
     3
272
     3
273
     2
274
     2
340
6B
275
     0
280
     0
281
     0
282
     0
283
     0
284
     0
285
     0
286
     0
287
     3
288
     0
  0
ENDTAB
  0
TABLE
  2
BLOCK_RECORD
  5
1
330
0
100
AcDbSymbolTable
 70
    11
  0
BLOCK_RECORD
  5
1F
102
{ACAD_XDICTIONARY
360
74
102
}
330
1
100
AcDbSymbolTableRecord
100
AcDbBlockTableRecord
  2
*MODEL_SPACE
  0
BLOCK_RECORD
  5
101
102
{ACAD_XDICTIONARY
360
20F1
102
}
330
1
100
AcDbSymbolTableRecord
100
AcDbBlockTableRecord
  2
*PAPER_SPACE
  0
BLOCK_RECORD
  5
59
330
1
100
AcDbSymbolTableRecord
100
AcDbBlockTableRecord
  2
_OPEN30
  0
BLOCK_RECORD
  5
64
330
1
100
AcDbSymbolTableRecord
100
AcDbBlockTableRecord
  2
GENAXEH
  0
BLOCK_RECORD
  5
C75
330
1
100
AcDbSymbolTableRecord
100
AcDbBlockTableRecord
  2
*D5
  0
BLOCK_RECORD
  5
18C4
330
1
100
AcDbSymbolTableRecord
100
AcDbBlockTableRecord
  2
*D6
  0
BLOCK_RECORD
  5
194D
330
1
100
AcDbSymbolTableRecord
100
AcDbBlockTableRecord
  2
*D7
  0
BLOCK_RECORD
  5
195C
330
1
100
AcDbSymbolTableRecord
100
AcDbBlockTableRecord
  2
*D8
  0
BLOCK_RECORD
  5
1CC4
330
1
100
AcDbSymbolTableRecord
100
AcDbBlockTableRecord
  2
*D9
  0
BLOCK_RECORD
  5
2009
330
1
100
AcDbSymbolTableRecord
100
AcDbBlockTableRecord
  2
*D10
  0
ENDTAB
  0
ENDSEC
  0
SECTION
  2
BLOCKS
  0
BLOCK
  5
20
330
1F
100
AcDbEntity
  8
0
100
AcDbBlockBegin
  2
*MODEL_SPACE
 70
     0
 10
0.0
 20
0.0
 30
0.0
  3
*MODEL_SPACE
  1

  0
ENDBLK
  5
21
330
1F
100
AcDbEntity
  8
0
100
AcDbBlockEnd
  0
BLOCK
  5
103
330
101
100
AcDbEntity
 67
     1
  8
0
100
AcDbBlockBegin
  2
*PAPER_SPACE
 70
     0
 10
0.0
 20
0.0
 30
0.0
  3
*PAPER_SPACE
  1

  0
ENDBLK
  5
104
330
101
100
AcDbEntity
 67
     1
  8
0
100
AcDbBlockEnd
  0
BLOCK
  5
5D
330
59
100
AcDbEntity
  8
0
100
AcDbBlockBegin
  2
_OPEN30
 70
     0
 10
0.0
 20
0.0
 30
0.0
  3
_OPEN30
  1

  0
LINE
  5
5A
330
59
100
AcDbEntity
  8
0
 62
     0
100
AcDbLine
 10
-1.0
 20
0.26794919
 30
0.0
 11
0.0
 21
0.0
 31
0.0
  0
LINE
  5
5B
330
59
100
AcDbEntity
  8
0
 62
     0
100
AcDbLine
 10
0.0
 20
0.0
 30
0.0
 11
-1.0
 21
-0.26794919
 31
0.0
  0
LINE
  5
5C
330
59
100
AcDbEntity
  8
0
 62
     0
100
AcDbLine
 10
0.0
 20
0.0
 30
0.0
 11
-1.0
 21
0.0
 31
0.0
  0
ENDBLK
  5
5E
330
59
100
AcDbEntity
  8
0
100
AcDbBlockEnd
  0
BLOCK
  5
66
330
64
100
AcDbEntity
  8
0
100
AcDbBlockBegin
  2
GENAXEH
 70
     0
 10
0.0
 20
0.0
 30
0.0
  3
GENAXEH
  1

  0
LINE
  5
65
330
64
100
AcDbEntity
  8
0
100
AcDbLine
 10
-1.0
 20
0.0
 30
0.0
 11
1.0
 21
0.0
 31
0.0
  0
ENDBLK
  5
67
330
64
100
AcDbEntity
  8
0
100
AcDbBlockEnd
  0
BLOCK
  5
C7F
330
C75
100
AcDbEntity
  8
0
100
AcDbBlockBegin
  2
*D5
 70
     1
 10
0.0
 20
0.0
 30
0.0
  3
*D5
  1

  0
LINE
  5
1EF6
330
C75
100
AcDbEntity
  8
AM_5
100
AcDbLine
 10
-50.00000000000007
 20
-2.750000000000006
 30
0.0
 11
-50.00000000000007
 21
-27.07067890975969
 31
0.0
  0
LINE
  5
1EF7
330
C75
100
AcDbEntity
  8
AM_5
100
AcDbLine
 10
-0.00000000000006
 20
-1.500000000000003
 30
0.0
 11
-0.0000000000000615
 21
-27.07067890975969
 31
0.0
  0
LINE
  5
1EF8
330
C75
100
AcDbEntity
  8
AM_5
100
AcDbLine
 10
-48.75000000000007
 20
-26.57067890975969
 30
0.0
 11
-1.250000000000061
 21
-26.57067890975969
 31
0.0
  0
INSERT
  5
1EF9
330
C75
100
AcDbEntity
  8
AM_5
100
AcDbBlockReference
  2
_OPEN30
 10
-50.00000000000007
 20
-26.57067890975969
 30
0.0
 41
1.25
 42
1.25
 43
1.25
 50
180.0
  0
INSERT
  5
1EFA
330
C75
100
AcDbEntity
  8
AM_5
100
AcDbBlockReference
  2
_OPEN30
 10
-0.0000000000000615
 20
-26.57067890975969
 30
0.0
 41
1.25
 42
1.25
 43
1.25
  0
MTEXT
  5
1EFB
330
C75
100
AcDbEntity
  8
AM_5
 62
     2
100
AcDbMText
 10
-25.00000000000007
 20
-25.02067890975969
 30
0.0
 40
1.6
 41
0.0
 71
     5
 72
     1
  1
50
  7
ASAMI
1001
ACAD
1000
MTEXTBEGIN
1070
    73
1070
     1
1070
    44
1040
1.0
1070
    74
1070
     0
1000
MTEXTEND
  0
POINT
  5
1EFC
330
C75
100
AcDbEntity
  8
DEFPOINTS
 62
     0
100
AcDbPoint
 10
-50.00000000000007
 20
-2.250000000000006
 30
0.0
  0
POINT
  5
1EFD
330
C75
100
AcDbEntity
  8
DEFPOINTS
 62
     0
100
AcDbPoint
 10
-0.00000000000006
 20
-1.000000000000003
 30
0.0
  0
POINT
  5
1EFE
330
C75
100
AcDbEntity
  8
DEFPOINTS
 62
     0
100
AcDbPoint
 10
-0.0000000000000615
 20
-26.57067890975969
 30
0.0
  0
ENDBLK
  5
C80
330
C75
100
AcDbEntity
  8
0
100
AcDbBlockEnd
  0
BLOCK
  5
18CE
330
18C4
100
AcDbEntity
  8
0
100
AcDbBlockBegin
  2
*D6
 70
     1
 10
0.0
 20
0.0
 30
0.0
  3
*D6
  1

  0
LINE
  5
1EE2
330
18C4
100
AcDbEntity
  8
AM_5
100
AcDbLine
 10
-50.00000000000007
 20
-2.000000000000006
 30
0.0
 11
-57.50000000000007
 21
-2.000000000000003
 31
0.0
  0
LINE
  5
1EE3
330
18C4
100
AcDbEntity
  8
AM_5
100
AcDbLine
 10
-50.00000000000007
 20
1.999999999999996
 30
0.0
 11
-57.50000000000007
 21
1.999999999999999
 31
0.0
  0
LINE
  5
1EE4
330
18C4
100
AcDbEntity
  8
AM_5
100
AcDbLine
 10
-57.00000000000007
 20
-0.7500000000000043
 30
0.0
 11
-57.00000000000007
 21
0.749999999999999
 31
0.0
  0
INSERT
  5
1EE5
330
18C4
100
AcDbEntity
  8
AM_5
100
AcDbBlockReference
  2
_OPEN30
 10
-57.00000000000007
 20
-2.000000000000003
 30
0.0
 41
1.25
 42
1.25
 43
1.25
 50
270.0
  0
INSERT
  5
1EE6
330
18C4
100
AcDbEntity
  8
AM_5
100
AcDbBlockReference
  2
_OPEN30
 10
-57.00000000000007
 20
1.999999999999998
 30
0.0
 41
1.25
 42
1.25
 43
1.25
 50
90.0
  0
MTEXT
  5
1EE7
330
18C4
100
AcDbEntity
  8
AM_5
 62
     2
100
AcDbMText
 10
-58.55000000000007
 20
-0.0000000000000116
 30
0.0
 40
1.6
 41
0.0
 71
     5
 72
     1
  1
%%c4
  7
ASAMI
 11
0.0000000000000001
 21
1.0
 31
0.0
1001
ACAD
1000
MTEXTBEGIN
1070
    73
1070
     1
1070
    44
1040
1.0
1070
    74
1070
     0
1000
MTEXTEND
  0
POINT
  5
1EE8
330
18C4
100
AcDbEntity
  8
DEFPOINTS
 62
     0
100
AcDbPoint
 10
-49.50000000000007
 20
-2.000000000000006
 30
0.0
  0
POINT
  5
1EE9
330
18C4
100
AcDbEntity
  8
DEFPOINTS
 62
     0
100
AcDbPoint
 10
-49.50000000000007
 20
1.999999999999996
 30
0.0
  0
POINT
  5
1EEA
330
18C4
100
AcDbEntity
  8
DEFPOINTS
 62
     0
100
AcDbPoint
 10
-57.00000000000007
 20
1.999999999999998
 30
0.0
  0
ENDBLK
  5
18CF
330
18C4
100
AcDbEntity
  8
0
100
AcDbBlockEnd
  0
BLOCK
  5
1959
330
194D
100
AcDbEntity
  8
0
100
AcDbBlockBegin
  2
*D7
 70
     1
 10
0.0
 20
0.0
 30
0.0
  3
*D7
  1

  0
LINE
  5
1F75
330
194D
100
AcDbEntity
  8
AM_5
100
AcDbLine
 10
-0.2495310654068585
 20
-0.7499999999970458
 30
0.0
 11
7.499999999999928
 21
-0.7499999999970479
 31
0.0
  0
LINE
  5
1F76
330
194D
100
AcDbEntity
  8
AM_5
100
AcDbLine
 10
-0.2495310654068583
 20
0.7499999999977045
 30
0.0
 11
7.499999999999929
 21
0.7499999999977023
 31
0.0
  0
LINE
  5
1F77
330
194D
100
AcDbEntity
  8
AM_5
100
AcDbLine
 10
6.999999999999928
 20
-1.999999999997047
 30
0.0
 11
6.999999999999928
 21
-3.249999999997047
 31
0.0
  0
LINE
  5
1F78
330
194D
100
AcDbEntity
  8
AM_5
100
AcDbLine
 10
6.999999999999928
 20
1.999999999997702
 30
0.0
 11
6.99999999999993
 21
9.245238095235796
 31
0.0
  0
LINE
  5
1F79
330
194D
100
AcDbEntity
  8
AM_5
100
AcDbLine
 10
6.999999999999928
 20
-0.7499999999970477
 30
0.0
 11
6.999999999999928
 21
0.7499999999977025
 31
0.0
  0
INSERT
  5
1F7A
330
194D
100
AcDbEntity
  8
AM_5
100
AcDbBlockReference
  2
_OPEN30
 10
6.999999999999928
 20
-0.7499999999970477
 30
0.0
 41
1.25
 42
1.25
 43
1.25
 50
90.0
  0
INSERT
  5
1F7B
330
194D
100
AcDbEntity
  8
AM_5
100
AcDbBlockReference
  2
_OPEN30
 10
6.999999999999928
 20
0.7499999999977025
 30
0.0
 41
1.25
 42
1.25
 43
1.25
 50
270.0
  0
MTEXT
  5
1F7C
330
194D
100
AcDbEntity
  8
AM_5
 62
     2
100
AcDbMText
 10
5.449999999999928
 20
6.247619047616751
 30
0.0
 40
1.6
 41
0.0
 71
     5
 72
     1
  1
%%c1.5
  7
ASAMI
 11
0.0000000000000001
 21
1.0
 31
0.0
1001
ACAD
1000
MTEXTBEGIN
1070
    73
1070
     1
1070
    44
1040
1.0
1070
    74
1070
     0
1000
MTEXTEND
  0
POINT
  5
1F7D
330
194D
100
AcDbEntity
  8
DEFPOINTS
 62
     0
100
AcDbPoint
 10
-0.7495310654068584
 20
-0.7499999999970456
 30
0.0
  0
POINT
  5
1F7E
330
194D
100
AcDbEntity
  8
DEFPOINTS
 62
     0
100
AcDbPoint
 10
-0.7495310654068584
 20
0.7499999999977046
 30
0.0
  0
POINT
  5
1F7F
330
194D
100
AcDbEntity
  8
DEFPOINTS
 62
     0
100
AcDbPoint
 10
6.999999999999928
 20
0.7499999999977025
 30
0.0
  0
ENDBLK
  5
195A
330
194D
100
AcDbEntity
  8
0
100
AcDbBlockEnd
  0
BLOCK
  5
1968
330
195C
100
AcDbEntity
  8
0
100
AcDbBlockBegin
  2
*D8
 70
     1
 10
0.0
 20
0.0
 30
0.0
  3
*D8
  1

  0
LINE
  5
1F0A
330
195C
100
AcDbEntity
  8
AM_5
100
AcDbLine
 10
-2.500234467295344
 20
-1.242888129995681
 30
0.0
 11
-2.500234467295344
 21
-15.4767934148387
 31
0.0
  0
LINE
  5
1F0B
330
195C
100
AcDbEntity
  8
AM_5
100
AcDbLine
 10
-0.0002344672953438
 20
-1.250000000000003
 30
0.0
 11
-0.0002344672953446
 21
-15.4767934148387
 31
0.0
  0
LINE
  5
1F0C
330
195C
100
AcDbEntity
  8
AM_5
100
AcDbLine
 10
-3.750234467295344
 20
-14.9767934148387
 30
0.0
 11
-5.000234467295344
 21
-14.9767934148387
 31
0.0
  0
LINE
  5
1F0D
330
195C
100
AcDbEntity
  8
AM_5
100
AcDbLine
 10
1.249765532704655
 20
-14.9767934148387
 30
0.0
 11
7.352146485085606
 21
-14.9767934148387
 31
0.0
  0
LINE
  5
1F0E
330
195C
100
AcDbEntity
  8
AM_5
100
AcDbLine
 10
-2.500234467295344
 20
-14.9767934148387
 30
0.0
 11
-0.0002344672953446
 21
-14.9767934148387
 31
0.0
  0
INSERT
  5
1F0F
330
195C
100
AcDbEntity
  8
AM_5
100
AcDbBlockReference
  2
_OPEN30
 10
-2.500234467295344
 20
-14.9767934148387
 30
0.0
 41
1.25
 42
1.25
 43
1.25
  0
INSERT
  5
1F10
330
195C
100
AcDbEntity
  8
AM_5
100
AcDbBlockReference
  2
_OPEN30
 10
-0.0002344672953446
 20
-14.9767934148387
 30
0.0
 41
1.25
 42
1.25
 43
1.25
 50
180.0
  0
MTEXT
  5
1F11
330
195C
100
AcDbEntity
  8
AM_5
 62
     2
100
AcDbMText
 10
4.925956008895131
 20
-13.4267934148387
 30
0.0
 40
1.6
 41
0.0
 71
     5
 72
     1
  1
2.5
  7
ASAMI
1001
ACAD
1000
MTEXTBEGIN
1070
    73
1070
     1
1070
    44
1040
1.0
1070
    74
1070
     0
1000
MTEXTEND
  0
POINT
  5
1F12
330
195C
100
AcDbEntity
  8
DEFPOINTS
 62
     0
100
AcDbPoint
 10
-2.500234467295344
 20
-0.7428881299956816
 30
0.0
  0
POINT
  5
1F13
330
195C
100
AcDbEntity
  8
DEFPOINTS
 62
     0
100
AcDbPoint
 10
-0.0002344672953437
 20
-0.7500000000000034
 30
0.0
  0
POINT
  5
1F14
330
195C
100
AcDbEntity
  8
DEFPOINTS
 62
     0
100
AcDbPoint
 10
-0.0002344672953446
 20
-14.9767934148387
 30
0.0
  0
ENDBLK
  5
1969
330
195C
100
AcDbEntity
  8
0
100
AcDbBlockEnd
  0
BLOCK
  5
1CD0
330
1CC4
100
AcDbEntity
  8
0
100
AcDbBlockBegin
  2
*D9
 70
     1
 10
0.0
 20
0.0
 30
0.0
  3
*D9
  1

  0
LINE
  5
1FA1
330
1CC4
100
AcDbEntity
  8
AM_5
100
AcDbLine
 10
0.0004687513303185
 20
-0.5005242997840038
 30
0.0
 11
0.0004687513303172
 21
-21.85895953013329
 31
0.0
  0
LINE
  5
1FA2
330
1CC4
100
AcDbEntity
  8
AM_5
100
AcDbLine
 10
-3.000234467295343
 20
-1.251851433297414
 30
0.0
 11
-3.000234467295344
 21
-21.85895953013329
 31
0.0
  0
LINE
  5
1FA3
330
1CC4
100
AcDbEntity
  8
AM_5
100
AcDbLine
 10
1.250468751330317
 20
-21.35895953013329
 30
0.0
 11
2.500468751330317
 21
-21.35895953013329
 31
0.0
  0
LINE
  5
1FA4
330
1CC4
100
AcDbEntity
  8
AM_5
100
AcDbLine
 10
-4.250234467295344
 20
-21.35895953013329
 30
0.0
 11
-5.500234467295344
 21
-21.35895953013329
 31
0.0
  0
LINE
  5
1FA5
330
1CC4
100
AcDbEntity
  8
AM_5
100
AcDbLine
 10
0.0004687513303172
 20
-21.35895953013329
 30
0.0
 11
-3.000234467295344
 21
-21.35895953013329
 31
0.0
  0
INSERT
  5
1FA6
330
1CC4
100
AcDbEntity
  8
AM_5
100
AcDbBlockReference
  2
_OPEN30
 10
0.0004687513303172
 20
-21.35895953013329
 30
0.0
 41
1.25
 42
1.25
 43
1.25
 50
180.0
  0
INSERT
  5
1FA7
330
1CC4
100
AcDbEntity
  8
AM_5
100
AcDbBlockReference
  2
_OPEN30
 10
-3.000234467295344
 20
-21.35895953013329
 30
0.0
 41
1.25
 42
1.25
 43
1.25
  0
MTEXT
  5
1FA8
330
1CC4
100
AcDbEntity
  8
AM_5
 62
     2
100
AcDbMText
 10
-1.499882857982513
 20
-19.80895953013329
 30
0.0
 40
1.6
 41
0.0
 71
     5
 72
     1
  1
3
  7
ASAMI
1001
ACAD
1000
MTEXTBEGIN
1070
    73
1070
     1
1070
    44
1040
1.0
1070
    74
1070
     0
1000
MTEXTEND
  0
POINT
  5
1FA9
330
1CC4
100
AcDbEntity
  8
DEFPOINTS
 62
     0
100
AcDbPoint
 10
0.0004687513303185
 20
-0.0005242997840036
 30
0.0
  0
POINT
  5
1FAA
330
1CC4
100
AcDbEntity
  8
DEFPOINTS
 62
     0
100
AcDbPoint
 10
-3.000234467295343
 20
-0.7518514332974148
 30
0.0
  0
POINT
  5
1FAB
330
1CC4
100
AcDbEntity
  8
DEFPOINTS
 62
     0
100
AcDbPoint
 10
-3.000234467295344
 20
-21.35895953013329
 30
0.0
  0
ENDBLK
  5
1CD1
330
1CC4
100
AcDbEntity
  8
0
100
AcDbBlockEnd
  0
BLOCK
  5
2010
330
2009
100
AcDbEntity
  8
0
100
AcDbBlockBegin
  2
*D10
 70
     1
 10
0.0
 20
0.0
 30
0.0
  3
*D10
  1

  0
LINE
  5
20F3
330
2009
100
AcDbEntity
  8
AM_5
100
AcDbLine
 10
5.933664293787024
 20
-8.952283574386592
 30
0.0
 11
0.4438232278392533
 21
-1.537147987387437
 31
0.0
  0
MTEXT
  5
20F4
330
2009
100
AcDbEntity
  8
AM_5
 62
     2
100
AcDbMText
 10
4.806378998735135
 20
-4.824738118346441
 30
0.0
 40
1.6
 41
0.0
 71
     5
 72
     1
  1
R0.75
  7
ASAMI
 11
0.5950279348898229
 21
-0.8037050184618438
 31
0.0
  0
LINE
  5
20F5
330
2009
100
AcDbEntity
  8
AM_5
100
AcDbLine
 10
-0.746232641938831
 20
0.0702620495341409
 30
0.0
 11
-0.2999616907730254
 21
-0.5325167143101331
 31
0.0
  0
INSERT
  5
20F6
330
2009
100
AcDbEntity
  8
AM_5
100
AcDbBlockReference
  2
_OPEN30
 10
-0.2999616907730254
 20
-0.5325167143101331
 30
0.0
 41
1.25
 42
1.25
 43
1.25
 50
126.5146235396585
  0
POINT
  5
20F7
330
2009
100
AcDbEntity
  8
DEFPOINTS
 62
     0
100
AcDbPoint
 10
-0.2999616907730254
 20
-0.5325167143101331
 30
0.0
  0
POINT
  5
20F8
330
2009
100
AcDbEntity
  8
DEFPOINTS
 62
     0
100
AcDbPoint
 10
-0.746232641938831
 20
0.0702620495341409
 30
0.0
  0
ENDBLK
  5
2011
330
2009
100
AcDbEntity
  8
0
100
AcDbBlockEnd
  0
ENDSEC
  0
SECTION
  2
ENTITIES
  0
DIMENSION
  5
C4F
330
1F
100
AcDbEntity
  8
AM_5
100
AcDbDimension
  2
*D5
 10
-0.0000000000000615
 20
-26.57067890975969
 30
0.0
 11
-25.00000000000007
 21
-25.02067890975969
 31
0.0
 70
    32
  1
<>
  3
AM_JIS
100
AcDbAlignedDimension
 13
-50.00000000000007
 23
-2.250000000000006
 33
0.0
 14
-0.00000000000006
 24
-1.000000000000003
 34
0.0
 50
0.0000000000002036
100
AcDbRotatedDimension
1001
GENIUS_GENDTOL_13
1000

1000
H7
1000

1040
0.0
  0
LINE
  5
C50
330
1F
100
AcDbEntity
  8
AM_7
100
AcDbLine
 10
-52.38487321524641
 20
-0.0000000000000036
 30
0.0
 11
1.32952988907452
 21
-0.0000000000000036
 31
0.0
1001
GENIUS_GENODEF_13
1002
{
1000
HIER
1070
     0
1002
}
1002
{
1000
MANEDIT
1070
     0
1002
}
1002
{
1000
NOSEL
1070
     0
1002
}
1002
{
1000
BEHIND
1070
     0
1002
}
1002
{
1000
REACTOR
1002
}
1001
GENIUS_GENOBJ-N-CEN_13
1002
{
1000
OWNER
1000
GEN
1002
}
  0
TEXT
  5
C58
330
1F
100
AcDbEntity
  8
AM_6
100
AcDbText
 10
-35.00000000000006
 20
-37.82067890975973
 30
0.0
 40
2.5
  1
GLB2015SF
 50
0.0000000000002036
 72
     4
 11
-25.00000000000007
 21
-36.57067890975969
 31
0.0
100
AcDbText
  0
LINE
  5
18C1
330
1F
100
AcDbEntity
  8
AM_0
100
AcDbLine
 10
-50.00000000000007
 20
1.499999999999993
 30
0.0
 11
-49.50000000000007
 21
1.999999999999993
 31
0.0
1001
GENIUS_GENFIL_13
1070
     0
1040
0.5
1040
0.5
1040
0.4999999999999716
1040
45.0
1002
{
1002
}
  0
LINE
  5
18C2
330
1F
100
AcDbEntity
  8
AM_0
100
AcDbLine
 10
-50.00000000000007
 20
-1.500000000000006
 30
0.0
 11
-50.00000000000007
 21
1.499999999999993
 31
0.0
  0
DIMENSION
  5
18C3
330
1F
100
AcDbEntity
  8
AM_5
100
AcDbDimension
  2
*D6
 10
-57.00000000000007
 20
1.999999999999998
 30
0.0
 11
-57.00000000000007
 21
-0.0000000000000118
 31
0.0
 70
   160
  1
%%c<>
  3
AM_JIS
100
AcDbAlignedDimension
 13
-49.50000000000007
 23
-2.000000000000006
 33
0.0
 14
-49.50000000000007
 24
1.999999999999996
 34
0.0
 50
270.0
100
AcDbRotatedDimension
1001
ACAD
1000
DSTYLE
1002
{
1070
    48
1040
0.1
1070
    47
1040
0.1
1070
   274
1070
     2
1070
   272
1070
     3
1002
}
1001
GENIUS_GENDTOL_13
1000

1000
h6
1000

1040
0.0
  0
LINE
  5
18D0
330
1F
100
AcDbEntity
  8
AM_0
100
AcDbLine
 10
-50.00000000000007
 20
-1.500000000000006
 30
0.0
 11
-49.50000000000007
 21
-2.000000000000006
 31
0.0
1001
GENIUS_GENFIL_13
1070
     0
1040
0.5
1040
0.5
1040
0.4999999999999716
1040
45.00000000000036
1002
{
1002
}
  0
LINE
  5
18D1
330
1F
100
AcDbEntity
  8
0
100
AcDbLine
 10
-49.50000000000007
 20
-2.000000000000006
 30
0.0
 11
-49.50000000000007
 21
1.999999999999993
 31
0.0
  0
LINE
  5
18D2
330
1F
100
AcDbEntity
  8
AM_0
100
AcDbLine
 10
-49.50000000000007
 20
1.999999999999993
 30
0.0
 11
-10.10000000000007
 21
1.999999999999993
 31
0.0
1001
GENIUS_GENODEF_13
1002
{
1000
HIER
1070
     0
1002
}
1002
{
1000
MANEDIT
1070
     0
1002
}
1002
{
1000
NOSEL
1070
     0
1002
}
1002
{
1000
BEHIND
1070
     0
1002
}
1002
{
1000
REACTOR
1002
}
1001
GENIUS_GENOBJ-N-CEN_13
1002
{
1000
OWNER
1000
GEN
1002
}
  0
LINE
  5
18D3
330
1F
100
AcDbEntity
  8
AM_0
100
AcDbLine
 10
-49.50000000000007
 20
-2.000000000000006
 30
0.0
 11
-10.10000000000007
 21
-2.000000000000006
 31
0.0
1001
GENIUS_GENODEF_13
1002
{
1000
HIER
1070
     0
1002
}
1002
{
1000
MANEDIT
1070
     0
1002
}
1002
{
1000
NOSEL
1070
     0
1002
}
1002
{
1000
BEHIND
1070
     0
1002
}
1002
{
1000
REACTOR
1002
}
1001
GENIUS_GENOBJ-N-CEN_13
1002
{
1000
OWNER
1000
GEN
1002
}
  0
LINE
  5
18E4
330
1F
100
AcDbEntity
  8
AM_0
100
AcDbLine
 10
-10.10000000000007
 20
-2.000000000000007
 30
0.0
 11
-10.10000000000007
 21
1.999999999999992
 31
0.0
  0
DIMENSION
  5
194C
330
1F
100
AcDbEntity
  8
AM_5
100
AcDbDimension
  2
*D7
 10
6.999999999999928
 20
0.7499999999977025
 30
0.0
 11
5.449999999999928
 21
6.247619047616751
 31
0.0
 70
    32
  1
%%c<>
  3
AM_JIS
100
AcDbAlignedDimension
 13
-0.7495310654068584
 23
-0.7499999999970456
 33
0.0
 14
-0.7495310654068584
 24
0.7499999999977046
 34
0.0
 50
90.00000000000003
100
AcDbRotatedDimension
1001
ACAD
1000
DSTYLE
1002
{
1070
    48
1040
0.05
1070
    47
1040
0.0
1070
   274
1070
     1
1070
   272
1070
     2
1002
}
1001
GENIUS_GENDTOL_13
1000

1000
H7
1000

1040
0.0
  0
DIMENSION
  5
195B
330
1F
100
AcDbEntity
  8
AM_5
100
AcDbDimension
  2
*D8
 10
-0.0002344672953446
 20
-14.9767934148387
 30
0.0
 11
4.925956008895131
 21
-13.4267934148387
 31
0.0
 70
    32
  1
<>
  3
AM_JIS
100
AcDbAlignedDimension
 13
-2.500234467295344
 23
-0.7428881299956816
 33
0.0
 14
-0.0002344672953437
 24
-0.7500000000000034
 34
0.0
 50
359.9999999999988
100
AcDbRotatedDimension
1001
GENIUS_GENDTOL_13
1000

1000
H7
1000

1040
0.0
  0
LINE
  5
19AA
330
1F
100
AcDbEntity
  8
AM_0
100
AcDbLine
 10
-10.10000000000007
 20
2.0
 30
0.0
 11
-3.000234467295343
 21
0.7481197798801479
 31
0.0
  0
LINE
  5
19AC
330
1F
100
AcDbEntity
  8
AM_0
100
AcDbLine
 10
-10.10000000000007
 20
-2.000000000000007
 30
0.0
 11
-3.000234467295344
 21
-0.748119779880155
 31
0.0
  0
SPLINE
  5
1C93
330
1F
100
AcDbEntity
  8
AM_0
100
AcDbSpline
210
0.0
220
0.0
230
1.0
 70
     8
 71
     3
 72
     8
 73
     4
 74
     0
 42
0.0000000001
 43
0.0000000001
 40
0.4234467639284924
 40
0.4234467639284924
 40
0.4234467639284924
 40
0.4234467639284924
 40
1.443905044394412
 40
1.443905044394412
 40
1.443905044394412
 40
1.443905044394412
 10
-3.000234467295344
 20
0.748119779880148
 30
0.0
 10
-2.457054198390861
 20
0.5771354053032243
 30
0.0
 10
-1.998188598213479
 20
0.3079364919503985
 30
0.0
 10
-1.539322998036097
 20
0.0387375785975728
 30
0.0
  0
SPLINE
  5
1C94
330
1F
100
AcDbEntity
  8
AM_0
100
AcDbSpline
210
0.0
220
0.0
230
1.0
 70
     8
 71
     3
 72
     8
 73
     4
 74
     0
 42
0.0000000001
 43
0.0000000001
 40
0.7023226207663016
 40
0.7023226207663016
 40
0.7023226207663016
 40
0.7023226207663016
 40
1.443905044394444
 40
1.443905044394444
 40
1.443905044394444
 40
1.443905044394444
 10
-3.000234467295343
 20
0.6118688992911315
 30
0.0
 10
-2.605478463818974
 20
0.4593124977509168
 30
0.0
 10
-2.275478929690931
 20
0.2578916238164169
 30
0.0
 10
-1.945479395562887
 20
0.0564707498819169
 30
0.0
  0
SPLINE
  5
1C95
330
1F
100
AcDbEntity
  8
AM_0
100
AcDbSpline
210
0.0
220
0.0
230
1.0
 70
     8
 71
     3
 72
     8
 73
     4
 74
     0
 42
0.0000000001
 43
0.0000000001
 40
0.8962992311075218
 40
0.8962992311075218
 40
0.8962992311075218
 40
0.8962992311075218
 40
1.448999654929344
 40
1.448999654929344
 40
1.448999654929344
 40
1.448999654929344
 10
-3.000234467295344
 20
0.509049938258487
 30
0.0
 10
-2.701614063748938
 20
0.3758337357221915
 30
0.0
 10
-2.457202637080825
 20
0.2219877857455188
 30
0.0
 10
-2.212791210412714
 20
0.068141835768846
 30
0.0
  0
LINE
  5
1C96
330
1F
100
AcDbEntity
  8
AM_0
100
AcDbLine
 10
-3.959277117349491
 20
0.0000000000005773
 30
0.0
 11
-3.000234467295344
 21
0.509049938258487
 31
0.0
  0
LINE
  5
1C97
330
1F
100
AcDbEntity
  8
AM_11
 48
0.4
100
AcDbLine
 10
-2.500234467295344
 20
0.7571118700043185
 30
0.0
 11
-2.500234467295344
 21
-0.7428881299956816
 31
0.0
  0
SPLINE
  5
1C99
330
1F
100
AcDbEntity
  8
AM_0
100
AcDbSpline
210
0.0
220
0.0
230
1.0
 70
     8
 71
     3
 72
     8
 73
     4
 74
     2
 42
0.0000000001
 43
0.0000000001
 44
0.0000000001
 12
-0.9063077870366491
 22
0.4226182617407012
 32
0.0
 13
0.9900295272873002
 23
-0.1408599840241551
 33
0.0
 40
0.0
 40
0.0
 40
0.0
 40
0.0
 40
0.5830081574406388
 40
0.5830081574406388
 40
0.5830081574406388
 40
0.5830081574406388
 10
-0.638499427471082
 20
0.188194474584761
 30
0.0
 10
-0.8146277051358618
 20
0.2703244392774983
 30
0.0
 10
-1.233692725868775
 20
0.6370598171032408
 30
0.0
 10
-1.04129429569691
 20
0.6096856438555607
 30
0.0
 11
-0.638499427471082
 21
0.188194474584761
 31
0.0
 11
-1.04129429569691
 21
0.6096856438555607
 31
0.0
  0
ARC
  5
1C9A
330
1F
100
AcDbEntity
  8
AM_11
100
AcDbCircle
 10
-0.7495310654068584
 20
0.0000000000003295
 30
0.0
 40
0.7499999999973751
100
AcDbArc
 50
270.0
 51
90.0
  0
ARC
  5
1C9B
330
1F
100
AcDbEntity
  8
AM_0
100
AcDbCircle
 10
-1.567966944654789
 20
-1.524758295095193
 30
0.0
 40
2.191896741018973
100
AcDbArc
 50
44.33711907809952
 51
76.82999214053889
  0
ARC
  5
1C9C
330
1F
100
AcDbEntity
  8
AM_0
100
AcDbCircle
 10
-0.746232641938831
 20
-0.0702620495335191
 30
0.0
 40
0.7499999999973758
100
AcDbArc
 50
5.375507822153808
 51
90.25198180382437
  0
ARC
  5
1C9D
330
1F
100
AcDbEntity
  8
AM_0
100
AcDbCircle
 10
-0.746232641938831
 20
0.0702620495341408
 30
0.0
 40
0.7499999999973758
100
AcDbArc
 50
269.7480181961756
 51
354.6244921778462
  0
ARC
  5
1C9E
330
1F
100
AcDbEntity
  8
AM_0
100
AcDbCircle
 10
-0.7382234980684177
 20
0.1257778047997702
 30
0.0
 40
0.723465324939884
100
AcDbArc
 50
272.7326936991946
 51
346.7452639699606
  0
ARC
  5
1C9F
330
1F
100
AcDbEntity
  8
AM_0
100
AcDbCircle
 10
-0.6417720927869582
 20
0.2132434958800866
 30
0.0
 40
0.5854002262440636
100
AcDbArc
 50
278.6696104128122
 51
332.9129476995508
  0
LINE
  5
1CA0
330
1F
100
AcDbEntity
  8
AM_0
100
AcDbLine
 10
-0.6302670136637741
 20
0.1843556369813415
 30
0.0
 11
-0.1205810654090768
 21
-0.0533148239438015
 31
0.0
  0
LINE
  5
1CA1
330
1F
100
AcDbEntity
  8
AM_11
100
AcDbLine
 10
-2.500234467295344
 20
-0.749999999997046
 30
0.0
 11
-0.7495310654068584
 21
-0.749999999997046
 31
0.0
1001
GENIUS_GENODEF_13
1002
{
1000
HIER
1070
     0
1002
}
1002
{
1000
MANEDIT
1070
     0
1002
}
1002
{
1000
NOSEL
1070
     0
1002
}
1002
{
1000
BEHIND
1070
     0
1002
}
1002
{
1000
REACTOR
1002
}
1001
GENIUS_GENOBJ-N-CEN_13
1002
{
1000
OWNER
1000
GEN
1002
}
  0
SPLINE
  5
1CA2
330
1F
100
AcDbEntity
  8
AM_0
100
AcDbSpline
210
0.0
220
0.0
230
1.0
 70
     8
 71
     3
 72
     8
 73
     4
 74
     0
 42
0.0000000001
 43
0.0000000001
 40
4.071346735624547
 40
4.071346735624547
 40
4.071346735624547
 40
4.071346735624547
 40
6.91280490763674
 40
6.91280490763674
 40
6.91280490763674
 40
6.91280490763674
 10
-3.000234467295344
 20
-0.748119779880155
 30
0.0
 10
-3.478736583756358
 20
-0.7100611515398896
 30
0.0
 10
-3.694273564745073
 20
-0.5601854274470838
 30
0.0
 10
-3.959277117370909
 20
-0.4415895258010148
 30
0.0
  0
LINE
  5
1CA3
330
1F
100
AcDbEntity
  8
AM_0
100
AcDbLine
 10
-3.959277117370914
 20
-0.4415895258009828
 30
0.0
 11
-3.437068278154624
 21
-0.2152169123285335
 31
0.0
  0
SPLINE
  5
1CA4
330
1F
100
AcDbEntity
  8
AM_0
100
AcDbSpline
210
0.0
220
0.0
230
1.0
 70
     8
 71
     3
 72
     8
 73
     4
 74
     2
 42
0.0000000001
 43
0.0000000001
 44
0.0000000001
 12
-1.0
 22
0.0000000000000001
 32
0.0
 40
0.0
 40
0.0
 40
0.0
 40
0.0
 40
2.123233754414486
 40
2.123233754414486
 40
2.123233754414486
 40
2.123233754414486
 10
-1.896341208288206
 20
-0.5868408986890464
 30
0.0
 10
-2.604085793093035
 20
-0.5868408986890463
 30
0.0
 10
-3.2704756431864
 20
-0.2934204587718838
 30
0.0
 10
-3.936865493279765
 20
-0.0000000188547213
 30
0.0
 11
-1.896341208288206
 21
-0.5868408986890464
 31
0.0
 11
-3.936865493279765
 21
-0.0000000188547213
 31
0.0
  0
LINE
  5
1CA5
330
1F
100
AcDbEntity
  8
AM_0
100
AcDbLine
 10
-1.714002091630094
 20
-0.5804734764269144
 30
0.0
 11
-2.780214181336102
 21
-0.6177064230408651
 31
0.0
  0
SPLINE
  5
1CA6
330
1F
100
AcDbEntity
  8
AM_0
100
AcDbSpline
210
0.0
220
0.0
230
1.0
 70
     8
 71
     3
 72
     8
 73
     4
 74
     0
 42
0.0000000001
 43
0.0000000001
 40
0.0
 40
0.0
 40
0.0
 40
0.0
 40
2.238610194515266
 40
2.238610194515266
 40
2.238610194515266
 40
2.238610194515266
 10
-1.896341208288206
 20
-0.5868408986890464
 30
0.0
 10
-1.676869620559862
 20
-0.5868408986890464
 30
0.0
 10
-1.461374786953818
 20
-0.5586250014735948
 30
0.0
 10
-1.248623516061773
 20
-0.5109429564494681
 30
0.0
  0
SPLINE
  5
1CA7
330
1F
100
AcDbEntity
  8
AM_0
100
AcDbSpline
210
0.0
220
0.0
230
1.0
 70
     8
 71
     3
 72
     8
 73
     4
 74
     0
 42
0.0000000001
 43
0.0000000001
 40
3.7904089959839
 40
3.7904089959839
 40
3.7904089959839
 40
3.7904089959839
 40
14.48999654934396
 40
14.48999654934396
 40
14.48999654934396
 40
14.48999654934396
 10
-0.7599064973225559
 20
-0.6756707474555485
 30
0.0
 10
-1.266491426314526
 20
-0.5275111221634566
 30
0.0
 10
-1.739641318363654
 20
-0.2296846431973064
 30
0.0
 10
-2.212791210412714
 20
0.068141835768846
 30
0.0
  0
SPLINE
  5
1CA8
330
1F
100
AcDbEntity
  8
AM_0
100
AcDbSpline
210
0.0
220
0.0
230
1.0
 70
     8
 71
     3
 72
     8
 73
     4
 74
     0
 42
0.0000000001
 43
0.0000000001
 40
5.336187364352841
 40
5.336187364352841
 40
5.336187364352841
 40
5.336187364352841
 40
14.43905044399483
 40
14.43905044399483
 40
14.43905044399483
 40
14.43905044399483
 10
-0.7105357240908265
 20
-0.5948814986187723
 30
0.0
 10
-1.135335983369767
 20
-0.4380141727328749
 30
0.0
 10
-1.540407689466326
 20
-0.1907717114254816
 30
0.0
 10
-1.945479395562887
 20
0.0564707498819169
 30
0.0
  0
ARC
  5
1CAA
330
1F
100
AcDbEntity
  8
AM_0
100
AcDbCircle
 10
-0.6354463415743786
 20
-0.6886954269597246
 30
0.0
 40
0.1144364041246882
100
AcDbArc
 50
126.6343629894024
 51
175.5069543864119
  0
SPLINE
  5
1CAB
330
1F
100
AcDbEntity
  8
AM_0
100
AcDbSpline
210
0.0
220
0.0
230
1.0
 70
     8
 71
     3
 72
     8
 73
     4
 74
     2
 42
0.0000000001
 43
0.0000000001
 44
0.0000000001
 12
0.0000000000000001
 22
1.0
 32
0.0
 40
0.0
 40
0.0
 40
0.0
 40
0.0
 40
0.1624490709808052
 40
0.1624490709808052
 40
0.1624490709808052
 40
0.1624490709808052
 10
-0.7037312597504512
 20
-0.5968648191065667
 30
0.0
 10
-0.7037312597504512
 20
-0.5427151287796316
 30
0.0
 10
-0.6827088030366656
 20
-0.491333097384389
 30
0.0
 10
-0.6616863463228801
 20
-0.4399510659891464
 30
0.0
 11
-0.7037312597504512
 21
-0.5968648191065667
 31
0.0
 11
-0.6616863463228801
 21
-0.4399510659891464
 31
0.0
  0
SPLINE
  5
1CAC
330
1F
100
AcDbEntity
  8
AM_0
100
AcDbSpline
210
0.0
220
0.0
230
1.0
 70
     8
 71
     3
 72
     8
 73
     4
 74
     2
 42
0.0000000001
 43
0.0000000001
 44
0.0000000001
 12
-0.0000000000000001
 22
-1.0
 32
0.0
 13
-1.0
 23
0.0000000000000001
 33
0.0
 40
0.0
 40
0.0
 40
0.0
 40
0.0
 40
0.131321496835422
 40
0.131321496835422
 40
0.131321496835422
 40
0.131321496835422
 10
-0.5535309095558185
 20
-0.3654679334770003
 30
0.0
 10
-0.5535309095558185
 20
-0.4092417657554745
 30
0.0
 10
-0.6179125140444061
 20
-0.4399510659891464
 30
0.0
 10
-0.6616863463228801
 20
-0.4399510659891464
 30
0.0
 11
-0.5535309095558185
 21
-0.3654679334770003
 31
0.0
 11
-0.6616863463228801
 21
-0.4399510659891464
 31
0.0
  0
ARC
  5
1CAD
330
1F
100
AcDbEntity
  8
AM_0
100
AcDbCircle
 10
-0.085650326381891
 20
-0.0199015781918446
 30
0.0
 40
0.5816599917617134
100
AcDbArc
 50
159.4415606715376
 51
216.4487634976257
  0
SPLINE
  5
1CAE
330
1F
100
AcDbEntity
  8
AM_0
100
AcDbSpline
210
0.0
220
0.0
230
1.0
 70
     8
 71
     3
 72
     8
 73
     4
 74
     0
 42
0.0000000001
 43
0.0000000001
 40
7.981245920543044
 40
7.981245920543044
 40
7.981245920543044
 40
7.981245920543044
 40
14.43905044399483
 40
14.43905044399483
 40
14.43905044399483
 40
14.43905044399483
 10
-0.6616863463232159
 20
-0.4399510659899121
 30
0.0
 10
-0.9585517102341729
 20
-0.3019787433981437
 30
0.0
 10
-1.248937354135135
 20
-0.1316205824003014
 30
0.0
 10
-1.539322998036097
 20
0.0387375785975728
 30
0.0
  0
LINE
  5
1CAF
330
1F
100
AcDbEntity
  8
AM_0
100
AcDbLine
 10
0.0004689345904812
 20
0.0000000000003295
 30
0.0
 11
-0.0340310654093851
 21
-0.0400989391279962
 31
0.0
  0
LINE
  5
1CB0
330
1F
100
AcDbEntity
  8
AM_0
100
AcDbLine
 10
-0.0340310654093851
 20
-0.0400989391279962
 30
0.0
 11
-0.1205810654090768
 21
-0.0533148239438015
 31
0.0
  0
LINE
  5
1CB1
330
1F
100
AcDbEntity
  8
AM_11
100
AcDbLine
 10
-2.500234467295344
 20
0.7500000000029541
 30
0.0
 11
-0.7495310654068584
 21
0.7500000000029541
 31
0.0
1001
GENIUS_GENODEF_13
1002
{
1000
HIER
1070
     0
1002
}
1002
{
1000
MANEDIT
1070
     0
1002
}
1002
{
1000
NOSEL
1070
     0
1002
}
1002
{
1000
BEHIND
1070
     0
1002
}
1002
{
1000
REACTOR
1002
}
1001
GENIUS_GENOBJ-N-CEN_13
1002
{
1000
OWNER
1000
GEN
1002
}
  0
LINE
  5
1CB2
330
1F
100
AcDbEntity
  8
AM_0
100
AcDbLine
 10
-2.729496023749098
 20
0.6289720306954579
 30
0.0
 11
-1.041294295696842
 21
0.6096856438555607
 31
0.0
  0
SPLINE
  5
1CB4
330
1F
100
AcDbEntity
  8
AM_0
100
AcDbSpline
210
0.0
220
0.0
230
1.0
 70
     8
 71
     3
 72
     8
 73
     4
 74
     0
 42
0.0000000001
 43
0.0000000001
 40
3.790408995970492
 40
3.790408995970492
 40
3.790408995970492
 40
3.790408995970492
 40
5.485524909568358
 40
5.485524909568358
 40
5.485524909568358
 40
5.485524909568358
 10
-0.7495310654048799
 20
0.6797306973638931
 30
0.0
 10
-0.8307358566695238
 20
0.6597811570116834
 30
0.0
 10
-0.9112661034755301
 20
0.6360420263560523
 30
0.0
 10
-0.9912286726567781
 20
0.609113683196326
 30
0.0
  0
SPLINE
  5
1CB5
330
1F
100
AcDbEntity
  8
AM_0
100
AcDbSpline
210
0.0
220
0.0
230
1.0
 70
     8
 71
     3
 72
     8
 73
     4
 74
     2
 42
0.0000000001
 43
0.0000000001
 44
0.0000000001
 12
0.6039933128154179
 22
-0.7969893839156561
 32
0.0
 40
0.0
 40
0.0
 40
0.0
 40
0.0
 40
0.3000534820185004
 40
0.3000534820185004
 40
0.3000534820185004
 40
0.3000534820185004
 10
-0.7495310654048106
 20
0.6797306973638931
 30
0.0
 10
-0.6891209665294254
 20
0.6000175507720024
 30
0.0
 10
-0.8652076311131342
 20
0.6048515973137815
 30
0.0
 10
-1.041294295696842
 20
0.6096856438555607
 30
0.0
 11
-0.7495310654048106
 21
0.6797306973638931
 31
0.0
 11
-1.041294295696842
 21
0.6096856438555607
 31
0.0
  0
DIMENSION
  5
1CC3
330
1F
100
AcDbEntity
  8
AM_5
100
AcDbDimension
  2
*D9
 10
-3.000234467295344
 20
-21.35895953013329
 30
0.0
 11
-1.499882857982513
 21
-19.80895953013329
 31
0.0
 70
    32
  1
<>
  3
AM_JIS
100
AcDbAlignedDimension
 13
0.0004687513303185
 23
-0.0005242997840036
 33
0.0
 14
-3.000234467295343
 24
-0.7518514332974148
 34
0.0
 50
0.0000000000001132
100
AcDbRotatedDimension
1001
GENIUS_GENDTOL_13
1000

1000
h7
1000

1040
0.0
1001
ACAD
1000
DSTYLE
1002
{
1070
   271
1070
     2
1002
}
  0
LINE
  5
1DC2
330
1F
100
AcDbEntity
  8
AM_0
100
AcDbLine
 10
-3.000234467295344
 20
0.509049938258487
 30
0.0
 11
-3.000234467295344
 21
0.748119779880148
 31
0.0
  0
ARC
  5
1F53
330
1F
100
AcDbEntity
  8
AM_0
100
AcDbCircle
 10
-2.73524733781976
 20
-0.9400869901709853
 30
0.0
 40
0.3255015316077042
100
AcDbArc
 50
88.40987023621755
 51
143.7666059288396
  0
DIMENSION
  5
2008
330
1F
100
AcDbEntity
  8
AM_5
100
AcDbDimension
  2
*D10
 10
-0.746232641938831
 20
0.0702620495341409
 30
0.0
 11
3.560636220119278
 21
-5.747031417425668
 31
0.0
 70
   164
  1
<>
  3
AM_JIS$4
100
AcDbRadialDimension
 15
-0.2999616907730254
 25
-0.5325167143101331
 35
0.0
 40
0.0
1001
GENIUS_GENDTOL_13
1000

1000
h7
1000

1040
0.0
1001
ACAD
1000
DSTYLE
1002
{
1070
   287
1070
     3
1070
    43
1040
12.0
1070
    74
1070
     0
1070
   172
1070
     1
1070
   271
1070
     3
1070
   288
1070
     0
1070
   289
1070
     3
1002
}
  0
VIEWPORT
  5
110
330
101
100
AcDbEntity
 67
     1
  8
0
100
AcDbViewport
 10
420.5
 20
297.0
 30
0.0
 40
948.9782706766916
 41
628.452
 68
     1
 69
     1
1001
ACAD
1000
MVIEW
1002
{
1070
    16
1010
0.0
1020
0.0
1030
0.0
1010
0.0
1020
0.0
1030
1.0
1040
0.0
1040
628.452
1040
420.5
1040
297.0
1040
50.0
1040
0.0
1040
0.0
1070
     0
1070
   100
1070
     1
1070
     1
1070
     0
1070
     0
1070
     0
1070
     0
1040
0.0
1040
0.0
1040
0.0
1040
10.0
1040
10.0
1040
10.0
1040
10.0
1070
     0
1002
{
1002
}
1002
}
  0
ENDSEC
  0
SECTION
  2
OBJECTS
  0
DICTIONARY
  5
C
330
0
100
AcDbDictionary
  3
ACAD_GROUP
350
D
  3
ACAD_LAYOUT
350
1A
  3
ACAD_MLINESTYLE
350
17
  3
ACAD_PLOTSETTINGS
350
19
  3
ACAD_PLOTSTYLENAME
350
E
  3
ACDBVARIABLEDICTIONARY
350
34
  3
ACMDICTIONARY
350
43
  3
AMG
350
2B
  3
AMGSNAPSETTINGS
350
6E
  3
DWGPROPS
350
20BD
  3
ACDBHEADERROUNDTRIPXREC
350
20C9
  0
DICTIONARY
  5
74
330
1F
100
AcDbDictionary
280
     1
  3
ACAD_INDEX
360
20BF
  3
ACAD_LAYOUTSELFREF
360
20EC
  0
DICTIONARY
  5
20F1
330
101
100
AcDbDictionary
280
     1
  3
ACAD_LAYOUTSELFREF
360
20F2
  0
DICTIONARY
  5
D
102
{ACAD_REACTORS
330
C
102
}
330
C
100
AcDbDictionary
  0
DICTIONARY
  5
1A
102
{ACAD_REACTORS
330
C
102
}
330
C
100
AcDbDictionary
  0
DICTIONARY
  5
17
102
{ACAD_REACTORS
330
C
102
}
330
C
100
AcDbDictionary
  3
STANDARD
350
18
  0
DICTIONARY
  5
19
102
{ACAD_REACTORS
330
C
102
}
330
C
100
AcDbDictionary
  0
ACDBDICTIONARYWDFLT
  5
E
102
{ACAD_REACTORS
330
C
102
}
330
C
100
AcDbDictionary
281
     1
  3
Normal
350
F
100
AcDbDictionaryWithDefault
340
F
  0
DICTIONARY
  5
34
102
{ACAD_REACTORS
330
C
102
}
330
C
100
AcDbDictionary
  3
INDEXCTL
350
35
  3
SORTENTS
350
B5E
  0
DICTIONARY
  5
43
102
{ACAD_REACTORS
330
C
102
}
330
C
100
AcDbDictionary
  3
ACMSTDDICTIONARY
350
260
  0
DICTIONARY
  5
2B
102
{ACAD_REACTORS
330
C
102
}
330
C
100
AcDbDictionary
  3
ACMGSETTINGS
350
2C
  0
DICTIONARY
  5
6E
102
{ACAD_REACTORS
330
C
102
}
330
C
100
AcDbDictionary
  0
XRECORD
  5
20BD
102
{ACAD_REACTORS
330
C
102
}
330
C
100
AcDbXrecord
  1
DWGPROPS COOKIE
  2

  3

  4

  6

  7

  8

  9

300
AmdtFileType=82
301
=
302
=
303
=
304
=
305
=
306
=
307
=
308
=
309
=
 40
0.3291471412037037
 41
2452838.620506898
 42
2452846.772276794
  1

 90
        1
  0
DICTIONARY
  5
20C9
102
{ACAD_REACTORS
330
C
102
}
330
C
100
AcDbDictionary
  3
TSTACKALIGN
350
20CA
  3
TSTACKSIZE
350
20CB
  3
HYPERLINKBASE
350
20CC
  3
STYLESHEET
350
20CD
  3
LAYOUTDICT
350
20CE
  3
PLOTSETDICT
350
20CF
  3
PLOTSTYLNAMDICT
350
20D0
  3
LWETCUNION
350
20D1
  3
INSUNITS
350
20D2
  3
CEPSNTYPE
350
20D3
  3
FINGERPRINTGUID
350
20D4
  3
VERSIONGUID
350
20D5
  3
PSVPSCALE
350
20D6
  3
DIMSTYLEDATA
350
20D7
  3
PUCSORTHOREF
350
20D8
  3
PUCSORTHOVIEW
350
20D9
  3
PUCSBASE
350
20DA
  3
PUCSORGTOP
350
20DB
  3
PUCSORGBOTTOM
350
20DC
  3
PUCSORGLEFT
350
20DD
  3
PUCSORGRIGHT
350
20DE
  3
PUCSORGFRONT
350
20DF
  3
PUCSORGBACK
350
20E0
  3
UCSORTHOREF
350
20E1
  3
UCSORTHOVIEW
350
20E2
  3
UCSBASE
350
20E3
  3
UCSORGTOP
350
20E4
  3
UCSORGBOTTOM
350
20E5
  3
UCSORGLEFT
350
20E6
  3
UCSORGRIGHT
350
20E7
  3
UCSORGFRONT
350
20E8
  3
UCSORGBACK
350
20E9
  0
DICTIONARY
  5
20BF
102
{ACAD_REACTORS
330
74
102
}
330
74
100
AcDbDictionary
  3
*A1
350
20C0
  0
XRECORD
  5
20EC
102
{ACAD_REACTORS
330
74
102
}
330
74
100
AcDbXrecord
340
1F
  0
XRECORD
  5
20F2
102
{ACAD_REACTORS
330
20F1
102
}
330
20F1
100
AcDbXrecord
340
101
  0
MLINESTYLE
  5
18
102
{ACAD_REACTORS
330
17
102
}
330
17
100
AcDbMlineStyle
  2
STANDARD
 70
     0
  3

 62
   256
 51
90.0
 52
90.0
 71
     2
 49
0.5
 62
   256
  6
BYLAYER
 49
-0.5
 62
   256
  6
BYLAYER
  0
ACDBPLACEHOLDER
  5
F
102
{ACAD_REACTORS
330
E
102
}
330
E
100
AcDbPlaceHolder
280
     0
  0
DICTIONARYVAR
  5
35
102
{ACAD_REACTORS
330
34
102
}
330
34
100
DictionaryVariables
280
     0
  1
1
  0
DICTIONARYVAR
  5
B5E
102
{ACAD_REACTORS
330
34
102
}
330
34
100
DictionaryVariables
280
     0
  1
96
  0
DICTIONARY
  5
260
102
{ACAD_REACTORS
330
43
102
}
330
43
100
AcDbDictionary
  0
DICTIONARY
  5
2C
102
{ACAD_REACTORS
330
2B
102
}
330
2B
100
AcDbDictionary
  3
DWGSETTINGS
350
2D
  0
XRECORD
  5
20CA
102
{ACAD_REACTORS
330
20C9
102
}
330
20C9
100
AcDbXrecord
 90
        1
  0
XRECORD
  5
20CB
102
{ACAD_REACTORS
330
20C9
102
}
330
20C9
100
AcDbXrecord
 90
       70
  0
XRECORD
  5
20CC
102
{ACAD_REACTORS
330
20C9
102
}
330
20C9
100
AcDbXrecord
  1

  0
XRECORD
  5
20CD
102
{ACAD_REACTORS
330
20C9
102
}
330
20C9
100
AcDbXrecord
  1
ASAMI.ctb
  0
XRECORD
  5
20CE
102
{ACAD_REACTORS
330
20C9
102
}
330
20C9
100
AcDbXrecord
340
1A
  0
XRECORD
  5
20CF
102
{ACAD_REACTORS
330
20C9
102
}
330
20C9
100
AcDbXrecord
340
19
  0
XRECORD
  5
20D0
102
{ACAD_REACTORS
330
20C9
102
}
330
20C9
100
AcDbXrecord
340
E
  0
XRECORD
  5
20D1
102
{ACAD_REACTORS
330
20C9
102
}
330
20C9
100
AcDbXrecord
 90
    10781
  0
XRECORD
  5
20D2
102
{ACAD_REACTORS
330
20C9
102
}
330
20C9
100
AcDbXrecord
 90
        4
  0
XRECORD
  5
20D3
102
{ACAD_REACTORS
330
20C9
102
}
330
20C9
100
AcDbXrecord
 90
        0
  0
XRECORD
  5
20D4
102
{ACAD_REACTORS
330
20C9
102
}
330
20C9
100
AcDbXrecord
  1
{AFB28963-8C59-40AE-9337-C84526B81ACE}
  0
XRECORD
  5
20D5
102
{ACAD_REACTORS
330
20C9
102
}
330
20C9
100
AcDbXrecord
  1
{B5115A99-7F66-4029-A74D-EF9231EE83BD}
  0
XRECORD
  5
20D6
102
{ACAD_REACTORS
330
20C9
102
}
330
20C9
100
AcDbXrecord
 40
0.0
  0
XRECORD
  5
20D7
102
{ACAD_REACTORS
330
20C9
102
}
330
20C9
100
AcDbXrecord
1000
DSTYLE
1002
{
1070
    79
 70
     2
1070
   341
340
59
1070
   342
340
59
1070
   371
 70
    -1
1070
   372
 70
    -1
1002
}
  0
XRECORD
  5
20D8
102
{ACAD_REACTORS
330
20C9
102
}
330
20C9
100
AcDbXrecord
340
0
  0
XRECORD
  5
20D9
102
{ACAD_REACTORS
330
20C9
102
}
330
20C9
100
AcDbXrecord
 70
     0
  0
XRECORD
  5
20DA
102
{ACAD_REACTORS
330
20C9
102
}
330
20C9
100
AcDbXrecord
340
0
  0
XRECORD
  5
20DB
102
{ACAD_REACTORS
330
20C9
102
}
330
20C9
100
AcDbXrecord
 10
0.0
 20
0.0
 30
0.0
  0
XRECORD
  5
20DC
102
{ACAD_REACTORS
330
20C9
102
}
330
20C9
100
AcDbXrecord
 10
0.0
 20
0.0
 30
0.0
  0
XRECORD
  5
20DD
102
{ACAD_REACTORS
330
20C9
102
}
330
20C9
100
AcDbXrecord
 10
0.0
 20
0.0
 30
0.0
  0
XRECORD
  5
20DE
102
{ACAD_REACTORS
330
20C9
102
}
330
20C9
100
AcDbXrecord
 10
0.0
 20
0.0
 30
0.0
  0
XRECORD
  5
20DF
102
{ACAD_REACTORS
330
20C9
102
}
330
20C9
100
AcDbXrecord
 10
0.0
 20
0.0
 30
0.0
  0
XRECORD
  5
20E0
102
{ACAD_REACTORS
330
20C9
102
}
330
20C9
100
AcDbXrecord
 10
0.0
 20
0.0
 30
0.0
  0
XRECORD
  5
20E1
102
{ACAD_REACTORS
330
20C9
102
}
330
20C9
100
AcDbXrecord
340
0
  0
XRECORD
  5
20E2
102
{ACAD_REACTORS
330
20C9
102
}
330
20C9
100
AcDbXrecord
 70
     0
  0
XRECORD
  5
20E3
102
{ACAD_REACTORS
330
20C9
102
}
330
20C9
100
AcDbXrecord
340
0
  0
XRECORD
  5
20E4
102
{ACAD_REACTORS
330
20C9
102
}
330
20C9
100
AcDbXrecord
 10
0.0
 20
0.0
 30
0.0
  0
XRECORD
  5
20E5
102
{ACAD_REACTORS
330
20C9
102
}
330
20C9
100
AcDbXrecord
 10
0.0
 20
0.0
 30
0.0
  0
XRECORD
  5
20E6
102
{ACAD_REACTORS
330
20C9
102
}
330
20C9
100
AcDbXrecord
 10
0.0
 20
0.0
 30
0.0
  0
XRECORD
  5
20E7
102
{ACAD_REACTORS
330
20C9
102
}
330
20C9
100
AcDbXrecord
 10
0.0
 20
0.0
 30
0.0
  0
XRECORD
  5
20E8
102
{ACAD_REACTORS
330
20C9
102
}
330
20C9
100
AcDbXrecord
 10
0.0
 20
0.0
 30
0.0
  0
XRECORD
  5
20E9
102
{ACAD_REACTORS
330
20C9
102
}
330
20C9
100
AcDbXrecord
 10
0.0
 20
0.0
 30
0.0
  0
LAYER_INDEX
  5
20C0
102
{ACAD_REACTORS
330
20BF
102
}
330
20BF
100
AcDbIndex
 40
2453152.355612175
100
AcDbLayerIndex
  8
0
360
20C1
 90
        1
  8
AM_0
360
20C2
 90
       38
  8
AM_11
360
20C3
 90
        4
  8
AM_7
360
20C4
 90
        1
  8
AM_5
360
20C5
 90
        6
  8
Defpoints
360
20C6
 90
        0
  8
AM_6
360
20C7
 90
        1
  0
XRECORD
  5
2D
102
{ACAD_REACTORS
330
2C
102
}
330
2C
100
AcDbXrecord
  1
VERSION
140
15.0
  1
PRODUCT
  2
AutoCAD Mechanical 2000
  0
IDBUFFER
  5
20C1
330
0
100
AcDbIdBuffer
330
18D1
  0
IDBUFFER
  5
20C2
330
0
100
AcDbIdBuffer
330
1C9E
330
1C9F
330
1CA0
330
1CA2
330
1CA3
330
1CA4
330
1CA5
330
1CA6
330
1CA7
330
1CA8
330
1CAA
330
1CAB
330
1CAC
330
1CAD
330
1CAE
330
1CAF
330
1CB0
330
1CB2
330
1CB4
330
1CB5
330
1DC2
330
1F53
330
18C1
330
18C2
330
18D0
330
18D2
330
18D3
330
18E4
330
19AA
330
19AC
330
1C93
330
1C94
330
1C95
330
1C96
330
1C99
330
1C9B
330
1C9C
330
1C9D
  0
IDBUFFER
  5
20C3
330
0
100
AcDbIdBuffer
330
1C97
330
1C9A
330
1CA1
330
1CB1
  0
IDBUFFER
  5
20C4
330
0
100
AcDbIdBuffer
330
C50
  0
IDBUFFER
  5
20C5
330
0
100
AcDbIdBuffer
330
C4F
330
18C3
330
194C
330
195B
330
1CC3
330
2008
  0
IDBUFFER
  5
20C6
330
0
100
AcDbIdBuffer
  0
IDBUFFER
  5
20C7
330
0
100
AcDbIdBuffer
330
C58
  0
ENDSEC
  0
EOF
