  0
SECTION
  2
HEADER
  9
$ACADVER
  1
AC1014
  9
$ACADMAINTVER
 70
     9
  9
$DWGCODEPAGE
  3
ANSI_932
  9
$INSBASE
 10
0.0
 20
0.0
 30
0.0
  9
$EXTMIN
 10
-47.34999999999999
 20
-25.00000000000003
 30
-0.00000001
  9
$EXTMAX
 10
4.700000000000014
 20
9.245208095238689
 30
0.00000001
  9
$LIMMIN
 10
-54.51758189409878
 20
-35.82225203489919
  9
$LIMMAX
 10
16.56901280027315
 20
15.93284017184623
  9
$ORTHOMODE
 70
     0
  9
$REGENMODE
 70
     1
  9
$FILLMODE
 70
     1
  9
$QTEXTMODE
 70
     0
  9
$MIRRTEXT
 70
     0
  9
$DRAGMODE
 70
     2
  9
$LTSCALE
 40
1.0
  9
$OSMODE
 70
  2103
  9
$ATTMODE
 70
     1
  9
$TEXTSIZE
 40
2.5
  9
$TRACEWID
 40
1.0
  9
$TEXTSTYLE
  7
ACJISGDT
  9
$CLAYER
  8
AM_0
  9
$CELTYPE
  6
BYLAYER
  9
$CECOLOR
 62
   256
  9
$CELTSCALE
 40
1.0
  9
$DELOBJ
 70
     1
  9
$DISPSILH
 70
     0
  9
$DIMSCALE
 40
0.5
  9
$DIMASZ
 40
2.5
  9
$DIMEXO
 40
1.0
  9
$DIMDLI
 40
12.0
  9
$DIMRND
 40
0.0
  9
$DIMDLE
 40
0.0
  9
$DIMEXE
 40
1.0
  9
$DIMTP
 40
0.1
  9
$DIMTM
 40
0.1
  9
$DIMTXT
 40
3.2
  9
$DIMCEN
 40
0.0
  9
$DIMTSZ
 40
0.0
  9
$DIMTOL
 70
     0
  9
$DIMLIM
 70
     0
  9
$DIMTIH
 70
     0
  9
$DIMTOH
 70
     0
  9
$DIMSE1
 70
     0
  9
$DIMSE2
 70
     0
  9
$DIMTAD
 70
     3
  9
$DIMZIN
 70
     8
  9
$DIMBLK
  1
OPEN30
  9
$DIMASO
 70
     1
  9
$DIMSHO
 70
     1
  9
$DIMPOST
  1

  9
$DIMAPOST
  1
"
  9
$DIMALT
 70
     0
  9
$DIMALTD
 70
     2
  9
$DIMALTF
 40
0.0393701
  9
$DIMLFAC
 40
1.0
  9
$DIMTOFL
 70
     1
  9
$DIMTVP
 40
0.0
  9
$DIMTIX
 70
     0
  9
$DIMSOXD
 70
     0
  9
$DIMSAH
 70
     0
  9
$DIMBLK1
  1

  9
$DIMBLK2
  1

  9
$DIMSTYLE
  2
AM_JIS
  9
$DIMCLRD
 70
   256
  9
$DIMCLRE
 70
   256
  9
$DIMCLRT
 70
     2
  9
$DIMTFAC
 40
0.71
  9
$DIMGAP
 40
1.5
  9
$DIMJUST
 70
     0
  9
$DIMSD1
 70
     0
  9
$DIMSD2
 70
     0
  9
$DIMTOLJ
 70
     0
  9
$DIMTZIN
 70
     0
  9
$DIMALTZ
 70
     0
  9
$DIMALTTZ
 70
     0
  9
$DIMFIT
 70
     3
  9
$DIMUPT
 70
     0
  9
$DIMUNIT
 70
     2
  9
$DIMDEC
 70
     3
  9
$DIMTDEC
 70
     3
  9
$DIMALTU
 70
     2
  9
$DIMALTTD
 70
     2
  9
$DIMTXSTY
  7
ASAMI
  9
$DIMAUNIT
 70
     0
  9
$LUNITS
 70
     2
  9
$LUPREC
 70
     2
  9
$SKETCHINC
 40
1.0
  9
$FILLETRAD
 40
2.5
  9
$AUNITS
 70
     0
  9
$AUPREC
 70
     0
  9
$MENU
  1
.
  9
$ELEVATION
 40
0.0
  9
$PELEVATION
 40
0.0
  9
$THICKNESS
 40
0.0
  9
$LIMCHECK
 70
     0
  9
$BLIPMODE
 70
     0
  9
$CHAMFERA
 40
0.5
  9
$CHAMFERB
 40
0.5
  9
$CHAMFERC
 40
20.0
  9
$CHAMFERD
 40
0.0
  9
$SKPOLY
 70
     0
  9
$TDCREATE
 40
2452808.406212557
  9
$TDUPDATE
 40
2452839.677307581
  9
$TDINDWG
 40
0.1256798032
  9
$TDUSRTIMER
 40
0.1256798032
  9
$USRTIMER
 70
     1
  9
$ANGBASE
 50
0.0
  9
$ANGDIR
 70
     0
  9
$PDMODE
 70
     0
  9
$PDSIZE
 40
0.0
  9
$PLINEWID
 40
0.0
  9
$COORDS
 70
     2
  9
$SPLFRAME
 70
     0
  9
$SPLINETYPE
 70
     6
  9
$SPLINESEGS
 70
     8
  9
$ATTDIA
 70
     1
  9
$ATTREQ
 70
     1
  9
$HANDLING
 70
 12289
  9
$HANDSEED
  5
1B74
  9
$SURFTAB1
 70
     6
  9
$SURFTAB2
 70
     6
  9
$SURFTYPE
 70
     6
  9
$SURFU
 70
     6
  9
$SURFV
 70
     6
  9
$UCSNAME
  2

  9
$UCSORG
 10
0.0000000000000168
 20
0.0000000000002887
 30
0.0
  9
$UCSXDIR
 10
1.0
 20
0.0
 30
0.0
  9
$UCSYDIR
 10
0.0
 20
1.0
 30
0.0
  9
$PUCSNAME
  2

  9
$PUCSORG
 10
0.0
 20
0.0
 30
0.0
  9
$PUCSXDIR
 10
1.0
 20
0.0
 30
0.0
  9
$PUCSYDIR
 10
0.0
 20
1.0
 30
0.0
  9
$USERI1
 70
     0
  9
$USERI2
 70
     0
  9
$USERI3
 70
     0
  9
$USERI4
 70
     0
  9
$USERI5
 70
     0
  9
$USERR1
 40
0.0
  9
$USERR2
 40
0.0
  9
$USERR3
 40
0.0
  9
$USERR4
 40
0.0
  9
$USERR5
 40
0.0
  9
$WORLDVIEW
 70
     1
  9
$SHADEDGE
 70
     3
  9
$SHADEDIF
 70
    70
  9
$TILEMODE
 70
     1
  9
$MAXACTVP
 70
    64
  9
$PINSBASE
 10
0.0
 20
0.0
 30
0.0
  9
$PLIMCHECK
 70
     0
  9
$PEXTMIN
 10
1.000000000000000E+20
 20
1.000000000000000E+20
 30
1.000000000000000E+20
  9
$PEXTMAX
 10
-1.000000000000000E+20
 20
-1.000000000000000E+20
 30
-1.000000000000000E+20
  9
$PLIMMIN
 10
0.0
 20
0.0
  9
$PLIMMAX
 10
841.0
 20
594.0
  9
$UNITMODE
 70
     0
  9
$VISRETAIN
 70
     1
  9
$PLINEGEN
 70
     0
  9
$PSLTSCALE
 70
     0
  9
$TREEDEPTH
 70
  3020
  9
$PICKSTYLE
 70
     0
  9
$CMLSTYLE
  2
STANDARD
  9
$CMLJUST
 70
     0
  9
$CMLSCALE
 40
20.0
  9
$PROXYGRAPHICS
 70
     1
  9
$MEASUREMENT
 70
     1
  0
ENDSEC
  0
SECTION
  2
CLASSES
  0
CLASS
  1
ACDBDICTIONARYWDFLT
  2
AcDbDictionaryWithDefault
  3
AutoCAD 2000
 90
        0
280
     0
281
     0
  0
CLASS
  1
ACDBPLACEHOLDER
  2
AcDbPlaceHolder
  3
AutoCAD 2000
 90
        0
280
     0
281
     0
  0
CLASS
  1
LAYOUT
  2
AcDbLayout
  3
AutoCAD 2000
 90
        0
280
     0
281
     0
  0
CLASS
  1
AMGSETTINGSOBJ
  2
AmgSettingsObj
  3
"AcadM|Product Description: AutoCAD Mechanical 2000|Company: Autodesk"
 90
        0
280
     0
281
     0
  0
CLASS
  1
ACME_DOCUMENT
  2
AcMeDbDoc
  3
AcMeServices
 90
        0
280
     0
281
     0
  0
CLASS
  1
ACMESCOPE
  2
AcMeScope
  3
AcMeServices
 90
        0
280
     0
281
     0
  0
CLASS
  1
ACMECOMMANDHISTORY
  2
AcMeCommandHistory
  3
AcMeServices
 90
        0
280
     0
281
     0
  0
CLASS
  1
DICTIONARYVAR
  2
AcDbDictionaryVar
  3
AutoCAD 2000
 90
        0
280
     0
281
     0
  0
CLASS
  1
ACIMSYSVARMAN
  2
AcImSysVarManager
  3
AcMeServices
 90
        0
280
     0
281
     0
  0
CLASS
  1
ACIMREALSYSVAR
  2
AcImRealSysVar
  3
AcMeServices
 90
        0
280
     0
281
     0
  0
CLASS
  1
ACIMINTSYSVAR
  2
AcImIntSysVar
  3
AcMeServices
 90
        0
280
     0
281
     0
  0
CLASS
  1
ACMEDRAWINGMAN
  2
AcMeDrawingMan
  3
AcMeServices
 90
        0
280
     0
281
     0
  0
CLASS
  1
ACMEVIEW
  2
AcMeView
  3
AcMeServices
 90
        0
280
     0
281
     0
  0
CLASS
  1
ACDBENTITYCACHE
  2
AcMeEntityCache
  3
AcMeServices
 90
        0
280
     0
281
     0
  0
CLASS
  1
GSMANAGER
  2
AcMeGSManager
  3
AcMeServices
 90
        0
280
     0
281
     0
  0
CLASS
  1
AmdtInternalReactor
  2
AmdtInternalReactor
  3
AcMeServices
 90
        0
280
     0
281
     0
  0
CLASS
  1
ACMESTATEMGR
  2
AcMeStateMgr
  3
AcMeServices
 90
        0
280
     0
281
     0
  0
CLASS
  1
ACME_DATABASE
  2
AcMeDbDatabase
  3
AcMeServices
 90
        0
280
     0
281
     0
  0
CLASS
  1
ACRFINSADJUSTERMGR
  2
AcRfInsAdjusterMgr
  3
AcMeServices
 90
        0
280
     0
281
     0
  0
CLASS
  1
ACMDATADICTIONARY
  2
AcmDataDictionary
  3
"AcmSymBB|Product Description: AutoCAD Mechanical 2000|Company: Autodesk"
 90
        0
280
     0
281
     0
  0
CLASS
  1
ACMDATAENTRYBLOCK
  2
AcmDataEntryBlock
  3
"AcmSymBB|Product Description: AutoCAD Mechanical 2000|Company: Autodesk"
 90
        0
280
     0
281
     0
  0
CLASS
  1
AMGOBJPROPCFG
  2
AmgObjPropCfg
  3
"AmgLay|Product Description: AutoCAD Mechanical 2000|Company: Autodesk"
 90
        1
280
     0
281
     0
  0
CLASS
  1
ACAMGFILTERDAT
  2
AcAmgFilterDat
  3
"AcadM|Product Description: AutoCAD Mechanical 2000|Company: Autodesk"
 90
        0
280
     0
281
     0
  0
CLASS
  1
LAYER_INDEX
  2
AcDbLayerIndex
  3
AutoCAD 2000
 90
        0
280
     0
281
     0
  0
CLASS
  1
IDBUFFER
  2
AcDbIdBuffer
  3
AutoCAD 2000
 90
        0
280
     0
281
     0
  0
CLASS
  1
ACIMSTRSYSVAR
  2
AcImStrSysVar
  3
AcMeServices
 90
        0
280
     0
281
     0
  0
CLASS
  1
ACMSTANDARDJIS
  2
AcmStandardJIS
  3
"AcmSymBB|Product Description: AutoCAD Mechanical 2000|Company: Autodesk"
 90
        0
280
     0
281
     0
  0
CLASS
  1
ACMSURFSTANDARDJIS
  2
AcmSurfTextStdJIS
  3
"AcmSymBB|Product Description: AutoCAD Mechanical 2000|Company: Autodesk"
 90
        0
280
     0
281
     0
  0
CLASS
  1
ACMFCFSTANDARDJIS
  2
AcmFCFStdJIS
  3
"AcmSymBB|Product Description: AutoCAD Mechanical 2000|Company: Autodesk"
 90
        0
280
     0
281
     0
  0
CLASS
  1
ACMWELDSTANDARDJIS
  2
AcmWeldingStdJIS
  3
"AcmSymBB|Product Description: AutoCAD Mechanical 2000|Company: Autodesk"
 90
        0
280
     0
281
     0
  0
CLASS
  1
ACMIDSTANDARDJIS
  2
AcmIdStdJIS
  3
"AcmSymBB|Product Description: AutoCAD Mechanical 2000|Company: Autodesk"
 90
        0
280
     0
281
     0
  0
CLASS
  1
ACMDATUMSTANDARDJIS
  2
AcmDatumStdJIS
  3
"AcmSymBB|Product Description: AutoCAD Mechanical 2000|Company: Autodesk"
 90
        0
280
     0
281
     0
  0
CLASS
  1
ACMBOMSTANDARDJIS
  2
AcmBOMStdJIS
  3
"AcmSymBB|Product Description: AutoCAD Mechanical 2000|Company: Autodesk"
 90
        0
280
     0
281
     0
  0
CLASS
  1
ACMSTANDARDANSI
  2
AcmStandardANSI
  3
"AcmSymBB|Product Description: AutoCAD Mechanical 2000|Company: Autodesk"
 90
        0
280
     0
281
     0
  0
CLASS
  1
ACMSURFSTANDARDANSI
  2
AcmSurfTextStdANSI
  3
"AcmSymBB|Product Description: AutoCAD Mechanical 2000|Company: Autodesk"
 90
        0
280
     0
281
     0
  0
CLASS
  1
ACMFCFSTANDARDANSI
  2
AcmFCFStdANSI
  3
"AcmSymBB|Product Description: AutoCAD Mechanical 2000|Company: Autodesk"
 90
        0
280
     0
281
     0
  0
CLASS
  1
ACMWELDSTANDARDANSI
  2
AcmWeldingStdANSI
  3
"AcmSymBB|Product Description: AutoCAD Mechanical 2000|Company: Autodesk"
 90
        0
280
     0
281
     0
  0
CLASS
  1
ACMIDSTANDARDANSI
  2
AcmIdStdANSI
  3
"AcmSymBB|Product Description: AutoCAD Mechanical 2000|Company: Autodesk"
 90
        0
280
     0
281
     0
  0
CLASS
  1
ACMDATUMSTANDARDANSI
  2
AcmDatumStdANSI
  3
"AcmSymBB|Product Description: AutoCAD Mechanical 2000|Company: Autodesk"
 90
        0
280
     0
281
     0
  0
CLASS
  1
ACMBOMSTANDARDANSI
  2
AcmBOMStdANSI
  3
"AcmSymBB|Product Description: AutoCAD Mechanical 2000|Company: Autodesk"
 90
        0
280
     0
281
     0
  0
CLASS
  1
ACMSTANDARDBSI
  2
AcmStandardBSI
  3
"AcmSymBB|Product Description: AutoCAD Mechanical 2000|Company: Autodesk"
 90
        0
280
     0
281
     0
  0
CLASS
  1
ACMSURFSTANDARDBSI
  2
AcmSurfTextStdBSI
  3
"AcmSymBB|Product Description: AutoCAD Mechanical 2000|Company: Autodesk"
 90
        0
280
     0
281
     0
  0
CLASS
  1
ACMFCFSTANDARDBSI
  2
AcmFCFStdBSI
  3
"AcmSymBB|Product Description: AutoCAD Mechanical 2000|Company: Autodesk"
 90
        0
280
     0
281
     0
  0
CLASS
  1
ACMWELDSTANDARDBSI
  2
AcmWeldingStdBSI
  3
"AcmSymBB|Product Description: AutoCAD Mechanical 2000|Company: Autodesk"
 90
        0
280
     0
281
     0
  0
CLASS
  1
ACMIDSTANDARDBSI
  2
AcmIdStdBSI
  3
"AcmSymBB|Product Description: AutoCAD Mechanical 2000|Company: Autodesk"
 90
        0
280
     0
281
     0
  0
CLASS
  1
ACMDATUMSTANDARDBSI
  2
AcmDatumStdBSI
  3
"AcmSymBB|Product Description: AutoCAD Mechanical 2000|Company: Autodesk"
 90
        0
280
     0
281
     0
  0
CLASS
  1
ACMBOMSTANDARDBSI
  2
AcmBOMStdBSI
  3
"AcmSymBB|Product Description: AutoCAD Mechanical 2000|Company: Autodesk"
 90
        0
280
     0
281
     0
  0
CLASS
  1
LONG_TRANSACTION
  2
AcDbLongTransaction
  3
AutoCAD 2000
 90
        0
280
     0
281
     0
  0
CLASS
  1
LWPOLYLINE
  2
AcDbPolyline
  3
AutoCAD 2000
 90
        0
280
     0
281
     1
  0
CLASS
  1
HATCH
  2
AcDbHatch
  3
AutoCAD 2000
 90
        0
280
     0
281
     1
  0
CLASS
  1
XRECORD
  2
AcDbXrecord
  3
AutoCAD 2000
 90
        0
280
     0
281
     0
  0
ENDSEC
  0
SECTION
  2
TABLES
  0
TABLE
  2
VPORT
  5
8
330
0
100
AcDbSymbolTable
 70
     3
  0
VPORT
  5
1B49
330
8
100
AcDbSymbolTableRecord
100
AcDbViewportTableRecord
  2
*ACTIVE
 70
     0
 10
0.0
 20
0.0
 11
1.0
 21
1.0
 12
-21.32536156309432
 22
-7.877613617286037
 13
0.0
 23
0.0
 14
2.5
 24
2.5
 15
10.0
 25
10.0
 16
0.0
 26
0.0
 36
1.0
 17
0.0
 27
0.0
 37
0.0
 40
34.45695519609044
 41
1.56570841889117
 42
50.0
 43
0.0
 44
0.0
 50
0.0
 51
0.0
 71
     0
 72
   100
 73
     1
 74
     3
 75
     0
 76
     0
 77
     0
 78
     0
  0
ENDTAB
  0
TABLE
  2
LTYPE
  5
5
330
0
100
AcDbSymbolTable
 70
    10
  0
LTYPE
  5
14
330
5
100
AcDbSymbolTableRecord
100
AcDbLinetypeTableRecord
  2
BYBLOCK
 70
     0
  3

 72
    65
 73
     0
 40
0.0
  0
LTYPE
  5
15
330
5
100
AcDbSymbolTableRecord
100
AcDbLinetypeTableRecord
  2
BYLAYER
 70
     0
  3

 72
    65
 73
     0
 40
0.0
  0
LTYPE
  5
16
330
5
100
AcDbSymbolTableRecord
100
AcDbLinetypeTableRecord
  2
CONTINUOUS
 70
     0
  3
Solid line
 72
    65
 73
     0
 40
0.0
  0
LTYPE
  5
4B
330
5
100
AcDbSymbolTableRecord
100
AcDbLinetypeTableRecord
  2
AM_ISO02W050
 70
     0
  3
__ __ __ __ __ __ __ __ __ __ __ __ __ __ __
 72
    65
 73
     2
 40
7.5
 49
6.0
 74
     0
 49
-1.5
 74
     0
  0
LTYPE
  5
4C
330
5
100
AcDbSymbolTableRecord
100
AcDbLinetypeTableRecord
  2
AM_ISO08W050
 70
     0
  3
____ . ____ . ____ . ____ . ____ . ____ . ____
 72
    65
 73
     4
 40
18.0
 49
12.0
 74
     0
 49
-1.5
 74
     0
 49
3.0
 74
     0
 49
-1.5
 74
     0
  0
LTYPE
  5
4D
330
5
100
AcDbSymbolTableRecord
100
AcDbLinetypeTableRecord
  2
AM_ISO09W050
 70
     0
  3
_____ . . _____ . . _____ . . ____ .. ____
 72
    65
 73
     6
 40
22.5
 49
12.0
 74
     0
 49
-1.5
 74
     0
 49
3.0
 74
     0
 49
-1.5
 74
     0
 49
3.0
 74
     0
 49
-1.5
 74
     0
  0
LTYPE
  5
4E
330
5
100
AcDbSymbolTableRecord
100
AcDbLinetypeTableRecord
  2
AMCONSTR
 70
     0
  3
_______________________
 72
    65
 73
     2
 40
9999.0
 49
9999.0
 74
     0
 49
0.0
 74
     0
  0
LTYPE
  5
4F
330
5
100
AcDbSymbolTableRecord
100
AcDbLinetypeTableRecord
  2
AM_ISO02W050X2
 70
     0
  3
 _ _ _ _ _ _ _ _ _ _ _ _
 72
    65
 73
     2
 40
3.75
 49
3.0
 74
     0
 49
-0.75
 74
     0
  0
LTYPE
  5
50
330
5
100
AcDbSymbolTableRecord
100
AcDbLinetypeTableRecord
  2
AM_ISO08W050X2
 70
     0
  3
__ . __ . __ . __ . __ . __
 72
    65
 73
     4
 40
9.0
 49
6.0
 74
     0
 49
-0.75
 74
     0
 49
1.5
 74
     0
 49
-0.75
 74
     0
  0
LTYPE
  5
53
330
5
100
AcDbSymbolTableRecord
100
AcDbLinetypeTableRecord
  2
AMZIGZAG
 70
     0
  3
/\/-/\/-/\/-/\/-/\/-/\/
 72
    65
 73
     2
 40
11.00009999999999
 49
0.0001
 74
     4
 75
   135
340
52
 46
0.04
 50
0.0
 44
0.0
 45
0.0
 49
-11.0
 74
     0
  0
LTYPE
  5
166
330
5
100
AcDbSymbolTableRecord
100
AcDbLinetypeTableRecord
  2
ACJISTGL
 70
     0
  3
_ _ _ _ _
 72
    65
 73
     2
 40
3.0
 49
2.0
 74
     0
 49
-1.0
 74
     0
  0
LTYPE
  5
26A
330
5
100
AcDbSymbolTableRecord
100
AcDbLinetypeTableRecord
  2
ACJISTGB
 70
     0
  3
__ . . __ . .
 72
    65
 73
     6
 40
9.0
 49
4.0
 74
     0
 49
-1.0
 74
     0
 49
1.0
 74
     0
 49
-1.0
 74
     0
 49
1.0
 74
     0
 49
-1.0
 74
     0
  0
ENDTAB
  0
TABLE
  2
LAYER
  5
2
330
0
100
AcDbSymbolTable
 70
     7
  0
LAYER
  5
10
330
2
100
AcDbSymbolTableRecord
100
AcDbLayerTableRecord
  2
0
 70
     0
 62
     7
  6
CONTINUOUS
  0
LAYER
  5
3F9
330
2
100
AcDbSymbolTableRecord
100
AcDbLayerTableRecord
  2
AM_0
 70
     0
 62
     7
  6
CONTINUOUS
  0
LAYER
  5
BA4
330
2
100
AcDbSymbolTableRecord
100
AcDbLayerTableRecord
  2
AM_11
 70
     0
 62
     3
  6
AM_ISO09W050
  0
LAYER
  5
BA5
330
2
100
AcDbSymbolTableRecord
100
AcDbLayerTableRecord
  2
AM_7
 70
     0
 62
     4
  6
AM_ISO08W050
  0
LAYER
  5
E75
330
2
100
AcDbSymbolTableRecord
100
AcDbLayerTableRecord
  2
AM_5
 70
     0
 62
     3
  6
CONTINUOUS
  0
LAYER
  5
E77
330
2
100
AcDbSymbolTableRecord
100
AcDbLayerTableRecord
  2
DEFPOINTS
 70
     0
 62
     7
  6
CONTINUOUS
  0
LAYER
  5
1039
330
2
100
AcDbSymbolTableRecord
100
AcDbLayerTableRecord
  2
AM_6
 70
     0
 62
     2
  6
CONTINUOUS
  0
ENDTAB
  0
TABLE
  2
STYLE
  5
3
330
0
100
AcDbSymbolTable
 70
     5
  0
STYLE
  5
11
330
3
100
AcDbSymbolTableRecord
100
AcDbTextStyleTableRecord
  2
STANDARD
 70
     0
 40
0.0
 41
1.0
 50
0.0
 71
     0
 42
2.5
  3
simplex.shx
  4
EXTFONT.SHX
  0
STYLE
  5
52
330
3
100
AcDbSymbolTableRecord
100
AcDbTextStyleTableRecord
  2

 70
     1
 40
0.0
 41
1.0
 50
0.0
 71
     0
 42
2.5
  3
ltypeshp.shx
  4

  0
STYLE
  5
6B
330
3
100
AcDbSymbolTableRecord
100
AcDbTextStyleTableRecord
  2
ASAMI
 70
     0
 40
0.0
 41
1.0
 50
0.0
 71
     0
 42
2.5
  3
simplex.shx
  4
EXTFONT.SHX
  0
STYLE
  5
262
330
3
100
AcDbSymbolTableRecord
100
AcDbTextStyleTableRecord
  2
ACJISTS
 70
     0
 40
1.0
 41
1.0
 50
0.0
 71
     0
 42
2.5
  3
simplex.shx
  4
bigfont.shx
  0
STYLE
  5
269
330
3
100
AcDbSymbolTableRecord
100
AcDbTextStyleTableRecord
  2
ACJISGDT
 70
     0
 40
0.0
 41
1.0
 50
0.0
 71
     0
 42
2.5
  3
amgdtans.shx
  4

  0
ENDTAB
  0
TABLE
  2
VIEW
  5
6
330
0
100
AcDbSymbolTable
 70
     0
  0
ENDTAB
  0
TABLE
  2
UCS
  5
7
330
0
100
AcDbSymbolTable
 70
     0
  0
ENDTAB
  0
TABLE
  2
APPID
  5
9
330
0
100
AcDbSymbolTable
 70
    12
  0
APPID
  5
12
330
9
100
AcDbSymbolTableRecord
100
AcDbRegAppTableRecord
  2
ACAD
 70
     0
  0
APPID
  5
30
330
9
100
AcDbSymbolTableRecord
100
AcDbRegAppTableRecord
  2
MCAD_NO_VIS
 70
     0
  0
APPID
  5
31
330
9
100
AcDbSymbolTableRecord
100
AcDbRegAppTableRecord
  2
ACAD_TEMP_GRAPHIC
 70
     0
  0
APPID
  5
2C2
330
9
100
AcDbSymbolTableRecord
100
AcDbRegAppTableRecord
  2
GENIUS_GENDTOL_13
 70
     0
  0
APPID
  5
339
330
9
100
AcDbSymbolTableRecord
100
AcDbRegAppTableRecord
  2
GENIUS_GENODEF_13
 70
     0
  0
APPID
  5
33A
330
9
100
AcDbSymbolTableRecord
100
AcDbRegAppTableRecord
  2
GENIUS_GENOBJ-N-RSBK_13
 70
     0
  0
APPID
  5
33B
330
9
100
AcDbSymbolTableRecord
100
AcDbRegAppTableRecord
  2
GENIUS_GENOBJ-N-LIB_13
 70
     0
  0
APPID
  5
33C
330
9
100
AcDbSymbolTableRecord
100
AcDbRegAppTableRecord
  2
GENIUS_GENSCALE_13
 70
     0
  0
APPID
  5
378
330
9
100
AcDbSymbolTableRecord
100
AcDbRegAppTableRecord
  2
GENIUS_GENDIMSH_14
 70
     0
  0
APPID
  5
E5F
330
9
100
AcDbSymbolTableRecord
100
AcDbRegAppTableRecord
  2
GENIUS_GENFIL_13
 70
     0
  0
APPID
  5
E60
330
9
100
AcDbSymbolTableRecord
100
AcDbRegAppTableRecord
  2
GENIUS_GENOBJ-N-CHA_13
 70
     0
  0
APPID
  5
E6C
330
9
100
AcDbSymbolTableRecord
100
AcDbRegAppTableRecord
  2
GENIUS_GENOBJ-N-CEN_13
 70
     0
  0
ENDTAB
  0
TABLE
  2
DIMSTYLE
  5
A
330
0
100
AcDbSymbolTable
 70
     8
  0
DIMSTYLE
105
58
102
{ACAD_REACTORS
330
178A
330
17A0
330
17BD
330
1820
102
}
330
A
100
AcDbSymbolTableRecord
100
AcDbDimStyleTableRecord
  2
AM_JIS
 70
     0
  3

  4
"
  5
OPEN30
  6

  7

 40
0.5
 41
2.5
 42
1.0
 43
12.0
 44
1.0
 45
0.0
 46
0.0
 47
0.1
 48
0.1
140
3.2
141
0.0
142
0.0
143
0.0393701
144
1.0
145
0.0
146
0.71
147
1.5
 71
     0
 72
     0
 73
     0
 74
     0
 75
     0
 76
     0
 77
     3
 78
     8
170
     0
171
     2
172
     1
173
     0
174
     0
175
     0
176
   256
177
   256
178
     2
270
     2
271
     3
272
     3
273
     2
274
     2
340
6B
275
     0
280
     0
281
     0
282
     0
283
     0
284
     0
285
     0
286
     0
287
     3
288
     0
  0
DIMSTYLE
105
5F
330
A
100
AcDbSymbolTableRecord
100
AcDbDimStyleTableRecord
  2
AM_JIS$3
 70
     0
  3

  4
"
  5
OPEN30
  6

  7

 40
0.5
 41
2.5
 42
1.0
 43
10.0
 44
1.0
 45
0.0
 46
0.0
 47
0.1
 48
0.1
140
3.2
141
0.0
142
0.0
143
0.0393701
144
1.0
145
0.0
146
0.71
147
1.5
 71
     0
 72
     0
 73
     0
 74
     1
 75
     0
 76
     0
 77
     3
 78
     8
170
     0
171
     2
172
     0
173
     0
174
     0
175
     0
176
   256
177
   256
178
     2
270
     2
271
     2
272
     3
273
     2
274
     2
340
6B
275
     0
280
     0
281
     0
282
     0
283
     0
284
     0
285
     0
286
     0
287
     0
288
     1
  0
DIMSTYLE
105
60
330
A
100
AcDbSymbolTableRecord
100
AcDbDimStyleTableRecord
  2
AM_JIS$4
 70
     0
  3

  4
"
  5
OPEN30
  6

  7

 40
0.5
 41
2.5
 42
1.0
 43
10.0
 44
1.0
 45
0.0
 46
0.0
 47
0.1
 48
0.1
140
3.2
141
0.0
142
0.0
143
0.0393701
144
1.0
145
0.0
146
0.71
147
1.5
 71
     0
 72
     0
 73
     0
 74
     1
 75
     0
 76
     0
 77
     3
 78
     8
170
     0
171
     2
172
     0
173
     0
174
     0
175
     0
176
   256
177
   256
178
     2
270
     2
271
     2
272
     3
273
     2
274
     2
340
6B
275
     0
280
     0
281
     0
282
     0
283
     0
284
     0
285
     0
286
     0
287
     0
288
     1
  0
DIMSTYLE
105
61
330
A
100
AcDbSymbolTableRecord
100
AcDbDimStyleTableRecord
  2
AM_JIS$6
 70
     0
  3

  4
"
  5
OPEN30
  6

  7

 40
0.5
 41
2.5
 42
1.0
 43
10.0
 44
1.0
 45
0.0
 46
0.0
 47
0.1
 48
0.1
140
3.2
141
0.0
142
0.0
143
0.0393701
144
1.0
145
0.0
146
0.71
147
1.5
 71
     0
 72
     0
 73
     0
 74
     0
 75
     0
 76
     0
 77
     0
 78
     8
170
     0
171
     2
172
     1
173
     0
174
     0
175
     0
176
   256
177
   256
178
     2
270
     2
271
     2
272
     2
273
     2
274
     2
340
6B
275
     0
280
     0
281
     0
282
     0
283
     0
284
     0
285
     0
286
     0
287
     3
288
     0
  0
DIMSTYLE
105
62
330
A
100
AcDbSymbolTableRecord
100
AcDbDimStyleTableRecord
  2
AM_JIS$7
 70
     0
  3

  4
"
  5
OPEN30
  6

  7

 40
0.5
 41
2.5
 42
1.0
 43
10.0
 44
1.0
 45
0.0
 46
0.0
 47
0.1
 48
0.1
140
3.2
141
0.0
142
0.0
143
0.0393701
144
1.0
145
0.0
146
0.71
147
1.5
 71
     0
 72
     0
 73
     0
 74
     0
 75
     0
 76
     0
 77
     3
 78
     8
170
     0
171
     2
172
     1
173
     0
174
     0
175
     0
176
   256
177
   256
178
     2
270
     2
271
     2
272
     3
273
     2
274
     2
340
6B
275
     0
280
     0
281
     0
282
     0
283
     0
284
     0
285
     0
286
     0
287
     3
288
     0
  0
DIMSTYLE
105
63
330
A
100
AcDbSymbolTableRecord
100
AcDbDimStyleTableRecord
  2
AM_JIS$SF
 70
     0
  3

  4
"
  5
OPEN30
  6

  7

 40
0.5
 41
2.5
 42
1.0
 43
10.0
 44
1.0
 45
0.0
 46
0.0
 47
0.1
 48
0.1
140
3.2
141
0.0
142
0.0
143
0.0393701
144
1.0
145
0.0
146
0.71
147
1.5
 71
     0
 72
     0
 73
     0
 74
     0
 75
     1
 76
     1
 77
     3
 78
     8
170
     0
171
     2
172
     1
173
     0
174
     0
175
     0
176
   256
177
   256
178
     2
270
     2
271
     2
272
     2
273
     2
274
     2
340
6B
275
     0
280
     0
281
     0
282
     0
283
     0
284
     0
285
     0
286
     0
287
     3
288
     0
  0
DIMSTYLE
105
68
330
A
100
AcDbSymbolTableRecord
100
AcDbDimStyleTableRecord
  2
AM_JIS$SH
 70
     0
  3

  4
"
  5

  6
GENAXEH
  7
OPEN30
 40
0.5
 41
2.5
 42
1.0
 43
10.0
 44
1.0
 45
0.0
 46
0.0
 47
0.1
 48
0.1
140
3.2
141
0.0
142
0.0
143
0.0393701
144
2.0
145
0.0
146
0.71
147
1.5
 71
     0
 72
     0
 73
     0
 74
     0
 75
     1
 76
     1
 77
     3
 78
     8
170
     0
171
     2
172
     1
173
     1
174
     0
175
     0
176
   256
177
   256
178
     2
270
     2
271
     2
272
     2
273
     2
274
     2
340
6B
275
     0
280
     0
281
     0
282
     0
283
     0
284
     0
285
     0
286
     0
287
     3
288
     0
  0
DIMSTYLE
105
B34
330
A
100
AcDbSymbolTableRecord
100
AcDbDimStyleTableRecord
  2
AM_JIS$2
 70
     0
  3

  4
"
  5
OPEN30
  6

  7

 40
0.5
 41
2.5
 42
1.0
 43
12.0
 44
1.0
 45
0.0
 46
0.0
 47
0.1
 48
0.1
140
3.2
141
0.0
142
0.0
143
0.0393701
144
1.0
145
0.0
146
0.71
147
1.5
 71
     0
 72
     0
 73
     0
 74
     0
 75
     0
 76
     0
 77
     3
 78
     8
170
     0
171
     2
172
     1
173
     0
174
     0
175
     0
176
   256
177
   256
178
     2
270
     2
271
     3
272
     3
273
     2
274
     2
340
6B
275
     0
280
     0
281
     0
282
     0
283
     0
284
     0
285
     0
286
     0
287
     3
288
     0
  0
ENDTAB
  0
TABLE
  2
BLOCK_RECORD
  5
1
330
0
100
AcDbSymbolTable
 70
     9
  0
BLOCK_RECORD
  5
1F
102
{ACAD_XDICTIONARY
360
74
102
}
330
1
100
AcDbSymbolTableRecord
100
AcDbBlockTableRecord
  2
*MODEL_SPACE
  0
BLOCK_RECORD
  5
101
102
{ACAD_XDICTIONARY
360
1B72
102
}
330
1
100
AcDbSymbolTableRecord
100
AcDbBlockTableRecord
  2
*PAPER_SPACE
  0
BLOCK_RECORD
  5
59
330
1
100
AcDbSymbolTableRecord
100
AcDbBlockTableRecord
  2
_OPEN30
  0
BLOCK_RECORD
  5
64
330
1
100
AcDbSymbolTableRecord
100
AcDbBlockTableRecord
  2
GENAXEH
  0
BLOCK_RECORD
  5
178B
330
1
100
AcDbSymbolTableRecord
100
AcDbBlockTableRecord
  2
*D5
  0
BLOCK_RECORD
  5
17A1
330
1
100
AcDbSymbolTableRecord
100
AcDbBlockTableRecord
  2
*D6
  0
BLOCK_RECORD
  5
17BE
330
1
100
AcDbSymbolTableRecord
100
AcDbBlockTableRecord
  2
*D7
  0
BLOCK_RECORD
  5
1821
330
1
100
AcDbSymbolTableRecord
100
AcDbBlockTableRecord
  2
*D8
  0
ENDTAB
  0
ENDSEC
  0
SECTION
  2
BLOCKS
  0
BLOCK
  5
20
330
1F
100
AcDbEntity
  8
0
100
AcDbBlockBegin
  2
*MODEL_SPACE
 70
     0
 10
0.0
 20
0.0
 30
0.0
  3
*MODEL_SPACE
  1

  0
ENDBLK
  5
21
330
1F
100
AcDbEntity
  8
0
100
AcDbBlockEnd
  0
BLOCK
  5
103
330
101
100
AcDbEntity
 67
     1
  8
0
100
AcDbBlockBegin
  2
*PAPER_SPACE
 70
     0
 10
0.0
 20
0.0
 30
0.0
  3
*PAPER_SPACE
  1

  0
ENDBLK
  5
104
330
101
100
AcDbEntity
 67
     1
  8
0
100
AcDbBlockEnd
  0
BLOCK
  5
5D
330
59
100
AcDbEntity
  8
0
100
AcDbBlockBegin
  2
_OPEN30
 70
     0
 10
0.0
 20
0.0
 30
0.0
  3
_OPEN30
  1

  0
LINE
  5
5A
330
59
100
AcDbEntity
  8
0
 62
     0
100
AcDbLine
 10
-1.0
 20
0.26794919
 30
0.0
 11
0.0
 21
0.0
 31
0.0
  0
LINE
  5
5B
330
59
100
AcDbEntity
  8
0
 62
     0
100
AcDbLine
 10
0.0
 20
0.0
 30
0.0
 11
-1.0
 21
-0.26794919
 31
0.0
  0
LINE
  5
5C
330
59
100
AcDbEntity
  8
0
 62
     0
100
AcDbLine
 10
0.0
 20
0.0
 30
0.0
 11
-1.0
 21
0.0
 31
0.0
  0
ENDBLK
  5
5E
330
59
100
AcDbEntity
  8
0
100
AcDbBlockEnd
  0
BLOCK
  5
66
330
64
100
AcDbEntity
  8
0
100
AcDbBlockBegin
  2
GENAXEH
 70
     0
 10
0.0
 20
0.0
 30
0.0
  3
GENAXEH
  1

  0
LINE
  5
65
330
64
100
AcDbEntity
  8
0
100
AcDbLine
 10
-1.0
 20
0.0
 30
0.0
 11
1.0
 21
0.0
 31
0.0
  0
ENDBLK
  5
67
330
64
100
AcDbEntity
  8
0
100
AcDbBlockEnd
  0
BLOCK
  5
1797
330
178B
100
AcDbEntity
  8
0
100
AcDbBlockBegin
  2
*D5
 70
     1
 10
0.0
 20
0.0
 30
0.0
  3
*D5
  1

  0
LINE
  5
1934
330
178B
100
AcDbEntity
  8
AM_5
100
AcDbLine
 10
0.5000000000000167
 20
-0.7499700000000184
 30
0.0
 11
4.700000000000014
 21
-0.7499700000000196
 31
0.0
  0
LINE
  5
1935
330
178B
100
AcDbEntity
  8
AM_5
100
AcDbLine
 10
0.500000000000016
 20
0.7499700000005955
 30
0.0
 11
4.700000000000014
 21
0.7499700000005944
 31
0.0
  0
LINE
  5
1936
330
178B
100
AcDbEntity
  8
AM_5
100
AcDbLine
 10
4.200000000000014
 20
-1.999970000000019
 30
0.0
 11
4.200000000000013
 21
-3.249970000000019
 31
0.0
  0
LINE
  5
1937
330
178B
100
AcDbEntity
  8
AM_5
100
AcDbLine
 10
4.200000000000014
 20
1.999970000000594
 30
0.0
 11
4.200000000000016
 21
9.245208095238689
 31
0.0
  0
LINE
  5
1938
330
178B
100
AcDbEntity
  8
AM_5
100
AcDbLine
 10
4.200000000000014
 20
-0.7499700000000194
 30
0.0
 11
4.200000000000014
 21
0.7499700000005946
 31
0.0
  0
INSERT
  5
1939
330
178B
100
AcDbEntity
  8
AM_5
100
AcDbBlockReference
  2
_OPEN30
 10
4.200000000000014
 20
-0.7499700000000194
 30
0.0
 41
1.25
 42
1.25
 43
1.25
 50
90.0
  0
INSERT
  5
193A
330
178B
100
AcDbEntity
  8
AM_5
100
AcDbBlockReference
  2
_OPEN30
 10
4.200000000000014
 20
0.7499700000005946
 30
0.0
 41
1.25
 42
1.25
 43
1.25
 50
270.0
  0
MTEXT
  5
193B
330
178B
100
AcDbEntity
  8
AM_5
 62
     2
100
AcDbMText
 10
2.650000000000014
 20
6.247589047619642
 30
0.0
 40
1.6
 41
0.0
 71
     5
 72
     1
  1
%%c1.5
  7
ASAMI
 11
0.0000000000000001
 21
1.0
 31
0.0
1001
ACAD
1000
MTEXTBEGIN
1070
    73
1070
     1
1070
    44
1040
1.0
1070
    74
1070
     0
1000
MTEXTEND
  0
POINT
  5
193C
330
178B
100
AcDbEntity
  8
DEFPOINTS
 62
     0
100
AcDbPoint
 10
0.0000000000000166
 20
-0.7499700000000182
 30
0.0
  0
POINT
  5
193D
330
178B
100
AcDbEntity
  8
DEFPOINTS
 62
     0
100
AcDbPoint
 10
0.000000000000016
 20
0.7499700000005957
 30
0.0
  0
POINT
  5
193E
330
178B
100
AcDbEntity
  8
DEFPOINTS
 62
     0
100
AcDbPoint
 10
4.200000000000014
 20
0.7499700000005946
 30
0.0
  0
ENDBLK
  5
1798
330
178B
100
AcDbEntity
  8
0
100
AcDbBlockEnd
  0
BLOCK
  5
17AC
330
17A1
100
AcDbEntity
  8
0
100
AcDbBlockBegin
  2
*D6
 70
     1
 10
0.0
 20
0.0
 30
0.0
  3
*D6
  1

  0
LINE
  5
1ABF
330
17A1
100
AcDbEntity
  8
AM_5
100
AcDbLine
 10
-3.749999999999983
 20
-1.249970000000021
 30
0.0
 11
-3.749999999999983
 21
-9.000000000000023
 31
0.0
  0
LINE
  5
1AC0
330
17A1
100
AcDbEntity
  8
AM_5
100
AcDbLine
 10
0.0000000000000166
 20
-1.249970000000018
 30
0.0
 11
0.0000000000000161
 21
-9.000000000000024
 31
0.0
  0
LINE
  5
1AC1
330
17A1
100
AcDbEntity
  8
AM_5
100
AcDbLine
 10
1.250000000000016
 20
-8.500000000000024
 30
0.0
 11
2.500000000000015
 21
-8.500000000000024
 31
0.0
  0
LINE
  5
1AC2
330
17A1
100
AcDbEntity
  8
AM_5
100
AcDbLine
 10
-4.999999999999984
 20
-8.500000000000024
 30
0.0
 11
-12.62619047619046
 21
-8.500000000000024
 31
0.0
  0
LINE
  5
1AC3
330
17A1
100
AcDbEntity
  8
AM_5
100
AcDbLine
 10
0.0000000000000162
 20
-8.500000000000024
 30
0.0
 11
-3.749999999999983
 21
-8.500000000000024
 31
0.0
  0
INSERT
  5
1AC4
330
17A1
100
AcDbEntity
  8
AM_5
100
AcDbBlockReference
  2
_OPEN30
 10
0.0000000000000162
 20
-8.500000000000024
 30
0.0
 41
1.25
 42
1.25
 43
1.25
 50
180.0
  0
INSERT
  5
1AC5
330
17A1
100
AcDbEntity
  8
AM_5
100
AcDbBlockReference
  2
_OPEN30
 10
-3.749999999999983
 20
-8.500000000000024
 30
0.0
 41
1.25
 42
1.25
 43
1.25
  0
MTEXT
  5
1AC6
330
17A1
100
AcDbEntity
  8
AM_5
 62
     2
100
AcDbMText
 10
-9.438095238095222
 20
-6.950000000000025
 30
0.0
 40
1.6
 41
0.0
 71
     5
 72
     1
  1
3.75
  7
ASAMI
1001
ACAD
1000
MTEXTBEGIN
1070
    73
1070
     1
1070
    44
1040
1.0
1070
    74
1070
     0
1000
MTEXTEND
  0
POINT
  5
1AC7
330
17A1
100
AcDbEntity
  8
DEFPOINTS
 62
     0
100
AcDbPoint
 10
-3.749999999999983
 20
-0.7499700000000215
 30
0.0
  0
POINT
  5
1AC8
330
17A1
100
AcDbEntity
  8
DEFPOINTS
 62
     0
100
AcDbPoint
 10
0.0000000000000166
 20
-0.7499700000000182
 30
0.0
  0
POINT
  5
1AC9
330
17A1
100
AcDbEntity
  8
DEFPOINTS
 62
     0
100
AcDbPoint
 10
0.0000000000000162
 20
-8.500000000000024
 30
0.0
  0
ENDBLK
  5
17AD
330
17A1
100
AcDbEntity
  8
0
100
AcDbBlockEnd
  0
BLOCK
  5
17C8
330
17BE
100
AcDbEntity
  8
0
100
AcDbBlockBegin
  2
*D7
 70
     1
 10
0.0
 20
0.0
 30
0.0
  3
*D7
  1

  0
LINE
  5
17FB
330
17BE
100
AcDbEntity
  8
AM_5
100
AcDbLine
 10
-37.99999999999998
 20
-1.850000000000084
 30
0.0
 11
-37.99999999999998
 21
-15.00000000000003
 31
0.0
  0
LINE
  5
17FC
330
17BE
100
AcDbEntity
  8
AM_5
100
AcDbLine
 10
0.000000000000019
 20
-1.749950000000032
 30
0.0
 11
0.0000000000000181
 21
-15.00000000000003
 31
0.0
  0
LINE
  5
17FD
330
17BE
100
AcDbEntity
  8
AM_5
100
AcDbLine
 10
-36.74999999999998
 20
-14.50000000000003
 30
0.0
 11
-1.249999999999981
 21
-14.50000000000003
 31
0.0
  0
INSERT
  5
17FE
330
17BE
100
AcDbEntity
  8
AM_5
100
AcDbBlockReference
  2
_OPEN30
 10
-37.99999999999998
 20
-14.50000000000003
 30
0.0
 41
1.25
 42
1.25
 43
1.25
 50
180.0
  0
INSERT
  5
17FF
330
17BE
100
AcDbEntity
  8
AM_5
100
AcDbBlockReference
  2
_OPEN30
 10
0.0000000000000182
 20
-14.50000000000003
 30
0.0
 41
1.25
 42
1.25
 43
1.25
  0
MTEXT
  5
1800
330
17BE
100
AcDbEntity
  8
AM_5
 62
     2
100
AcDbMText
 10
-18.99999999999997
 20
-12.95000000000003
 30
0.0
 40
1.6
 41
0.0
 71
     5
 72
     1
  1
38
  7
ASAMI
1001
ACAD
1000
MTEXTBEGIN
1070
    73
1070
     1
1070
    44
1040
1.0
1070
    74
1070
     0
1000
MTEXTEND
  0
POINT
  5
1801
330
17BE
100
AcDbEntity
  8
DEFPOINTS
 62
     0
100
AcDbPoint
 10
-37.99999999999998
 20
-1.350000000000084
 30
0.0
  0
POINT
  5
1802
330
17BE
100
AcDbEntity
  8
DEFPOINTS
 62
     0
100
AcDbPoint
 10
0.000000000000019
 20
-1.249950000000032
 30
0.0
  0
POINT
  5
1803
330
17BE
100
AcDbEntity
  8
DEFPOINTS
 62
     0
100
AcDbPoint
 10
0.0000000000000182
 20
-14.50000000000003
 30
0.0
  0
ENDBLK
  5
17C9
330
17BE
100
AcDbEntity
  8
0
100
AcDbBlockEnd
  0
BLOCK
  5
182D
330
1821
100
AcDbEntity
  8
0
100
AcDbBlockBegin
  2
*D8
 70
     1
 10
0.0
 20
0.0
 30
0.0
  3
*D8
  1

  0
LINE
  5
18DC
330
1821
100
AcDbEntity
  8
AM_5
100
AcDbLine
 10
-38.24999999999997
 20
-1.500000000000084
 30
0.0
 11
-45.49999999999999
 21
-1.500000000000082
 31
0.0
  0
LINE
  5
18DD
330
1821
100
AcDbEntity
  8
AM_5
100
AcDbLine
 10
-38.25
 20
1.499999999999911
 30
0.0
 11
-45.49999999999999
 21
1.499999999999913
 31
0.0
  0
LINE
  5
18DE
330
1821
100
AcDbEntity
  8
AM_5
100
AcDbLine
 10
-44.99999999999999
 20
-2.750000000000083
 30
0.0
 11
-44.99999999999999
 21
-4.000000000000082
 31
0.0
  0
LINE
  5
18DF
330
1821
100
AcDbEntity
  8
AM_5
100
AcDbLine
 10
-44.99999999999999
 20
2.749999999999913
 30
0.0
 11
-44.99999999999999
 21
3.999999999999913
 31
0.0
  0
LINE
  5
18E0
330
1821
100
AcDbEntity
  8
AM_5
100
AcDbLine
 10
-44.99999999999999
 20
-1.500000000000082
 30
0.0
 11
-44.99999999999999
 21
1.499999999999913
 31
0.0
  0
INSERT
  5
18E1
330
1821
100
AcDbEntity
  8
AM_5
100
AcDbBlockReference
  2
_OPEN30
 10
-44.99999999999999
 20
-1.500000000000082
 30
0.0
 41
1.25
 42
1.25
 43
1.25
 50
90.0
  0
INSERT
  5
18E2
330
1821
100
AcDbEntity
  8
AM_5
100
AcDbBlockReference
  2
_OPEN30
 10
-44.99999999999999
 20
1.499999999999913
 30
0.0
 41
1.25
 42
1.25
 43
1.25
 50
270.0
  0
MTEXT
  5
18E3
330
1821
100
AcDbEntity
  8
AM_5
 62
     2
100
AcDbMText
 10
-46.54999999999999
 20
-0.0000000000000915
 30
0.0
 40
1.6
 41
0.0
 71
     5
 72
     1
  1
%%c3
  7
ASAMI
 11
0.0000000000000001
 21
1.0
 31
0.0
1001
ACAD
1000
MTEXTBEGIN
1070
    73
1070
     1
1070
    44
1040
1.0
1070
    74
1070
     0
1000
MTEXTEND
  0
POINT
  5
18E4
330
1821
100
AcDbEntity
  8
DEFPOINTS
 62
     0
100
AcDbPoint
 10
-37.74999999999997
 20
-1.500000000000084
 30
0.0
  0
POINT
  5
18E5
330
1821
100
AcDbEntity
  8
DEFPOINTS
 62
     0
100
AcDbPoint
 10
-37.75
 20
1.499999999999911
 30
0.0
  0
POINT
  5
18E6
330
1821
100
AcDbEntity
  8
DEFPOINTS
 62
     0
100
AcDbPoint
 10
-44.99999999999999
 20
1.499999999999913
 30
0.0
  0
ENDBLK
  5
182E
330
1821
100
AcDbEntity
  8
0
100
AcDbBlockEnd
  0
ENDSEC
  0
SECTION
  2
ENTITIES
  0
TEXT
  5
103F
330
1F
100
AcDbEntity
  8
AM_6
100
AcDbText
 10
-29.17857142857141
 20
-25.00000000000003
 30
0.0
 40
2.5
  1
GLM2015SF
 72
     4
 11
-18.99999999999998
 21
-23.75000000000003
 31
0.0
100
AcDbText
  0
LINE
  5
16B7
330
1F
100
AcDbEntity
  8
AM_7
100
AcDbLine
 10
-38.96849708133263
 20
-0.0000000000000856
 30
0.0
 11
0.906508264462837
 21
0.000000000000006
 31
0.0
1001
GENIUS_GENODEF_13
1002
{
1000
HIER
1070
     0
1002
}
1002
{
1000
MANEDIT
1070
     0
1002
}
1002
{
1000
NOSEL
1070
     0
1002
}
1002
{
1000
BEHIND
1070
     0
1002
}
1002
{
1000
REACTOR
1002
}
1001
GENIUS_GENOBJ-N-CEN_13
1002
{
1000
OWNER
1000
GEN
1002
}
  0
LINE
  5
16B8
330
1F
100
AcDbEntity
  8
AM_0
100
AcDbLine
 10
-7.499038105676454
 20
1.499999999999955
 30
0.0
 11
-37.75
 21
1.499999999999911
 31
0.0
  0
LINE
  5
16B9
330
1F
100
AcDbEntity
  8
AM_0
100
AcDbLine
 10
-7.499038105676831
 20
-1.500000000000044
 30
0.0
 11
-37.74999999999998
 21
-1.500000000000082
 31
0.0
  0
LINE
  5
16FF
330
1F
100
AcDbEntity
  8
AM_0
100
AcDbLine
 10
-38.0
 20
1.34999999999991
 30
0.0
 11
-37.75
 21
1.49999999999991
 31
0.0
1001
GENIUS_GENFIL_13
1070
     0
1040
0.5
1040
0.5
1040
20.0
1040
0.0
1002
{
1002
}
1001
GENIUS_GENODEF_13
1002
{
1000
HIER
1070
     0
1002
}
1002
{
1000
MANEDIT
1070
     0
1002
}
1002
{
1000
NOSEL
1070
     0
1002
}
1002
{
1000
BEHIND
1070
     0
1002
}
1002
{
1000
REACTOR
1002
}
1001
GENIUS_GENOBJ-N-CHA_13
1002
{
1000
OWNER
1000
GEN
1002
}
  0
LINE
  5
1700
330
1F
100
AcDbEntity
  8
AM_0
100
AcDbLine
 10
-37.99999999999998
 20
-1.350000000000084
 30
0.0
 11
-37.74999999999997
 21
-1.500000000000084
 31
0.0
1001
GENIUS_GENFIL_13
1070
     0
1040
0.5
1040
0.5
1040
20.0
1040
0.0
1002
{
1002
}
1001
GENIUS_GENODEF_13
1002
{
1000
HIER
1070
     0
1002
}
1002
{
1000
MANEDIT
1070
     0
1002
}
1002
{
1000
NOSEL
1070
     0
1002
}
1002
{
1000
BEHIND
1070
     0
1002
}
1002
{
1000
REACTOR
1002
}
1001
GENIUS_GENOBJ-N-CHA_13
1002
{
1000
OWNER
1000
GEN
1002
}
  0
LINE
  5
1701
330
1F
100
AcDbEntity
  8
AM_0
100
AcDbLine
 10
-37.74999999999997
 20
-1.500000000000084
 30
0.0
 11
-37.75
 21
1.49999999999991
 31
0.0
  0
LINE
  5
1702
330
1F
100
AcDbEntity
  8
AM_0
100
AcDbLine
 10
-37.99999999999998
 20
-1.350000000000084
 30
0.0
 11
-38.0
 21
1.34999999999991
 31
0.0
  0
DIMENSION
  5
178A
330
1F
100
AcDbEntity
  8
AM_5
100
AcDbDimension
  2
*D5
 10
4.200000000000014
 20
0.7499700000005946
 30
0.0
 11
4.200000000000014
 21
6.247589047619642
 31
0.0
 70
   160
  1
%%c<>
  3
AM_JIS
100
AcDbAlignedDimension
 13
0.0000000000000166
 23
-0.7499700000000182
 33
0.0
 14
0.000000000000016
 24
0.7499700000005957
 34
0.0
 50
90.0
100
AcDbRotatedDimension
1001
GENIUS_GENDTOL_13
1000

1000
h7
1000

1040
0.0
  0
LINE
  5
179B
330
1F
100
AcDbEntity
  8
AM_11
100
AcDbLine
 10
-3.749999999999983
 20
0.7499700000005923
 30
0.0
 11
-3.749999999999983
 21
-0.7499700000000215
 31
0.0
  0
LINE
  5
179E
330
1F
100
AcDbEntity
  8
AM_11
100
AcDbLine
 10
-3.749999999999983
 20
-0.7499700000000215
 30
0.0
 11
0.0000000000000166
 21
-0.7499700000000184
 31
0.0
  0
LINE
  5
179F
330
1F
100
AcDbEntity
  8
AM_11
100
AcDbLine
 10
-3.749999999999983
 20
0.7499700000005923
 30
0.0
 11
0.0000000000000118
 21
0.7499700000005957
 31
0.0
  0
DIMENSION
  5
17A0
330
1F
100
AcDbEntity
  8
AM_5
100
AcDbDimension
  2
*D6
 10
0.0000000000000162
 20
-8.500000000000024
 30
0.0
 11
-9.438095238095222
 21
-8.500000000000024
 31
0.0
 70
   160
  1
<>
  3
AM_JIS
100
AcDbAlignedDimension
 13
-3.749999999999983
 23
-0.7499700000000215
 33
0.0
 14
0.0000000000000166
 24
-0.7499700000000182
 34
0.0
 50
0.0000000000000996
100
AcDbRotatedDimension
1001
GENIUS_GENDTOL_13
1000

1000
h7
1000

1040
0.0
  0
DIMENSION
  5
17BD
330
1F
100
AcDbEntity
  8
AM_5
100
AcDbDimension
  2
*D7
 10
0.0000000000000182
 20
-14.50000000000003
 30
0.0
 11
-18.99999999999997
 21
-12.95000000000003
 31
0.0
 70
    32
  1
<>
  3
AM_JIS
100
AcDbAlignedDimension
 13
-37.99999999999998
 23
-1.350000000000084
 33
0.0
 14
0.000000000000019
 24
-1.249950000000032
 34
0.0
 50
0.0000000000000843
100
AcDbRotatedDimension
1001
GENIUS_GENDTOL_13
1000

1000
h7
1000

1040
0.0
  0
DIMENSION
  5
1820
330
1F
100
AcDbEntity
  8
AM_5
100
AcDbDimension
  2
*D8
 10
-44.99999999999999
 20
1.499999999999913
 30
0.0
 11
-44.99999999999999
 21
-0.0000000000000917
 31
0.0
 70
   160
  1
%%c<>
  3
AM_JIS
100
AcDbAlignedDimension
 13
-37.74999999999997
 23
-1.500000000000084
 33
0.0
 14
-37.75
 24
1.499999999999911
 34
0.0
 50
270.0000000000001
100
AcDbRotatedDimension
1001
GENIUS_GENDTOL_13
1000

1000
h7
1000

1040
0.0
  0
LINE
  5
19E1
330
1F
100
AcDbEntity
  8
AM_0
100
AcDbLine
 10
0.0000000000000127
 20
-0.0487910497282745
 30
0.0
 11
-0.0147601772643921
 21
-0.0487910497282745
 31
0.0
  0
LINE
  5
19E2
330
1F
100
AcDbEntity
  8
AM_0
100
AcDbLine
 10
-0.0147601772643921
 20
-0.0487910497282745
 30
0.0
 11
-0.1220810737657491
 21
0.0350358683885741
 31
0.0
  0
LINE
  5
19E3
330
1F
100
AcDbEntity
  8
AM_0
100
AcDbLine
 10
-0.0522931994509861
 20
-0.6062476124960181
 30
0.0
 11
-0.0581972703567392
 21
-0.5678447048510403
 31
0.0
  0
LINE
  5
19E4
330
1F
100
AcDbEntity
  8
AM_0
100
AcDbLine
 10
-0.0147601772643881
 20
-0.7202464737067115
 30
0.0
 11
0.0000000000000167
 21
-0.7499700000000184
 31
0.0
  0
LINE
  5
19E5
330
1F
100
AcDbEntity
  8
AM_0
100
AcDbLine
 10
-0.0147601772643881
 20
-0.7202464737067115
 30
0.0
 11
-0.0522931994509861
 21
-0.6062476124960181
 31
0.0
  0
LINE
  5
19E6
330
1F
100
AcDbEntity
  8
AM_0
100
AcDbLine
 10
-0.0147601772643881
 20
-0.7202464737067115
 30
0.0
 11
-0.0147601772643921
 21
-0.0487910497282745
 31
0.0
  0
LINE
  5
19E7
330
1F
100
AcDbEntity
  8
AM_0
100
AcDbLine
 10
0.0000000000000167
 20
-0.7499700000000184
 30
0.0
 11
0.0000000000000127
 21
0.749969999999982
 31
0.0
  0
LINE
  5
19E8
330
1F
100
AcDbEntity
  8
AM_0
100
AcDbLine
 10
0.0000000000000127
 20
-0.0487910497282745
 30
0.0
 11
-0.4220083145077166
 21
0.4878440685184375
 31
0.0
  0
LINE
  5
19E9
330
1F
100
AcDbEntity
  8
AM_11
100
AcDbLine
 10
0.0000000000000167
 20
-0.7499700000000184
 30
0.0
 11
0.0000000000000169
 21
0.7499700000005957
 31
0.0
  0
LINE
  5
19EA
330
1F
100
AcDbEntity
  8
AM_0
100
AcDbLine
 10
-4.699999999999884
 20
0.4993983138035424
 30
0.0
 11
-3.823588777061516
 21
0.7499700000005916
 31
0.0
  0
LINE
  5
19EB
330
1F
100
AcDbEntity
  8
AM_0
100
AcDbLine
 10
-4.700000000003081
 20
-0.2706800997710148
 30
0.0
 11
-4.178411279033107
 21
-0.1215544816907793
 31
0.0
  0
LINE
  5
19EC
330
1F
100
AcDbEntity
  8
AM_0
100
AcDbLine
 10
-2.655319832097405
 20
-0.5935413719236084
 30
0.0
 11
-0.9821606773943051
 21
-0.5143547428184436
 31
0.0
  0
LINE
  5
19ED
330
1F
100
AcDbEntity
  8
AM_0
100
AcDbLine
 10
-2.689056652311831
 20
0.5935413719235631
 30
0.0
 11
-0.3576530081231916
 21
0.4847982854778245
 31
0.0
  0
ELLIPSE
  5
19EE
330
1F
100
AcDbEntity
  8
AM_0
100
AcDbEllipse
 10
1.286529709025239
 20
-0.1003187355878391
 30
0.0
 11
-0.0000000000000127
 21
1.50909500829951
 31
0.0
210
0.0
220
0.0
230
1.0
 40
0.9371915996895181
 41
1.480983063974026
 42
1.88578481268848
  0
SPLINE
  5
19EF
330
1F
100
AcDbEntity
  8
AM_0
100
AcDbSpline
210
0.0
220
0.0
230
1.0
 70
     8
 71
     3
 72
     8
 73
     4
 74
     0
 42
0.0000000001
 43
0.0000000001
 40
0.0
 40
0.0
 40
0.0
 40
0.0
 40
14.48999654934389
 40
14.48999654934389
 40
14.48999654934389
 40
14.48999654934389
 10
0.0000000000000167
 20
-0.7499700000000182
 30
0.0
 10
-0.6789679924726541
 20
-0.7499700000000189
 30
0.0
 10
-1.295381190502358
 20
-0.3749850000000209
 30
0.0
 10
-1.911794388532062
 20
-0.0000000000000226
 30
0.0
  0
SPLINE
  5
19F0
330
1F
100
AcDbEntity
  8
AM_0
100
AcDbSpline
210
0.0
220
0.0
230
1.0
 70
     8
 71
     3
 72
     8
 73
     4
 74
     0
 42
0.0000000001
 43
0.0000000001
 40
4.269576567053861
 40
4.269576567053861
 40
4.269576567053861
 40
4.269576567053861
 40
14.35388886087876
 40
14.35388886087876
 40
14.35388886087876
 40
14.35388886087876
 10
-0.0522931994509861
 20
-0.6062476124959839
 30
0.0
 10
-0.505968338620368
 20
-0.4837548971819297
 30
0.0
 10
-0.941269223315256
 20
-0.2418774485909912
 30
0.0
 10
-1.376570108010144
 20
-0.0000000000000183
 30
0.0
  0
SPLINE
  5
19F1
330
1F
100
AcDbEntity
  8
AM_0
100
AcDbSpline
210
0.0
220
0.0
230
1.0
 70
     8
 71
     3
 72
     8
 73
     4
 74
     0
 42
0.0000000001
 43
0.0000000001
 40
0.0
 40
0.0
 40
0.0
 40
0.0
 40
3.696710677011538
 40
3.696710677011538
 40
3.696710677011538
 40
3.696710677011538
 10
-0.1220810737657491
 20
0.0350358683885741
 30
0.0
 10
-0.2556187431974571
 20
0.1527596176153899
 30
0.0
 10
-0.5907616509327217
 20
0.4461447603856986
 30
0.0
 10
-0.4220083145077165
 20
0.4878440685184375
 30
0.0
  0
SPLINE
  5
19F2
330
1F
100
AcDbEntity
  8
AM_0
100
AcDbSpline
210
0.0
220
0.0
230
1.0
 70
     8
 71
     3
 72
     8
 73
     4
 74
     0
 42
0.0000000001
 43
0.0000000001
 40
0.0
 40
0.0
 40
0.0
 40
0.0
 40
7.266438349726817
 40
7.266438349726817
 40
7.266438349726817
 40
7.266438349726817
 10
0.0000000000000127
 20
0.7499699999998796
 30
0.0
 10
-0.3404886289612669
 20
0.7499699999998796
 30
0.0
 10
-0.6652458633643396
 20
0.6556680837205841
 30
0.0
 10
-0.9821606773937933
 20
0.5143547428174863
 30
0.0
  0
SPLINE
  5
19F3
330
1F
100
AcDbEntity
  8
AM_0
100
AcDbSpline
210
0.0
220
0.0
230
1.0
 70
     8
 71
     3
 72
     8
 73
     4
 74
     0
 42
0.0000000001
 43
0.0000000001
 40
0.0
 40
0.0
 40
0.0
 40
0.0
 40
2.657601517946371
 40
2.657601517946371
 40
2.657601517946371
 40
2.657601517946371
 10
-0.3576530081231916
 20
0.4847982854778245
 30
0.0
 10
-0.2331238985897546
 20
0.4847982854778247
 30
0.0
 10
-0.0983234834609933
 20
0.5184346817065545
 30
0.0
 10
0.0000000000000127
 20
0.5999759999999478
 30
0.0
  0
ELLIPSE
  5
19F4
330
1F
100
AcDbEntity
  8
AM_0
100
AcDbEllipse
 10
-2.250559604369473
 20
3.153704235983549
 30
0.0
 11
-0.000000000000063
 21
3.725080533439489
 31
0.0
210
0.0
220
0.0
230
1.0
 40
0.9371915996895239
 41
2.36392221926904
 42
2.856273467351976
  0
SPLINE
  5
19F5
330
1F
100
AcDbEntity
  8
AM_0
100
AcDbSpline
210
0.0
220
0.0
230
1.0
 70
     8
 71
     3
 72
     8
 73
     4
 74
     0
 42
0.0000000001
 43
0.0000000001
 40
0.0
 40
0.0
 40
0.0
 40
0.0
 40
10.49953388088627
 40
10.49953388088627
 40
10.49953388088627
 40
10.49953388088627
 10
-3.288364496542214
 20
-0.6885709037697393
 30
0.0
 10
-3.780348564083455
 20
-0.6885709037697393
 30
0.0
 10
-4.243980841519759
 20
-0.5043582107161552
 30
0.0
 10
-4.699999999999884
 20
-0.2706800997726519
 30
0.0
  0
SPLINE
  5
19F6
330
1F
100
AcDbEntity
  8
AM_0
100
AcDbSpline
210
0.0
220
0.0
230
1.0
 70
     8
 71
     3
 72
     8
 73
     4
 74
     0
 42
0.0000000001
 43
0.0000000001
 40
0.0
 40
0.0
 40
0.0
 40
0.0
 40
3.347564375695247
 40
3.347564375695247
 40
3.347564375695247
 40
3.347564375695247
 10
-3.823588777064133
 20
-0.7499700000000223
 30
0.0
 10
-3.666729591066467
 20
-0.7499700000000223
 30
0.0
 10
-3.513209139779644
 20
-0.7299559395802936
 30
0.0
 10
-3.36225608903933
 20
-0.6945515848988162
 30
0.0
  0
SPLINE
  5
19F7
330
1F
100
AcDbEntity
  8
AM_0
100
AcDbSpline
210
0.0
220
0.0
230
1.0
 70
     8
 71
     3
 72
     8
 73
     4
 74
     0
 42
0.0000000001
 43
0.0000000001
 40
0.0
 40
0.0
 40
0.0
 40
0.0
 40
14.48999654934388
 40
14.48999654934388
 40
14.48999654934388
 40
14.48999654934388
 10
-3.823588777064136
 20
0.7499699999999777
 30
0.0
 10
-3.144620784591467
 20
0.7499699999999784
 30
0.0
 10
-2.528207586561765
 20
0.3749849999999779
 30
0.0
 10
-1.911794388532062
 20
-0.0000000000000226
 30
0.0
  0
ELLIPSE
  5
19F8
330
1F
100
AcDbEntity
  8
AM_0
100
AcDbEllipse
 10
-1.855806079580217
 20
2.659533149025863
 30
0.0
 11
0.0000000000003533
 21
3.725080533439457
 31
0.0
210
0.0
220
0.0
230
1.0
 40
0.9371915996895246
 41
2.189389294069693
 42
2.413709760007333
  0
ELLIPSE
  5
19F9
330
1F
100
AcDbEntity
  8
AM_0
100
AcDbEllipse
 10
-4.047102725060223
 20
-0.4450140344411815
 30
0.0
 11
0.000000000000012
 21
0.3525003367532741
 31
0.0
210
0.0
220
0.0
230
1.0
 40
0.9371915996895221
 41
-0.5173038785514859
 42
0.4087587856089097
  0
SPLINE
  5
19FA
330
1F
100
AcDbEntity
  8
AM_0
100
AcDbSpline
210
0.0
220
0.0
230
1.0
 70
     8
 71
     3
 72
     8
 73
     4
 74
     0
 42
0.0000000001
 43
0.0000000001
 40
1.53702008085691
 40
1.53702008085691
 40
1.53702008085691
 40
1.53702008085691
 40
1.900993527181806
 40
1.900993527181806
 40
1.900993527181806
 40
1.900993527181806
 10
-3.362256089039394
 20
-0.6945515848983386
 30
0.0
 10
-3.345496972031426
 20
-0.6927139778596193
 30
0.0
 10
-3.328770912675204
 20
-0.6906710360554419
 30
0.0
 10
-3.312076977528824
 20
-0.6884285574794957
 30
0.0
  0
SPLINE
  5
19FB
330
1F
100
AcDbEntity
  8
AM_0
100
AcDbSpline
210
0.0
220
0.0
230
1.0
 70
     8
 71
     3
 72
     8
 73
     4
 74
     0
 42
0.0000000001
 43
0.0000000001
 40
0.0
 40
0.0
 40
0.0
 40
0.0
 40
14.68462643510734
 40
14.68462643510734
 40
14.68462643510734
 40
14.68462643510734
 10
-3.33737174253625
 20
0.6885709037696942
 30
0.0
 10
-2.649283840175265
 20
0.6885709037696951
 30
0.0
 10
-2.012926974092704
 20
0.3442854518848383
 30
0.0
 10
-1.376570108010144
 20
-0.0000000000000183
 30
0.0
  0
SPLINE
  5
19FC
330
1F
100
AcDbEntity
  8
AM_0
100
AcDbSpline
210
0.0
220
0.0
230
1.0
 70
     8
 71
     3
 72
     8
 73
     4
 74
     0
 42
0.0000000001
 43
0.0000000001
 40
0.0
 40
0.0
 40
0.0
 40
0.0
 40
4.607356481513744
 40
4.607356481513744
 40
4.607356481513744
 40
4.607356481513744
 10
-3.288364496542214
 20
-0.6885709037697393
 30
0.0
 10
-3.072474342931308
 20
-0.6885709037697393
 30
0.0
 10
-2.862043578795902
 20
-0.6530991104900333
 30
0.0
 10
-2.655319832097405
 20
-0.5935413719236084
 30
0.0
  0
LINE
  5
1A9A
330
1F
100
AcDbEntity
  8
AM_0
100
AcDbLine
 10
-7.499038105676454
 20
1.499999999999955
 30
0.0
 11
-7.499038105676456
 21
-1.500000000000044
 31
0.0
  0
LINE
  5
1A9B
330
1F
100
AcDbEntity
  8
AM_0
100
AcDbLine
 10
-7.499038105676454
 20
1.499999999999955
 30
0.0
 11
-4.699999999999985
 21
0.7500000000000061
 31
0.0
  0
LINE
  5
1A9C
330
1F
100
AcDbEntity
  8
AM_0
100
AcDbLine
 10
-4.699999999999985
 20
0.7500000000000061
 30
0.0
 11
-4.699999999999985
 21
-0.749999999999994
 31
0.0
  0
LINE
  5
1A9D
330
1F
100
AcDbEntity
  8
AM_0
100
AcDbLine
 10
-4.699999999999985
 20
-0.749999999999994
 30
0.0
 11
-7.499038105676456
 21
-1.499999999999944
 31
0.0
  0
LINE
  5
1A9F
330
1F
100
AcDbEntity
  8
AM_0
100
AcDbLine
 10
-3.749999999999983
 20
0.7485098136179984
 30
0.0
 11
-4.694438548709586
 21
0.7485098136179987
 31
0.0
  0
LINE
  5
1AA1
330
1F
100
AcDbEntity
  8
AM_0
100
AcDbLine
 10
-4.699999999999985
 20
-0.749999999999994
 30
0.0
 11
-3.823588777064133
 21
-0.7499700000000223
 31
0.0
  0
VIEWPORT
  5
110
330
101
100
AcDbEntity
 67
     1
  8
0
100
AcDbViewport
 10
420.5
 20
297.0
 30
0.0
 40
948.9782706766916
 41
628.452
 68
     1
 69
     1
1001
ACAD
1000
MVIEW
1002
{
1070
    16
1010
0.0
1020
0.0
1030
0.0
1010
0.0
1020
0.0
1030
1.0
1040
0.0
1040
628.452
1040
420.5
1040
297.0
1040
50.0
1040
0.0
1040
0.0
1070
     0
1070
   100
1070
     1
1070
     1
1070
     0
1070
     0
1070
     0
1070
     0
1040
0.0
1040
0.0
1040
0.0
1040
10.0
1040
10.0
1040
10.0
1040
10.0
1070
     0
1002
{
1002
}
1002
}
  0
ENDSEC
  0
SECTION
  2
OBJECTS
  0
DICTIONARY
  5
C
330
0
100
AcDbDictionary
  3
ACAD_GROUP
350
D
  3
ACAD_LAYOUT
350
1A
  3
ACAD_MLINESTYLE
350
17
  3
ACAD_PLOTSETTINGS
350
19
  3
ACAD_PLOTSTYLENAME
350
E
  3
ACDBVARIABLEDICTIONARY
350
34
  3
ACMDICTIONARY
350
43
  3
AMG
350
2B
  3
AMGSNAPSETTINGS
350
6E
  3
DWGPROPS
350
1B3E
  3
ACDBHEADERROUNDTRIPXREC
350
1B4A
  0
DICTIONARY
  5
74
330
1F
100
AcDbDictionary
280
     1
  3
ACAD_INDEX
360
1B40
  3
ACAD_LAYOUTSELFREF
360
1B6D
  0
DICTIONARY
  5
1B72
330
101
100
AcDbDictionary
280
     1
  3
ACAD_LAYOUTSELFREF
360
1B73
  0
DICTIONARY
  5
D
102
{ACAD_REACTORS
330
C
102
}
330
C
100
AcDbDictionary
  0
DICTIONARY
  5
1A
102
{ACAD_REACTORS
330
C
102
}
330
C
100
AcDbDictionary
  0
DICTIONARY
  5
17
102
{ACAD_REACTORS
330
C
102
}
330
C
100
AcDbDictionary
  3
STANDARD
350
18
  0
DICTIONARY
  5
19
102
{ACAD_REACTORS
330
C
102
}
330
C
100
AcDbDictionary
  0
ACDBDICTIONARYWDFLT
  5
E
102
{ACAD_REACTORS
330
C
102
}
330
C
100
AcDbDictionary
281
     1
  3
Normal
350
F
100
AcDbDictionaryWithDefault
340
F
  0
DICTIONARY
  5
34
102
{ACAD_REACTORS
330
C
102
}
330
C
100
AcDbDictionary
  3
INDEXCTL
350
35
  3
SORTENTS
350
B5E
  0
DICTIONARY
  5
43
102
{ACAD_REACTORS
330
C
102
}
330
C
100
AcDbDictionary
  3
ACMSTDDICTIONARY
350
260
  0
DICTIONARY
  5
2B
102
{ACAD_REACTORS
330
C
102
}
330
C
100
AcDbDictionary
  3
ACMGSETTINGS
350
2C
  0
DICTIONARY
  5
6E
102
{ACAD_REACTORS
330
C
102
}
330
C
100
AcDbDictionary
  0
XRECORD
  5
1B3E
102
{ACAD_REACTORS
330
C
102
}
330
C
100
AcDbXrecord
  1
DWGPROPS COOKIE
  2

  3

  4

  6

  7

  8

  9

300
AmdtFileType=82
301
=
302
=
303
=
304
=
305
=
306
=
307
=
308
=
309
=
 40
0.1256331481481482
 41
2452808.406212557
 42
2452839.60118471
  1

 90
        1
  0
DICTIONARY
  5
1B4A
102
{ACAD_REACTORS
330
C
102
}
330
C
100
AcDbDictionary
  3
TSTACKALIGN
350
1B4B
  3
TSTACKSIZE
350
1B4C
  3
HYPERLINKBASE
350
1B4D
  3
STYLESHEET
350
1B4E
  3
LAYOUTDICT
350
1B4F
  3
PLOTSETDICT
350
1B50
  3
PLOTSTYLNAMDICT
350
1B51
  3
LWETCUNION
350
1B52
  3
INSUNITS
350
1B53
  3
CEPSNTYPE
350
1B54
  3
FINGERPRINTGUID
350
1B55
  3
VERSIONGUID
350
1B56
  3
PSVPSCALE
350
1B57
  3
DIMSTYLEDATA
350
1B58
  3
PUCSORTHOREF
350
1B59
  3
PUCSORTHOVIEW
350
1B5A
  3
PUCSBASE
350
1B5B
  3
PUCSORGTOP
350
1B5C
  3
PUCSORGBOTTOM
350
1B5D
  3
PUCSORGLEFT
350
1B5E
  3
PUCSORGRIGHT
350
1B5F
  3
PUCSORGFRONT
350
1B60
  3
PUCSORGBACK
350
1B61
  3
UCSORTHOREF
350
1B62
  3
UCSORTHOVIEW
350
1B63
  3
UCSBASE
350
1B64
  3
UCSORGTOP
350
1B65
  3
UCSORGBOTTOM
350
1B66
  3
UCSORGLEFT
350
1B67
  3
UCSORGRIGHT
350
1B68
  3
UCSORGFRONT
350
1B69
  3
UCSORGBACK
350
1B6A
  0
DICTIONARY
  5
1B40
102
{ACAD_REACTORS
330
74
102
}
330
74
100
AcDbDictionary
  3
*A1
350
1B41
  0
XRECORD
  5
1B6D
102
{ACAD_REACTORS
330
74
102
}
330
74
100
AcDbXrecord
340
1F
  0
XRECORD
  5
1B73
102
{ACAD_REACTORS
330
1B72
102
}
330
1B72
100
AcDbXrecord
340
101
  0
MLINESTYLE
  5
18
102
{ACAD_REACTORS
330
17
102
}
330
17
100
AcDbMlineStyle
  2
STANDARD
 70
     0
  3

 62
   256
 51
90.0
 52
90.0
 71
     2
 49
0.5
 62
   256
  6
BYLAYER
 49
-0.5
 62
   256
  6
BYLAYER
  0
ACDBPLACEHOLDER
  5
F
102
{ACAD_REACTORS
330
E
102
}
330
E
100
AcDbPlaceHolder
280
     0
  0
DICTIONARYVAR
  5
35
102
{ACAD_REACTORS
330
34
102
}
330
34
100
DictionaryVariables
280
     0
  1
1
  0
DICTIONARYVAR
  5
B5E
102
{ACAD_REACTORS
330
34
102
}
330
34
100
DictionaryVariables
280
     0
  1
96
  0
DICTIONARY
  5
260
102
{ACAD_REACTORS
330
43
102
}
330
43
100
AcDbDictionary
  0
DICTIONARY
  5
2C
102
{ACAD_REACTORS
330
2B
102
}
330
2B
100
AcDbDictionary
  3
DWGSETTINGS
350
2D
  0
XRECORD
  5
1B4B
102
{ACAD_REACTORS
330
1B4A
102
}
330
1B4A
100
AcDbXrecord
 90
        1
  0
XRECORD
  5
1B4C
102
{ACAD_REACTORS
330
1B4A
102
}
330
1B4A
100
AcDbXrecord
 90
       70
  0
XRECORD
  5
1B4D
102
{ACAD_REACTORS
330
1B4A
102
}
330
1B4A
100
AcDbXrecord
  1

  0
XRECORD
  5
1B4E
102
{ACAD_REACTORS
330
1B4A
102
}
330
1B4A
100
AcDbXrecord
  1
ASAMI.ctb
  0
XRECORD
  5
1B4F
102
{ACAD_REACTORS
330
1B4A
102
}
330
1B4A
100
AcDbXrecord
340
1A
  0
XRECORD
  5
1B50
102
{ACAD_REACTORS
330
1B4A
102
}
330
1B4A
100
AcDbXrecord
340
19
  0
XRECORD
  5
1B51
102
{ACAD_REACTORS
330
1B4A
102
}
330
1B4A
100
AcDbXrecord
340
E
  0
XRECORD
  5
1B52
102
{ACAD_REACTORS
330
1B4A
102
}
330
1B4A
100
AcDbXrecord
 90
    10781
  0
XRECORD
  5
1B53
102
{ACAD_REACTORS
330
1B4A
102
}
330
1B4A
100
AcDbXrecord
 90
        4
  0
XRECORD
  5
1B54
102
{ACAD_REACTORS
330
1B4A
102
}
330
1B4A
100
AcDbXrecord
 90
        0
  0
XRECORD
  5
1B55
102
{ACAD_REACTORS
330
1B4A
102
}
330
1B4A
100
AcDbXrecord
  1
{AFB28963-8C59-40AE-9337-C84526B81ACE}
  0
XRECORD
  5
1B56
102
{ACAD_REACTORS
330
1B4A
102
}
330
1B4A
100
AcDbXrecord
  1
{2B4F4BF6-B1B6-4B97-B73E-1FB913180FC5}
  0
XRECORD
  5
1B57
102
{ACAD_REACTORS
330
1B4A
102
}
330
1B4A
100
AcDbXrecord
 40
0.0
  0
XRECORD
  5
1B58
102
{ACAD_REACTORS
330
1B4A
102
}
330
1B4A
100
AcDbXrecord
1000
DSTYLE
1002
{
1070
    79
 70
     2
1070
   341
340
59
1070
   342
340
59
1070
   371
 70
    -1
1070
   372
 70
    -1
1002
}
  0
XRECORD
  5
1B59
102
{ACAD_REACTORS
330
1B4A
102
}
330
1B4A
100
AcDbXrecord
340
0
  0
XRECORD
  5
1B5A
102
{ACAD_REACTORS
330
1B4A
102
}
330
1B4A
100
AcDbXrecord
 70
     0
  0
XRECORD
  5
1B5B
102
{ACAD_REACTORS
330
1B4A
102
}
330
1B4A
100
AcDbXrecord
340
0
  0
XRECORD
  5
1B5C
102
{ACAD_REACTORS
330
1B4A
102
}
330
1B4A
100
AcDbXrecord
 10
0.0
 20
0.0
 30
0.0
  0
XRECORD
  5
1B5D
102
{ACAD_REACTORS
330
1B4A
102
}
330
1B4A
100
AcDbXrecord
 10
0.0
 20
0.0
 30
0.0
  0
XRECORD
  5
1B5E
102
{ACAD_REACTORS
330
1B4A
102
}
330
1B4A
100
AcDbXrecord
 10
0.0
 20
0.0
 30
0.0
  0
XRECORD
  5
1B5F
102
{ACAD_REACTORS
330
1B4A
102
}
330
1B4A
100
AcDbXrecord
 10
0.0
 20
0.0
 30
0.0
  0
XRECORD
  5
1B60
102
{ACAD_REACTORS
330
1B4A
102
}
330
1B4A
100
AcDbXrecord
 10
0.0
 20
0.0
 30
0.0
  0
XRECORD
  5
1B61
102
{ACAD_REACTORS
330
1B4A
102
}
330
1B4A
100
AcDbXrecord
 10
0.0
 20
0.0
 30
0.0
  0
XRECORD
  5
1B62
102
{ACAD_REACTORS
330
1B4A
102
}
330
1B4A
100
AcDbXrecord
340
0
  0
XRECORD
  5
1B63
102
{ACAD_REACTORS
330
1B4A
102
}
330
1B4A
100
AcDbXrecord
 70
     0
  0
XRECORD
  5
1B64
102
{ACAD_REACTORS
330
1B4A
102
}
330
1B4A
100
AcDbXrecord
340
0
  0
XRECORD
  5
1B65
102
{ACAD_REACTORS
330
1B4A
102
}
330
1B4A
100
AcDbXrecord
 10
0.0
 20
0.0
 30
0.0
  0
XRECORD
  5
1B66
102
{ACAD_REACTORS
330
1B4A
102
}
330
1B4A
100
AcDbXrecord
 10
0.0
 20
0.0
 30
0.0
  0
XRECORD
  5
1B67
102
{ACAD_REACTORS
330
1B4A
102
}
330
1B4A
100
AcDbXrecord
 10
0.0
 20
0.0
 30
0.0
  0
XRECORD
  5
1B68
102
{ACAD_REACTORS
330
1B4A
102
}
330
1B4A
100
AcDbXrecord
 10
0.0
 20
0.0
 30
0.0
  0
XRECORD
  5
1B69
102
{ACAD_REACTORS
330
1B4A
102
}
330
1B4A
100
AcDbXrecord
 10
0.0
 20
0.0
 30
0.0
  0
XRECORD
  5
1B6A
102
{ACAD_REACTORS
330
1B4A
102
}
330
1B4A
100
AcDbXrecord
 10
0.0
 20
0.0
 30
0.0
  0
LAYER_INDEX
  5
1B41
102
{ACAD_REACTORS
330
1B40
102
}
330
1B40
100
AcDbIndex
 40
2452839.677307581
100
AcDbLayerIndex
  8
0
360
1B42
 90
        0
  8
AM_0
360
1B43
 90
       39
  8
AM_11
360
1B44
 90
        4
  8
AM_7
360
1B45
 90
        1
  8
AM_5
360
1B46
 90
        4
  8
Defpoints
360
1B47
 90
        0
  8
AM_6
360
1B48
 90
        1
  0
XRECORD
  5
2D
102
{ACAD_REACTORS
330
2C
102
}
330
2C
100
AcDbXrecord
  1
VERSION
140
15.0
  1
PRODUCT
  2
AutoCAD Mechanical 2000
  0
IDBUFFER
  5
1B42
330
0
100
AcDbIdBuffer
  0
IDBUFFER
  5
1B43
330
0
100
AcDbIdBuffer
330
19EC
330
19ED
330
19EE
330
19EF
330
19F0
330
19F1
330
19F2
330
19F3
330
19F4
330
19F5
330
19F6
330
19F7
330
19F8
330
19F9
330
19FA
330
19FB
330
19FC
330
1A9A
330
1A9B
330
1A9C
330
1A9D
330
1A9F
330
1AA1
330
16B8
330
16B9
330
16FF
330
1700
330
1701
330
1702
330
19E1
330
19E2
330
19E3
330
19E4
330
19E5
330
19E6
330
19E7
330
19E8
330
19EA
330
19EB
  0
IDBUFFER
  5
1B44
330
0
100
AcDbIdBuffer
330
179B
330
179E
330
179F
330
19E9
  0
IDBUFFER
  5
1B45
330
0
100
AcDbIdBuffer
330
16B7
  0
IDBUFFER
  5
1B46
330
0
100
AcDbIdBuffer
330
178A
330
17A0
330
17BD
330
1820
  0
IDBUFFER
  5
1B47
330
0
100
AcDbIdBuffer
  0
IDBUFFER
  5
1B48
330
0
100
AcDbIdBuffer
330
103F
  0
ENDSEC
  0
EOF
