  0
SECTION
  2
HEADER
  9
$ACADVER
  1
AC1014
  9
$ACADMAINTVER
 70
     9
  9
$DWGCODEPAGE
  3
ANSI_932
  9
$INSBASE
 10
0.0
 20
0.0
 30
0.0
  9
$EXTMIN
 10
-78.70000100219598
 20
-52.50000261576172
 30
-0.00000001
  9
$EXTMAX
 10
18.91826895073142
 20
8.999999900000037
 30
0.00000001
  9
$LIMMIN
 10
-83.40029622341495
 20
-63.80016102730838
  9
$LIMMAX
 10
27.98438606259742
 20
16.81876700943337
  9
$ORTHOMODE
 70
     0
  9
$REGENMODE
 70
     1
  9
$FILLMODE
 70
     1
  9
$QTEXTMODE
 70
     0
  9
$MIRRTEXT
 70
     0
  9
$DRAGMODE
 70
     2
  9
$LTSCALE
 40
1.0
  9
$OSMODE
 70
  2103
  9
$ATTMODE
 70
     1
  9
$TEXTSIZE
 40
2.5
  9
$TRACEWID
 40
1.0
  9
$TEXTSTYLE
  7
STANDARD
  9
$CLAYER
  8
AM_0
  9
$CELTYPE
  6
BYLAYER
  9
$CECOLOR
 62
   256
  9
$CELTSCALE
 40
1.0
  9
$DELOBJ
 70
     1
  9
$DISPSILH
 70
     0
  9
$DIMSCALE
 40
1.0
  9
$DIMASZ
 40
2.5
  9
$DIMEXO
 40
1.0
  9
$DIMDLI
 40
12.0
  9
$DIMRND
 40
0.0
  9
$DIMDLE
 40
0.0
  9
$DIMEXE
 40
1.0
  9
$DIMTP
 40
0.1
  9
$DIMTM
 40
0.1
  9
$DIMTXT
 40
3.2
  9
$DIMCEN
 40
0.0
  9
$DIMTSZ
 40
0.0
  9
$DIMTOL
 70
     0
  9
$DIMLIM
 70
     0
  9
$DIMTIH
 70
     0
  9
$DIMTOH
 70
     0
  9
$DIMSE1
 70
     0
  9
$DIMSE2
 70
     0
  9
$DIMTAD
 70
     3
  9
$DIMZIN
 70
     8
  9
$DIMBLK
  1
OPEN30
  9
$DIMASO
 70
     1
  9
$DIMSHO
 70
     1
  9
$DIMPOST
  1

  9
$DIMAPOST
  1
"
  9
$DIMALT
 70
     0
  9
$DIMALTD
 70
     2
  9
$DIMALTF
 40
0.0393701
  9
$DIMLFAC
 40
1.0
  9
$DIMTOFL
 70
     1
  9
$DIMTVP
 40
0.0
  9
$DIMTIX
 70
     0
  9
$DIMSOXD
 70
     0
  9
$DIMSAH
 70
     0
  9
$DIMBLK1
  1

  9
$DIMBLK2
  1

  9
$DIMSTYLE
  2
AM_JIS
  9
$DIMCLRD
 70
   256
  9
$DIMCLRE
 70
   256
  9
$DIMCLRT
 70
     2
  9
$DIMTFAC
 40
0.71
  9
$DIMGAP
 40
1.5
  9
$DIMJUST
 70
     0
  9
$DIMSD1
 70
     0
  9
$DIMSD2
 70
     0
  9
$DIMTOLJ
 70
     0
  9
$DIMTZIN
 70
     0
  9
$DIMALTZ
 70
     0
  9
$DIMALTTZ
 70
     0
  9
$DIMFIT
 70
     3
  9
$DIMUPT
 70
     0
  9
$DIMUNIT
 70
     2
  9
$DIMDEC
 70
     3
  9
$DIMTDEC
 70
     3
  9
$DIMALTU
 70
     2
  9
$DIMALTTD
 70
     2
  9
$DIMTXSTY
  7
ASAMI
  9
$DIMAUNIT
 70
     0
  9
$LUNITS
 70
     2
  9
$LUPREC
 70
     2
  9
$SKETCHINC
 40
1.0
  9
$FILLETRAD
 40
2.5
  9
$AUNITS
 70
     0
  9
$AUPREC
 70
     0
  9
$MENU
  1
.
  9
$ELEVATION
 40
0.0
  9
$PELEVATION
 40
0.0
  9
$THICKNESS
 40
0.0
  9
$LIMCHECK
 70
     0
  9
$BLIPMODE
 70
     0
  9
$CHAMFERA
 40
0.5
  9
$CHAMFERB
 40
0.5
  9
$CHAMFERC
 40
20.0
  9
$CHAMFERD
 40
0.0
  9
$SKPOLY
 70
     0
  9
$TDCREATE
 40
2452809.375295671
  9
$TDUPDATE
 40
2452839.678670787
  9
$TDINDWG
 40
0.0232233796
  9
$TDUSRTIMER
 40
0.0232232060
  9
$USRTIMER
 70
     1
  9
$ANGBASE
 50
0.0
  9
$ANGDIR
 70
     0
  9
$PDMODE
 70
     0
  9
$PDSIZE
 40
0.0
  9
$PLINEWID
 40
0.0
  9
$COORDS
 70
     2
  9
$SPLFRAME
 70
     0
  9
$SPLINETYPE
 70
     6
  9
$SPLINESEGS
 70
     8
  9
$ATTDIA
 70
     1
  9
$ATTREQ
 70
     1
  9
$HANDLING
 70
 12289
  9
$HANDSEED
  5
1157
  9
$SURFTAB1
 70
     6
  9
$SURFTAB2
 70
     6
  9
$SURFTYPE
 70
     6
  9
$SURFU
 70
     6
  9
$SURFV
 70
     6
  9
$UCSNAME
  2

  9
$UCSORG
 10
0.0
 20
-0.0000000000001137
 30
0.0
  9
$UCSXDIR
 10
1.0
 20
0.0
 30
0.0
  9
$UCSYDIR
 10
0.0
 20
1.0
 30
0.0
  9
$PUCSNAME
  2

  9
$PUCSORG
 10
0.0
 20
0.0
 30
0.0
  9
$PUCSXDIR
 10
1.0
 20
0.0
 30
0.0
  9
$PUCSYDIR
 10
0.0
 20
1.0
 30
0.0
  9
$USERI1
 70
     0
  9
$USERI2
 70
     0
  9
$USERI3
 70
     0
  9
$USERI4
 70
     0
  9
$USERI5
 70
     0
  9
$USERR1
 40
0.0
  9
$USERR2
 40
0.0
  9
$USERR3
 40
0.0
  9
$USERR4
 40
0.0
  9
$USERR5
 40
0.0
  9
$WORLDVIEW
 70
     1
  9
$SHADEDGE
 70
     3
  9
$SHADEDIF
 70
    70
  9
$TILEMODE
 70
     1
  9
$MAXACTVP
 70
    64
  9
$PINSBASE
 10
0.0
 20
0.0
 30
0.0
  9
$PLIMCHECK
 70
     0
  9
$PEXTMIN
 10
1.000000000000000E+20
 20
1.000000000000000E+20
 30
1.000000000000000E+20
  9
$PEXTMAX
 10
-1.000000000000000E+20
 20
-1.000000000000000E+20
 30
-1.000000000000000E+20
  9
$PLIMMIN
 10
0.0
 20
0.0
  9
$PLIMMAX
 10
841.0
 20
594.0
  9
$UNITMODE
 70
     0
  9
$VISRETAIN
 70
     1
  9
$PLINEGEN
 70
     0
  9
$PSLTSCALE
 70
     0
  9
$TREEDEPTH
 70
  3020
  9
$PICKSTYLE
 70
     0
  9
$CMLSTYLE
  2
STANDARD
  9
$CMLJUST
 70
     0
  9
$CMLSCALE
 40
20.0
  9
$PROXYGRAPHICS
 70
     1
  9
$MEASUREMENT
 70
     1
  0
ENDSEC
  0
SECTION
  2
CLASSES
  0
CLASS
  1
ACDBDICTIONARYWDFLT
  2
AcDbDictionaryWithDefault
  3
AutoCAD 2000
 90
        0
280
     0
281
     0
  0
CLASS
  1
ACDBPLACEHOLDER
  2
AcDbPlaceHolder
  3
AutoCAD 2000
 90
        0
280
     0
281
     0
  0
CLASS
  1
LAYOUT
  2
AcDbLayout
  3
AutoCAD 2000
 90
        0
280
     0
281
     0
  0
CLASS
  1
AMGSETTINGSOBJ
  2
AmgSettingsObj
  3
"AcadM|Product Description: AutoCAD Mechanical 2000|Company: Autodesk"
 90
        0
280
     0
281
     0
  0
CLASS
  1
ACME_DOCUMENT
  2
AcMeDbDoc
  3
AcMeServices
 90
        0
280
     0
281
     0
  0
CLASS
  1
ACMESCOPE
  2
AcMeScope
  3
AcMeServices
 90
        0
280
     0
281
     0
  0
CLASS
  1
ACMECOMMANDHISTORY
  2
AcMeCommandHistory
  3
AcMeServices
 90
        0
280
     0
281
     0
  0
CLASS
  1
DICTIONARYVAR
  2
AcDbDictionaryVar
  3
AutoCAD 2000
 90
        0
280
     0
281
     0
  0
CLASS
  1
ACIMSYSVARMAN
  2
AcImSysVarManager
  3
AcMeServices
 90
        0
280
     0
281
     0
  0
CLASS
  1
ACIMREALSYSVAR
  2
AcImRealSysVar
  3
AcMeServices
 90
        0
280
     0
281
     0
  0
CLASS
  1
ACIMINTSYSVAR
  2
AcImIntSysVar
  3
AcMeServices
 90
        0
280
     0
281
     0
  0
CLASS
  1
ACMEDRAWINGMAN
  2
AcMeDrawingMan
  3
AcMeServices
 90
        0
280
     0
281
     0
  0
CLASS
  1
ACMEVIEW
  2
AcMeView
  3
AcMeServices
 90
        0
280
     0
281
     0
  0
CLASS
  1
ACDBENTITYCACHE
  2
AcMeEntityCache
  3
AcMeServices
 90
        0
280
     0
281
     0
  0
CLASS
  1
GSMANAGER
  2
AcMeGSManager
  3
AcMeServices
 90
        0
280
     0
281
     0
  0
CLASS
  1
AmdtInternalReactor
  2
AmdtInternalReactor
  3
AcMeServices
 90
        0
280
     0
281
     0
  0
CLASS
  1
ACMESTATEMGR
  2
AcMeStateMgr
  3
AcMeServices
 90
        0
280
     0
281
     0
  0
CLASS
  1
ACME_DATABASE
  2
AcMeDbDatabase
  3
AcMeServices
 90
        0
280
     0
281
     0
  0
CLASS
  1
ACRFINSADJUSTERMGR
  2
AcRfInsAdjusterMgr
  3
AcMeServices
 90
        0
280
     0
281
     0
  0
CLASS
  1
ACMDATADICTIONARY
  2
AcmDataDictionary
  3
"AcmSymBB|Product Description: AutoCAD Mechanical 2000|Company: Autodesk"
 90
        0
280
     0
281
     0
  0
CLASS
  1
ACMDATAENTRYBLOCK
  2
AcmDataEntryBlock
  3
"AcmSymBB|Product Description: AutoCAD Mechanical 2000|Company: Autodesk"
 90
        0
280
     0
281
     0
  0
CLASS
  1
AMGOBJPROPCFG
  2
AmgObjPropCfg
  3
"AmgLay|Product Description: AutoCAD Mechanical 2000|Company: Autodesk"
 90
        1
280
     0
281
     0
  0
CLASS
  1
ACAMGFILTERDAT
  2
AcAmgFilterDat
  3
"AcadM|Product Description: AutoCAD Mechanical 2000|Company: Autodesk"
 90
        0
280
     0
281
     0
  0
CLASS
  1
LAYER_INDEX
  2
AcDbLayerIndex
  3
AutoCAD 2000
 90
        0
280
     0
281
     0
  0
CLASS
  1
IDBUFFER
  2
AcDbIdBuffer
  3
AutoCAD 2000
 90
        0
280
     0
281
     0
  0
CLASS
  1
ACIMSTRSYSVAR
  2
AcImStrSysVar
  3
AcMeServices
 90
        0
280
     0
281
     0
  0
CLASS
  1
ACMSTANDARDJIS
  2
AcmStandardJIS
  3
"AcmSymBB|Product Description: AutoCAD Mechanical 2000|Company: Autodesk"
 90
        0
280
     0
281
     0
  0
CLASS
  1
ACMSURFSTANDARDJIS
  2
AcmSurfTextStdJIS
  3
"AcmSymBB|Product Description: AutoCAD Mechanical 2000|Company: Autodesk"
 90
        0
280
     0
281
     0
  0
CLASS
  1
ACMFCFSTANDARDJIS
  2
AcmFCFStdJIS
  3
"AcmSymBB|Product Description: AutoCAD Mechanical 2000|Company: Autodesk"
 90
        0
280
     0
281
     0
  0
CLASS
  1
ACMWELDSTANDARDJIS
  2
AcmWeldingStdJIS
  3
"AcmSymBB|Product Description: AutoCAD Mechanical 2000|Company: Autodesk"
 90
        0
280
     0
281
     0
  0
CLASS
  1
ACMIDSTANDARDJIS
  2
AcmIdStdJIS
  3
"AcmSymBB|Product Description: AutoCAD Mechanical 2000|Company: Autodesk"
 90
        0
280
     0
281
     0
  0
CLASS
  1
ACMDATUMSTANDARDJIS
  2
AcmDatumStdJIS
  3
"AcmSymBB|Product Description: AutoCAD Mechanical 2000|Company: Autodesk"
 90
        0
280
     0
281
     0
  0
CLASS
  1
ACMBOMSTANDARDJIS
  2
AcmBOMStdJIS
  3
"AcmSymBB|Product Description: AutoCAD Mechanical 2000|Company: Autodesk"
 90
        0
280
     0
281
     0
  0
CLASS
  1
ACMSTANDARDANSI
  2
AcmStandardANSI
  3
"AcmSymBB|Product Description: AutoCAD Mechanical 2000|Company: Autodesk"
 90
        0
280
     0
281
     0
  0
CLASS
  1
ACMSURFSTANDARDANSI
  2
AcmSurfTextStdANSI
  3
"AcmSymBB|Product Description: AutoCAD Mechanical 2000|Company: Autodesk"
 90
        0
280
     0
281
     0
  0
CLASS
  1
ACMFCFSTANDARDANSI
  2
AcmFCFStdANSI
  3
"AcmSymBB|Product Description: AutoCAD Mechanical 2000|Company: Autodesk"
 90
        0
280
     0
281
     0
  0
CLASS
  1
ACMWELDSTANDARDANSI
  2
AcmWeldingStdANSI
  3
"AcmSymBB|Product Description: AutoCAD Mechanical 2000|Company: Autodesk"
 90
        0
280
     0
281
     0
  0
CLASS
  1
ACMIDSTANDARDANSI
  2
AcmIdStdANSI
  3
"AcmSymBB|Product Description: AutoCAD Mechanical 2000|Company: Autodesk"
 90
        0
280
     0
281
     0
  0
CLASS
  1
ACMDATUMSTANDARDANSI
  2
AcmDatumStdANSI
  3
"AcmSymBB|Product Description: AutoCAD Mechanical 2000|Company: Autodesk"
 90
        0
280
     0
281
     0
  0
CLASS
  1
ACMBOMSTANDARDANSI
  2
AcmBOMStdANSI
  3
"AcmSymBB|Product Description: AutoCAD Mechanical 2000|Company: Autodesk"
 90
        0
280
     0
281
     0
  0
CLASS
  1
ACMSTANDARDBSI
  2
AcmStandardBSI
  3
"AcmSymBB|Product Description: AutoCAD Mechanical 2000|Company: Autodesk"
 90
        0
280
     0
281
     0
  0
CLASS
  1
ACMSURFSTANDARDBSI
  2
AcmSurfTextStdBSI
  3
"AcmSymBB|Product Description: AutoCAD Mechanical 2000|Company: Autodesk"
 90
        0
280
     0
281
     0
  0
CLASS
  1
ACMFCFSTANDARDBSI
  2
AcmFCFStdBSI
  3
"AcmSymBB|Product Description: AutoCAD Mechanical 2000|Company: Autodesk"
 90
        0
280
     0
281
     0
  0
CLASS
  1
ACMWELDSTANDARDBSI
  2
AcmWeldingStdBSI
  3
"AcmSymBB|Product Description: AutoCAD Mechanical 2000|Company: Autodesk"
 90
        0
280
     0
281
     0
  0
CLASS
  1
ACMIDSTANDARDBSI
  2
AcmIdStdBSI
  3
"AcmSymBB|Product Description: AutoCAD Mechanical 2000|Company: Autodesk"
 90
        0
280
     0
281
     0
  0
CLASS
  1
ACMDATUMSTANDARDBSI
  2
AcmDatumStdBSI
  3
"AcmSymBB|Product Description: AutoCAD Mechanical 2000|Company: Autodesk"
 90
        0
280
     0
281
     0
  0
CLASS
  1
ACMBOMSTANDARDBSI
  2
AcmBOMStdBSI
  3
"AcmSymBB|Product Description: AutoCAD Mechanical 2000|Company: Autodesk"
 90
        0
280
     0
281
     0
  0
CLASS
  1
LONG_TRANSACTION
  2
AcDbLongTransaction
  3
AutoCAD 2000
 90
        0
280
     0
281
     0
  0
CLASS
  1
LWPOLYLINE
  2
AcDbPolyline
  3
AutoCAD 2000
 90
        0
280
     0
281
     1
  0
CLASS
  1
HATCH
  2
AcDbHatch
  3
AutoCAD 2000
 90
        0
280
     0
281
     1
  0
CLASS
  1
XRECORD
  2
AcDbXrecord
  3
AutoCAD 2000
 90
        0
280
     0
281
     0
  0
ENDSEC
  0
SECTION
  2
TABLES
  0
TABLE
  2
VPORT
  5
8
330
0
100
AcDbSymbolTable
 70
     3
  0
VPORT
  5
112C
330
8
100
AcDbSymbolTableRecord
100
AcDbViewportTableRecord
  2
*ACTIVE
 70
     0
 10
0.0
 20
0.0
 11
1.0
 21
1.0
 12
-29.89077573366634
 22
-21.7485561231019
 13
0.0
 23
0.0
 14
2.5
 24
2.5
 15
10.0
 25
10.0
 16
0.0
 26
0.0
 36
1.0
 17
0.0
 27
0.0
 37
0.0
 40
62.59819758710055
 41
1.56570841889117
 42
50.0
 43
0.0
 44
0.0
 50
0.0
 51
0.0
 71
     0
 72
   100
 73
     1
 74
     3
 75
     0
 76
     0
 77
     0
 78
     0
  0
ENDTAB
  0
TABLE
  2
LTYPE
  5
5
330
0
100
AcDbSymbolTable
 70
    10
  0
LTYPE
  5
14
330
5
100
AcDbSymbolTableRecord
100
AcDbLinetypeTableRecord
  2
BYBLOCK
 70
     0
  3

 72
    65
 73
     0
 40
0.0
  0
LTYPE
  5
15
330
5
100
AcDbSymbolTableRecord
100
AcDbLinetypeTableRecord
  2
BYLAYER
 70
     0
  3

 72
    65
 73
     0
 40
0.0
  0
LTYPE
  5
16
330
5
100
AcDbSymbolTableRecord
100
AcDbLinetypeTableRecord
  2
CONTINUOUS
 70
     0
  3
Solid line
 72
    65
 73
     0
 40
0.0
  0
LTYPE
  5
4B
330
5
100
AcDbSymbolTableRecord
100
AcDbLinetypeTableRecord
  2
AM_ISO02W050
 70
     0
  3
__ __ __ __ __ __ __ __ __ __ __ __ __ __ __
 72
    65
 73
     2
 40
7.5
 49
6.0
 74
     0
 49
-1.5
 74
     0
  0
LTYPE
  5
4C
330
5
100
AcDbSymbolTableRecord
100
AcDbLinetypeTableRecord
  2
AM_ISO08W050
 70
     0
  3
____ . ____ . ____ . ____ . ____ . ____ . ____
 72
    65
 73
     4
 40
18.0
 49
12.0
 74
     0
 49
-1.5
 74
     0
 49
3.0
 74
     0
 49
-1.5
 74
     0
  0
LTYPE
  5
4D
330
5
100
AcDbSymbolTableRecord
100
AcDbLinetypeTableRecord
  2
AM_ISO09W050
 70
     0
  3
_____ . . _____ . . _____ . . ____ .. ____
 72
    65
 73
     6
 40
22.5
 49
12.0
 74
     0
 49
-1.5
 74
     0
 49
3.0
 74
     0
 49
-1.5
 74
     0
 49
3.0
 74
     0
 49
-1.5
 74
     0
  0
LTYPE
  5
4E
330
5
100
AcDbSymbolTableRecord
100
AcDbLinetypeTableRecord
  2
AMCONSTR
 70
     0
  3
_______________________
 72
    65
 73
     2
 40
9999.0
 49
9999.0
 74
     0
 49
0.0
 74
     0
  0
LTYPE
  5
4F
330
5
100
AcDbSymbolTableRecord
100
AcDbLinetypeTableRecord
  2
AM_ISO02W050X2
 70
     0
  3
 _ _ _ _ _ _ _ _ _ _ _ _
 72
    65
 73
     2
 40
3.75
 49
3.0
 74
     0
 49
-0.75
 74
     0
  0
LTYPE
  5
50
330
5
100
AcDbSymbolTableRecord
100
AcDbLinetypeTableRecord
  2
AM_ISO08W050X2
 70
     0
  3
__ . __ . __ . __ . __ . __
 72
    65
 73
     4
 40
9.0
 49
6.0
 74
     0
 49
-0.75
 74
     0
 49
1.5
 74
     0
 49
-0.75
 74
     0
  0
LTYPE
  5
53
330
5
100
AcDbSymbolTableRecord
100
AcDbLinetypeTableRecord
  2
AMZIGZAG
 70
     0
  3
/\/-/\/-/\/-/\/-/\/-/\/
 72
    65
 73
     2
 40
11.00009999999999
 49
0.0001
 74
     4
 75
   135
340
52
 46
0.04
 50
0.0
 44
0.0
 45
0.0
 49
-11.0
 74
     0
  0
LTYPE
  5
166
330
5
100
AcDbSymbolTableRecord
100
AcDbLinetypeTableRecord
  2
ACJISTGL
 70
     0
  3
_ _ _ _ _
 72
    65
 73
     2
 40
3.0
 49
2.0
 74
     0
 49
-1.0
 74
     0
  0
LTYPE
  5
26A
330
5
100
AcDbSymbolTableRecord
100
AcDbLinetypeTableRecord
  2
ACJISTGB
 70
     0
  3
__ . . __ . .
 72
    65
 73
     6
 40
9.0
 49
4.0
 74
     0
 49
-1.0
 74
     0
 49
1.0
 74
     0
 49
-1.0
 74
     0
 49
1.0
 74
     0
 49
-1.0
 74
     0
  0
ENDTAB
  0
TABLE
  2
LAYER
  5
2
330
0
100
AcDbSymbolTable
 70
     7
  0
LAYER
  5
10
330
2
100
AcDbSymbolTableRecord
100
AcDbLayerTableRecord
  2
0
 70
     0
 62
     7
  6
CONTINUOUS
  0
LAYER
  5
3F9
330
2
100
AcDbSymbolTableRecord
100
AcDbLayerTableRecord
  2
AM_0
 70
     0
 62
     7
  6
CONTINUOUS
  0
LAYER
  5
BA4
330
2
100
AcDbSymbolTableRecord
100
AcDbLayerTableRecord
  2
AM_11
 70
     0
 62
     3
  6
AM_ISO09W050
  0
LAYER
  5
BA5
330
2
100
AcDbSymbolTableRecord
100
AcDbLayerTableRecord
  2
AM_7
 70
     0
 62
     4
  6
AM_ISO08W050
  0
LAYER
  5
CAD
330
2
100
AcDbSymbolTableRecord
100
AcDbLayerTableRecord
  2
AM_5
 70
     0
 62
     3
  6
CONTINUOUS
  0
LAYER
  5
CAF
330
2
100
AcDbSymbolTableRecord
100
AcDbLayerTableRecord
  2
DEFPOINTS
 70
     0
 62
     7
  6
CONTINUOUS
  0
LAYER
  5
E75
330
2
100
AcDbSymbolTableRecord
100
AcDbLayerTableRecord
  2
AM_6
 70
     0
 62
     2
  6
CONTINUOUS
  0
ENDTAB
  0
TABLE
  2
STYLE
  5
3
330
0
100
AcDbSymbolTable
 70
     5
  0
STYLE
  5
11
330
3
100
AcDbSymbolTableRecord
100
AcDbTextStyleTableRecord
  2
STANDARD
 70
     0
 40
0.0
 41
1.0
 50
0.0
 71
     0
 42
2.5
  3
simplex.shx
  4
EXTFONT.SHX
  0
STYLE
  5
52
330
3
100
AcDbSymbolTableRecord
100
AcDbTextStyleTableRecord
  2

 70
     1
 40
0.0
 41
1.0
 50
0.0
 71
     0
 42
2.5
  3
ltypeshp.shx
  4

  0
STYLE
  5
6B
330
3
100
AcDbSymbolTableRecord
100
AcDbTextStyleTableRecord
  2
ASAMI
 70
     0
 40
0.0
 41
1.0
 50
0.0
 71
     0
 42
2.5
  3
simplex.shx
  4
EXTFONT.SHX
  0
STYLE
  5
262
330
3
100
AcDbSymbolTableRecord
100
AcDbTextStyleTableRecord
  2
ACJISTS
 70
     0
 40
1.0
 41
1.0
 50
0.0
 71
     0
 42
2.5
  3
simplex.shx
  4
bigfont.shx
  0
STYLE
  5
269
330
3
100
AcDbSymbolTableRecord
100
AcDbTextStyleTableRecord
  2
ACJISGDT
 70
     0
 40
0.0
 41
1.0
 50
0.0
 71
     0
 42
2.5
  3
amgdtans.shx
  4

  0
ENDTAB
  0
TABLE
  2
VIEW
  5
6
330
0
100
AcDbSymbolTable
 70
     0
  0
ENDTAB
  0
TABLE
  2
UCS
  5
7
330
0
100
AcDbSymbolTable
 70
     0
  0
ENDTAB
  0
TABLE
  2
APPID
  5
9
330
0
100
AcDbSymbolTable
 70
    12
  0
APPID
  5
12
330
9
100
AcDbSymbolTableRecord
100
AcDbRegAppTableRecord
  2
ACAD
 70
     0
  0
APPID
  5
30
330
9
100
AcDbSymbolTableRecord
100
AcDbRegAppTableRecord
  2
MCAD_NO_VIS
 70
     0
  0
APPID
  5
31
330
9
100
AcDbSymbolTableRecord
100
AcDbRegAppTableRecord
  2
ACAD_TEMP_GRAPHIC
 70
     0
  0
APPID
  5
2C2
330
9
100
AcDbSymbolTableRecord
100
AcDbRegAppTableRecord
  2
GENIUS_GENDTOL_13
 70
     0
  0
APPID
  5
339
330
9
100
AcDbSymbolTableRecord
100
AcDbRegAppTableRecord
  2
GENIUS_GENODEF_13
 70
     0
  0
APPID
  5
33A
330
9
100
AcDbSymbolTableRecord
100
AcDbRegAppTableRecord
  2
GENIUS_GENOBJ-N-RSBK_13
 70
     0
  0
APPID
  5
33B
330
9
100
AcDbSymbolTableRecord
100
AcDbRegAppTableRecord
  2
GENIUS_GENOBJ-N-LIB_13
 70
     0
  0
APPID
  5
33C
330
9
100
AcDbSymbolTableRecord
100
AcDbRegAppTableRecord
  2
GENIUS_GENSCALE_13
 70
     0
  0
APPID
  5
378
330
9
100
AcDbSymbolTableRecord
100
AcDbRegAppTableRecord
  2
GENIUS_GENDIMSH_14
 70
     0
  0
APPID
  5
BA6
330
9
100
AcDbSymbolTableRecord
100
AcDbRegAppTableRecord
  2
GENIUS_GENOBJ-N-CEN_13
 70
     0
  0
APPID
  5
C82
330
9
100
AcDbSymbolTableRecord
100
AcDbRegAppTableRecord
  2
GENIUS_GENFIL_13
 70
     0
  0
APPID
  5
C83
330
9
100
AcDbSymbolTableRecord
100
AcDbRegAppTableRecord
  2
GENIUS_GENOBJ-N-CHA_13
 70
     0
  0
ENDTAB
  0
TABLE
  2
DIMSTYLE
  5
A
330
0
100
AcDbSymbolTable
 70
     8
  0
DIMSTYLE
105
58
102
{ACAD_REACTORS
330
F2C
330
F3F
330
F6F
330
105B
102
}
330
A
100
AcDbSymbolTableRecord
100
AcDbDimStyleTableRecord
  2
AM_JIS
 70
     0
  3

  4
"
  5
OPEN30
  6

  7

 40
1.0
 41
2.5
 42
1.0
 43
12.0
 44
1.0
 45
0.0
 46
0.0
 47
0.1
 48
0.1
140
3.2
141
0.0
142
0.0
143
0.0393701
144
1.0
145
0.0
146
0.71
147
1.5
 71
     0
 72
     0
 73
     0
 74
     0
 75
     0
 76
     0
 77
     3
 78
     8
170
     0
171
     2
172
     1
173
     0
174
     0
175
     0
176
   256
177
   256
178
     2
270
     2
271
     3
272
     3
273
     2
274
     2
340
6B
275
     0
280
     0
281
     0
282
     0
283
     0
284
     0
285
     0
286
     0
287
     3
288
     0
  0
DIMSTYLE
105
5F
330
A
100
AcDbSymbolTableRecord
100
AcDbDimStyleTableRecord
  2
AM_JIS$3
 70
     0
  3

  4
"
  5
OPEN30
  6

  7

 40
1.0
 41
2.5
 42
1.0
 43
10.0
 44
1.0
 45
0.0
 46
0.0
 47
0.1
 48
0.1
140
3.2
141
0.0
142
0.0
143
0.0393701
144
1.0
145
0.0
146
0.71
147
1.5
 71
     0
 72
     0
 73
     0
 74
     1
 75
     0
 76
     0
 77
     3
 78
     8
170
     0
171
     2
172
     0
173
     0
174
     0
175
     0
176
   256
177
   256
178
     2
270
     2
271
     2
272
     3
273
     2
274
     2
340
6B
275
     0
280
     0
281
     0
282
     0
283
     0
284
     0
285
     0
286
     0
287
     0
288
     1
  0
DIMSTYLE
105
60
330
A
100
AcDbSymbolTableRecord
100
AcDbDimStyleTableRecord
  2
AM_JIS$4
 70
     0
  3

  4
"
  5
OPEN30
  6

  7

 40
1.0
 41
2.5
 42
1.0
 43
10.0
 44
1.0
 45
0.0
 46
0.0
 47
0.1
 48
0.1
140
3.2
141
0.0
142
0.0
143
0.0393701
144
1.0
145
0.0
146
0.71
147
1.5
 71
     0
 72
     0
 73
     0
 74
     1
 75
     0
 76
     0
 77
     3
 78
     8
170
     0
171
     2
172
     0
173
     0
174
     0
175
     0
176
   256
177
   256
178
     2
270
     2
271
     2
272
     3
273
     2
274
     2
340
6B
275
     0
280
     0
281
     0
282
     0
283
     0
284
     0
285
     0
286
     0
287
     0
288
     1
  0
DIMSTYLE
105
61
330
A
100
AcDbSymbolTableRecord
100
AcDbDimStyleTableRecord
  2
AM_JIS$6
 70
     0
  3

  4
"
  5
OPEN30
  6

  7

 40
1.0
 41
2.5
 42
1.0
 43
10.0
 44
1.0
 45
0.0
 46
0.0
 47
0.1
 48
0.1
140
3.2
141
0.0
142
0.0
143
0.0393701
144
1.0
145
0.0
146
0.71
147
1.5
 71
     0
 72
     0
 73
     0
 74
     0
 75
     0
 76
     0
 77
     0
 78
     8
170
     0
171
     2
172
     1
173
     0
174
     0
175
     0
176
   256
177
   256
178
     2
270
     2
271
     2
272
     2
273
     2
274
     2
340
6B
275
     0
280
     0
281
     0
282
     0
283
     0
284
     0
285
     0
286
     0
287
     3
288
     0
  0
DIMSTYLE
105
62
330
A
100
AcDbSymbolTableRecord
100
AcDbDimStyleTableRecord
  2
AM_JIS$7
 70
     0
  3

  4
"
  5
OPEN30
  6

  7

 40
1.0
 41
2.5
 42
1.0
 43
10.0
 44
1.0
 45
0.0
 46
0.0
 47
0.1
 48
0.1
140
3.2
141
0.0
142
0.0
143
0.0393701
144
1.0
145
0.0
146
0.71
147
1.5
 71
     0
 72
     0
 73
     0
 74
     0
 75
     0
 76
     0
 77
     3
 78
     8
170
     0
171
     2
172
     1
173
     0
174
     0
175
     0
176
   256
177
   256
178
     2
270
     2
271
     2
272
     3
273
     2
274
     2
340
6B
275
     0
280
     0
281
     0
282
     0
283
     0
284
     0
285
     0
286
     0
287
     3
288
     0
  0
DIMSTYLE
105
63
330
A
100
AcDbSymbolTableRecord
100
AcDbDimStyleTableRecord
  2
AM_JIS$SF
 70
     0
  3

  4
"
  5
OPEN30
  6

  7

 40
1.0
 41
2.5
 42
1.0
 43
10.0
 44
1.0
 45
0.0
 46
0.0
 47
0.1
 48
0.1
140
3.2
141
0.0
142
0.0
143
0.0393701
144
1.0
145
0.0
146
0.71
147
1.5
 71
     0
 72
     0
 73
     0
 74
     0
 75
     1
 76
     1
 77
     3
 78
     8
170
     0
171
     2
172
     1
173
     0
174
     0
175
     0
176
   256
177
   256
178
     2
270
     2
271
     2
272
     2
273
     2
274
     2
340
6B
275
     0
280
     0
281
     0
282
     0
283
     0
284
     0
285
     0
286
     0
287
     3
288
     0
  0
DIMSTYLE
105
68
330
A
100
AcDbSymbolTableRecord
100
AcDbDimStyleTableRecord
  2
AM_JIS$SH
 70
     0
  3

  4
"
  5

  6
GENAXEH
  7
OPEN30
 40
1.0
 41
2.5
 42
1.0
 43
10.0
 44
1.0
 45
0.0
 46
0.0
 47
0.1
 48
0.1
140
3.2
141
0.0
142
0.0
143
0.0393701
144
2.0
145
0.0
146
0.71
147
1.5
 71
     0
 72
     0
 73
     0
 74
     0
 75
     1
 76
     1
 77
     3
 78
     8
170
     0
171
     2
172
     1
173
     1
174
     0
175
     0
176
   256
177
   256
178
     2
270
     2
271
     2
272
     2
273
     2
274
     2
340
6B
275
     0
280
     0
281
     0
282
     0
283
     0
284
     0
285
     0
286
     0
287
     3
288
     0
  0
DIMSTYLE
105
B34
330
A
100
AcDbSymbolTableRecord
100
AcDbDimStyleTableRecord
  2
AM_JIS$2
 70
     0
  3

  4
"
  5
OPEN30
  6

  7

 40
1.0
 41
2.5
 42
1.0
 43
12.0
 44
1.0
 45
0.0
 46
0.0
 47
0.1
 48
0.1
140
3.2
141
0.0
142
0.0
143
0.0393701
144
1.0
145
0.0
146
0.71
147
1.5
 71
     0
 72
     0
 73
     0
 74
     0
 75
     0
 76
     0
 77
     3
 78
     8
170
     0
171
     2
172
     1
173
     0
174
     0
175
     0
176
   256
177
   256
178
     2
270
     2
271
     3
272
     3
273
     2
274
     2
340
6B
275
     0
280
     0
281
     0
282
     0
283
     0
284
     0
285
     0
286
     0
287
     3
288
     0
  0
ENDTAB
  0
TABLE
  2
BLOCK_RECORD
  5
1
330
0
100
AcDbSymbolTable
 70
     9
  0
BLOCK_RECORD
  5
1F
102
{ACAD_XDICTIONARY
360
74
102
}
330
1
100
AcDbSymbolTableRecord
100
AcDbBlockTableRecord
  2
*MODEL_SPACE
  0
BLOCK_RECORD
  5
101
102
{ACAD_XDICTIONARY
360
1155
102
}
330
1
100
AcDbSymbolTableRecord
100
AcDbBlockTableRecord
  2
*PAPER_SPACE
  0
BLOCK_RECORD
  5
59
330
1
100
AcDbSymbolTableRecord
100
AcDbBlockTableRecord
  2
_OPEN30
  0
BLOCK_RECORD
  5
64
330
1
100
AcDbSymbolTableRecord
100
AcDbBlockTableRecord
  2
GENAXEH
  0
BLOCK_RECORD
  5
F2D
330
1
100
AcDbSymbolTableRecord
100
AcDbBlockTableRecord
  2
*D5
  0
BLOCK_RECORD
  5
F40
330
1
100
AcDbSymbolTableRecord
100
AcDbBlockTableRecord
  2
*D6
  0
BLOCK_RECORD
  5
F70
330
1
100
AcDbSymbolTableRecord
100
AcDbBlockTableRecord
  2
*D7
  0
BLOCK_RECORD
  5
105C
330
1
100
AcDbSymbolTableRecord
100
AcDbBlockTableRecord
  2
*D8
  0
ENDTAB
  0
ENDSEC
  0
SECTION
  2
BLOCKS
  0
BLOCK
  5
20
330
1F
100
AcDbEntity
  8
0
100
AcDbBlockBegin
  2
*MODEL_SPACE
 70
     0
 10
0.0
 20
0.0
 30
0.0
  3
*MODEL_SPACE
  1

  0
ENDBLK
  5
21
330
1F
100
AcDbEntity
  8
0
100
AcDbBlockEnd
  0
BLOCK
  5
103
330
101
100
AcDbEntity
 67
     1
  8
0
100
AcDbBlockBegin
  2
*PAPER_SPACE
 70
     0
 10
0.0
 20
0.0
 30
0.0
  3
*PAPER_SPACE
  1

  0
ENDBLK
  5
104
330
101
100
AcDbEntity
 67
     1
  8
0
100
AcDbBlockEnd
  0
BLOCK
  5
5D
330
59
100
AcDbEntity
  8
0
100
AcDbBlockBegin
  2
_OPEN30
 70
     0
 10
0.0
 20
0.0
 30
0.0
  3
_OPEN30
  1

  0
LINE
  5
5A
330
59
100
AcDbEntity
  8
0
 62
     0
100
AcDbLine
 10
-1.0
 20
0.26794919
 30
0.0
 11
0.0
 21
0.0
 31
0.0
  0
LINE
  5
5B
330
59
100
AcDbEntity
  8
0
 62
     0
100
AcDbLine
 10
0.0
 20
0.0
 30
0.0
 11
-1.0
 21
-0.26794919
 31
0.0
  0
LINE
  5
5C
330
59
100
AcDbEntity
  8
0
 62
     0
100
AcDbLine
 10
0.0
 20
0.0
 30
0.0
 11
-1.0
 21
0.0
 31
0.0
  0
ENDBLK
  5
5E
330
59
100
AcDbEntity
  8
0
100
AcDbBlockEnd
  0
BLOCK
  5
66
330
64
100
AcDbEntity
  8
0
100
AcDbBlockBegin
  2
GENAXEH
 70
     0
 10
0.0
 20
0.0
 30
0.0
  3
GENAXEH
  1

  0
LINE
  5
65
330
64
100
AcDbEntity
  8
0
100
AcDbLine
 10
-1.0
 20
0.0
 30
0.0
 11
1.0
 21
0.0
 31
0.0
  0
ENDBLK
  5
67
330
64
100
AcDbEntity
  8
0
100
AcDbBlockEnd
  0
BLOCK
  5
F37
330
F2D
100
AcDbEntity
  8
0
100
AcDbBlockBegin
  2
*D5
 70
     1
 10
0.0
 20
0.0
 30
0.0
  3
*D5
  1

  0
LINE
  5
1026
330
F2D
100
AcDbEntity
  8
AM_5
100
AcDbLine
 10
-19.0
 20
-4.996221726215022
 30
0.0
 11
-19.0
 21
-19.00000261576171
 31
0.0
  0
LINE
  5
1027
330
F2D
100
AcDbEntity
  8
AM_5
100
AcDbLine
 10
-0.0000000000000001
 20
-4.999999900000171
 30
0.0
 11
-0.0000000000000009
 21
-19.00000261576171
 31
0.0
  0
LINE
  5
1028
330
F2D
100
AcDbEntity
  8
AM_5
100
AcDbLine
 10
-16.5
 20
-18.00000261576172
 30
0.0
 11
-2.5
 21
-18.00000261576172
 31
0.0
  0
INSERT
  5
1029
330
F2D
100
AcDbEntity
  8
AM_5
100
AcDbBlockReference
  2
_OPEN30
 10
-19.0
 20
-18.00000261576172
 30
0.0
 41
2.5
 42
2.5
 43
2.5
 50
180.0
  0
INSERT
  5
102A
330
F2D
100
AcDbEntity
  8
AM_5
100
AcDbBlockReference
  2
_OPEN30
 10
-0.0000000000000009
 20
-18.00000261576172
 30
0.0
 41
2.5
 42
2.5
 43
2.5
  0
MTEXT
  5
102B
330
F2D
100
AcDbEntity
  8
AM_5
 62
     2
100
AcDbMText
 10
-9.5
 20
-14.90000261576171
 30
0.0
 40
3.2
 41
0.0
 71
     5
 72
     1
  1
19
  7
ASAMI
1001
ACAD
1000
MTEXTBEGIN
1070
    73
1070
     1
1070
    44
1040
1.0
1070
    74
1070
     0
1000
MTEXTEND
  0
POINT
  5
102C
330
F2D
100
AcDbEntity
  8
DEFPOINTS
 62
     0
100
AcDbPoint
 10
-19.0
 20
-3.996221726215022
 30
0.0
  0
POINT
  5
102D
330
F2D
100
AcDbEntity
  8
DEFPOINTS
 62
     0
100
AcDbPoint
 10
0.0
 20
-3.999999900000171
 30
0.0
  0
POINT
  5
102E
330
F2D
100
AcDbEntity
  8
DEFPOINTS
 62
     0
100
AcDbPoint
 10
-0.0000000000000009
 20
-18.00000261576172
 30
0.0
  0
ENDBLK
  5
F38
330
F2D
100
AcDbEntity
  8
0
100
AcDbBlockEnd
  0
BLOCK
  5
F4C
330
F40
100
AcDbEntity
  8
0
100
AcDbBlockBegin
  2
*D6
 70
     1
 10
0.0
 20
0.0
 30
0.0
  3
*D6
  1

  0
LINE
  5
102F
330
F40
100
AcDbEntity
  8
AM_5
100
AcDbLine
 10
1.0
 20
-3.999999900000171
 30
0.0
 11
18.91826895073142
 21
-3.999999900000176
 31
0.0
  0
LINE
  5
1030
330
F40
100
AcDbEntity
  8
AM_5
100
AcDbLine
 10
1.0
 20
3.999999899999943
 30
0.0
 11
18.91826895073142
 21
3.999999899999938
 31
0.0
  0
LINE
  5
1031
330
F40
100
AcDbEntity
  8
AM_5
100
AcDbLine
 10
17.91826895073142
 20
-6.499999900000175
 30
0.0
 11
17.91826895073142
 21
-8.999999900000176
 31
0.0
  0
LINE
  5
1032
330
F40
100
AcDbEntity
  8
AM_5
100
AcDbLine
 10
17.91826895073142
 20
6.499999899999939
 30
0.0
 11
17.91826895073143
 21
8.999999899999938
 31
0.0
  0
LINE
  5
1033
330
F40
100
AcDbEntity
  8
AM_5
100
AcDbLine
 10
17.91826895073142
 20
-3.999999900000176
 30
0.0
 11
17.91826895073142
 21
3.999999899999938
 31
0.0
  0
INSERT
  5
1034
330
F40
100
AcDbEntity
  8
AM_5
100
AcDbBlockReference
  2
_OPEN30
 10
17.91826895073142
 20
-3.999999900000176
 30
0.0
 41
2.5
 42
2.5
 43
2.5
 50
90.0
  0
INSERT
  5
1035
330
F40
100
AcDbEntity
  8
AM_5
100
AcDbBlockReference
  2
_OPEN30
 10
17.91826895073142
 20
3.999999899999938
 30
0.0
 41
2.5
 42
2.5
 43
2.5
 50
270.0
  0
MTEXT
  5
1036
330
F40
100
AcDbEntity
  8
AM_5
 62
     2
100
AcDbMText
 10
14.81826895073142
 20
-0.0000000000001153
 30
0.0
 40
3.2
 41
0.0
 71
     5
 72
     1
  1
%%c8
  7
ASAMI
 11
0.0000000000000001
 21
1.0
 31
0.0
1001
ACAD
1000
MTEXTBEGIN
1070
    73
1070
     1
1070
    44
1040
1.0
1070
    74
1070
     0
1000
MTEXTEND
  0
POINT
  5
1037
330
F40
100
AcDbEntity
  8
DEFPOINTS
 62
     0
100
AcDbPoint
 10
0.0
 20
-3.999999900000171
 30
0.0
  0
POINT
  5
1038
330
F40
100
AcDbEntity
  8
DEFPOINTS
 62
     0
100
AcDbPoint
 10
0.0
 20
3.999999899999943
 30
0.0
  0
POINT
  5
1039
330
F40
100
AcDbEntity
  8
DEFPOINTS
 62
     0
100
AcDbPoint
 10
17.91826895073142
 20
3.999999899999938
 30
0.0
  0
ENDBLK
  5
F4D
330
F40
100
AcDbEntity
  8
0
100
AcDbBlockEnd
  0
BLOCK
  5
F7A
330
F70
100
AcDbEntity
  8
0
100
AcDbBlockBegin
  2
*D7
 70
     1
 10
0.0
 20
0.0
 30
0.0
  3
*D7
  1

  0
LINE
  5
101D
330
F70
100
AcDbEntity
  8
AM_5
100
AcDbLine
 10
-60.0
 20
-4.59999990000008
 30
0.0
 11
-60.0
 21
-31.00000261576171
 31
0.0
  0
LINE
  5
101E
330
F70
100
AcDbEntity
  8
AM_5
100
AcDbLine
 10
-0.0000000000000001
 20
-4.999999900000171
 30
0.0
 11
-0.0000000000000017
 21
-31.00000261576171
 31
0.0
  0
LINE
  5
101F
330
F70
100
AcDbEntity
  8
AM_5
100
AcDbLine
 10
-57.5
 20
-30.00000261576172
 30
0.0
 11
-2.500000000000001
 21
-30.00000261576172
 31
0.0
  0
INSERT
  5
1020
330
F70
100
AcDbEntity
  8
AM_5
100
AcDbBlockReference
  2
_OPEN30
 10
-60.0
 20
-30.00000261576172
 30
0.0
 41
2.5
 42
2.5
 43
2.5
 50
180.0
  0
INSERT
  5
1021
330
F70
100
AcDbEntity
  8
AM_5
100
AcDbBlockReference
  2
_OPEN30
 10
-0.0000000000000016
 20
-30.00000261576172
 30
0.0
 41
2.5
 42
2.5
 43
2.5
  0
MTEXT
  5
1022
330
F70
100
AcDbEntity
  8
AM_5
 62
     2
100
AcDbMText
 10
-30.0
 20
-26.90000261576171
 30
0.0
 40
3.2
 41
0.0
 71
     5
 72
     1
  1
60
  7
ASAMI
1001
ACAD
1000
MTEXTBEGIN
1070
    73
1070
     1
1070
    44
1040
1.0
1070
    74
1070
     0
1000
MTEXTEND
  0
POINT
  5
1023
330
F70
100
AcDbEntity
  8
DEFPOINTS
 62
     0
100
AcDbPoint
 10
-60.0
 20
-3.59999990000008
 30
0.0
  0
POINT
  5
1024
330
F70
100
AcDbEntity
  8
DEFPOINTS
 62
     0
100
AcDbPoint
 10
0.0
 20
-3.999999900000171
 30
0.0
  0
POINT
  5
1025
330
F70
100
AcDbEntity
  8
DEFPOINTS
 62
     0
100
AcDbPoint
 10
-0.0000000000000016
 20
-30.00000261576172
 30
0.0
  0
ENDBLK
  5
F7B
330
F70
100
AcDbEntity
  8
0
100
AcDbBlockEnd
  0
BLOCK
  5
1068
330
105C
100
AcDbEntity
  8
0
100
AcDbBlockBegin
  2
*D8
 70
     1
 10
0.0
 20
0.0
 30
0.0
  3
*D8
  1

  0
LINE
  5
10FD
330
105C
100
AcDbEntity
  8
AM_5
100
AcDbLine
 10
-60.56818182219673
 20
-3.999945354001729
 30
0.0
 11
-75.00000100219597
 21
-3.999945354001724
 31
0.0
  0
LINE
  5
10FE
330
105C
100
AcDbEntity
  8
AM_5
100
AcDbLine
 10
-60.56818181818181
 20
3.999999900000034
 30
0.0
 11
-75.00000100219597
 21
3.999999900000039
 31
0.0
  0
LINE
  5
10FF
330
105C
100
AcDbEntity
  8
AM_5
100
AcDbLine
 10
-74.00000100219597
 20
-6.499945354001725
 30
0.0
 11
-74.00000100219597
 21
-8.999945354001726
 31
0.0
  0
LINE
  5
1100
330
105C
100
AcDbEntity
  8
AM_5
100
AcDbLine
 10
-74.00000100219597
 20
6.499999900000038
 30
0.0
 11
-74.00000100219597
 21
8.999999900000037
 31
0.0
  0
LINE
  5
1101
330
105C
100
AcDbEntity
  8
AM_5
100
AcDbLine
 10
-74.00000100219597
 20
-3.999945354001725
 30
0.0
 11
-74.00000100219597
 21
3.999999900000038
 31
0.0
  0
INSERT
  5
1102
330
105C
100
AcDbEntity
  8
AM_5
100
AcDbBlockReference
  2
_OPEN30
 10
-74.00000100219597
 20
-3.999945354001725
 30
0.0
 41
2.5
 42
2.5
 43
2.5
 50
90.0
  0
INSERT
  5
1103
330
105C
100
AcDbEntity
  8
AM_5
100
AcDbBlockReference
  2
_OPEN30
 10
-74.00000100219597
 20
3.999999900000038
 30
0.0
 41
2.5
 42
2.5
 43
2.5
 50
270.0
  0
MTEXT
  5
1104
330
105C
100
AcDbEntity
  8
AM_5
 62
     2
100
AcDbMText
 10
-77.10000100219597
 20
0.0000272729991453
 30
0.0
 40
3.2
 41
0.0
 71
     5
 72
     1
  1
%%c8
  7
ASAMI
 11
0.0000000000000001
 21
1.0
 31
0.0
1001
ACAD
1000
MTEXTBEGIN
1070
    73
1070
     1
1070
    44
1040
1.0
1070
    74
1070
     0
1000
MTEXTEND
  0
POINT
  5
1105
330
105C
100
AcDbEntity
  8
DEFPOINTS
 62
     0
100
AcDbPoint
 10
-59.56818182219674
 20
-3.999945354001729
 30
0.0
  0
POINT
  5
1106
330
105C
100
AcDbEntity
  8
DEFPOINTS
 62
     0
100
AcDbPoint
 10
-59.56818181818182
 20
3.999999900000034
 30
0.0
  0
POINT
  5
1107
330
105C
100
AcDbEntity
  8
DEFPOINTS
 62
     0
100
AcDbPoint
 10
-74.00000100219597
 20
3.999999900000038
 30
0.0
  0
ENDBLK
  5
1069
330
105C
100
AcDbEntity
  8
0
100
AcDbBlockEnd
  0
ENDSEC
  0
SECTION
  2
ENTITIES
  0
TEXT
  5
E76
330
1F
100
AcDbEntity
  8
AM_6
100
AcDbText
 10
-50.83333333333333
 20
-52.50000261576172
 30
0.0
 40
5.0
  1
GLM4080SF
 72
     1
 11
-29.99999999999998
 21
-50.00000261576172
 31
0.0
100
AcDbText
 73
     2
  0
LINE
  5
F19
330
1F
100
AcDbEntity
  8
AM_0
100
AcDbLine
 10
0.0
 20
-0.0000000000001137
 30
0.0
 11
-0.1062041508413668
 21
0.6999999824998441
 31
0.0
  0
LINE
  5
F1A
330
1F
100
AcDbEntity
  8
AM_0
100
AcDbLine
 10
-0.0531020754204871
 20
-0.7735924093616859
 30
0.0
 11
-0.1062041508413668
 21
-1.056781892621825
 31
0.0
  0
LINE
  5
F1B
330
1F
100
AcDbEntity
  8
AM_0
100
AcDbLine
 10
-0.0531020754204871
 20
-0.0999999975000037
 30
0.0
 11
-0.0531020754204871
 21
-0.7735924093616859
 31
0.0
  0
LINE
  5
F1C
330
1F
100
AcDbEntity
  8
AM_0
100
AcDbLine
 10
-1.642249850342626
 20
-0.0999999975000037
 30
0.0
 11
-0.0531020754204871
 21
-0.0999999975000037
 31
0.0
  0
LINE
  5
F1D
330
1F
100
AcDbEntity
  8
AM_0
100
AcDbLine
 10
-0.1062041508413668
 20
0.6999999824998441
 30
0.0
 11
-1.116450602358699
 21
2.320865667058364
 31
0.0
  0
ELLIPSE
  5
F1E
330
1F
100
AcDbEntity
  8
AM_0
100
AcDbEllipse
 10
-1.642249850342638
 20
-0.5799999855000579
 30
0.0
 11
0.5181818052272775
 21
0.000000000000001
 31
0.0
210
0.0
220
0.0
230
1.0
 40
0.9263157894736837
 41
1.570796326794894
 42
4.301413780183489
  0
ELLIPSE
  5
F1F
330
1F
100
AcDbEntity
  8
AM_0
100
AcDbEllipse
 10
-22.79012873520131
 20
1.362063701506485
 30
0.0
 11
-2.819296076508263
 21
0.0000000000000108
 31
0.0
210
0.0
220
0.0
230
1.0
 40
0.926315789473686
 41
4.594762917817163
 42
5.325275348012993
  0
LINE
  5
F20
330
1F
100
AcDbEntity
  8
AM_0
100
AcDbLine
 10
-21.59090909090909
 20
-1.007740816528189
 30
0.0
 11
-21.59090909090909
 21
-0.1953336440412613
 31
0.0
  0
LINE
  5
F21
330
1F
100
AcDbEntity
  8
AM_0
100
AcDbLine
 10
-22.67045454545454
 20
-0.0000000000000227
 30
0.0
 11
-22.67045454545454
 21
1.58498551025093
 31
0.0
  0
ELLIPSE
  5
F22
330
1F
100
AcDbEntity
  8
AM_0
100
AcDbEllipse
 10
-24.59371045789756
 20
2.342375178252041
 30
0.0
 11
-0.9897980320007377
 21
0.0000000000000091
 31
0.0
210
0.0
220
0.0
230
1.0
 40
0.9263157894736842
 41
-1.055005327836365
 42
1.039389774559958
  0
ELLIPSE
  5
F23
330
1F
100
AcDbEntity
  8
AM_0
100
AcDbEllipse
 10
-23.51102551423373
 20
-2.124375714048983
 30
0.0
 11
1.991876588239661
 21
0.0000000000000037
 31
0.0
210
0.0
220
0.0
230
1.0
 40
0.9263157894736863
 41
1.014526247916224
 42
2.148694367420622
  0
LINE
  5
F24
330
1F
100
AcDbEntity
  8
AM_0
100
AcDbLine
 10
-25.09528707104393
 20
-0.8442468810204672
 30
0.0
 11
-24.41187488702038
 21
-0.4787521195427189
 31
0.0
  0
LINE
  5
F25
330
1F
100
AcDbEntity
  8
AM_0
100
AcDbLine
 10
-25.09528707104786
 20
3.132800525700782
 30
0.0
 11
-24.41187488702038
 21
3.498295287180349
 31
0.0
  0
LINE
  5
F26
330
1F
100
AcDbEntity
  8
AM_11
100
AcDbLine
 10
0.0
 20
4.000001615761672
 30
0.0
 11
-18.99999999999999
 21
3.996221726214829
 31
0.0
  0
ELLIPSE
  5
F27
330
1F
100
AcDbEntity
  8
AM_0
100
AcDbEllipse
 10
-3.935333431911608
 20
-1.570980582950528
 30
0.0
 11
3.011756193024198
 21
0.0000000000000075
 31
0.0
210
0.0
220
0.0
230
1.0
 40
0.9263157894736862
 41
-0.3598210873274801
 42
0.013166151530136
  0
LINE
  5
F28
330
1F
100
AcDbEntity
  8
AM_0
100
AcDbLine
 10
-0.1062041508413668
 20
-3.760582346596334
 30
0.0
 11
-1.116450602358699
 21
-2.55330122758753
 31
0.0
  0
LINE
  5
F29
330
1F
100
AcDbEntity
  8
AM_0
100
AcDbLine
 10
-0.1062041508413668
 20
-3.760582346596334
 30
0.0
 11
0.0
 21
-3.999999900000171
 31
0.0
  0
LINE
  5
F2A
330
1F
100
AcDbEntity
  8
AM_0
100
AcDbLine
 10
-22.67045454545454
 20
-3.067786508785343
 30
0.0
 11
-22.67045454545454
 21
-3.970210996647279
 31
0.0
  0
LINE
  5
F2B
330
1F
100
AcDbEntity
  8
AM_11
100
AcDbLine
 10
-19.0
 20
-3.996221726215022
 30
0.0
 11
0.0
 21
-4.000001615761718
 31
0.0
  0
DIMENSION
  5
F2C
330
1F
100
AcDbEntity
  8
AM_5
100
AcDbDimension
  2
*D5
 10
-0.0000000000000009
 20
-18.00000261576172
 30
0.0
 11
-9.5
 21
-14.90000261576171
 31
0.0
 70
    32
  1
<>
  3
AM_JIS
100
AcDbAlignedDimension
 13
-19.0
 23
-3.996221726215022
 33
0.0
 14
0.0
 24
-3.999999900000171
 34
0.0
 50
0.0000000000001048
100
AcDbRotatedDimension
1001
GENIUS_GENDTOL_13
1000

1000
h7
1000

1040
0.0
  0
LINE
  5
F39
330
1F
100
AcDbEntity
  8
AM_0
100
AcDbLine
 10
-0.1062041508413668
 20
-1.056781892621825
 30
0.0
 11
-0.9238382753894917
 21
-1.534250223316144
 31
0.0
  0
ELLIPSE
  5
F3A
330
1F
100
AcDbEntity
  8
AM_0
100
AcDbEllipse
 10
-3.396731714527041
 20
-4.394969836552286
 30
0.0
 11
-3.956343753477699
 21
0.0000000000000081
 31
0.0
210
0.0
220
0.0
230
1.0
 40
0.9263157894736842
 41
4.037199619381024
 42
4.311132199203392
  0
LINE
  5
F3B
330
1F
100
AcDbEntity
  8
AM_0
100
AcDbLine
 10
-0.1062041508413668
 20
-3.760582346596516
 30
0.0
 11
-0.1062041508413668
 21
-1.056781892621825
 31
0.0
  0
LINE
  5
F3C
330
1F
100
AcDbEntity
  8
AM_0
100
AcDbLine
 10
0.0
 20
-4.000001615761718
 30
0.0
 11
0.0
 21
4.000001615761672
 31
0.0
  0
ELLIPSE
  5
F3D
330
1F
100
AcDbEntity
  8
AM_0
100
AcDbEllipse
 10
-24.20810298691412
 20
-1.891514720265331
 30
0.0
 11
-1.437112187712381
 21
0.0000000000000144
 31
0.0
210
0.0
220
0.0
230
1.0
 40
0.9263157894736847
 41
-0.9054417914272828
 42
1.428524230663094
  0
LINE
  5
F3E
330
1F
100
AcDbEntity
  8
AM_11
100
AcDbLine
 10
-19.0
 20
-3.996221726215022
 30
0.0
 11
-18.99999999999999
 21
3.996221726214829
 31
0.0
  0
DIMENSION
  5
F3F
330
1F
100
AcDbEntity
  8
AM_5
100
AcDbDimension
  2
*D6
 10
17.91826895073142
 20
3.999999899999938
 30
0.0
 11
17.91826895073142
 21
-0.0000000000001157
 31
0.0
 70
   160
  1
%%c<>
  3
AM_JIS
100
AcDbAlignedDimension
 13
0.0
 23
-3.999999900000171
 33
0.0
 14
0.0
 24
3.999999899999943
 34
0.0
 50
90.0
100
AcDbRotatedDimension
1001
GENIUS_GENDTOL_13
1000

1000
h7
1000

1040
0.0
  0
SPLINE
  5
F4E
330
1F
100
AcDbEntity
  8
AM_0
100
AcDbSpline
210
0.0
220
0.0
230
1.0
 70
     8
 71
     3
 72
     8
 73
     4
 74
     0
 42
0.0000000001
 43
0.0000000001
 40
0.0
 40
0.0
 40
0.0
 40
0.0
 40
14.47015062460583
 40
14.47015062460583
 40
14.47015062460583
 40
14.47015062460583
 10
-11.72904677258328
 20
3.995329805301457
 30
0.0
 10
-7.563397350348272
 20
3.995329805301457
 30
0.0
 10
-3.781698675174136
 20
1.997664902650671
 30
0.0
 10
0.0
 20
-0.0000000000001137
 30
0.0
  0
SPLINE
  5
F4F
330
1F
100
AcDbEntity
  8
AM_0
100
AcDbSpline
210
0.0
220
0.0
230
1.0
 70
     8
 71
     3
 72
     8
 73
     4
 74
     0
 42
0.0000000001
 43
0.0000000001
 40
4.041712701031824
 40
4.041712701031824
 40
4.041712701031824
 40
4.041712701031824
 40
43.20630823911048
 40
43.20630823911048
 40
43.20630823911048
 40
43.20630823911048
 10
-20.81346847730331
 20
3.731702839044896
 30
0.0
 10
-17.11125032964843
 20
3.425227450589932
 30
0.0
 10
-13.66704429640075
 20
1.706723031675187
 30
0.0
 10
-10.22283826315308
 20
-0.0117813872397392
 30
0.0
  0
SPLINE
  5
F50
330
1F
100
AcDbEntity
  8
AM_0
100
AcDbSpline
210
0.0
220
0.0
230
1.0
 70
     8
 71
     3
 72
     8
 73
     4
 74
     0
 42
0.0000000001
 43
0.0000000001
 40
0.0
 40
0.0
 40
0.0
 40
0.0
 40
14.47293633748905
 40
14.47293633748905
 40
14.47293633748905
 40
14.47293633748905
 10
-23.48333136300762
 20
3.995329805301457
 30
0.0
 10
-19.31687999312441
 20
3.995329805301457
 30
0.0
 10
-15.53522801787833
 20
1.995329855301474
 30
0.0
 10
-11.75357604263225
 20
-0.0046700946985084
 30
0.0
  0
SPLINE
  5
F51
330
1F
100
AcDbEntity
  8
AM_0
100
AcDbSpline
210
0.0
220
0.0
230
1.0
 70
     8
 71
     3
 72
     8
 73
     4
 74
     0
 42
0.0000000001
 43
0.0000000001
 40
0.0
 40
0.0
 40
0.0
 40
0.0
 40
16.40765811415315
 40
16.40765811415315
 40
16.40765811415315
 40
16.40765811415315
 10
-11.78693565128711
 20
3.999999899999943
 30
0.0
 10
-13.36140785520259
 20
3.999999899999943
 30
0.0
 10
-14.88092954733476
 20
3.714393887226993
 30
0.0
 10
-16.36626613347134
 20
3.251110333289739
 30
0.0
  0
SPLINE
  5
F52
330
1F
100
AcDbEntity
  8
AM_0
100
AcDbSpline
210
0.0
220
0.0
230
1.0
 70
     8
 71
     3
 72
     8
 73
     4
 74
     0
 42
0.0000000001
 43
0.0000000001
 40
0.0
 40
0.0
 40
0.0
 40
0.0
 40
14.30142107637939
 40
14.30142107637939
 40
14.30142107637939
 40
14.30142107637939
 10
-19.09913053848163
 20
3.49622654085922
 30
0.0
 10
-14.98205477406938
 20
3.496226540859219
 30
0.0
 10
-11.16119802831803
 20
1.745778223080355
 30
0.0
 10
-7.340341282566689
 20
-0.0046700946985084
 30
0.0
  0
SPLINE
  5
F53
330
1F
100
AcDbEntity
  8
AM_0
100
AcDbSpline
210
0.0
220
0.0
230
1.0
 70
     8
 71
     3
 72
     8
 73
     4
 74
     0
 42
0.0000000001
 43
0.0000000001
 40
0.0
 40
0.0
 40
0.0
 40
0.0
 40
14.30142107637946
 40
14.30142107637946
 40
14.30142107637946
 40
14.30142107637946
 10
-7.327006278469815
 20
-3.500896635557933
 30
0.0
 10
-11.44408204288208
 20
-3.500896635557932
 30
0.0
 10
-15.26493878863342
 20
-1.750448317778977
 30
0.0
 10
-19.08579553438475
 20
-0.0000000000000227
 30
0.0
  0
SPLINE
  5
F54
330
1F
100
AcDbEntity
  8
AM_0
100
AcDbSpline
210
0.0
220
0.0
230
1.0
 70
     8
 71
     3
 72
     8
 73
     4
 74
     0
 42
0.0000000001
 43
0.0000000001
 40
0.0
 40
0.0
 40
0.0
 40
0.0
 40
11.14024708123303
 40
11.14024708123303
 40
11.14024708123303
 40
11.14024708123303
 10
-10.22294948307194
 20
-3.798812987083897
 30
0.0
 10
-14.23175051609122
 20
-3.798812987083897
 30
0.0
 10
-17.91669064530505
 20
-2.026411721914541
 30
0.0
 10
-21.59090909090909
 20
-0.1953336440412613
 30
0.0
  0
SPLINE
  5
F55
330
1F
100
AcDbEntity
  8
AM_0
100
AcDbSpline
210
0.0
220
0.0
230
1.0
 70
     8
 71
     3
 72
     8
 73
     4
 74
     0
 42
0.0000000001
 43
0.0000000001
 40
0.0
 40
0.0
 40
0.0
 40
0.0
 40
10.49949233464396
 40
10.49949233464396
 40
10.49949233464396
 40
10.49949233464396
 10
-11.78693565128711
 20
-3.999999899999989
 30
0.0
 10
-15.56516205958688
 20
-3.999999899999989
 30
0.0
 10
-19.02695842925201
 20
-2.355350583321728
 30
0.0
 10
-22.45927022591077
 20
-0.5574548079423267
 30
0.0
  0
SPLINE
  5
F56
330
1F
100
AcDbEntity
  8
AM_0
100
AcDbSpline
210
0.0
220
0.0
230
1.0
 70
     8
 71
     3
 72
     8
 73
     4
 74
     0
 42
0.0000000001
 43
0.0000000001
 40
0.0
 40
0.0
 40
0.0
 40
0.0
 40
14.47293633748862
 40
14.47293633748862
 40
14.47293633748862
 40
14.47293633748862
 10
0.0
 20
-3.999999899999989
 30
0.0
 10
-4.199102430746254
 20
-3.999999899999988
 30
0.0
 10
-7.980754405992196
 20
-1.999999950000005
 30
0.0
 10
-11.76240638123813
 20
-0.0000000000000227
 30
0.0
  0
SPLINE
  5
F57
330
1F
100
AcDbEntity
  8
AM_0
100
AcDbSpline
210
0.0
220
0.0
230
1.0
 70
     8
 71
     3
 72
     8
 73
     4
 74
     0
 42
0.0000000001
 43
0.0000000001
 40
5.940484414839465
 40
5.940484414839465
 40
5.940484414839465
 40
5.940484414839465
 40
43.20630823911048
 40
43.20630823911048
 40
43.20630823911048
 40
43.20630823911048
 10
-0.1600588090035547
 20
-3.69622407849331
 30
0.0
 10
-3.659558760137811
 20
-3.277487612615573
 30
0.0
 10
-6.93678334234251
 20
-1.642299452578322
 30
0.0
 10
-10.2140079245472
 20
-0.0071112925412535
 30
0.0
  0
SPLINE
  5
F58
330
1F
100
AcDbEntity
  8
AM_0
100
AcDbSpline
210
0.0
220
0.0
230
1.0
 70
     8
 71
     3
 72
     8
 73
     4
 74
     0
 42
0.0000000001
 43
0.0000000001
 40
19.81419196662877
 40
19.81419196662877
 40
19.81419196662877
 40
19.81419196662877
 40
42.90426430174475
 40
42.90426430174475
 40
42.90426430174475
 40
42.90426430174475
 10
-1.116450602358306
 20
-2.55330122758753
 30
0.0
 10
-3.218919336700351
 20
-1.884100750085804
 30
0.0
 10
-5.275215140330581
 20
-0.9420503750429134
 30
0.0
 10
-7.331510943960418
 20
-0.0000000000000227
 30
0.0
  0
SPLINE
  5
F59
330
1F
100
AcDbEntity
  8
AM_0
100
AcDbSpline
210
0.0
220
0.0
230
1.0
 70
     8
 71
     3
 72
     8
 73
     4
 74
     0
 42
0.0000000001
 43
0.0000000001
 40
4.041712701031824
 40
4.041712701031824
 40
4.041712701031824
 40
4.041712701031824
 40
36.66696766287024
 40
36.66696766287024
 40
36.66696766287024
 40
36.66696766287024
 10
-9.059183886879365
 20
3.731702839044896
 30
0.0
 10
-5.975127755770824
 20
3.476399865772668
 30
0.0
 10
-3.070115980421074
 20
2.241236591554275
 30
0.0
 10
-0.1949993694274574
 20
0.8424653408717631
 30
0.0
  0
SPLINE
  5
F5A
330
1F
100
AcDbEntity
  8
AM_0
100
AcDbSpline
210
0.0
220
0.0
230
1.0
 70
     8
 71
     3
 72
     8
 73
     4
 74
     0
 42
0.0000000001
 43
0.0000000001
 40
0.0
 40
0.0
 40
0.0
 40
0.0
 40
22.32639506415645
 40
22.32639506415645
 40
22.32639506415645
 40
22.32639506415645
 10
-7.344845948057292
 20
3.49622654085922
 30
0.0
 10
-5.2024141520274
 20
3.49622654085922
 30
0.0
 10
-3.140196181839407
 20
3.022218635686999
 30
0.0
 10
-1.116450602358699
 20
2.320865667058364
 30
0.0
  0
SPLINE
  5
F5B
330
1F
100
AcDbEntity
  8
AM_0
100
AcDbSpline
210
0.0
220
0.0
230
1.0
 70
     8
 71
     3
 72
     8
 73
     4
 74
     0
 42
0.0000000001
 43
0.0000000001
 40
0.0
 40
0.0
 40
0.0
 40
0.0
 40
16.40765811415315
 40
16.40765811415315
 40
16.40765811415315
 40
16.40765811415315
 10
0.0
 20
4.000001615761672
 30
0.0
 10
-1.607123264778651
 20
3.999999899999943
 30
0.0
 10
-3.126644956910426
 20
3.714393887226993
 30
0.0
 10
-4.611981543047394
 20
3.251110333289739
 30
0.0
  0
SPLINE
  5
F5C
330
1F
100
AcDbEntity
  8
AM_0
100
AcDbSpline
210
0.0
220
0.0
230
1.0
 70
     8
 71
     3
 72
     8
 73
     4
 74
     0
 42
0.0000000001
 43
0.0000000001
 40
4.497685297584327
 40
4.497685297584327
 40
4.497685297584327
 40
4.497685297584327
 40
9.915363876658778
 40
9.915363876658778
 40
9.915363876658778
 40
9.915363876658778
 10
-1.529048471185247
 20
2.460448795964817
 30
0.0
 10
-1.028915232183139
 20
2.595358801416819
 30
0.0
 10
-0.5371856073981938
 20
2.787687490025359
 30
0.0
 10
-0.0454559826128554
 20
2.9800161786339
 30
0.0
  0
SPLINE
  5
F5D
330
1F
100
AcDbEntity
  8
AM_0
100
AcDbSpline
210
0.0
220
0.0
230
1.0
 70
     8
 71
     3
 72
     8
 73
     4
 74
     0
 42
0.0000000001
 43
0.0000000001
 40
0.0
 40
0.0
 40
0.0
 40
0.0
 40
9.450452127946082
 40
9.450452127946082
 40
9.450452127946082
 40
9.450452127946082
 10
-11.72904677258328
 20
-3.995329805301685
 30
0.0
 10
-10.82218522742157
 20
-3.995329805301685
 30
0.0
 10
-9.933553558421966
 20
-3.900579782509908
 30
0.0
 10
-9.059183886879365
 20
-3.731702839045124
 30
0.0
  0
SPLINE
  5
F5E
330
1F
100
AcDbEntity
  8
AM_0
100
AcDbSpline
210
0.0
220
0.0
230
1.0
 70
     8
 71
     3
 72
     8
 73
     4
 74
     0
 42
0.0000000001
 43
0.0000000001
 40
0.0
 40
0.0
 40
0.0
 40
0.0
 40
9.964098609850829
 40
9.964098609850829
 40
9.964098609850829
 40
9.964098609850829
 10
-10.21389670462874
 20
-3.779920307303132
 30
0.0
 10
-9.257745851829668
 20
-3.779920307303132
 30
0.0
 10
-8.320018932373118
 20
-3.679091209434614
 30
0.0
 10
-7.396467078533553
 20
-3.500685893076683
 30
0.0
  0
SPLINE
  5
F5F
330
1F
100
AcDbEntity
  8
AM_0
100
AcDbSpline
210
0.0
220
0.0
230
1.0
 70
     8
 71
     3
 72
     8
 73
     4
 74
     0
 42
0.0000000001
 43
0.0000000001
 40
0.0
 40
0.0
 40
0.0
 40
0.0
 40
9.637195575647414
 40
9.637195575647414
 40
9.637195575647414
 40
9.637195575647414
 10
-7.344845948057292
 20
-3.496226540859447
 30
0.0
 10
-6.420064577554099
 20
-3.496226540859447
 30
0.0
 10
-5.51022880741518
 20
-3.407908440509368
 30
0.0
 10
-4.611981543047394
 20
-3.251110333289784
 30
0.0
  0
SPLINE
  5
F60
330
1F
100
AcDbEntity
  8
AM_0
100
AcDbSpline
210
0.0
220
0.0
230
1.0
 70
     8
 71
     3
 72
     8
 73
     4
 74
     0
 42
0.0000000001
 43
0.0000000001
 40
0.0
 40
0.0
 40
0.0
 40
0.0
 40
9.450452127946082
 40
9.450452127946082
 40
9.450452127946082
 40
9.450452127946082
 10
-23.48333136300762
 20
-3.995329805301685
 30
0.0
 10
-22.57646981784592
 20
-3.995329805301685
 30
0.0
 10
-21.68783814884591
 20
-3.900579782509908
 30
0.0
 10
-20.81346847730331
 20
-3.731702839045124
 30
0.0
  0
SPLINE
  5
F61
330
1F
100
AcDbEntity
  8
AM_0
100
AcDbSpline
210
0.0
220
0.0
230
1.0
 70
     8
 71
     3
 72
     8
 73
     4
 74
     0
 42
0.0000000001
 43
0.0000000001
 40
10.43080782587999
 40
10.43080782587999
 40
10.43080782587999
 40
10.43080782587999
 40
11.52168190905409
 40
11.52168190905409
 40
11.52168190905409
 40
11.52168190905409
 10
-21.59090909090909
 20
-0.5368889965617428
 30
0.0
 10
-21.9509535890885
 20
-0.3589987245224848
 30
0.0
 10
-22.31070406727152
 20
-0.1794993622614356
 30
0.0
 10
-22.67045454545454
 20
-0.0000000000000227
 30
0.0
  0
SPLINE
  5
F62
330
1F
100
AcDbEntity
  8
AM_0
100
AcDbSpline
210
0.0
220
0.0
230
1.0
 70
     8
 71
     3
 72
     8
 73
     4
 74
     0
 42
0.0000000001
 43
0.0000000001
 40
7.872155465811081
 40
7.872155465811081
 40
7.872155465811081
 40
7.872155465811081
 40
11.44113686110349
 40
11.44113686110349
 40
11.44113686110349
 40
11.44113686110349
 10
-22.67045454545454
 20
1.58498551025093
 30
0.0
 10
-21.46957379090112
 20
1.092079844060185
 30
0.0
 10
-20.27768466264274
 20
0.5460399220300815
 30
0.0
 10
-19.08579553438475
 20
-0.0000000000002046
 30
0.0
  0
SPLINE
  5
F63
330
1F
100
AcDbEntity
  8
AM_0
100
AcDbSpline
210
0.0
220
0.0
230
1.0
 70
     8
 71
     3
 72
     8
 73
     4
 74
     0
 42
0.0000000001
 43
0.0000000001
 40
0.0
 40
0.0
 40
0.0
 40
0.0
 40
3.445482686890237
 40
3.445482686890237
 40
3.445482686890237
 40
3.445482686890237
 10
-19.02340199018875
 20
-3.496226540859447
 30
0.0
 10
-20.26325371463818
 20
-3.496226540859447
 30
0.0
 10
-21.47624118902994
 20
-3.33747751274534
 30
0.0
 10
-22.67045454545454
 20
-3.067786508785343
 30
0.0
  0
SPLINE
  5
F64
330
1F
100
AcDbEntity
  8
AM_0
100
AcDbSpline
210
0.0
220
0.0
230
1.0
 70
     8
 71
     3
 72
     8
 73
     4
 74
     0
 42
0.0000000001
 43
0.0000000001
 40
4.041712701031851
 40
4.041712701031851
 40
4.041712701031851
 40
4.041712701031851
 40
9.964098609850829
 40
9.964098609850829
 40
9.964098609850829
 40
9.964098609850829
 10
-20.81346847730331
 20
-3.731702839045124
 30
0.0
 10
-20.25362701110649
 20
-3.685358289917371
 30
0.0
 10
-19.69968546612385
 20
-3.606725101742472
 30
0.0
 10
-19.15075166895789
 20
-3.500685893076683
 30
0.0
  0
SPLINE
  5
F65
330
1F
100
AcDbEntity
  8
AM_0
100
AcDbSpline
210
0.0
220
0.0
230
1.0
 70
     8
 71
     3
 72
     8
 73
     4
 74
     0
 42
0.0000000001
 43
0.0000000001
 40
0.0
 40
0.0
 40
0.0
 40
0.0
 40
9.637195575647414
 40
9.637195575647414
 40
9.637195575647414
 40
9.637195575647414
 10
-19.09913053848163
 20
-3.496226540859447
 30
0.0
 10
-18.17434916797843
 20
-3.496226540859447
 30
0.0
 10
-17.26451339783912
 20
-3.407908440509368
 30
0.0
 10
-16.36626613347134
 20
-3.251110333289784
 30
0.0
  0
SPLINE
  5
F66
330
1F
100
AcDbEntity
  8
AM_0
100
AcDbSpline
210
0.0
220
0.0
230
1.0
 70
     8
 71
     3
 72
     8
 73
     4
 74
     0
 42
0.0000000001
 43
0.0000000001
 40
1.140063819971138
 40
1.140063819971138
 40
1.140063819971138
 40
1.140063819971138
 40
2.790246636948332
 40
2.790246636948332
 40
2.790246636948332
 40
2.790246636948332
 10
-22.67045454545454
 20
-3.445816127004241
 30
0.0
 10
-23.25617992607997
 20
-3.39800745738105
 30
0.0
 10
-23.83635710828543
 20
-3.317412795030418
 30
0.0
 10
-24.41187488702038
 20
-3.209284299763408
 30
0.0
  0
SPLINE
  5
F67
330
1F
100
AcDbEntity
  8
AM_0
100
AcDbSpline
210
0.0
220
0.0
230
1.0
 70
     8
 71
     3
 72
     8
 73
     4
 74
     0
 42
0.0000000001
 43
0.0000000001
 40
7.951699575921333
 40
7.951699575921333
 40
7.951699575921333
 40
7.951699575921333
 40
10.36385682192277
 40
10.36385682192277
 40
10.36385682192277
 40
10.36385682192277
 10
-25.09528707104393
 20
1.551949830801072
 30
0.0
 10
-24.28391910223953
 20
1.217228154220879
 30
0.0
 10
-23.47656693296976
 20
0.8587758962235739
 30
0.0
 10
-22.67045454545454
 20
0.4929973905851285
 30
0.0
  0
LINE
  5
F68
330
1F
100
AcDbEntity
  8
AM_0
100
AcDbLine
 10
-60.0
 20
3.599999900000034
 30
0.0
 11
-59.56818181818182
 21
3.999999900000034
 31
0.0
1001
GENIUS_GENFIL_13
1070
     0
1040
0.5
1040
0.5
1040
20.0
1040
0.0
1002
{
1002
}
1001
GENIUS_GENODEF_13
1002
{
1000
HIER
1070
     0
1002
}
1002
{
1000
MANEDIT
1070
     0
1002
}
1002
{
1000
NOSEL
1070
     0
1002
}
1002
{
1000
BEHIND
1070
     0
1002
}
1002
{
1000
REACTOR
1002
}
1001
GENIUS_GENOBJ-N-CHA_13
1002
{
1000
OWNER
1000
GEN
1002
}
  0
LINE
  5
F69
330
1F
100
AcDbEntity
  8
AM_0
100
AcDbLine
 10
-60.0
 20
-3.59999990000008
 30
0.0
 11
-59.56818182219674
 21
-3.999945354001729
 31
0.0
1001
GENIUS_GENFIL_13
1070
     0
1040
0.5
1040
0.5
1040
20.0
1040
0.0
1002
{
1002
}
1001
GENIUS_GENODEF_13
1002
{
1000
HIER
1070
     0
1002
}
1002
{
1000
MANEDIT
1070
     0
1002
}
1002
{
1000
NOSEL
1070
     0
1002
}
1002
{
1000
BEHIND
1070
     0
1002
}
1002
{
1000
REACTOR
1002
}
1001
GENIUS_GENOBJ-N-CHA_13
1002
{
1000
OWNER
1000
GEN
1002
}
  0
LINE
  5
F6A
330
1F
100
AcDbEntity
  8
AM_0
100
AcDbLine
 10
-60.0
 20
-3.59999990000008
 30
0.0
 11
-60.0
 21
3.599999900000034
 31
0.0
  0
LINE
  5
F6B
330
1F
100
AcDbEntity
  8
AM_0
100
AcDbLine
 10
-59.56818182219674
 20
-3.999945354001729
 30
0.0
 11
-59.56818181818182
 21
3.999999900000034
 31
0.0
  0
LINE
  5
F6C
330
1F
100
AcDbEntity
  8
AM_0
100
AcDbLine
 10
-23.48333136300762
 20
-3.995329805301685
 30
0.0
 11
-59.56818182219674
 21
-3.999945354001729
 31
0.0
  0
LINE
  5
F6D
330
1F
100
AcDbEntity
  8
AM_0
100
AcDbLine
 10
-59.56818181818182
 20
3.999999900000034
 30
0.0
 11
-23.48333136300762
 21
3.999999899999913
 31
0.0
  0
LINE
  5
F6E
330
1F
100
AcDbEntity
  8
AM_7
100
AcDbLine
 10
-63.04545454545453
 20
-0.0000000000000227
 30
0.0
 11
3.918267950731433
 21
-0.0000000000000227
 31
0.0
1001
GENIUS_GENODEF_13
1002
{
1000
HIER
1070
     0
1002
}
1002
{
1000
MANEDIT
1070
     0
1002
}
1002
{
1000
NOSEL
1070
     0
1002
}
1002
{
1000
BEHIND
1070
     0
1002
}
1002
{
1000
REACTOR
1002
}
1001
GENIUS_GENOBJ-N-CEN_13
1002
{
1000
OWNER
1000
GEN
1002
}
  0
DIMENSION
  5
F6F
330
1F
100
AcDbEntity
  8
AM_5
100
AcDbDimension
  2
*D7
 10
-0.0000000000000016
 20
-30.00000261576172
 30
0.0
 11
-30.0
 21
-26.90000261576171
 31
0.0
 70
    32
  1
<>
  3
AM_JIS
100
AcDbAlignedDimension
 13
-60.0
 23
-3.59999990000008
 33
0.0
 14
0.0
 24
-3.999999900000171
 34
0.0
 50
0.0000000000001048
100
AcDbRotatedDimension
1001
GENIUS_GENDTOL_13
1000

1000
h7
1000

1040
0.0
  0
LINE
  5
1012
330
1F
100
AcDbEntity
  8
AM_11
100
AcDbLine
 10
0.0
 20
-3.996221726215031
 30
0.0
 11
0.0000000000000036
 21
3.99622172621482
 31
0.0
  0
DIMENSION
  5
105B
330
1F
100
AcDbEntity
  8
AM_5
100
AcDbDimension
  2
*D8
 10
-74.00000100219597
 20
3.999999900000038
 30
0.0
 11
-74.00000100219597
 21
0.0000272729991449
 31
0.0
 70
   160
  1
%%c<>
  3
AM_JIS
100
AcDbAlignedDimension
 13
-59.56818182219674
 23
-3.999945354001729
 33
0.0
 14
-59.56818181818182
 24
3.999999900000034
 34
0.0
 50
269.999999971245
100
AcDbRotatedDimension
1001
GENIUS_GENDTOL_13
1000

1000
h7
1000

1040
0.0
  0
VIEWPORT
  5
110
330
101
100
AcDbEntity
 67
     1
  8
0
100
AcDbViewport
 10
420.5
 20
297.0
 30
0.0
 40
948.9782706766916
 41
628.452
 68
     1
 69
     1
1001
ACAD
1000
MVIEW
1002
{
1070
    16
1010
0.0
1020
0.0
1030
0.0
1010
0.0
1020
0.0
1030
1.0
1040
0.0
1040
628.452
1040
420.5
1040
297.0
1040
50.0
1040
0.0
1040
0.0
1070
     0
1070
   100
1070
     1
1070
     1
1070
     0
1070
     0
1070
     0
1070
     0
1040
0.0
1040
0.0
1040
0.0
1040
10.0
1040
10.0
1040
10.0
1040
10.0
1070
     0
1002
{
1002
}
1002
}
  0
ENDSEC
  0
SECTION
  2
OBJECTS
  0
DICTIONARY
  5
C
330
0
100
AcDbDictionary
  3
ACAD_GROUP
350
D
  3
ACAD_LAYOUT
350
1A
  3
ACAD_MLINESTYLE
350
17
  3
ACAD_PLOTSETTINGS
350
19
  3
ACAD_PLOTSTYLENAME
350
E
  3
ACDBVARIABLEDICTIONARY
350
34
  3
ACMDICTIONARY
350
43
  3
AMG
350
2B
  3
AMGSNAPSETTINGS
350
6E
  3
DWGPROPS
350
1121
  3
ACDBHEADERROUNDTRIPXREC
350
112D
  0
DICTIONARY
  5
74
330
1F
100
AcDbDictionary
280
     1
  3
ACAD_INDEX
360
1123
  3
ACAD_LAYOUTSELFREF
360
1150
  0
DICTIONARY
  5
1155
330
101
100
AcDbDictionary
280
     1
  3
ACAD_LAYOUTSELFREF
360
1156
  0
DICTIONARY
  5
D
102
{ACAD_REACTORS
330
C
102
}
330
C
100
AcDbDictionary
  0
DICTIONARY
  5
1A
102
{ACAD_REACTORS
330
C
102
}
330
C
100
AcDbDictionary
  0
DICTIONARY
  5
17
102
{ACAD_REACTORS
330
C
102
}
330
C
100
AcDbDictionary
  3
STANDARD
350
18
  0
DICTIONARY
  5
19
102
{ACAD_REACTORS
330
C
102
}
330
C
100
AcDbDictionary
  0
ACDBDICTIONARYWDFLT
  5
E
102
{ACAD_REACTORS
330
C
102
}
330
C
100
AcDbDictionary
281
     1
  3
Normal
350
F
100
AcDbDictionaryWithDefault
340
F
  0
DICTIONARY
  5
34
102
{ACAD_REACTORS
330
C
102
}
330
C
100
AcDbDictionary
  3
INDEXCTL
350
35
  3
SORTENTS
350
B5E
  0
DICTIONARY
  5
43
102
{ACAD_REACTORS
330
C
102
}
330
C
100
AcDbDictionary
  3
ACMSTDDICTIONARY
350
260
  0
DICTIONARY
  5
2B
102
{ACAD_REACTORS
330
C
102
}
330
C
100
AcDbDictionary
  3
ACMGSETTINGS
350
2C
  0
DICTIONARY
  5
6E
102
{ACAD_REACTORS
330
C
102
}
330
C
100
AcDbDictionary
  0
XRECORD
  5
1121
102
{ACAD_REACTORS
330
C
102
}
330
C
100
AcDbXrecord
  1
DWGPROPS COOKIE
  2

  3

  4

  6

  7

  8

  9

300
AmdtFileType=82
301
=
302
=
303
=
304
=
305
=
306
=
307
=
308
=
309
=
 40
0.0231738194444445
 41
2452809.375295671
 42
2452839.645039965
  1

 90
        1
  0
DICTIONARY
  5
112D
102
{ACAD_REACTORS
330
C
102
}
330
C
100
AcDbDictionary
  3
TSTACKALIGN
350
112E
  3
TSTACKSIZE
350
112F
  3
HYPERLINKBASE
350
1130
  3
STYLESHEET
350
1131
  3
LAYOUTDICT
350
1132
  3
PLOTSETDICT
350
1133
  3
PLOTSTYLNAMDICT
350
1134
  3
LWETCUNION
350
1135
  3
INSUNITS
350
1136
  3
CEPSNTYPE
350
1137
  3
FINGERPRINTGUID
350
1138
  3
VERSIONGUID
350
1139
  3
PSVPSCALE
350
113A
  3
DIMSTYLEDATA
350
113B
  3
PUCSORTHOREF
350
113C
  3
PUCSORTHOVIEW
350
113D
  3
PUCSBASE
350
113E
  3
PUCSORGTOP
350
113F
  3
PUCSORGBOTTOM
350
1140
  3
PUCSORGLEFT
350
1141
  3
PUCSORGRIGHT
350
1142
  3
PUCSORGFRONT
350
1143
  3
PUCSORGBACK
350
1144
  3
UCSORTHOREF
350
1145
  3
UCSORTHOVIEW
350
1146
  3
UCSBASE
350
1147
  3
UCSORGTOP
350
1148
  3
UCSORGBOTTOM
350
1149
  3
UCSORGLEFT
350
114A
  3
UCSORGRIGHT
350
114B
  3
UCSORGFRONT
350
114C
  3
UCSORGBACK
350
114D
  0
DICTIONARY
  5
1123
102
{ACAD_REACTORS
330
74
102
}
330
74
100
AcDbDictionary
  3
*A1
350
1124
  0
XRECORD
  5
1150
102
{ACAD_REACTORS
330
74
102
}
330
74
100
AcDbXrecord
340
1F
  0
XRECORD
  5
1156
102
{ACAD_REACTORS
330
1155
102
}
330
1155
100
AcDbXrecord
340
101
  0
MLINESTYLE
  5
18
102
{ACAD_REACTORS
330
17
102
}
330
17
100
AcDbMlineStyle
  2
STANDARD
 70
     0
  3

 62
   256
 51
90.0
 52
90.0
 71
     2
 49
0.5
 62
   256
  6
BYLAYER
 49
-0.5
 62
   256
  6
BYLAYER
  0
ACDBPLACEHOLDER
  5
F
102
{ACAD_REACTORS
330
E
102
}
330
E
100
AcDbPlaceHolder
280
     0
  0
DICTIONARYVAR
  5
35
102
{ACAD_REACTORS
330
34
102
}
330
34
100
DictionaryVariables
280
     0
  1
1
  0
DICTIONARYVAR
  5
B5E
102
{ACAD_REACTORS
330
34
102
}
330
34
100
DictionaryVariables
280
     0
  1
96
  0
DICTIONARY
  5
260
102
{ACAD_REACTORS
330
43
102
}
330
43
100
AcDbDictionary
  0
DICTIONARY
  5
2C
102
{ACAD_REACTORS
330
2B
102
}
330
2B
100
AcDbDictionary
  3
DWGSETTINGS
350
2D
  0
XRECORD
  5
112E
102
{ACAD_REACTORS
330
112D
102
}
330
112D
100
AcDbXrecord
 90
        1
  0
XRECORD
  5
112F
102
{ACAD_REACTORS
330
112D
102
}
330
112D
100
AcDbXrecord
 90
       70
  0
XRECORD
  5
1130
102
{ACAD_REACTORS
330
112D
102
}
330
112D
100
AcDbXrecord
  1

  0
XRECORD
  5
1131
102
{ACAD_REACTORS
330
112D
102
}
330
112D
100
AcDbXrecord
  1
ASAMI.ctb
  0
XRECORD
  5
1132
102
{ACAD_REACTORS
330
112D
102
}
330
112D
100
AcDbXrecord
340
1A
  0
XRECORD
  5
1133
102
{ACAD_REACTORS
330
112D
102
}
330
112D
100
AcDbXrecord
340
19
  0
XRECORD
  5
1134
102
{ACAD_REACTORS
330
112D
102
}
330
112D
100
AcDbXrecord
340
E
  0
XRECORD
  5
1135
102
{ACAD_REACTORS
330
112D
102
}
330
112D
100
AcDbXrecord
 90
    10781
  0
XRECORD
  5
1136
102
{ACAD_REACTORS
330
112D
102
}
330
112D
100
AcDbXrecord
 90
        4
  0
XRECORD
  5
1137
102
{ACAD_REACTORS
330
112D
102
}
330
112D
100
AcDbXrecord
 90
        0
  0
XRECORD
  5
1138
102
{ACAD_REACTORS
330
112D
102
}
330
112D
100
AcDbXrecord
  1
{AFB28963-8C59-40AE-9337-C84526B81ACE}
  0
XRECORD
  5
1139
102
{ACAD_REACTORS
330
112D
102
}
330
112D
100
AcDbXrecord
  1
{ABDDD220-E98F-4FBF-86A7-4057B918BE5B}
  0
XRECORD
  5
113A
102
{ACAD_REACTORS
330
112D
102
}
330
112D
100
AcDbXrecord
 40
0.0
  0
XRECORD
  5
113B
102
{ACAD_REACTORS
330
112D
102
}
330
112D
100
AcDbXrecord
1000
DSTYLE
1002
{
1070
    79
 70
     2
1070
   341
340
59
1070
   342
340
59
1070
   371
 70
    -1
1070
   372
 70
    -1
1002
}
  0
XRECORD
  5
113C
102
{ACAD_REACTORS
330
112D
102
}
330
112D
100
AcDbXrecord
340
0
  0
XRECORD
  5
113D
102
{ACAD_REACTORS
330
112D
102
}
330
112D
100
AcDbXrecord
 70
     0
  0
XRECORD
  5
113E
102
{ACAD_REACTORS
330
112D
102
}
330
112D
100
AcDbXrecord
340
0
  0
XRECORD
  5
113F
102
{ACAD_REACTORS
330
112D
102
}
330
112D
100
AcDbXrecord
 10
0.0
 20
0.0
 30
0.0
  0
XRECORD
  5
1140
102
{ACAD_REACTORS
330
112D
102
}
330
112D
100
AcDbXrecord
 10
0.0
 20
0.0
 30
0.0
  0
XRECORD
  5
1141
102
{ACAD_REACTORS
330
112D
102
}
330
112D
100
AcDbXrecord
 10
0.0
 20
0.0
 30
0.0
  0
XRECORD
  5
1142
102
{ACAD_REACTORS
330
112D
102
}
330
112D
100
AcDbXrecord
 10
0.0
 20
0.0
 30
0.0
  0
XRECORD
  5
1143
102
{ACAD_REACTORS
330
112D
102
}
330
112D
100
AcDbXrecord
 10
0.0
 20
0.0
 30
0.0
  0
XRECORD
  5
1144
102
{ACAD_REACTORS
330
112D
102
}
330
112D
100
AcDbXrecord
 10
0.0
 20
0.0
 30
0.0
  0
XRECORD
  5
1145
102
{ACAD_REACTORS
330
112D
102
}
330
112D
100
AcDbXrecord
340
0
  0
XRECORD
  5
1146
102
{ACAD_REACTORS
330
112D
102
}
330
112D
100
AcDbXrecord
 70
     0
  0
XRECORD
  5
1147
102
{ACAD_REACTORS
330
112D
102
}
330
112D
100
AcDbXrecord
340
0
  0
XRECORD
  5
1148
102
{ACAD_REACTORS
330
112D
102
}
330
112D
100
AcDbXrecord
 10
0.0
 20
0.0
 30
0.0
  0
XRECORD
  5
1149
102
{ACAD_REACTORS
330
112D
102
}
330
112D
100
AcDbXrecord
 10
0.0
 20
0.0
 30
0.0
  0
XRECORD
  5
114A
102
{ACAD_REACTORS
330
112D
102
}
330
112D
100
AcDbXrecord
 10
0.0
 20
0.0
 30
0.0
  0
XRECORD
  5
114B
102
{ACAD_REACTORS
330
112D
102
}
330
112D
100
AcDbXrecord
 10
0.0
 20
0.0
 30
0.0
  0
XRECORD
  5
114C
102
{ACAD_REACTORS
330
112D
102
}
330
112D
100
AcDbXrecord
 10
0.0
 20
0.0
 30
0.0
  0
XRECORD
  5
114D
102
{ACAD_REACTORS
330
112D
102
}
330
112D
100
AcDbXrecord
 10
0.0
 20
0.0
 30
0.0
  0
LAYER_INDEX
  5
1124
102
{ACAD_REACTORS
330
1123
102
}
330
1123
100
AcDbIndex
 40
2452839.678670787
100
AcDbLayerIndex
  8
0
360
1125
 90
        0
  8
AM_0
360
1126
 90
       54
  8
AM_11
360
1127
 90
        4
  8
AM_7
360
1128
 90
        1
  8
AM_5
360
1129
 90
        4
  8
Defpoints
360
112A
 90
        0
  8
AM_6
360
112B
 90
        1
  0
XRECORD
  5
2D
102
{ACAD_REACTORS
330
2C
102
}
330
2C
100
AcDbXrecord
  1
VERSION
140
15.0
  1
PRODUCT
  2
AutoCAD Mechanical 2000
  0
IDBUFFER
  5
1125
330
0
100
AcDbIdBuffer
  0
IDBUFFER
  5
1126
330
0
100
AcDbIdBuffer
330
F68
330
F69
330
F6A
330
F6B
330
F6C
330
F6D
330
F19
330
F1A
330
F1B
330
F1C
330
F1D
330
F1E
330
F1F
330
F20
330
F21
330
F22
330
F23
330
F24
330
F25
330
F27
330
F28
330
F29
330
F2A
330
F39
330
F3A
330
F3B
330
F3C
330
F3D
330
F4E
330
F4F
330
F50
330
F51
330
F52
330
F53
330
F54
330
F55
330
F56
330
F57
330
F58
330
F59
330
F5A
330
F5B
330
F5C
330
F5D
330
F5E
330
F5F
330
F60
330
F61
330
F62
330
F63
330
F64
330
F65
330
F66
330
F67
  0
IDBUFFER
  5
1127
330
0
100
AcDbIdBuffer
330
F26
330
F2B
330
F3E
330
1012
  0
IDBUFFER
  5
1128
330
0
100
AcDbIdBuffer
330
F6E
  0
IDBUFFER
  5
1129
330
0
100
AcDbIdBuffer
330
F2C
330
F3F
330
F6F
330
105B
  0
IDBUFFER
  5
112A
330
0
100
AcDbIdBuffer
  0
IDBUFFER
  5
112B
330
0
100
AcDbIdBuffer
330
E76
  0
ENDSEC
  0
EOF
