  0
SECTION
  2
HEADER
  9
$ACADVER
  1
AC1014
  9
$ACADMAINTVER
 70
     9
  9
$DWGCODEPAGE
  3
ANSI_932
  9
$INSBASE
 10
0.0
 20
0.0
 30
0.0
  9
$EXTMIN
 10
-88.70000100276564
 20
-53.50000301970212
 30
-0.00000001
  9
$EXTMAX
 10
19.53694283768902
 20
6.050697166377648
 30
0.00000001
  9
$LIMMIN
 10
-101.2814590802673
 20
-73.53070200795554
  9
$LIMMAX
 10
35.64762326411926
 20
21.8839066780705
  9
$ORTHOMODE
 70
     0
  9
$REGENMODE
 70
     1
  9
$FILLMODE
 70
     1
  9
$QTEXTMODE
 70
     0
  9
$MIRRTEXT
 70
     0
  9
$DRAGMODE
 70
     2
  9
$LTSCALE
 40
1.0
  9
$OSMODE
 70
  2103
  9
$ATTMODE
 70
     1
  9
$TEXTSIZE
 40
2.5
  9
$TRACEWID
 40
1.0
  9
$TEXTSTYLE
  7
STANDARD
  9
$CLAYER
  8
AM_0
  9
$CELTYPE
  6
BYLAYER
  9
$CECOLOR
 62
   256
  9
$CELTSCALE
 40
1.0
  9
$DELOBJ
 70
     1
  9
$DISPSILH
 70
     0
  9
$DIMSCALE
 40
1.0
  9
$DIMASZ
 40
2.5
  9
$DIMEXO
 40
1.0
  9
$DIMDLI
 40
12.0
  9
$DIMRND
 40
0.0
  9
$DIMDLE
 40
0.0
  9
$DIMEXE
 40
1.0
  9
$DIMTP
 40
0.1
  9
$DIMTM
 40
0.1
  9
$DIMTXT
 40
3.2
  9
$DIMCEN
 40
0.0
  9
$DIMTSZ
 40
0.0
  9
$DIMTOL
 70
     0
  9
$DIMLIM
 70
     0
  9
$DIMTIH
 70
     0
  9
$DIMTOH
 70
     0
  9
$DIMSE1
 70
     0
  9
$DIMSE2
 70
     0
  9
$DIMTAD
 70
     3
  9
$DIMZIN
 70
     8
  9
$DIMBLK
  1
OPEN30
  9
$DIMASO
 70
     1
  9
$DIMSHO
 70
     1
  9
$DIMPOST
  1

  9
$DIMAPOST
  1
"
  9
$DIMALT
 70
     0
  9
$DIMALTD
 70
     2
  9
$DIMALTF
 40
0.0393701
  9
$DIMLFAC
 40
1.0
  9
$DIMTOFL
 70
     1
  9
$DIMTVP
 40
0.0
  9
$DIMTIX
 70
     0
  9
$DIMSOXD
 70
     0
  9
$DIMSAH
 70
     0
  9
$DIMBLK1
  1

  9
$DIMBLK2
  1

  9
$DIMSTYLE
  2
AM_JIS
  9
$DIMCLRD
 70
   256
  9
$DIMCLRE
 70
   256
  9
$DIMCLRT
 70
     2
  9
$DIMTFAC
 40
0.71
  9
$DIMGAP
 40
1.5
  9
$DIMJUST
 70
     0
  9
$DIMSD1
 70
     0
  9
$DIMSD2
 70
     0
  9
$DIMTOLJ
 70
     0
  9
$DIMTZIN
 70
     0
  9
$DIMALTZ
 70
     0
  9
$DIMALTTZ
 70
     0
  9
$DIMFIT
 70
     3
  9
$DIMUPT
 70
     0
  9
$DIMUNIT
 70
     2
  9
$DIMDEC
 70
     3
  9
$DIMTDEC
 70
     3
  9
$DIMALTU
 70
     2
  9
$DIMALTTD
 70
     2
  9
$DIMTXSTY
  7
ASAMI
  9
$DIMAUNIT
 70
     0
  9
$LUNITS
 70
     2
  9
$LUPREC
 70
     2
  9
$SKETCHINC
 40
1.0
  9
$FILLETRAD
 40
2.5
  9
$AUNITS
 70
     0
  9
$AUPREC
 70
     0
  9
$MENU
  1
.
  9
$ELEVATION
 40
0.0
  9
$PELEVATION
 40
0.0
  9
$THICKNESS
 40
0.0
  9
$LIMCHECK
 70
     0
  9
$BLIPMODE
 70
     0
  9
$CHAMFERA
 40
0.5
  9
$CHAMFERB
 40
0.5
  9
$CHAMFERC
 40
20.0
  9
$CHAMFERD
 40
0.0
  9
$SKPOLY
 70
     0
  9
$TDCREATE
 40
2452809.375295671
  9
$TDUPDATE
 40
2452839.678758310
  9
$TDINDWG
 40
0.0190749769
  9
$TDUSRTIMER
 40
0.0190748032
  9
$USRTIMER
 70
     1
  9
$ANGBASE
 50
0.0
  9
$ANGDIR
 70
     0
  9
$PDMODE
 70
     0
  9
$PDSIZE
 40
0.0
  9
$PLINEWID
 40
0.0
  9
$COORDS
 70
     2
  9
$SPLFRAME
 70
     0
  9
$SPLINETYPE
 70
     6
  9
$SPLINESEGS
 70
     8
  9
$ATTDIA
 70
     1
  9
$ATTREQ
 70
     1
  9
$HANDLING
 70
 12289
  9
$HANDSEED
  5
1095
  9
$SURFTAB1
 70
     6
  9
$SURFTAB2
 70
     6
  9
$SURFTYPE
 70
     6
  9
$SURFU
 70
     6
  9
$SURFV
 70
     6
  9
$UCSNAME
  2

  9
$UCSORG
 10
0.0
 20
0.0
 30
0.0
  9
$UCSXDIR
 10
1.0
 20
0.0
 30
0.0
  9
$UCSYDIR
 10
0.0
 20
1.0
 30
0.0
  9
$PUCSNAME
  2

  9
$PUCSORG
 10
0.0
 20
0.0
 30
0.0
  9
$PUCSXDIR
 10
1.0
 20
0.0
 30
0.0
  9
$PUCSYDIR
 10
0.0
 20
1.0
 30
0.0
  9
$USERI1
 70
     0
  9
$USERI2
 70
     0
  9
$USERI3
 70
     0
  9
$USERI4
 70
     0
  9
$USERI5
 70
     0
  9
$USERR1
 40
0.0
  9
$USERR2
 40
0.0
  9
$USERR3
 40
0.0
  9
$USERR4
 40
0.0
  9
$USERR5
 40
0.0
  9
$WORLDVIEW
 70
     1
  9
$SHADEDGE
 70
     3
  9
$SHADEDIF
 70
    70
  9
$TILEMODE
 70
     1
  9
$MAXACTVP
 70
    64
  9
$PINSBASE
 10
0.0
 20
0.0
 30
0.0
  9
$PLIMCHECK
 70
     0
  9
$PEXTMIN
 10
1.000000000000000E+20
 20
1.000000000000000E+20
 30
1.000000000000000E+20
  9
$PEXTMAX
 10
-1.000000000000000E+20
 20
-1.000000000000000E+20
 30
-1.000000000000000E+20
  9
$PLIMMIN
 10
0.0
 20
0.0
  9
$PLIMMAX
 10
841.0
 20
594.0
  9
$UNITMODE
 70
     0
  9
$VISRETAIN
 70
     1
  9
$PLINEGEN
 70
     0
  9
$PSLTSCALE
 70
     0
  9
$TREEDEPTH
 70
  3020
  9
$PICKSTYLE
 70
     0
  9
$CMLSTYLE
  2
STANDARD
  9
$CMLJUST
 70
     0
  9
$CMLSCALE
 40
20.0
  9
$PROXYGRAPHICS
 70
     1
  9
$MEASUREMENT
 70
     1
  0
ENDSEC
  0
SECTION
  2
CLASSES
  0
CLASS
  1
ACDBDICTIONARYWDFLT
  2
AcDbDictionaryWithDefault
  3
AutoCAD 2000
 90
        0
280
     0
281
     0
  0
CLASS
  1
ACDBPLACEHOLDER
  2
AcDbPlaceHolder
  3
AutoCAD 2000
 90
        0
280
     0
281
     0
  0
CLASS
  1
LAYOUT
  2
AcDbLayout
  3
AutoCAD 2000
 90
        0
280
     0
281
     0
  0
CLASS
  1
AMGSETTINGSOBJ
  2
AmgSettingsObj
  3
"AcadM|Product Description: AutoCAD Mechanical 2000|Company: Autodesk"
 90
        0
280
     0
281
     0
  0
CLASS
  1
ACME_DOCUMENT
  2
AcMeDbDoc
  3
AcMeServices
 90
        0
280
     0
281
     0
  0
CLASS
  1
ACMESCOPE
  2
AcMeScope
  3
AcMeServices
 90
        0
280
     0
281
     0
  0
CLASS
  1
ACMECOMMANDHISTORY
  2
AcMeCommandHistory
  3
AcMeServices
 90
        0
280
     0
281
     0
  0
CLASS
  1
DICTIONARYVAR
  2
AcDbDictionaryVar
  3
AutoCAD 2000
 90
        0
280
     0
281
     0
  0
CLASS
  1
ACIMSYSVARMAN
  2
AcImSysVarManager
  3
AcMeServices
 90
        0
280
     0
281
     0
  0
CLASS
  1
ACIMREALSYSVAR
  2
AcImRealSysVar
  3
AcMeServices
 90
        0
280
     0
281
     0
  0
CLASS
  1
ACIMINTSYSVAR
  2
AcImIntSysVar
  3
AcMeServices
 90
        0
280
     0
281
     0
  0
CLASS
  1
ACMEDRAWINGMAN
  2
AcMeDrawingMan
  3
AcMeServices
 90
        0
280
     0
281
     0
  0
CLASS
  1
ACMEVIEW
  2
AcMeView
  3
AcMeServices
 90
        0
280
     0
281
     0
  0
CLASS
  1
ACDBENTITYCACHE
  2
AcMeEntityCache
  3
AcMeServices
 90
        0
280
     0
281
     0
  0
CLASS
  1
GSMANAGER
  2
AcMeGSManager
  3
AcMeServices
 90
        0
280
     0
281
     0
  0
CLASS
  1
AmdtInternalReactor
  2
AmdtInternalReactor
  3
AcMeServices
 90
        0
280
     0
281
     0
  0
CLASS
  1
ACMESTATEMGR
  2
AcMeStateMgr
  3
AcMeServices
 90
        0
280
     0
281
     0
  0
CLASS
  1
ACME_DATABASE
  2
AcMeDbDatabase
  3
AcMeServices
 90
        0
280
     0
281
     0
  0
CLASS
  1
ACRFINSADJUSTERMGR
  2
AcRfInsAdjusterMgr
  3
AcMeServices
 90
        0
280
     0
281
     0
  0
CLASS
  1
ACMDATADICTIONARY
  2
AcmDataDictionary
  3
"AcmSymBB|Product Description: AutoCAD Mechanical 2000|Company: Autodesk"
 90
        0
280
     0
281
     0
  0
CLASS
  1
ACMDATAENTRYBLOCK
  2
AcmDataEntryBlock
  3
"AcmSymBB|Product Description: AutoCAD Mechanical 2000|Company: Autodesk"
 90
        0
280
     0
281
     0
  0
CLASS
  1
AMGOBJPROPCFG
  2
AmgObjPropCfg
  3
"AmgLay|Product Description: AutoCAD Mechanical 2000|Company: Autodesk"
 90
        1
280
     0
281
     0
  0
CLASS
  1
ACAMGFILTERDAT
  2
AcAmgFilterDat
  3
"AcadM|Product Description: AutoCAD Mechanical 2000|Company: Autodesk"
 90
        0
280
     0
281
     0
  0
CLASS
  1
LAYER_INDEX
  2
AcDbLayerIndex
  3
AutoCAD 2000
 90
        0
280
     0
281
     0
  0
CLASS
  1
IDBUFFER
  2
AcDbIdBuffer
  3
AutoCAD 2000
 90
        0
280
     0
281
     0
  0
CLASS
  1
ACIMSTRSYSVAR
  2
AcImStrSysVar
  3
AcMeServices
 90
        0
280
     0
281
     0
  0
CLASS
  1
ACMSTANDARDJIS
  2
AcmStandardJIS
  3
"AcmSymBB|Product Description: AutoCAD Mechanical 2000|Company: Autodesk"
 90
        0
280
     0
281
     0
  0
CLASS
  1
ACMSURFSTANDARDJIS
  2
AcmSurfTextStdJIS
  3
"AcmSymBB|Product Description: AutoCAD Mechanical 2000|Company: Autodesk"
 90
        0
280
     0
281
     0
  0
CLASS
  1
ACMFCFSTANDARDJIS
  2
AcmFCFStdJIS
  3
"AcmSymBB|Product Description: AutoCAD Mechanical 2000|Company: Autodesk"
 90
        0
280
     0
281
     0
  0
CLASS
  1
ACMWELDSTANDARDJIS
  2
AcmWeldingStdJIS
  3
"AcmSymBB|Product Description: AutoCAD Mechanical 2000|Company: Autodesk"
 90
        0
280
     0
281
     0
  0
CLASS
  1
ACMIDSTANDARDJIS
  2
AcmIdStdJIS
  3
"AcmSymBB|Product Description: AutoCAD Mechanical 2000|Company: Autodesk"
 90
        0
280
     0
281
     0
  0
CLASS
  1
ACMDATUMSTANDARDJIS
  2
AcmDatumStdJIS
  3
"AcmSymBB|Product Description: AutoCAD Mechanical 2000|Company: Autodesk"
 90
        0
280
     0
281
     0
  0
CLASS
  1
ACMBOMSTANDARDJIS
  2
AcmBOMStdJIS
  3
"AcmSymBB|Product Description: AutoCAD Mechanical 2000|Company: Autodesk"
 90
        0
280
     0
281
     0
  0
CLASS
  1
ACMSTANDARDANSI
  2
AcmStandardANSI
  3
"AcmSymBB|Product Description: AutoCAD Mechanical 2000|Company: Autodesk"
 90
        0
280
     0
281
     0
  0
CLASS
  1
ACMSURFSTANDARDANSI
  2
AcmSurfTextStdANSI
  3
"AcmSymBB|Product Description: AutoCAD Mechanical 2000|Company: Autodesk"
 90
        0
280
     0
281
     0
  0
CLASS
  1
ACMFCFSTANDARDANSI
  2
AcmFCFStdANSI
  3
"AcmSymBB|Product Description: AutoCAD Mechanical 2000|Company: Autodesk"
 90
        0
280
     0
281
     0
  0
CLASS
  1
ACMWELDSTANDARDANSI
  2
AcmWeldingStdANSI
  3
"AcmSymBB|Product Description: AutoCAD Mechanical 2000|Company: Autodesk"
 90
        0
280
     0
281
     0
  0
CLASS
  1
ACMIDSTANDARDANSI
  2
AcmIdStdANSI
  3
"AcmSymBB|Product Description: AutoCAD Mechanical 2000|Company: Autodesk"
 90
        0
280
     0
281
     0
  0
CLASS
  1
ACMDATUMSTANDARDANSI
  2
AcmDatumStdANSI
  3
"AcmSymBB|Product Description: AutoCAD Mechanical 2000|Company: Autodesk"
 90
        0
280
     0
281
     0
  0
CLASS
  1
ACMBOMSTANDARDANSI
  2
AcmBOMStdANSI
  3
"AcmSymBB|Product Description: AutoCAD Mechanical 2000|Company: Autodesk"
 90
        0
280
     0
281
     0
  0
CLASS
  1
ACMSTANDARDBSI
  2
AcmStandardBSI
  3
"AcmSymBB|Product Description: AutoCAD Mechanical 2000|Company: Autodesk"
 90
        0
280
     0
281
     0
  0
CLASS
  1
ACMSURFSTANDARDBSI
  2
AcmSurfTextStdBSI
  3
"AcmSymBB|Product Description: AutoCAD Mechanical 2000|Company: Autodesk"
 90
        0
280
     0
281
     0
  0
CLASS
  1
ACMFCFSTANDARDBSI
  2
AcmFCFStdBSI
  3
"AcmSymBB|Product Description: AutoCAD Mechanical 2000|Company: Autodesk"
 90
        0
280
     0
281
     0
  0
CLASS
  1
ACMWELDSTANDARDBSI
  2
AcmWeldingStdBSI
  3
"AcmSymBB|Product Description: AutoCAD Mechanical 2000|Company: Autodesk"
 90
        0
280
     0
281
     0
  0
CLASS
  1
ACMIDSTANDARDBSI
  2
AcmIdStdBSI
  3
"AcmSymBB|Product Description: AutoCAD Mechanical 2000|Company: Autodesk"
 90
        0
280
     0
281
     0
  0
CLASS
  1
ACMDATUMSTANDARDBSI
  2
AcmDatumStdBSI
  3
"AcmSymBB|Product Description: AutoCAD Mechanical 2000|Company: Autodesk"
 90
        0
280
     0
281
     0
  0
CLASS
  1
ACMBOMSTANDARDBSI
  2
AcmBOMStdBSI
  3
"AcmSymBB|Product Description: AutoCAD Mechanical 2000|Company: Autodesk"
 90
        0
280
     0
281
     0
  0
CLASS
  1
LONG_TRANSACTION
  2
AcDbLongTransaction
  3
AutoCAD 2000
 90
        0
280
     0
281
     0
  0
CLASS
  1
LWPOLYLINE
  2
AcDbPolyline
  3
AutoCAD 2000
 90
        0
280
     0
281
     1
  0
CLASS
  1
HATCH
  2
AcDbHatch
  3
AutoCAD 2000
 90
        0
280
     0
281
     1
  0
CLASS
  1
XRECORD
  2
AcDbXrecord
  3
AutoCAD 2000
 90
        0
280
     0
281
     0
  0
ENDSEC
  0
SECTION
  2
TABLES
  0
TABLE
  2
VPORT
  5
8
330
0
100
AcDbSymbolTable
 70
     3
  0
VPORT
  5
106A
330
8
100
AcDbSymbolTableRecord
100
AcDbViewportTableRecord
  2
*ACTIVE
 70
     0
 10
0.0
 20
0.0
 11
1.0
 21
1.0
 12
-34.58072639300498
 22
-23.72303194465686
 13
0.0
 23
0.0
 14
2.5
 24
2.5
 15
10.0
 25
10.0
 16
0.0
 26
0.0
 36
1.0
 17
0.0
 27
0.0
 37
0.0
 40
69.40337451813099
 41
1.56570841889117
 42
50.0
 43
0.0
 44
0.0
 50
0.0
 51
0.0
 71
     0
 72
   100
 73
     1
 74
     3
 75
     0
 76
     0
 77
     0
 78
     0
  0
ENDTAB
  0
TABLE
  2
LTYPE
  5
5
330
0
100
AcDbSymbolTable
 70
    10
  0
LTYPE
  5
14
330
5
100
AcDbSymbolTableRecord
100
AcDbLinetypeTableRecord
  2
BYBLOCK
 70
     0
  3

 72
    65
 73
     0
 40
0.0
  0
LTYPE
  5
15
330
5
100
AcDbSymbolTableRecord
100
AcDbLinetypeTableRecord
  2
BYLAYER
 70
     0
  3

 72
    65
 73
     0
 40
0.0
  0
LTYPE
  5
16
330
5
100
AcDbSymbolTableRecord
100
AcDbLinetypeTableRecord
  2
CONTINUOUS
 70
     0
  3
Solid line
 72
    65
 73
     0
 40
0.0
  0
LTYPE
  5
4B
330
5
100
AcDbSymbolTableRecord
100
AcDbLinetypeTableRecord
  2
AM_ISO02W050
 70
     0
  3
__ __ __ __ __ __ __ __ __ __ __ __ __ __ __
 72
    65
 73
     2
 40
7.5
 49
6.0
 74
     0
 49
-1.5
 74
     0
  0
LTYPE
  5
4C
330
5
100
AcDbSymbolTableRecord
100
AcDbLinetypeTableRecord
  2
AM_ISO08W050
 70
     0
  3
____ . ____ . ____ . ____ . ____ . ____ . ____
 72
    65
 73
     4
 40
18.0
 49
12.0
 74
     0
 49
-1.5
 74
     0
 49
3.0
 74
     0
 49
-1.5
 74
     0
  0
LTYPE
  5
4D
330
5
100
AcDbSymbolTableRecord
100
AcDbLinetypeTableRecord
  2
AM_ISO09W050
 70
     0
  3
_____ . . _____ . . _____ . . ____ .. ____
 72
    65
 73
     6
 40
22.5
 49
12.0
 74
     0
 49
-1.5
 74
     0
 49
3.0
 74
     0
 49
-1.5
 74
     0
 49
3.0
 74
     0
 49
-1.5
 74
     0
  0
LTYPE
  5
4E
330
5
100
AcDbSymbolTableRecord
100
AcDbLinetypeTableRecord
  2
AMCONSTR
 70
     0
  3
_______________________
 72
    65
 73
     2
 40
9999.0
 49
9999.0
 74
     0
 49
0.0
 74
     0
  0
LTYPE
  5
4F
330
5
100
AcDbSymbolTableRecord
100
AcDbLinetypeTableRecord
  2
AM_ISO02W050X2
 70
     0
  3
 _ _ _ _ _ _ _ _ _ _ _ _
 72
    65
 73
     2
 40
3.75
 49
3.0
 74
     0
 49
-0.75
 74
     0
  0
LTYPE
  5
50
330
5
100
AcDbSymbolTableRecord
100
AcDbLinetypeTableRecord
  2
AM_ISO08W050X2
 70
     0
  3
__ . __ . __ . __ . __ . __
 72
    65
 73
     4
 40
9.0
 49
6.0
 74
     0
 49
-0.75
 74
     0
 49
1.5
 74
     0
 49
-0.75
 74
     0
  0
LTYPE
  5
53
330
5
100
AcDbSymbolTableRecord
100
AcDbLinetypeTableRecord
  2
AMZIGZAG
 70
     0
  3
/\/-/\/-/\/-/\/-/\/-/\/
 72
    65
 73
     2
 40
11.00009999999999
 49
0.0001
 74
     4
 75
   135
340
52
 46
0.04
 50
0.0
 44
0.0
 45
0.0
 49
-11.0
 74
     0
  0
LTYPE
  5
166
330
5
100
AcDbSymbolTableRecord
100
AcDbLinetypeTableRecord
  2
ACJISTGL
 70
     0
  3
_ _ _ _ _
 72
    65
 73
     2
 40
3.0
 49
2.0
 74
     0
 49
-1.0
 74
     0
  0
LTYPE
  5
26A
330
5
100
AcDbSymbolTableRecord
100
AcDbLinetypeTableRecord
  2
ACJISTGB
 70
     0
  3
__ . . __ . .
 72
    65
 73
     6
 40
9.0
 49
4.0
 74
     0
 49
-1.0
 74
     0
 49
1.0
 74
     0
 49
-1.0
 74
     0
 49
1.0
 74
     0
 49
-1.0
 74
     0
  0
ENDTAB
  0
TABLE
  2
LAYER
  5
2
330
0
100
AcDbSymbolTable
 70
     7
  0
LAYER
  5
10
330
2
100
AcDbSymbolTableRecord
100
AcDbLayerTableRecord
  2
0
 70
     0
 62
     7
  6
CONTINUOUS
  0
LAYER
  5
3F9
330
2
100
AcDbSymbolTableRecord
100
AcDbLayerTableRecord
  2
AM_0
 70
     0
 62
     7
  6
CONTINUOUS
  0
LAYER
  5
BA4
330
2
100
AcDbSymbolTableRecord
100
AcDbLayerTableRecord
  2
AM_11
 70
     0
 62
     3
  6
AM_ISO09W050
  0
LAYER
  5
BA5
330
2
100
AcDbSymbolTableRecord
100
AcDbLayerTableRecord
  2
AM_7
 70
     0
 62
     4
  6
AM_ISO08W050
  0
LAYER
  5
CAD
330
2
100
AcDbSymbolTableRecord
100
AcDbLayerTableRecord
  2
AM_5
 70
     0
 62
     3
  6
CONTINUOUS
  0
LAYER
  5
CAF
330
2
100
AcDbSymbolTableRecord
100
AcDbLayerTableRecord
  2
DEFPOINTS
 70
     0
 62
     7
  6
CONTINUOUS
  0
LAYER
  5
E75
330
2
100
AcDbSymbolTableRecord
100
AcDbLayerTableRecord
  2
AM_6
 70
     0
 62
     2
  6
CONTINUOUS
  0
ENDTAB
  0
TABLE
  2
STYLE
  5
3
330
0
100
AcDbSymbolTable
 70
     5
  0
STYLE
  5
11
330
3
100
AcDbSymbolTableRecord
100
AcDbTextStyleTableRecord
  2
STANDARD
 70
     0
 40
0.0
 41
1.0
 50
0.0
 71
     0
 42
2.5
  3
simplex.shx
  4
EXTFONT.SHX
  0
STYLE
  5
52
330
3
100
AcDbSymbolTableRecord
100
AcDbTextStyleTableRecord
  2

 70
     1
 40
0.0
 41
1.0
 50
0.0
 71
     0
 42
2.5
  3
ltypeshp.shx
  4

  0
STYLE
  5
6B
330
3
100
AcDbSymbolTableRecord
100
AcDbTextStyleTableRecord
  2
ASAMI
 70
     0
 40
0.0
 41
1.0
 50
0.0
 71
     0
 42
2.5
  3
simplex.shx
  4
EXTFONT.SHX
  0
STYLE
  5
262
330
3
100
AcDbSymbolTableRecord
100
AcDbTextStyleTableRecord
  2
ACJISTS
 70
     0
 40
1.0
 41
1.0
 50
0.0
 71
     0
 42
2.5
  3
simplex.shx
  4
bigfont.shx
  0
STYLE
  5
269
330
3
100
AcDbSymbolTableRecord
100
AcDbTextStyleTableRecord
  2
ACJISGDT
 70
     0
 40
0.0
 41
1.0
 50
0.0
 71
     0
 42
2.5
  3
amgdtans.shx
  4

  0
ENDTAB
  0
TABLE
  2
VIEW
  5
6
330
0
100
AcDbSymbolTable
 70
     0
  0
ENDTAB
  0
TABLE
  2
UCS
  5
7
330
0
100
AcDbSymbolTable
 70
     0
  0
ENDTAB
  0
TABLE
  2
APPID
  5
9
330
0
100
AcDbSymbolTable
 70
    12
  0
APPID
  5
12
330
9
100
AcDbSymbolTableRecord
100
AcDbRegAppTableRecord
  2
ACAD
 70
     0
  0
APPID
  5
30
330
9
100
AcDbSymbolTableRecord
100
AcDbRegAppTableRecord
  2
MCAD_NO_VIS
 70
     0
  0
APPID
  5
31
330
9
100
AcDbSymbolTableRecord
100
AcDbRegAppTableRecord
  2
ACAD_TEMP_GRAPHIC
 70
     0
  0
APPID
  5
2C2
330
9
100
AcDbSymbolTableRecord
100
AcDbRegAppTableRecord
  2
GENIUS_GENDTOL_13
 70
     0
  0
APPID
  5
339
330
9
100
AcDbSymbolTableRecord
100
AcDbRegAppTableRecord
  2
GENIUS_GENODEF_13
 70
     0
  0
APPID
  5
33A
330
9
100
AcDbSymbolTableRecord
100
AcDbRegAppTableRecord
  2
GENIUS_GENOBJ-N-RSBK_13
 70
     0
  0
APPID
  5
33B
330
9
100
AcDbSymbolTableRecord
100
AcDbRegAppTableRecord
  2
GENIUS_GENOBJ-N-LIB_13
 70
     0
  0
APPID
  5
33C
330
9
100
AcDbSymbolTableRecord
100
AcDbRegAppTableRecord
  2
GENIUS_GENSCALE_13
 70
     0
  0
APPID
  5
378
330
9
100
AcDbSymbolTableRecord
100
AcDbRegAppTableRecord
  2
GENIUS_GENDIMSH_14
 70
     0
  0
APPID
  5
BA6
330
9
100
AcDbSymbolTableRecord
100
AcDbRegAppTableRecord
  2
GENIUS_GENOBJ-N-CEN_13
 70
     0
  0
APPID
  5
C82
330
9
100
AcDbSymbolTableRecord
100
AcDbRegAppTableRecord
  2
GENIUS_GENFIL_13
 70
     0
  0
APPID
  5
C83
330
9
100
AcDbSymbolTableRecord
100
AcDbRegAppTableRecord
  2
GENIUS_GENOBJ-N-CHA_13
 70
     0
  0
ENDTAB
  0
TABLE
  2
DIMSTYLE
  5
A
330
0
100
AcDbSymbolTable
 70
     8
  0
DIMSTYLE
105
58
102
{ACAD_REACTORS
330
CAE
330
D37
330
DD4
330
FB1
102
}
330
A
100
AcDbSymbolTableRecord
100
AcDbDimStyleTableRecord
  2
AM_JIS
 70
     0
  3

  4
"
  5
OPEN30
  6

  7

 40
1.0
 41
2.5
 42
1.0
 43
12.0
 44
1.0
 45
0.0
 46
0.0
 47
0.1
 48
0.1
140
3.2
141
0.0
142
0.0
143
0.0393701
144
1.0
145
0.0
146
0.71
147
1.5
 71
     0
 72
     0
 73
     0
 74
     0
 75
     0
 76
     0
 77
     3
 78
     8
170
     0
171
     2
172
     1
173
     0
174
     0
175
     0
176
   256
177
   256
178
     2
270
     2
271
     3
272
     3
273
     2
274
     2
340
6B
275
     0
280
     0
281
     0
282
     0
283
     0
284
     0
285
     0
286
     0
287
     3
288
     0
  0
DIMSTYLE
105
5F
330
A
100
AcDbSymbolTableRecord
100
AcDbDimStyleTableRecord
  2
AM_JIS$3
 70
     0
  3

  4
"
  5
OPEN30
  6

  7

 40
1.0
 41
2.5
 42
1.0
 43
10.0
 44
1.0
 45
0.0
 46
0.0
 47
0.1
 48
0.1
140
3.2
141
0.0
142
0.0
143
0.0393701
144
1.0
145
0.0
146
0.71
147
1.5
 71
     0
 72
     0
 73
     0
 74
     1
 75
     0
 76
     0
 77
     3
 78
     8
170
     0
171
     2
172
     0
173
     0
174
     0
175
     0
176
   256
177
   256
178
     2
270
     2
271
     2
272
     3
273
     2
274
     2
340
6B
275
     0
280
     0
281
     0
282
     0
283
     0
284
     0
285
     0
286
     0
287
     0
288
     1
  0
DIMSTYLE
105
60
330
A
100
AcDbSymbolTableRecord
100
AcDbDimStyleTableRecord
  2
AM_JIS$4
 70
     0
  3

  4
"
  5
OPEN30
  6

  7

 40
1.0
 41
2.5
 42
1.0
 43
10.0
 44
1.0
 45
0.0
 46
0.0
 47
0.1
 48
0.1
140
3.2
141
0.0
142
0.0
143
0.0393701
144
1.0
145
0.0
146
0.71
147
1.5
 71
     0
 72
     0
 73
     0
 74
     1
 75
     0
 76
     0
 77
     3
 78
     8
170
     0
171
     2
172
     0
173
     0
174
     0
175
     0
176
   256
177
   256
178
     2
270
     2
271
     2
272
     3
273
     2
274
     2
340
6B
275
     0
280
     0
281
     0
282
     0
283
     0
284
     0
285
     0
286
     0
287
     0
288
     1
  0
DIMSTYLE
105
61
330
A
100
AcDbSymbolTableRecord
100
AcDbDimStyleTableRecord
  2
AM_JIS$6
 70
     0
  3

  4
"
  5
OPEN30
  6

  7

 40
1.0
 41
2.5
 42
1.0
 43
10.0
 44
1.0
 45
0.0
 46
0.0
 47
0.1
 48
0.1
140
3.2
141
0.0
142
0.0
143
0.0393701
144
1.0
145
0.0
146
0.71
147
1.5
 71
     0
 72
     0
 73
     0
 74
     0
 75
     0
 76
     0
 77
     0
 78
     8
170
     0
171
     2
172
     1
173
     0
174
     0
175
     0
176
   256
177
   256
178
     2
270
     2
271
     2
272
     2
273
     2
274
     2
340
6B
275
     0
280
     0
281
     0
282
     0
283
     0
284
     0
285
     0
286
     0
287
     3
288
     0
  0
DIMSTYLE
105
62
330
A
100
AcDbSymbolTableRecord
100
AcDbDimStyleTableRecord
  2
AM_JIS$7
 70
     0
  3

  4
"
  5
OPEN30
  6

  7

 40
1.0
 41
2.5
 42
1.0
 43
10.0
 44
1.0
 45
0.0
 46
0.0
 47
0.1
 48
0.1
140
3.2
141
0.0
142
0.0
143
0.0393701
144
1.0
145
0.0
146
0.71
147
1.5
 71
     0
 72
     0
 73
     0
 74
     0
 75
     0
 76
     0
 77
     3
 78
     8
170
     0
171
     2
172
     1
173
     0
174
     0
175
     0
176
   256
177
   256
178
     2
270
     2
271
     2
272
     3
273
     2
274
     2
340
6B
275
     0
280
     0
281
     0
282
     0
283
     0
284
     0
285
     0
286
     0
287
     3
288
     0
  0
DIMSTYLE
105
63
330
A
100
AcDbSymbolTableRecord
100
AcDbDimStyleTableRecord
  2
AM_JIS$SF
 70
     0
  3

  4
"
  5
OPEN30
  6

  7

 40
1.0
 41
2.5
 42
1.0
 43
10.0
 44
1.0
 45
0.0
 46
0.0
 47
0.1
 48
0.1
140
3.2
141
0.0
142
0.0
143
0.0393701
144
1.0
145
0.0
146
0.71
147
1.5
 71
     0
 72
     0
 73
     0
 74
     0
 75
     1
 76
     1
 77
     3
 78
     8
170
     0
171
     2
172
     1
173
     0
174
     0
175
     0
176
   256
177
   256
178
     2
270
     2
271
     2
272
     2
273
     2
274
     2
340
6B
275
     0
280
     0
281
     0
282
     0
283
     0
284
     0
285
     0
286
     0
287
     3
288
     0
  0
DIMSTYLE
105
68
330
A
100
AcDbSymbolTableRecord
100
AcDbDimStyleTableRecord
  2
AM_JIS$SH
 70
     0
  3

  4
"
  5

  6
GENAXEH
  7
OPEN30
 40
1.0
 41
2.5
 42
1.0
 43
10.0
 44
1.0
 45
0.0
 46
0.0
 47
0.1
 48
0.1
140
3.2
141
0.0
142
0.0
143
0.0393701
144
2.0
145
0.0
146
0.71
147
1.5
 71
     0
 72
     0
 73
     0
 74
     0
 75
     1
 76
     1
 77
     3
 78
     8
170
     0
171
     2
172
     1
173
     1
174
     0
175
     0
176
   256
177
   256
178
     2
270
     2
271
     2
272
     2
273
     2
274
     2
340
6B
275
     0
280
     0
281
     0
282
     0
283
     0
284
     0
285
     0
286
     0
287
     3
288
     0
  0
DIMSTYLE
105
B34
330
A
100
AcDbSymbolTableRecord
100
AcDbDimStyleTableRecord
  2
AM_JIS$2
 70
     0
  3

  4
"
  5
OPEN30
  6

  7

 40
1.0
 41
2.5
 42
1.0
 43
12.0
 44
1.0
 45
0.0
 46
0.0
 47
0.1
 48
0.1
140
3.2
141
0.0
142
0.0
143
0.0393701
144
1.0
145
0.0
146
0.71
147
1.5
 71
     0
 72
     0
 73
     0
 74
     0
 75
     0
 76
     0
 77
     3
 78
     8
170
     0
171
     2
172
     1
173
     0
174
     0
175
     0
176
   256
177
   256
178
     2
270
     2
271
     3
272
     3
273
     2
274
     2
340
6B
275
     0
280
     0
281
     0
282
     0
283
     0
284
     0
285
     0
286
     0
287
     3
288
     0
  0
ENDTAB
  0
TABLE
  2
BLOCK_RECORD
  5
1
330
0
100
AcDbSymbolTable
 70
     9
  0
BLOCK_RECORD
  5
1F
102
{ACAD_XDICTIONARY
360
74
102
}
330
1
100
AcDbSymbolTableRecord
100
AcDbBlockTableRecord
  2
*MODEL_SPACE
  0
BLOCK_RECORD
  5
101
102
{ACAD_XDICTIONARY
360
1093
102
}
330
1
100
AcDbSymbolTableRecord
100
AcDbBlockTableRecord
  2
*PAPER_SPACE
  0
BLOCK_RECORD
  5
59
330
1
100
AcDbSymbolTableRecord
100
AcDbBlockTableRecord
  2
_OPEN30
  0
BLOCK_RECORD
  5
64
330
1
100
AcDbSymbolTableRecord
100
AcDbBlockTableRecord
  2
GENAXEH
  0
BLOCK_RECORD
  5
CB0
330
1
100
AcDbSymbolTableRecord
100
AcDbBlockTableRecord
  2
*D5
  0
BLOCK_RECORD
  5
D38
330
1
100
AcDbSymbolTableRecord
100
AcDbBlockTableRecord
  2
*D6
  0
BLOCK_RECORD
  5
DD5
330
1
100
AcDbSymbolTableRecord
100
AcDbBlockTableRecord
  2
*D7
  0
BLOCK_RECORD
  5
FB2
330
1
100
AcDbSymbolTableRecord
100
AcDbBlockTableRecord
  2
*D8
  0
ENDTAB
  0
ENDSEC
  0
SECTION
  2
BLOCKS
  0
BLOCK
  5
20
330
1F
100
AcDbEntity
  8
0
100
AcDbBlockBegin
  2
*MODEL_SPACE
 70
     0
 10
0.0
 20
0.0
 30
0.0
  3
*MODEL_SPACE
  1

  0
ENDBLK
  5
21
330
1F
100
AcDbEntity
  8
0
100
AcDbBlockEnd
  0
BLOCK
  5
103
330
101
100
AcDbEntity
 67
     1
  8
0
100
AcDbBlockBegin
  2
*PAPER_SPACE
 70
     0
 10
0.0
 20
0.0
 30
0.0
  3
*PAPER_SPACE
  1

  0
ENDBLK
  5
104
330
101
100
AcDbEntity
 67
     1
  8
0
100
AcDbBlockEnd
  0
BLOCK
  5
5D
330
59
100
AcDbEntity
  8
0
100
AcDbBlockBegin
  2
_OPEN30
 70
     0
 10
0.0
 20
0.0
 30
0.0
  3
_OPEN30
  1

  0
LINE
  5
5A
330
59
100
AcDbEntity
  8
0
 62
     0
100
AcDbLine
 10
-1.0
 20
0.26794919
 30
0.0
 11
0.0
 21
0.0
 31
0.0
  0
LINE
  5
5B
330
59
100
AcDbEntity
  8
0
 62
     0
100
AcDbLine
 10
0.0
 20
0.0
 30
0.0
 11
-1.0
 21
-0.26794919
 31
0.0
  0
LINE
  5
5C
330
59
100
AcDbEntity
  8
0
 62
     0
100
AcDbLine
 10
0.0
 20
0.0
 30
0.0
 11
-1.0
 21
0.0
 31
0.0
  0
ENDBLK
  5
5E
330
59
100
AcDbEntity
  8
0
100
AcDbBlockEnd
  0
BLOCK
  5
66
330
64
100
AcDbEntity
  8
0
100
AcDbBlockBegin
  2
GENAXEH
 70
     0
 10
0.0
 20
0.0
 30
0.0
  3
GENAXEH
  1

  0
LINE
  5
65
330
64
100
AcDbEntity
  8
0
100
AcDbLine
 10
-1.0
 20
0.0
 30
0.0
 11
1.0
 21
0.0
 31
0.0
  0
ENDBLK
  5
67
330
64
100
AcDbEntity
  8
0
100
AcDbBlockEnd
  0
BLOCK
  5
CBA
330
CB0
100
AcDbEntity
  8
0
100
AcDbBlockBegin
  2
*D5
 70
     1
 10
0.0
 20
0.0
 30
0.0
  3
*D5
  1

  0
LINE
  5
F17
330
CB0
100
AcDbEntity
  8
AM_5
100
AcDbLine
 10
-69.99999999999999
 20
-5.499999875000222
 30
0.0
 11
-69.99999999999999
 21
-32.00000301970212
 31
0.0
  0
LINE
  5
F18
330
CB0
100
AcDbEntity
  8
AM_5
100
AcDbLine
 10
-0.0000000000000001
 20
-5.999999875000185
 30
0.0
 11
-0.0000000000000017
 21
-32.00000301970212
 31
0.0
  0
LINE
  5
F19
330
CB0
100
AcDbEntity
  8
AM_5
100
AcDbLine
 10
-67.49999999999999
 20
-31.00000301970212
 30
0.0
 11
-2.500000000000001
 21
-31.00000301970212
 31
0.0
  0
INSERT
  5
F1A
330
CB0
100
AcDbEntity
  8
AM_5
100
AcDbBlockReference
  2
_OPEN30
 10
-69.99999999999999
 20
-31.00000301970212
 30
0.0
 41
2.5
 42
2.5
 43
2.5
 50
180.0
  0
INSERT
  5
F1B
330
CB0
100
AcDbEntity
  8
AM_5
100
AcDbBlockReference
  2
_OPEN30
 10
-0.0000000000000016
 20
-31.00000301970212
 30
0.0
 41
2.5
 42
2.5
 43
2.5
  0
MTEXT
  5
F1C
330
CB0
100
AcDbEntity
  8
AM_5
 62
     2
100
AcDbMText
 10
-34.99999999999999
 20
-27.90000301970211
 30
0.0
 40
3.2
 41
0.0
 71
     5
 72
     1
  1
70
  7
ASAMI
1001
ACAD
1000
MTEXTBEGIN
1070
    73
1070
     1
1070
    44
1040
1.0
1070
    74
1070
     0
1000
MTEXTEND
  0
POINT
  5
F1D
330
CB0
100
AcDbEntity
  8
DEFPOINTS
 62
     0
100
AcDbPoint
 10
-69.99999999999999
 20
-4.499999875000222
 30
0.0
  0
POINT
  5
F1E
330
CB0
100
AcDbEntity
  8
DEFPOINTS
 62
     0
100
AcDbPoint
 10
0.0
 20
-4.999999875000185
 30
0.0
  0
POINT
  5
F1F
330
CB0
100
AcDbEntity
  8
DEFPOINTS
 62
     0
100
AcDbPoint
 10
-0.0000000000000016
 20
-31.00000301970212
 30
0.0
  0
ENDBLK
  5
CBB
330
CB0
100
AcDbEntity
  8
0
100
AcDbBlockEnd
  0
BLOCK
  5
D42
330
D38
100
AcDbEntity
  8
0
100
AcDbBlockBegin
  2
*D6
 70
     1
 10
0.0
 20
0.0
 30
0.0
  3
*D6
  1

  0
LINE
  5
F29
330
D38
100
AcDbEntity
  8
AM_5
100
AcDbLine
 10
-22.0
 20
-5.995277157768748
 30
0.0
 11
-22.0
 21
-20.00000301970211
 31
0.0
  0
LINE
  5
F2A
330
D38
100
AcDbEntity
  8
AM_5
100
AcDbLine
 10
-0.0000000000000001
 20
-5.999999875000185
 30
0.0
 11
-0.0000000000000009
 21
-20.00000301970211
 31
0.0
  0
LINE
  5
F2B
330
D38
100
AcDbEntity
  8
AM_5
100
AcDbLine
 10
-19.5
 20
-19.00000301970212
 30
0.0
 11
-2.5
 21
-19.00000301970212
 31
0.0
  0
INSERT
  5
F2C
330
D38
100
AcDbEntity
  8
AM_5
100
AcDbBlockReference
  2
_OPEN30
 10
-22.0
 20
-19.00000301970212
 30
0.0
 41
2.5
 42
2.5
 43
2.5
 50
180.0
  0
INSERT
  5
F2D
330
D38
100
AcDbEntity
  8
AM_5
100
AcDbBlockReference
  2
_OPEN30
 10
-0.0000000000000009
 20
-19.00000301970212
 30
0.0
 41
2.5
 42
2.5
 43
2.5
  0
MTEXT
  5
F2E
330
D38
100
AcDbEntity
  8
AM_5
 62
     2
100
AcDbMText
 10
-11.0
 20
-15.90000301970212
 30
0.0
 40
3.2
 41
0.0
 71
     5
 72
     1
  1
22
  7
ASAMI
1001
ACAD
1000
MTEXTBEGIN
1070
    73
1070
     1
1070
    44
1040
1.0
1070
    74
1070
     0
1000
MTEXTEND
  0
POINT
  5
F2F
330
D38
100
AcDbEntity
  8
DEFPOINTS
 62
     0
100
AcDbPoint
 10
-22.0
 20
-4.995277157768748
 30
0.0
  0
POINT
  5
F30
330
D38
100
AcDbEntity
  8
DEFPOINTS
 62
     0
100
AcDbPoint
 10
0.0
 20
-4.999999875000185
 30
0.0
  0
POINT
  5
F31
330
D38
100
AcDbEntity
  8
DEFPOINTS
 62
     0
100
AcDbPoint
 10
-0.0000000000000009
 20
-19.00000301970212
 30
0.0
  0
ENDBLK
  5
D43
330
D38
100
AcDbEntity
  8
0
100
AcDbBlockEnd
  0
BLOCK
  5
DDF
330
DD5
100
AcDbEntity
  8
0
100
AcDbBlockBegin
  2
*D7
 70
     1
 10
0.0
 20
0.0
 30
0.0
  3
*D7
  1

  0
LINE
  5
F20
330
DD5
100
AcDbEntity
  8
AM_5
100
AcDbLine
 10
1.0
 20
-4.999999875000185
 30
0.0
 11
19.53694283768902
 21
-4.99999987500019
 31
0.0
  0
LINE
  5
F21
330
DD5
100
AcDbEntity
  8
AM_5
100
AcDbLine
 10
1.0
 20
4.999999874999957
 30
0.0
 11
19.53694283768902
 21
4.999999874999952
 31
0.0
  0
LINE
  5
F22
330
DD5
100
AcDbEntity
  8
AM_5
100
AcDbLine
 10
18.53694283768901
 20
-2.499999875000189
 30
0.0
 11
18.53694283768901
 21
2.499999874999952
 31
0.0
  0
INSERT
  5
F23
330
DD5
100
AcDbEntity
  8
AM_5
100
AcDbBlockReference
  2
_OPEN30
 10
18.53694283768901
 20
-4.99999987500019
 30
0.0
 41
2.5
 42
2.5
 43
2.5
 50
270.0
  0
INSERT
  5
F24
330
DD5
100
AcDbEntity
  8
AM_5
100
AcDbBlockReference
  2
_OPEN30
 10
18.53694283768901
 20
4.999999874999952
 30
0.0
 41
2.5
 42
2.5
 43
2.5
 50
90.0
  0
MTEXT
  5
F25
330
DD5
100
AcDbEntity
  8
AM_5
 62
     2
100
AcDbMText
 10
15.43694283768901
 20
-0.0000000000001153
 30
0.0
 40
3.2
 41
0.0
 71
     5
 72
     1
  1
%%c10
  7
ASAMI
 11
0.0000000000000001
 21
1.0
 31
0.0
1001
ACAD
1000
MTEXTBEGIN
1070
    73
1070
     1
1070
    44
1040
1.0
1070
    74
1070
     0
1000
MTEXTEND
  0
POINT
  5
F26
330
DD5
100
AcDbEntity
  8
DEFPOINTS
 62
     0
100
AcDbPoint
 10
0.0
 20
-4.999999875000185
 30
0.0
  0
POINT
  5
F27
330
DD5
100
AcDbEntity
  8
DEFPOINTS
 62
     0
100
AcDbPoint
 10
0.0
 20
4.999999874999957
 30
0.0
  0
POINT
  5
F28
330
DD5
100
AcDbEntity
  8
DEFPOINTS
 62
     0
100
AcDbPoint
 10
18.53694283768901
 20
4.999999874999952
 30
0.0
  0
ENDBLK
  5
DE0
330
DD5
100
AcDbEntity
  8
0
100
AcDbBlockEnd
  0
BLOCK
  5
FBC
330
FB2
100
AcDbEntity
  8
0
100
AcDbBlockBegin
  2
*D8
 70
     1
 10
0.0
 20
0.0
 30
0.0
  3
*D8
  1

  0
LINE
  5
103C
330
FB2
100
AcDbEntity
  8
AM_5
100
AcDbLine
 10
-70.50000000464883
 20
-4.999931692502282
 30
0.0
 11
-85.00000100276563
 21
-4.999931692502278
 31
0.0
  0
LINE
  5
103D
330
FB2
100
AcDbEntity
  8
AM_5
100
AcDbLine
 10
-70.49999999999998
 20
4.999999874999923
 30
0.0
 11
-85.00000100276563
 21
4.999999874999926
 31
0.0
  0
LINE
  5
103E
330
FB2
100
AcDbEntity
  8
AM_5
100
AcDbLine
 10
-84.00000100276564
 20
-2.499931692502278
 30
0.0
 11
-84.00000100276564
 21
2.499999874999926
 31
0.0
  0
INSERT
  5
103F
330
FB2
100
AcDbEntity
  8
AM_5
100
AcDbBlockReference
  2
_OPEN30
 10
-84.00000100276564
 20
-4.999931692502278
 30
0.0
 41
2.5
 42
2.5
 43
2.5
 50
270.0
  0
INSERT
  5
1040
330
FB2
100
AcDbEntity
  8
AM_5
100
AcDbBlockReference
  2
_OPEN30
 10
-84.00000100276564
 20
4.999999874999926
 30
0.0
 41
2.5
 42
2.5
 43
2.5
 50
90.0
  0
MTEXT
  5
1041
330
FB2
100
AcDbEntity
  8
AM_5
 62
     2
100
AcDbMText
 10
-87.10000100276564
 20
0.0000340912488108
 30
0.0
 40
3.2
 41
0.0
 71
     5
 72
     1
  1
%%c10
  7
ASAMI
 11
0.0000000000000001
 21
1.0
 31
0.0
1001
ACAD
1000
MTEXTBEGIN
1070
    73
1070
     1
1070
    44
1040
1.0
1070
    74
1070
     0
1000
MTEXTEND
  0
POINT
  5
1042
330
FB2
100
AcDbEntity
  8
DEFPOINTS
 62
     0
100
AcDbPoint
 10
-69.50000000464884
 20
-4.999931692502283
 30
0.0
  0
POINT
  5
1043
330
FB2
100
AcDbEntity
  8
DEFPOINTS
 62
     0
100
AcDbPoint
 10
-69.49999999999999
 20
4.999999874999922
 30
0.0
  0
POINT
  5
1044
330
FB2
100
AcDbEntity
  8
DEFPOINTS
 62
     0
100
AcDbPoint
 10
-84.00000100276564
 20
4.999999874999926
 30
0.0
  0
ENDBLK
  5
FBD
330
FB2
100
AcDbEntity
  8
0
100
AcDbBlockEnd
  0
ENDSEC
  0
SECTION
  2
ENTITIES
  0
SPLINE
  5
C06
330
1F
100
AcDbEntity
  8
AM_0
100
AcDbSpline
210
0.0
220
0.0
230
1.0
 70
     8
 71
     3
 72
     8
 73
     4
 74
     2
 42
0.0000000001
 43
0.0000000001
 44
0.0000000001
 12
1.0
 22
-0.0000000000000002
 32
0.0
 40
0.0
 40
0.0
 40
0.0
 40
0.0
 40
14.47015062460583
 40
14.47015062460583
 40
14.47015062460583
 40
14.47015062460583
 10
-13.58100152614906
 20
4.99416225662685
 30
0.0
 10
-8.757617984613789
 20
4.994162256626849
 30
0.0
 10
-4.378808992306894
 20
2.497081128313368
 30
0.0
 10
0.0
 20
-0.0000000000001137
 30
0.0
 11
-13.58100152614906
 21
4.99416225662685
 31
0.0
 11
0.0
 21
-0.0000000000001137
 31
0.0
  0
SPLINE
  5
C07
330
1F
100
AcDbEntity
  8
AM_0
100
AcDbSpline
210
0.0
220
0.0
230
1.0
 70
     8
 71
     3
 72
     8
 73
     4
 74
     0
 42
0.0000000001
 43
0.0000000001
 40
4.041712701031824
 40
4.041712701031824
 40
4.041712701031824
 40
4.041712701031824
 40
43.20630823911048
 40
43.20630823911048
 40
43.20630823911048
 40
43.20630823911048
 10
-24.09980560529857
 20
4.664628548806149
 30
0.0
 10
-19.81302669748765
 20
4.281534313237443
 30
0.0
 10
-15.82499865899035
 20
2.133403789594012
 30
0.0
 10
-11.83697062049304
 20
-0.0147267340496455
 30
0.0
  0
SPLINE
  5
C08
330
1F
100
AcDbEntity
  8
AM_0
100
AcDbSpline
210
0.0
220
0.0
230
1.0
 70
     8
 71
     3
 72
     8
 73
     4
 74
     2
 42
0.0000000001
 43
0.0000000001
 44
0.0000000001
 12
1.0
 22
-0.0000000000000002
 32
0.0
 40
0.0
 40
0.0
 40
0.0
 40
0.0
 40
14.47293633748905
 40
14.47293633748905
 40
14.47293633748905
 40
14.47293633748905
 10
-27.19122578874566
 20
4.99416225662685
 30
0.0
 10
-22.36691367624931
 20
4.994162256626849
 30
0.0
 10
-17.98815875754333
 20
2.494162319126871
 30
0.0
 10
-13.60940383883735
 20
-0.005837618373107
 30
0.0
 11
-27.19122578874566
 21
4.99416225662685
 31
0.0
 11
-13.60940383883735
 21
-0.005837618373107
 31
0.0
  0
LINE
  5
C2E
330
1F
100
AcDbEntity
  8
AM_11
100
AcDbLine
 10
0.0
 20
5.000002019702118
 30
0.0
 11
-22.0
 21
4.995277157768565
 31
0.0
  0
LINE
  5
C30
330
1F
100
AcDbEntity
  8
AM_11
100
AcDbLine
 10
-22.0
 20
-4.995277157768748
 30
0.0
 11
0.0
 21
-5.000002019702118
 31
0.0
  0
SPLINE
  5
C31
330
1F
100
AcDbEntity
  8
AM_0
100
AcDbSpline
210
0.0
220
0.0
230
1.0
 70
     8
 71
     3
 72
     8
 73
     4
 74
     0
 42
0.0000000001
 43
0.0000000001
 40
0.0
 40
0.0
 40
0.0
 40
0.0
 40
16.40765811415315
 40
16.40765811415315
 40
16.40765811415315
 40
16.40765811415315
 10
-13.64803075412192
 20
4.999999874999957
 30
0.0
 10
-15.47110383233984
 20
4.999999874999957
 30
0.0
 10
-17.23055000217709
 20
4.642992359033769
 30
0.0
 10
-18.95041341770365
 20
4.063887916612202
 30
0.0
  0
SPLINE
  5
C32
330
1F
100
AcDbEntity
  8
AM_0
100
AcDbSpline
210
0.0
220
0.0
230
1.0
 70
     8
 71
     3
 72
     8
 73
     4
 74
     2
 42
0.0000000001
 43
0.0000000001
 44
0.0000000001
 12
1.0
 22
-0.0000000000000002
 32
0.0
 40
0.0
 40
0.0
 40
0.0
 40
0.0
 40
14.30142107637939
 40
14.30142107637939
 40
14.30142107637939
 40
14.30142107637939
 10
-22.1147827287682
 20
4.370283176074053
 30
0.0
 10
-17.34764236997507
 20
4.370283176074052
 30
0.0
 10
-12.92349245384193
 20
2.182222778850472
 30
0.0
 10
-8.499342537708798
 20
-0.005837618373107
 30
0.0
 11
-22.1147827287682
 21
4.370283176074053
 31
0.0
 11
-8.499342537708798
 21
-0.005837618373107
 31
0.0
  0
SPLINE
  5
C33
330
1F
100
AcDbEntity
  8
AM_0
100
AcDbSpline
210
0.0
220
0.0
230
1.0
 70
     8
 71
     3
 72
     8
 73
     4
 74
     2
 42
0.0000000001
 43
0.0000000001
 44
0.0000000001
 12
-1.0
 22
0.0000000000000001
 32
0.0
 40
0.0
 40
0.0
 40
0.0
 40
0.0
 40
14.30142107637946
 40
14.30142107637946
 40
14.30142107637946
 40
14.30142107637946
 10
-8.483902006649259
 20
-4.376120794447388
 30
0.0
 10
-13.25104236544241
 20
-4.376120794447387
 30
0.0
 10
-17.67519228157554
 20
-2.188060397223693
 30
0.0
 10
-22.09934219770866
 20
0.0
 30
0.0
 11
-8.483902006649259
 21
-4.376120794447388
 31
0.0
 11
-22.09934219770866
 21
0.0
 31
0.0
  0
SPLINE
  5
C34
330
1F
100
AcDbEntity
  8
AM_0
100
AcDbSpline
210
0.0
220
0.0
230
1.0
 70
     8
 71
     3
 72
     8
 73
     4
 74
     0
 42
0.0000000001
 43
0.0000000001
 40
0.0
 40
0.0
 40
0.0
 40
0.0
 40
11.14024708123303
 40
11.14024708123303
 40
11.14024708123303
 40
11.14024708123303
 10
-11.83709940145172
 20
-4.748516233854843
 30
0.0
 10
-16.47886901863194
 20
-4.748516233854843
 30
0.0
 10
-20.7456417998269
 20
-2.533014652393148
 30
0.0
 10
-25.0
 20
-0.2441670550515482
 30
0.0
  0
SPLINE
  5
C35
330
1F
100
AcDbEntity
  8
AM_0
100
AcDbSpline
210
0.0
220
0.0
230
1.0
 70
     8
 71
     3
 72
     8
 73
     4
 74
     0
 42
0.0000000001
 43
0.0000000001
 40
0.0
 40
0.0
 40
0.0
 40
0.0
 40
10.49949233464396
 40
10.49949233464396
 40
10.49949233464396
 40
10.49949233464396
 10
-13.64803075412192
 20
-4.999999874999957
 30
0.0
 10
-18.02281922689007
 20
-4.999999874999957
 30
0.0
 10
-22.03121502334443
 20
-2.944188229152132
 30
0.0
 10
-26.00547078789668
 20
-0.6968185099278799
 30
0.0
  0
SPLINE
  5
C36
330
1F
100
AcDbEntity
  8
AM_0
100
AcDbSpline
210
0.0
220
0.0
230
1.0
 70
     8
 71
     3
 72
     8
 73
     4
 74
     2
 42
0.0000000001
 43
0.0000000001
 44
0.0000000001
 12
-1.0
 22
0.0000000000000001
 32
0.0
 40
0.0
 40
0.0
 40
0.0
 40
0.0
 40
14.50842092140655
 40
14.50842092140655
 40
14.50842092140655
 40
14.50842092140655
 10
0.0
 20
-4.999999874999957
 30
0.0
 10
-4.836140307135519
 20
-4.999999874999956
 30
0.0
 10
-9.227884374284577
 20
-2.499999937499978
 30
0.0
 10
-13.61962844143363
 20
0.0
 30
0.0
 11
0.0
 21
-4.999999874999957
 31
0.0
 11
-13.61962844143363
 21
0.0
 31
0.0
  0
SPLINE
  5
C37
330
1F
100
AcDbEntity
  8
AM_0
100
AcDbSpline
210
0.0
220
0.0
230
1.0
 70
     8
 71
     3
 72
     8
 73
     4
 74
     0
 42
0.0000000001
 43
0.0000000001
 40
5.940484414839465
 40
5.940484414839465
 40
5.940484414839465
 40
5.940484414839465
 40
43.20630823911048
 40
43.20630823911048
 40
43.20630823911048
 40
43.20630823911048
 10
-0.1853312525304318
 20
-4.620280098116609
 30
0.0
 10
-4.237383827527992
 20
-4.096859515769438
 30
0.0
 10
-8.032064922712379
 20
-2.052874315722874
 30
0.0
 10
-11.82674601789676
 20
-0.0088891156765385
 30
0.0
  0
SPLINE
  5
C38
330
1F
100
AcDbEntity
  8
AM_0
100
AcDbSpline
210
0.0
220
0.0
230
1.0
 70
     8
 71
     3
 72
     8
 73
     4
 74
     0
 42
0.0000000001
 43
0.0000000001
 40
19.81419196662877
 40
19.81419196662877
 40
19.81419196662877
 40
19.81419196662877
 40
42.90426430174475
 40
42.90426430174475
 40
42.90426430174475
 40
42.90426430174475
 10
-1.292732276414881
 20
-3.191626534484385
 30
0.0
 10
-3.727169758284617
 20
-2.355125937607226
 30
0.0
 10
-6.108143846698567
 20
-1.177562968803613
 30
0.0
 10
-8.489117935112062
 20
0.0
 30
0.0
  0
SPLINE
  5
C39
330
1F
100
AcDbEntity
  8
AM_0
100
AcDbSpline
210
0.0
220
0.0
230
1.0
 70
     8
 71
     3
 72
     8
 73
     4
 74
     0
 42
0.0000000001
 43
0.0000000001
 40
4.041712701031824
 40
4.041712701031824
 40
4.041712701031824
 40
4.041712701031824
 40
36.66696766287024
 40
36.66696766287024
 40
36.66696766287024
 40
36.66696766287024
 10
-10.48958134270242
 20
4.664628548806149
 30
0.0
 10
-6.918568980366217
 20
4.345499832215864
 30
0.0
 10
-3.554871135224402
 20
2.801545739442872
 30
0.0
 10
-0.2257887435475823
 20
1.053081676089732
 30
0.0
  0
SPLINE
  5
C3A
330
1F
100
AcDbEntity
  8
AM_0
100
AcDbSpline
210
0.0
220
0.0
230
1.0
 70
     8
 71
     3
 72
     8
 73
     4
 74
     0
 42
0.0000000001
 43
0.0000000001
 40
0.0
 40
0.0
 40
0.0
 40
0.0
 40
22.32639506415645
 40
22.32639506415645
 40
22.32639506415645
 40
22.32639506415645
 10
-8.504558466171602
 20
4.370283176074053
 30
0.0
 10
-6.02384796550541
 20
4.370283176074053
 30
0.0
 10
-3.636016631603524
 20
3.777773294608778
 30
0.0
 10
-1.292732276415335
 20
2.901082083822984
 30
0.0
  0
SPLINE
  5
C3B
330
1F
100
AcDbEntity
  8
AM_0
100
AcDbSpline
210
0.0
220
0.0
230
1.0
 70
     8
 71
     3
 72
     8
 73
     4
 74
     0
 42
0.0000000001
 43
0.0000000001
 40
0.0
 40
0.0
 40
0.0
 40
0.0
 40
16.40765811415315
 40
16.40765811415315
 40
16.40765811415315
 40
16.40765811415315
 10
0.0
 20
4.999999874999958
 30
0.0
 10
-1.860879569743701
 20
4.999999874999957
 30
0.0
 10
-3.620325739580493
 20
4.642992359033769
 30
0.0
 10
-5.340189155107509
 20
4.063887916612202
 30
0.0
  0
LINE
  5
C3D
330
1F
100
AcDbEntity
  8
AM_0
100
AcDbLine
 10
0.0
 20
-0.0000000000001137
 30
0.0
 11
-0.1229732272900037
 21
0.8749999781248334
 31
0.0
  0
ARC
  5
C3E
330
1F
100
AcDbEntity
  8
AM_0
100
AcDbCircle
 10
-1.901552458291476
 20
-0.7249999818750439
 30
0.0
 40
0.5999999850000052
100
AcDbArc
 50
90.0
 51
246.4528555439272
  0
LINE
  5
C3F
330
1F
100
AcDbEntity
  8
AM_0
100
AcDbLine
 10
-0.0614866136447745
 20
-0.1249999968749762
 30
0.0
 11
-0.0614866136447745
 21
-0.9669905117020789
 31
0.0
  0
LINE
  5
C40
330
1F
100
AcDbEntity
  8
AM_0
100
AcDbLine
 10
-1.901552458291462
 20
-0.1249999968749762
 30
0.0
 11
-0.0614866136447745
 21
-0.1249999968749762
 31
0.0
  0
LINE
  5
C41
330
1F
100
AcDbEntity
  8
AM_0
100
AcDbLine
 10
-0.1229732272900037
 20
-4.700727933245389
 30
0.0
 11
0.0
 21
-4.999999875000185
 31
0.0
  0
ARC
  5
C43
330
1F
100
AcDbEntity
  8
AM_0
100
AcDbCircle
 10
-4.556701868529231
 20
-1.963725728688132
 30
0.0
 40
3.487296644554334
100
AcDbArc
 50
339.3837703163273
 51
0.7543649151066756
  0
LINE
  5
C44
330
1F
100
AcDbEntity
  8
AM_0
100
AcDbLine
 10
-0.1229732272900037
 20
-4.700727933245389
 30
0.0
 11
-1.292732276415335
 21
-3.191626534484385
 31
0.0
  0
LINE
  5
C46
330
1F
100
AcDbEntity
  8
AM_0
100
AcDbLine
 10
-0.0614866136447745
 20
-0.9669905117020789
 30
0.0
 11
-0.1229732272900037
 21
-1.320977365777252
 31
0.0
  0
LINE
  5
C47
330
1F
100
AcDbEntity
  8
AM_0
100
AcDbLine
 10
-0.1229732272900037
 20
-1.320977365777252
 30
0.0
 11
-1.06970747676678
 21
-1.917812779145151
 31
0.0
  0
ARC
  5
C48
330
1F
100
AcDbEntity
  8
AM_0
100
AcDbCircle
 10
-3.933057774715521
 20
-5.493712295690329
 30
0.0
 40
4.581029609289968
100
AcDbArc
 50
51.31449924235493
 51
67.00967993730715
  0
LINE
  5
C49
330
1F
100
AcDbEntity
  8
AM_0
100
AcDbLine
 10
-0.1229732272900037
 20
-4.700727933245616
 30
0.0
 11
-0.1229732272900037
 21
-1.320977365777252
 31
0.0
  0
LINE
  5
C4A
330
1F
100
AcDbEntity
  8
AM_0
100
AcDbLine
 10
0.0
 20
-5.000002019702118
 30
0.0
 11
0.0
 21
5.000002019702118
 31
0.0
  0
LINE
  5
C4B
330
1F
100
AcDbEntity
  8
AM_0
100
AcDbLine
 10
-0.1229732272900037
 20
0.8749999781248334
 30
0.0
 11
-1.292732276415335
 21
2.901082083822984
 31
0.0
  0
SPLINE
  5
C4C
330
1F
100
AcDbEntity
  8
AM_0
100
AcDbSpline
210
0.0
220
0.0
230
1.0
 70
     8
 71
     3
 72
     8
 73
     4
 74
     0
 42
0.0000000001
 43
0.0000000001
 40
4.497685297584327
 40
4.497685297584327
 40
4.497685297584327
 40
4.497685297584327
 40
9.915363876658778
 40
9.915363876658778
 40
9.915363876658778
 40
9.915363876658778
 10
-1.770477177161865
 20
3.075560994956049
 30
0.0
 10
-1.191375532001529
 20
3.244198501771052
 30
0.0
 10
-0.6220043875136981
 20
3.484609362531728
 30
0.0
 10
-0.0526332430254115
 20
3.725020223292403
 30
0.0
  0
SPLINE
  5
C4D
330
1F
100
AcDbEntity
  8
AM_0
100
AcDbSpline
210
0.0
220
0.0
230
1.0
 70
     8
 71
     3
 72
     8
 73
     4
 74
     0
 42
0.0000000001
 43
0.0000000001
 40
0.0
 40
0.0
 40
0.0
 40
0.0
 40
9.450452127946082
 40
9.450452127946082
 40
9.450452127946082
 40
9.450452127946082
 10
-13.58100152614906
 20
-4.994162256627078
 30
0.0
 10
-12.53095131596182
 20
-4.994162256627078
 30
0.0
 10
-11.50200938343596
 20
-4.875724728137356
 30
0.0
 10
-10.48958134270242
 20
-4.664628548806376
 30
0.0
  0
SPLINE
  5
C4E
330
1F
100
AcDbEntity
  8
AM_0
100
AcDbSpline
210
0.0
220
0.0
230
1.0
 70
     8
 71
     3
 72
     8
 73
     4
 74
     0
 42
0.0000000001
 43
0.0000000001
 40
0.0
 40
0.0
 40
0.0
 40
0.0
 40
9.964098609850829
 40
9.964098609850829
 40
9.964098609850829
 40
9.964098609850829
 10
-11.82661723693854
 20
-4.724900384128886
 30
0.0
 10
-10.7194951968554
 20
-4.724900384128886
 30
0.0
 10
-9.633706132221504
 20
-4.598864011793239
 30
0.0
 10
-8.564330301459904
 20
-4.375857366345826
 30
0.0
  0
SPLINE
  5
C4F
330
1F
100
AcDbEntity
  8
AM_0
100
AcDbSpline
210
0.0
220
0.0
230
1.0
 70
     8
 71
     3
 72
     8
 73
     4
 74
     0
 42
0.0000000001
 43
0.0000000001
 40
0.0
 40
0.0
 40
0.0
 40
0.0
 40
9.637195575647414
 40
9.637195575647414
 40
9.637195575647414
 40
9.637195575647414
 10
-8.504558466171602
 20
-4.370283176074281
 30
0.0
 10
-7.433758984536325
 20
-4.370283176074281
 30
0.0
 10
-6.380264934901788
 20
-4.259885550636681
 30
0.0
 10
-5.340189155107509
 20
-4.063887916612202
 30
0.0
  0
SPLINE
  5
C50
330
1F
100
AcDbEntity
  8
AM_0
100
AcDbSpline
210
0.0
220
0.0
230
1.0
 70
     8
 71
     3
 72
     8
 73
     4
 74
     0
 42
0.0000000001
 43
0.0000000001
 40
0.0
 40
0.0
 40
0.0
 40
0.0
 40
9.450452127946082
 40
9.450452127946082
 40
9.450452127946082
 40
9.450452127946082
 10
-27.19122578874566
 20
-4.994162256627078
 30
0.0
 10
-26.14117557855843
 20
-4.994162256627078
 30
0.0
 10
-25.1122336460321
 20
-4.875724728137356
 30
0.0
 10
-24.09980560529857
 20
-4.664628548806376
 30
0.0
  0
SPLINE
  5
C51
330
1F
100
AcDbEntity
  8
AM_0
100
AcDbSpline
210
0.0
220
0.0
230
1.0
 70
     8
 71
     3
 72
     8
 73
     4
 74
     0
 42
0.0000000001
 43
0.0000000001
 40
10.43080782587999
 40
10.43080782587999
 40
10.43080782587999
 40
10.43080782587999
 40
11.52168190905409
 40
11.52168190905409
 40
11.52168190905409
 40
11.52168190905409
 10
-25.0
 20
-0.67111124570215
 30
0.0
 10
-25.4168936294709
 20
-0.4487484056530775
 30
0.0
 10
-25.83344681473545
 20
-0.2243742028267661
 30
0.0
 10
-26.25
 20
0.0
 30
0.0
  0
SPLINE
  5
C52
330
1F
100
AcDbEntity
  8
AM_0
100
AcDbSpline
210
0.0
220
0.0
230
1.0
 70
     8
 71
     3
 72
     8
 73
     4
 74
     0
 42
0.0000000001
 43
0.0000000001
 40
7.872155465811081
 40
7.872155465811081
 40
7.872155465811081
 40
7.872155465811081
 40
11.44113686110349
 40
11.44113686110349
 40
11.44113686110349
 40
11.44113686110349
 10
-26.25
 20
1.981231887813692
 30
0.0
 10
-24.85950649472761
 20
1.36509980507526
 30
0.0
 10
-23.47942434621791
 20
0.6825499025376303
 30
0.0
 10
-22.09934219770866
 20
-0.0000000000002274
 30
0.0
  0
SPLINE
  5
C53
330
1F
100
AcDbEntity
  8
AM_0
100
AcDbSpline
210
0.0
220
0.0
230
1.0
 70
     8
 71
     3
 72
     8
 73
     4
 74
     0
 42
0.0000000001
 43
0.0000000001
 40
0.0
 40
0.0
 40
0.0
 40
0.0
 40
3.445482686890237
 40
3.445482686890237
 40
3.445482686890237
 40
3.445482686890237
 10
-22.02709704127119
 20
-4.370283176074281
 30
0.0
 10
-23.46271482747579
 20
-4.370283176074281
 30
0.0
 10
-24.86722663992941
 20
-4.171846890931647
 30
0.0
 10
-26.25
 20
-3.83473313598165
 30
0.0
  0
LINE
  5
C54
330
1F
100
AcDbEntity
  8
AM_0
100
AcDbLine
 10
-25.0
 20
-1.259676020660208
 30
0.0
 11
-25.0
 21
-0.2441670550515482
 31
0.0
  0
SPLINE
  5
C55
330
1F
100
AcDbEntity
  8
AM_0
100
AcDbSpline
210
0.0
220
0.0
230
1.0
 70
     8
 71
     3
 72
     8
 73
     4
 74
     0
 42
0.0000000001
 43
0.0000000001
 40
4.041712701031851
 40
4.041712701031851
 40
4.041712701031851
 40
4.041712701031851
 40
9.964098609850829
 40
9.964098609850829
 40
9.964098609850829
 40
9.964098609850829
 10
-24.09980560529857
 20
-4.664628548806376
 30
0.0
 10
-23.4515681181233
 20
-4.606697862396686
 30
0.0
 10
-22.81016211866972
 20
-4.508406377178062
 30
0.0
 10
-22.1745545640565
 20
-4.375857366345826
 30
0.0
  0
SPLINE
  5
C56
330
1F
100
AcDbEntity
  8
AM_0
100
AcDbSpline
210
0.0
220
0.0
230
1.0
 70
     8
 71
     3
 72
     8
 73
     4
 74
     0
 42
0.0000000001
 43
0.0000000001
 40
0.0
 40
0.0
 40
0.0
 40
0.0
 40
9.637195575647414
 40
9.637195575647414
 40
9.637195575647414
 40
9.637195575647414
 10
-22.1147827287682
 20
-4.370283176074281
 30
0.0
 10
-21.04398324713292
 20
-4.370283176074281
 30
0.0
 10
-19.99048919749793
 20
-4.259885550636681
 30
0.0
 10
-18.95041341770365
 20
-4.063887916612202
 30
0.0
  0
LINE
  5
C57
330
1F
100
AcDbEntity
  8
AM_0
100
AcDbLine
 10
-26.25
 20
0.0
 30
0.0
 11
-26.25
 21
1.981231887813692
 31
0.0
  0
ARC
  5
C58
330
1F
100
AcDbEntity
  8
AM_0
100
AcDbCircle
 10
-27.22329270069169
 20
-2.6554696425612
 30
0.0
 40
2.306383417961718
100
AcDbArc
 50
58.12807221084281
 51
123.111118716734
  0
LINE
  5
C59
330
1F
100
AcDbEntity
  8
AM_0
100
AcDbLine
 10
-26.25
 20
-3.83473313598165
 30
0.0
 11
-26.25
 21
-4.96276374580907
 31
0.0
  0
LINE
  5
C5A
330
1F
100
AcDbEntity
  8
AM_0
100
AcDbLine
 10
-29.0577008191035
 20
-1.055308601275555
 30
0.0
 11
-28.26638144812886
 21
-0.5984401494283702
 31
0.0
  0
ARC
  5
C5B
330
1F
100
AcDbEntity
  8
AM_0
100
AcDbCircle
 10
-28.0304350374795
 20
-2.364393400331636
 30
0.0
 40
1.664024638403811
100
AcDbArc
 50
128.1220067564514
 51
261.8484093491677
  0
ARC
  5
C5C
330
1F
100
AcDbEntity
  8
AM_0
100
AcDbCircle
 10
-26.38857011444362
 20
1.702579626883135
 30
0.0
 40
3.264448088588522
100
AcDbArc
 50
83.26052305413885
 51
125.1158021862049
  0
LINE
  5
C5D
330
1F
100
AcDbEntity
  8
AM_0
100
AcDbLine
 10
-29.05770081910805
 20
3.916000657126005
 30
0.0
 11
-28.26638144812886
 21
4.372869108975464
 31
0.0
  0
ARC
  5
C5E
330
1F
100
AcDbEntity
  8
AM_0
100
AcDbCircle
 10
-28.47692789861822
 20
2.927968972815079
 30
0.0
 40
1.146081931790327
100
AcDbArc
 50
119.5526473511598
 51
239.5526473513391
  0
SPLINE
  5
C5F
330
1F
100
AcDbEntity
  8
AM_0
100
AcDbSpline
210
0.0
220
0.0
230
1.0
 70
     8
 71
     3
 72
     8
 73
     4
 74
     0
 42
0.0000000001
 43
0.0000000001
 40
1.140063819971138
 40
1.140063819971138
 40
1.140063819971138
 40
1.140063819971138
 40
2.790246636948332
 40
2.790246636948332
 40
2.790246636948332
 40
2.790246636948332
 10
-26.25
 20
-4.307270158755272
 30
0.0
 10
-26.92820833546102
 20
-4.247509321726283
 30
0.0
 10
-27.59999244117262
 20
-4.146765993787994
 30
0.0
 10
-28.26638144812886
 20
-4.011605374704231
 30
0.0
  0
SPLINE
  5
C60
330
1F
100
AcDbEntity
  8
AM_0
100
AcDbSpline
210
0.0
220
0.0
230
1.0
 70
     8
 71
     3
 72
     8
 73
     4
 74
     0
 42
0.0000000001
 43
0.0000000001
 40
7.951699575921333
 40
7.951699575921333
 40
7.951699575921333
 40
7.951699575921333
 40
10.36385682192277
 40
10.36385682192277
 40
10.36385682192277
 40
10.36385682192277
 10
-29.0577008191035
 20
1.939937288501369
 30
0.0
 10
-28.11822211838261
 20
1.521535192776127
 30
0.0
 10
-27.18339329080709
 20
1.073469870279495
 30
0.0
 10
-26.25
 20
0.616246738231439
 30
0.0
  0
LINE
  5
C7B
330
1F
100
AcDbEntity
  8
AM_11
100
AcDbLine
 10
-22.0
 20
-4.995277157768748
 30
0.0
 11
-22.0
 21
4.995277157768565
 31
0.0
  0
LINE
  5
C7C
330
1F
100
AcDbEntity
  8
AM_0
100
AcDbLine
 10
-69.99999999999999
 20
-4.499999875000222
 30
0.0
 11
-69.99999999999999
 21
4.499999874999921
 31
0.0
  0
LINE
  5
C7D
330
1F
100
AcDbEntity
  8
AM_0
100
AcDbLine
 10
-27.19122578874566
 20
-4.994162256627078
 30
0.0
 11
-69.50000000464884
 21
-4.999931692502283
 31
0.0
  0
LINE
  5
C7E
330
1F
100
AcDbEntity
  8
AM_0
100
AcDbLine
 10
-69.49999999999999
 20
4.999999874999921
 30
0.0
 11
-27.19122578874566
 21
4.99999987499992
 31
0.0
  0
LINE
  5
C81
330
1F
100
AcDbEntity
  8
AM_0
100
AcDbLine
 10
-69.99999999999999
 20
4.499999874999921
 30
0.0
 11
-69.49999999999999
 21
4.999999874999921
 31
0.0
1001
GENIUS_GENFIL_13
1070
     0
1040
0.5
1040
0.5
1040
20.0
1040
0.0
1002
{
1002
}
1001
GENIUS_GENODEF_13
1002
{
1000
HIER
1070
     0
1002
}
1002
{
1000
MANEDIT
1070
     0
1002
}
1002
{
1000
NOSEL
1070
     0
1002
}
1002
{
1000
BEHIND
1070
     0
1002
}
1002
{
1000
REACTOR
1002
}
1001
GENIUS_GENOBJ-N-CHA_13
1002
{
1000
OWNER
1000
GEN
1002
}
  0
LINE
  5
C85
330
1F
100
AcDbEntity
  8
AM_0
100
AcDbLine
 10
-69.99999999999999
 20
-4.499999875000222
 30
0.0
 11
-69.50000000464884
 21
-4.999931692502283
 31
0.0
1001
GENIUS_GENFIL_13
1070
     0
1040
0.5
1040
0.5
1040
20.0
1040
0.0
1002
{
1002
}
1001
GENIUS_GENODEF_13
1002
{
1000
HIER
1070
     0
1002
}
1002
{
1000
MANEDIT
1070
     0
1002
}
1002
{
1000
NOSEL
1070
     0
1002
}
1002
{
1000
BEHIND
1070
     0
1002
}
1002
{
1000
REACTOR
1002
}
1001
GENIUS_GENOBJ-N-CHA_13
1002
{
1000
OWNER
1000
GEN
1002
}
  0
LINE
  5
C86
330
1F
100
AcDbEntity
  8
AM_0
100
AcDbLine
 10
-69.50000000464884
 20
-4.999931692502283
 30
0.0
 11
-69.49999999999999
 21
4.999999874999921
 31
0.0
  0
LINE
  5
C8E
330
1F
100
AcDbEntity
  8
AM_7
100
AcDbLine
 10
-72.99999999999998
 20
0.0
 30
0.0
 11
4.536941837689028
 21
0.0
 31
0.0
1001
GENIUS_GENODEF_13
1002
{
1000
HIER
1070
     0
1002
}
1002
{
1000
MANEDIT
1070
     0
1002
}
1002
{
1000
NOSEL
1070
     0
1002
}
1002
{
1000
BEHIND
1070
     0
1002
}
1002
{
1000
REACTOR
1002
}
1001
GENIUS_GENOBJ-N-CEN_13
1002
{
1000
OWNER
1000
GEN
1002
}
  0
DIMENSION
  5
CAE
330
1F
100
AcDbEntity
  8
AM_5
100
AcDbDimension
  2
*D5
 10
-0.0000000000000016
 20
-31.00000301970212
 30
0.0
 11
-34.99999999999999
 21
-27.90000301970211
 31
0.0
 70
    32
  1
<>
  3
AM_JIS
100
AcDbAlignedDimension
 13
-69.99999999999999
 23
-4.499999875000222
 33
0.0
 14
0.0
 24
-4.999999875000185
 34
0.0
 50
0.0000000000001132
100
AcDbRotatedDimension
1001
GENIUS_GENDTOL_13
1000

1000
h7
1000

1040
0.0
  0
DIMENSION
  5
D37
330
1F
100
AcDbEntity
  8
AM_5
100
AcDbDimension
  2
*D6
 10
-0.0000000000000009
 20
-19.00000301970212
 30
0.0
 11
-11.0
 21
-15.90000301970212
 31
0.0
 70
    32
  1
<>
  3
AM_JIS
100
AcDbAlignedDimension
 13
-22.0
 23
-4.995277157768748
 33
0.0
 14
0.0
 24
-4.999999875000185
 34
0.0
 50
0.0000000000001132
100
AcDbRotatedDimension
1001
GENIUS_GENDTOL_13
1000

1000
h7
1000

1040
0.0
  0
DIMENSION
  5
DD4
330
1F
100
AcDbEntity
  8
AM_5
100
AcDbDimension
  2
*D7
 10
18.53694283768901
 20
4.999999874999952
 30
0.0
 11
18.53694283768901
 21
-0.0000000000001157
 31
0.0
 70
   160
  1
%%c<>
  3
AM_JIS
100
AcDbAlignedDimension
 13
0.0
 23
-4.999999875000185
 33
0.0
 14
0.0
 24
4.999999874999957
 34
0.0
 50
90.0
100
AcDbRotatedDimension
1001
GENIUS_GENDTOL_13
1000

1000
h7
1000

1040
0.0
  0
TEXT
  5
E76
330
1F
100
AcDbEntity
  8
AM_6
100
AcDbText
 10
-55.35714285714285
 20
-53.50000301970212
 30
0.0
 40
5.0
  1
GLM4100SF
 72
     1
 11
-34.99999999999999
 21
-51.00000301970212
 31
0.0
100
AcDbText
 73
     2
  0
LINE
  5
F0C
330
1F
100
AcDbEntity
  8
AM_11
100
AcDbLine
 10
0.0
 20
-4.995277157768748
 30
0.0
 11
0.0
 21
4.995277157768565
 31
0.0
  0
DIMENSION
  5
FB1
330
1F
100
AcDbEntity
  8
AM_5
100
AcDbDimension
  2
*D8
 10
-84.00000100276564
 20
4.999999874999926
 30
0.0
 11
-84.00000100276564
 21
0.0000340912488104
 31
0.0
 70
   160
  1
%%c<>
  3
AM_JIS
100
AcDbAlignedDimension
 13
-69.50000000464884
 23
-4.999931692502283
 33
0.0
 14
-69.49999999999999
 24
4.999999874999922
 34
0.0
 50
269.9999999733639
100
AcDbRotatedDimension
1001
GENIUS_GENDTOL_13
1000

1000
h7
1000

1040
0.0
  0
VIEWPORT
  5
110
330
101
100
AcDbEntity
 67
     1
  8
0
100
AcDbViewport
 10
420.5
 20
297.0
 30
0.0
 40
948.9782706766916
 41
628.452
 68
     1
 69
     1
1001
ACAD
1000
MVIEW
1002
{
1070
    16
1010
0.0
1020
0.0
1030
0.0
1010
0.0
1020
0.0
1030
1.0
1040
0.0
1040
628.452
1040
420.5
1040
297.0
1040
50.0
1040
0.0
1040
0.0
1070
     0
1070
   100
1070
     1
1070
     1
1070
     0
1070
     0
1070
     0
1070
     0
1040
0.0
1040
0.0
1040
0.0
1040
10.0
1040
10.0
1040
10.0
1040
10.0
1070
     0
1002
{
1002
}
1002
}
  0
ENDSEC
  0
SECTION
  2
OBJECTS
  0
DICTIONARY
  5
C
330
0
100
AcDbDictionary
  3
ACAD_GROUP
350
D
  3
ACAD_LAYOUT
350
1A
  3
ACAD_MLINESTYLE
350
17
  3
ACAD_PLOTSETTINGS
350
19
  3
ACAD_PLOTSTYLENAME
350
E
  3
ACDBVARIABLEDICTIONARY
350
34
  3
ACMDICTIONARY
350
43
  3
AMG
350
2B
  3
AMGSNAPSETTINGS
350
6E
  3
DWGPROPS
350
105F
  3
ACDBHEADERROUNDTRIPXREC
350
106B
  0
DICTIONARY
  5
74
330
1F
100
AcDbDictionary
280
     1
  3
ACAD_INDEX
360
1061
  3
ACAD_LAYOUTSELFREF
360
108E
  0
DICTIONARY
  5
1093
330
101
100
AcDbDictionary
280
     1
  3
ACAD_LAYOUTSELFREF
360
1094
  0
DICTIONARY
  5
D
102
{ACAD_REACTORS
330
C
102
}
330
C
100
AcDbDictionary
  0
DICTIONARY
  5
1A
102
{ACAD_REACTORS
330
C
102
}
330
C
100
AcDbDictionary
  0
DICTIONARY
  5
17
102
{ACAD_REACTORS
330
C
102
}
330
C
100
AcDbDictionary
  3
STANDARD
350
18
  0
DICTIONARY
  5
19
102
{ACAD_REACTORS
330
C
102
}
330
C
100
AcDbDictionary
  0
ACDBDICTIONARYWDFLT
  5
E
102
{ACAD_REACTORS
330
C
102
}
330
C
100
AcDbDictionary
281
     1
  3
Normal
350
F
100
AcDbDictionaryWithDefault
340
F
  0
DICTIONARY
  5
34
102
{ACAD_REACTORS
330
C
102
}
330
C
100
AcDbDictionary
  3
INDEXCTL
350
35
  3
SORTENTS
350
B5E
  0
DICTIONARY
  5
43
102
{ACAD_REACTORS
330
C
102
}
330
C
100
AcDbDictionary
  3
ACMSTDDICTIONARY
350
260
  0
DICTIONARY
  5
2B
102
{ACAD_REACTORS
330
C
102
}
330
C
100
AcDbDictionary
  3
ACMGSETTINGS
350
2C
  0
DICTIONARY
  5
6E
102
{ACAD_REACTORS
330
C
102
}
330
C
100
AcDbDictionary
  0
XRECORD
  5
105F
102
{ACAD_REACTORS
330
C
102
}
330
C
100
AcDbXrecord
  1
DWGPROPS COOKIE
  2

  3

  4

  6

  7

  8

  9

300
AmdtFileType=82
301
=
302
=
303
=
304
=
305
=
306
=
307
=
308
=
309
=
 40
0.0190261458333333
 41
2452809.375295671
 42
2452839.644693102
  1

 90
        1
  0
DICTIONARY
  5
106B
102
{ACAD_REACTORS
330
C
102
}
330
C
100
AcDbDictionary
  3
TSTACKALIGN
350
106C
  3
TSTACKSIZE
350
106D
  3
HYPERLINKBASE
350
106E
  3
STYLESHEET
350
106F
  3
LAYOUTDICT
350
1070
  3
PLOTSETDICT
350
1071
  3
PLOTSTYLNAMDICT
350
1072
  3
LWETCUNION
350
1073
  3
INSUNITS
350
1074
  3
CEPSNTYPE
350
1075
  3
FINGERPRINTGUID
350
1076
  3
VERSIONGUID
350
1077
  3
PSVPSCALE
350
1078
  3
DIMSTYLEDATA
350
1079
  3
PUCSORTHOREF
350
107A
  3
PUCSORTHOVIEW
350
107B
  3
PUCSBASE
350
107C
  3
PUCSORGTOP
350
107D
  3
PUCSORGBOTTOM
350
107E
  3
PUCSORGLEFT
350
107F
  3
PUCSORGRIGHT
350
1080
  3
PUCSORGFRONT
350
1081
  3
PUCSORGBACK
350
1082
  3
UCSORTHOREF
350
1083
  3
UCSORTHOVIEW
350
1084
  3
UCSBASE
350
1085
  3
UCSORGTOP
350
1086
  3
UCSORGBOTTOM
350
1087
  3
UCSORGLEFT
350
1088
  3
UCSORGRIGHT
350
1089
  3
UCSORGFRONT
350
108A
  3
UCSORGBACK
350
108B
  0
DICTIONARY
  5
1061
102
{ACAD_REACTORS
330
74
102
}
330
74
100
AcDbDictionary
  3
*A1
350
1062
  0
XRECORD
  5
108E
102
{ACAD_REACTORS
330
74
102
}
330
74
100
AcDbXrecord
340
1F
  0
XRECORD
  5
1094
102
{ACAD_REACTORS
330
1093
102
}
330
1093
100
AcDbXrecord
340
101
  0
MLINESTYLE
  5
18
102
{ACAD_REACTORS
330
17
102
}
330
17
100
AcDbMlineStyle
  2
STANDARD
 70
     0
  3

 62
   256
 51
90.0
 52
90.0
 71
     2
 49
0.5
 62
   256
  6
BYLAYER
 49
-0.5
 62
   256
  6
BYLAYER
  0
ACDBPLACEHOLDER
  5
F
102
{ACAD_REACTORS
330
E
102
}
330
E
100
AcDbPlaceHolder
280
     0
  0
DICTIONARYVAR
  5
35
102
{ACAD_REACTORS
330
34
102
}
330
34
100
DictionaryVariables
280
     0
  1
1
  0
DICTIONARYVAR
  5
B5E
102
{ACAD_REACTORS
330
34
102
}
330
34
100
DictionaryVariables
280
     0
  1
96
  0
DICTIONARY
  5
260
102
{ACAD_REACTORS
330
43
102
}
330
43
100
AcDbDictionary
  0
DICTIONARY
  5
2C
102
{ACAD_REACTORS
330
2B
102
}
330
2B
100
AcDbDictionary
  3
DWGSETTINGS
350
2D
  0
XRECORD
  5
106C
102
{ACAD_REACTORS
330
106B
102
}
330
106B
100
AcDbXrecord
 90
        1
  0
XRECORD
  5
106D
102
{ACAD_REACTORS
330
106B
102
}
330
106B
100
AcDbXrecord
 90
       70
  0
XRECORD
  5
106E
102
{ACAD_REACTORS
330
106B
102
}
330
106B
100
AcDbXrecord
  1

  0
XRECORD
  5
106F
102
{ACAD_REACTORS
330
106B
102
}
330
106B
100
AcDbXrecord
  1
ASAMI.ctb
  0
XRECORD
  5
1070
102
{ACAD_REACTORS
330
106B
102
}
330
106B
100
AcDbXrecord
340
1A
  0
XRECORD
  5
1071
102
{ACAD_REACTORS
330
106B
102
}
330
106B
100
AcDbXrecord
340
19
  0
XRECORD
  5
1072
102
{ACAD_REACTORS
330
106B
102
}
330
106B
100
AcDbXrecord
340
E
  0
XRECORD
  5
1073
102
{ACAD_REACTORS
330
106B
102
}
330
106B
100
AcDbXrecord
 90
    10781
  0
XRECORD
  5
1074
102
{ACAD_REACTORS
330
106B
102
}
330
106B
100
AcDbXrecord
 90
        4
  0
XRECORD
  5
1075
102
{ACAD_REACTORS
330
106B
102
}
330
106B
100
AcDbXrecord
 90
        0
  0
XRECORD
  5
1076
102
{ACAD_REACTORS
330
106B
102
}
330
106B
100
AcDbXrecord
  1
{AFB28963-8C59-40AE-9337-C84526B81ACE}
  0
XRECORD
  5
1077
102
{ACAD_REACTORS
330
106B
102
}
330
106B
100
AcDbXrecord
  1
{6691FE69-D82C-4063-8D1A-ECA6AE322B86}
  0
XRECORD
  5
1078
102
{ACAD_REACTORS
330
106B
102
}
330
106B
100
AcDbXrecord
 40
0.0
  0
XRECORD
  5
1079
102
{ACAD_REACTORS
330
106B
102
}
330
106B
100
AcDbXrecord
1000
DSTYLE
1002
{
1070
    79
 70
     2
1070
   341
340
59
1070
   342
340
59
1070
   371
 70
    -1
1070
   372
 70
    -1
1002
}
  0
XRECORD
  5
107A
102
{ACAD_REACTORS
330
106B
102
}
330
106B
100
AcDbXrecord
340
0
  0
XRECORD
  5
107B
102
{ACAD_REACTORS
330
106B
102
}
330
106B
100
AcDbXrecord
 70
     0
  0
XRECORD
  5
107C
102
{ACAD_REACTORS
330
106B
102
}
330
106B
100
AcDbXrecord
340
0
  0
XRECORD
  5
107D
102
{ACAD_REACTORS
330
106B
102
}
330
106B
100
AcDbXrecord
 10
0.0
 20
0.0
 30
0.0
  0
XRECORD
  5
107E
102
{ACAD_REACTORS
330
106B
102
}
330
106B
100
AcDbXrecord
 10
0.0
 20
0.0
 30
0.0
  0
XRECORD
  5
107F
102
{ACAD_REACTORS
330
106B
102
}
330
106B
100
AcDbXrecord
 10
0.0
 20
0.0
 30
0.0
  0
XRECORD
  5
1080
102
{ACAD_REACTORS
330
106B
102
}
330
106B
100
AcDbXrecord
 10
0.0
 20
0.0
 30
0.0
  0
XRECORD
  5
1081
102
{ACAD_REACTORS
330
106B
102
}
330
106B
100
AcDbXrecord
 10
0.0
 20
0.0
 30
0.0
  0
XRECORD
  5
1082
102
{ACAD_REACTORS
330
106B
102
}
330
106B
100
AcDbXrecord
 10
0.0
 20
0.0
 30
0.0
  0
XRECORD
  5
1083
102
{ACAD_REACTORS
330
106B
102
}
330
106B
100
AcDbXrecord
340
0
  0
XRECORD
  5
1084
102
{ACAD_REACTORS
330
106B
102
}
330
106B
100
AcDbXrecord
 70
     0
  0
XRECORD
  5
1085
102
{ACAD_REACTORS
330
106B
102
}
330
106B
100
AcDbXrecord
340
0
  0
XRECORD
  5
1086
102
{ACAD_REACTORS
330
106B
102
}
330
106B
100
AcDbXrecord
 10
0.0
 20
0.0
 30
0.0
  0
XRECORD
  5
1087
102
{ACAD_REACTORS
330
106B
102
}
330
106B
100
AcDbXrecord
 10
0.0
 20
0.0
 30
0.0
  0
XRECORD
  5
1088
102
{ACAD_REACTORS
330
106B
102
}
330
106B
100
AcDbXrecord
 10
0.0
 20
0.0
 30
0.0
  0
XRECORD
  5
1089
102
{ACAD_REACTORS
330
106B
102
}
330
106B
100
AcDbXrecord
 10
0.0
 20
0.0
 30
0.0
  0
XRECORD
  5
108A
102
{ACAD_REACTORS
330
106B
102
}
330
106B
100
AcDbXrecord
 10
0.0
 20
0.0
 30
0.0
  0
XRECORD
  5
108B
102
{ACAD_REACTORS
330
106B
102
}
330
106B
100
AcDbXrecord
 10
0.0
 20
0.0
 30
0.0
  0
LAYER_INDEX
  5
1062
102
{ACAD_REACTORS
330
1061
102
}
330
1061
100
AcDbIndex
 40
2452839.67875831
100
AcDbLayerIndex
  8
0
360
1063
 90
        0
  8
AM_0
360
1064
 90
       54
  8
AM_11
360
1065
 90
        4
  8
AM_7
360
1066
 90
        1
  8
AM_5
360
1067
 90
        4
  8
Defpoints
360
1068
 90
        0
  8
AM_6
360
1069
 90
        1
  0
XRECORD
  5
2D
102
{ACAD_REACTORS
330
2C
102
}
330
2C
100
AcDbXrecord
  1
VERSION
140
15.0
  1
PRODUCT
  2
AutoCAD Mechanical 2000
  0
IDBUFFER
  5
1063
330
0
100
AcDbIdBuffer
  0
IDBUFFER
  5
1064
330
0
100
AcDbIdBuffer
330
C7C
330
C7D
330
C7E
330
C81
330
C85
330
C86
330
C06
330
C07
330
C08
330
C31
330
C32
330
C33
330
C34
330
C35
330
C36
330
C37
330
C38
330
C39
330
C3A
330
C3B
330
C3D
330
C3E
330
C3F
330
C40
330
C41
330
C43
330
C44
330
C46
330
C47
330
C48
330
C49
330
C4A
330
C4B
330
C4C
330
C4D
330
C4E
330
C4F
330
C50
330
C51
330
C52
330
C53
330
C54
330
C55
330
C56
330
C57
330
C58
330
C59
330
C5A
330
C5B
330
C5C
330
C5D
330
C5E
330
C5F
330
C60
  0
IDBUFFER
  5
1065
330
0
100
AcDbIdBuffer
330
C2E
330
C30
330
C7B
330
F0C
  0
IDBUFFER
  5
1066
330
0
100
AcDbIdBuffer
330
C8E
  0
IDBUFFER
  5
1067
330
0
100
AcDbIdBuffer
330
CAE
330
D37
330
DD4
330
FB1
  0
IDBUFFER
  5
1068
330
0
100
AcDbIdBuffer
  0
IDBUFFER
  5
1069
330
0
100
AcDbIdBuffer
330
E76
  0
ENDSEC
  0
EOF
