  0
SECTION
  2
HEADER
  9
$ACADVER
  1
AC1014
  9
$ACADMAINTVER
 70
     9
  9
$DWGCODEPAGE
  3
ANSI_932
  9
$INSBASE
 10
0.0
 20
0.0
 30
0.0
  9
$EXTMIN
 10
-93.1090909108604
 20
-54.50000342364251
 30
-0.00000001
  9
$EXTMAX
 10
20.36184135363247
 20
10.99999984999996
 30
0.00000001
  9
$LIMMIN
 10
-95.40693078006786
 20
-69.09156896297105
  9
$LIMMAX
 10
33.70821789879039
 20
22.54789360372399
  9
$ORTHOMODE
 70
     0
  9
$REGENMODE
 70
     1
  9
$FILLMODE
 70
     1
  9
$QTEXTMODE
 70
     0
  9
$MIRRTEXT
 70
     0
  9
$DRAGMODE
 70
     2
  9
$LTSCALE
 40
1.0
  9
$OSMODE
 70
  2103
  9
$ATTMODE
 70
     1
  9
$TEXTSIZE
 40
2.5
  9
$TRACEWID
 40
1.0
  9
$TEXTSTYLE
  7
STANDARD
  9
$CLAYER
  8
AM_0
  9
$CELTYPE
  6
BYLAYER
  9
$CECOLOR
 62
   256
  9
$CELTSCALE
 40
1.0
  9
$DELOBJ
 70
     1
  9
$DISPSILH
 70
     0
  9
$DIMSCALE
 40
1.0
  9
$DIMASZ
 40
2.5
  9
$DIMEXO
 40
1.0
  9
$DIMDLI
 40
12.0
  9
$DIMRND
 40
0.0
  9
$DIMDLE
 40
0.0
  9
$DIMEXE
 40
1.0
  9
$DIMTP
 40
0.1
  9
$DIMTM
 40
0.1
  9
$DIMTXT
 40
3.2
  9
$DIMCEN
 40
0.0
  9
$DIMTSZ
 40
0.0
  9
$DIMTOL
 70
     0
  9
$DIMLIM
 70
     0
  9
$DIMTIH
 70
     0
  9
$DIMTOH
 70
     0
  9
$DIMSE1
 70
     0
  9
$DIMSE2
 70
     0
  9
$DIMTAD
 70
     3
  9
$DIMZIN
 70
     8
  9
$DIMBLK
  1
OPEN30
  9
$DIMASO
 70
     1
  9
$DIMSHO
 70
     1
  9
$DIMPOST
  1

  9
$DIMAPOST
  1
"
  9
$DIMALT
 70
     0
  9
$DIMALTD
 70
     2
  9
$DIMALTF
 40
0.0393701
  9
$DIMLFAC
 40
1.0
  9
$DIMTOFL
 70
     1
  9
$DIMTVP
 40
0.0
  9
$DIMTIX
 70
     0
  9
$DIMSOXD
 70
     0
  9
$DIMSAH
 70
     0
  9
$DIMBLK1
  1

  9
$DIMBLK2
  1

  9
$DIMSTYLE
  2
AM_JIS
  9
$DIMCLRD
 70
   256
  9
$DIMCLRE
 70
   256
  9
$DIMCLRT
 70
     2
  9
$DIMTFAC
 40
0.71
  9
$DIMGAP
 40
1.5
  9
$DIMJUST
 70
     0
  9
$DIMSD1
 70
     0
  9
$DIMSD2
 70
     0
  9
$DIMTOLJ
 70
     0
  9
$DIMTZIN
 70
     0
  9
$DIMALTZ
 70
     0
  9
$DIMALTTZ
 70
     0
  9
$DIMFIT
 70
     3
  9
$DIMUPT
 70
     0
  9
$DIMUNIT
 70
     2
  9
$DIMDEC
 70
     3
  9
$DIMTDEC
 70
     3
  9
$DIMALTU
 70
     2
  9
$DIMALTTD
 70
     2
  9
$DIMTXSTY
  7
ASAMI
  9
$DIMAUNIT
 70
     0
  9
$LUNITS
 70
     2
  9
$LUPREC
 70
     2
  9
$SKETCHINC
 40
1.0
  9
$FILLETRAD
 40
2.5
  9
$AUNITS
 70
     0
  9
$AUPREC
 70
     0
  9
$MENU
  1
.
  9
$ELEVATION
 40
0.0
  9
$PELEVATION
 40
0.0
  9
$THICKNESS
 40
0.0
  9
$LIMCHECK
 70
     0
  9
$BLIPMODE
 70
     0
  9
$CHAMFERA
 40
0.5
  9
$CHAMFERB
 40
0.5
  9
$CHAMFERC
 40
20.0
  9
$CHAMFERD
 40
0.0
  9
$SKPOLY
 70
     0
  9
$TDCREATE
 40
2452809.375295671
  9
$TDUPDATE
 40
2452839.678845116
  9
$TDINDWG
 40
0.0236592130
  9
$TDUSRTIMER
 40
0.0236590394
  9
$USRTIMER
 70
     1
  9
$ANGBASE
 50
0.0
  9
$ANGDIR
 70
     0
  9
$PDMODE
 70
     0
  9
$PDSIZE
 40
0.0
  9
$PLINEWID
 40
0.0
  9
$COORDS
 70
     2
  9
$SPLFRAME
 70
     0
  9
$SPLINETYPE
 70
     6
  9
$SPLINESEGS
 70
     8
  9
$ATTDIA
 70
     1
  9
$ATTREQ
 70
     1
  9
$HANDLING
 70
 12289
  9
$HANDSEED
  5
118F
  9
$SURFTAB1
 70
     6
  9
$SURFTAB2
 70
     6
  9
$SURFTYPE
 70
     6
  9
$SURFU
 70
     6
  9
$SURFV
 70
     6
  9
$UCSNAME
  2

  9
$UCSORG
 10
0.0
 20
-0.0000000000001137
 30
0.0
  9
$UCSXDIR
 10
1.0
 20
0.0
 30
0.0
  9
$UCSYDIR
 10
0.0
 20
1.0
 30
0.0
  9
$PUCSNAME
  2

  9
$PUCSORG
 10
0.0
 20
0.0
 30
0.0
  9
$PUCSXDIR
 10
1.0
 20
0.0
 30
0.0
  9
$PUCSYDIR
 10
0.0
 20
1.0
 30
0.0
  9
$USERI1
 70
     0
  9
$USERI2
 70
     0
  9
$USERI3
 70
     0
  9
$USERI4
 70
     0
  9
$USERI5
 70
     0
  9
$USERR1
 40
0.0
  9
$USERR2
 40
0.0
  9
$USERR3
 40
0.0
  9
$USERR4
 40
0.0
  9
$USERR5
 40
0.0
  9
$WORLDVIEW
 70
     1
  9
$SHADEDGE
 70
     3
  9
$SHADEDIF
 70
    70
  9
$TILEMODE
 70
     1
  9
$MAXACTVP
 70
    64
  9
$PINSBASE
 10
0.0
 20
0.0
 30
0.0
  9
$PLIMCHECK
 70
     0
  9
$PEXTMIN
 10
1.000000000000000E+20
 20
1.000000000000000E+20
 30
1.000000000000000E+20
  9
$PEXTMAX
 10
-1.000000000000000E+20
 20
-1.000000000000000E+20
 30
-1.000000000000000E+20
  9
$PLIMMIN
 10
0.0
 20
0.0
  9
$PLIMMAX
 10
841.0
 20
594.0
  9
$UNITMODE
 70
     0
  9
$VISRETAIN
 70
     1
  9
$PLINEGEN
 70
     0
  9
$PSLTSCALE
 70
     0
  9
$TREEDEPTH
 70
  3020
  9
$PICKSTYLE
 70
     0
  9
$CMLSTYLE
  2
STANDARD
  9
$CMLJUST
 70
     0
  9
$CMLSCALE
 40
20.0
  9
$PROXYGRAPHICS
 70
     1
  9
$MEASUREMENT
 70
     1
  0
ENDSEC
  0
SECTION
  2
CLASSES
  0
CLASS
  1
ACDBDICTIONARYWDFLT
  2
AcDbDictionaryWithDefault
  3
AutoCAD 2000
 90
        0
280
     0
281
     0
  0
CLASS
  1
ACDBPLACEHOLDER
  2
AcDbPlaceHolder
  3
AutoCAD 2000
 90
        0
280
     0
281
     0
  0
CLASS
  1
LAYOUT
  2
AcDbLayout
  3
AutoCAD 2000
 90
        0
280
     0
281
     0
  0
CLASS
  1
AMGSETTINGSOBJ
  2
AmgSettingsObj
  3
"AcadM|Product Description: AutoCAD Mechanical 2000|Company: Autodesk"
 90
        0
280
     0
281
     0
  0
CLASS
  1
ACME_DOCUMENT
  2
AcMeDbDoc
  3
AcMeServices
 90
        0
280
     0
281
     0
  0
CLASS
  1
ACMESCOPE
  2
AcMeScope
  3
AcMeServices
 90
        0
280
     0
281
     0
  0
CLASS
  1
ACMECOMMANDHISTORY
  2
AcMeCommandHistory
  3
AcMeServices
 90
        0
280
     0
281
     0
  0
CLASS
  1
DICTIONARYVAR
  2
AcDbDictionaryVar
  3
AutoCAD 2000
 90
        0
280
     0
281
     0
  0
CLASS
  1
ACIMSYSVARMAN
  2
AcImSysVarManager
  3
AcMeServices
 90
        0
280
     0
281
     0
  0
CLASS
  1
ACIMREALSYSVAR
  2
AcImRealSysVar
  3
AcMeServices
 90
        0
280
     0
281
     0
  0
CLASS
  1
ACIMINTSYSVAR
  2
AcImIntSysVar
  3
AcMeServices
 90
        0
280
     0
281
     0
  0
CLASS
  1
ACMEDRAWINGMAN
  2
AcMeDrawingMan
  3
AcMeServices
 90
        0
280
     0
281
     0
  0
CLASS
  1
ACMEVIEW
  2
AcMeView
  3
AcMeServices
 90
        0
280
     0
281
     0
  0
CLASS
  1
ACDBENTITYCACHE
  2
AcMeEntityCache
  3
AcMeServices
 90
        0
280
     0
281
     0
  0
CLASS
  1
GSMANAGER
  2
AcMeGSManager
  3
AcMeServices
 90
        0
280
     0
281
     0
  0
CLASS
  1
AmdtInternalReactor
  2
AmdtInternalReactor
  3
AcMeServices
 90
        0
280
     0
281
     0
  0
CLASS
  1
ACMESTATEMGR
  2
AcMeStateMgr
  3
AcMeServices
 90
        0
280
     0
281
     0
  0
CLASS
  1
ACME_DATABASE
  2
AcMeDbDatabase
  3
AcMeServices
 90
        0
280
     0
281
     0
  0
CLASS
  1
ACRFINSADJUSTERMGR
  2
AcRfInsAdjusterMgr
  3
AcMeServices
 90
        0
280
     0
281
     0
  0
CLASS
  1
ACMDATADICTIONARY
  2
AcmDataDictionary
  3
"AcmSymBB|Product Description: AutoCAD Mechanical 2000|Company: Autodesk"
 90
        0
280
     0
281
     0
  0
CLASS
  1
ACMDATAENTRYBLOCK
  2
AcmDataEntryBlock
  3
"AcmSymBB|Product Description: AutoCAD Mechanical 2000|Company: Autodesk"
 90
        0
280
     0
281
     0
  0
CLASS
  1
AMGOBJPROPCFG
  2
AmgObjPropCfg
  3
"AmgLay|Product Description: AutoCAD Mechanical 2000|Company: Autodesk"
 90
        1
280
     0
281
     0
  0
CLASS
  1
ACAMGFILTERDAT
  2
AcAmgFilterDat
  3
"AcadM|Product Description: AutoCAD Mechanical 2000|Company: Autodesk"
 90
        0
280
     0
281
     0
  0
CLASS
  1
LAYER_INDEX
  2
AcDbLayerIndex
  3
AutoCAD 2000
 90
        0
280
     0
281
     0
  0
CLASS
  1
IDBUFFER
  2
AcDbIdBuffer
  3
AutoCAD 2000
 90
        0
280
     0
281
     0
  0
CLASS
  1
ACIMSTRSYSVAR
  2
AcImStrSysVar
  3
AcMeServices
 90
        0
280
     0
281
     0
  0
CLASS
  1
ACMSTANDARDJIS
  2
AcmStandardJIS
  3
"AcmSymBB|Product Description: AutoCAD Mechanical 2000|Company: Autodesk"
 90
        0
280
     0
281
     0
  0
CLASS
  1
ACMSURFSTANDARDJIS
  2
AcmSurfTextStdJIS
  3
"AcmSymBB|Product Description: AutoCAD Mechanical 2000|Company: Autodesk"
 90
        0
280
     0
281
     0
  0
CLASS
  1
ACMFCFSTANDARDJIS
  2
AcmFCFStdJIS
  3
"AcmSymBB|Product Description: AutoCAD Mechanical 2000|Company: Autodesk"
 90
        0
280
     0
281
     0
  0
CLASS
  1
ACMWELDSTANDARDJIS
  2
AcmWeldingStdJIS
  3
"AcmSymBB|Product Description: AutoCAD Mechanical 2000|Company: Autodesk"
 90
        0
280
     0
281
     0
  0
CLASS
  1
ACMIDSTANDARDJIS
  2
AcmIdStdJIS
  3
"AcmSymBB|Product Description: AutoCAD Mechanical 2000|Company: Autodesk"
 90
        0
280
     0
281
     0
  0
CLASS
  1
ACMDATUMSTANDARDJIS
  2
AcmDatumStdJIS
  3
"AcmSymBB|Product Description: AutoCAD Mechanical 2000|Company: Autodesk"
 90
        0
280
     0
281
     0
  0
CLASS
  1
ACMBOMSTANDARDJIS
  2
AcmBOMStdJIS
  3
"AcmSymBB|Product Description: AutoCAD Mechanical 2000|Company: Autodesk"
 90
        0
280
     0
281
     0
  0
CLASS
  1
ACMSTANDARDANSI
  2
AcmStandardANSI
  3
"AcmSymBB|Product Description: AutoCAD Mechanical 2000|Company: Autodesk"
 90
        0
280
     0
281
     0
  0
CLASS
  1
ACMSURFSTANDARDANSI
  2
AcmSurfTextStdANSI
  3
"AcmSymBB|Product Description: AutoCAD Mechanical 2000|Company: Autodesk"
 90
        0
280
     0
281
     0
  0
CLASS
  1
ACMFCFSTANDARDANSI
  2
AcmFCFStdANSI
  3
"AcmSymBB|Product Description: AutoCAD Mechanical 2000|Company: Autodesk"
 90
        0
280
     0
281
     0
  0
CLASS
  1
ACMWELDSTANDARDANSI
  2
AcmWeldingStdANSI
  3
"AcmSymBB|Product Description: AutoCAD Mechanical 2000|Company: Autodesk"
 90
        0
280
     0
281
     0
  0
CLASS
  1
ACMIDSTANDARDANSI
  2
AcmIdStdANSI
  3
"AcmSymBB|Product Description: AutoCAD Mechanical 2000|Company: Autodesk"
 90
        0
280
     0
281
     0
  0
CLASS
  1
ACMDATUMSTANDARDANSI
  2
AcmDatumStdANSI
  3
"AcmSymBB|Product Description: AutoCAD Mechanical 2000|Company: Autodesk"
 90
        0
280
     0
281
     0
  0
CLASS
  1
ACMBOMSTANDARDANSI
  2
AcmBOMStdANSI
  3
"AcmSymBB|Product Description: AutoCAD Mechanical 2000|Company: Autodesk"
 90
        0
280
     0
281
     0
  0
CLASS
  1
ACMSTANDARDBSI
  2
AcmStandardBSI
  3
"AcmSymBB|Product Description: AutoCAD Mechanical 2000|Company: Autodesk"
 90
        0
280
     0
281
     0
  0
CLASS
  1
ACMSURFSTANDARDBSI
  2
AcmSurfTextStdBSI
  3
"AcmSymBB|Product Description: AutoCAD Mechanical 2000|Company: Autodesk"
 90
        0
280
     0
281
     0
  0
CLASS
  1
ACMFCFSTANDARDBSI
  2
AcmFCFStdBSI
  3
"AcmSymBB|Product Description: AutoCAD Mechanical 2000|Company: Autodesk"
 90
        0
280
     0
281
     0
  0
CLASS
  1
ACMWELDSTANDARDBSI
  2
AcmWeldingStdBSI
  3
"AcmSymBB|Product Description: AutoCAD Mechanical 2000|Company: Autodesk"
 90
        0
280
     0
281
     0
  0
CLASS
  1
ACMIDSTANDARDBSI
  2
AcmIdStdBSI
  3
"AcmSymBB|Product Description: AutoCAD Mechanical 2000|Company: Autodesk"
 90
        0
280
     0
281
     0
  0
CLASS
  1
ACMDATUMSTANDARDBSI
  2
AcmDatumStdBSI
  3
"AcmSymBB|Product Description: AutoCAD Mechanical 2000|Company: Autodesk"
 90
        0
280
     0
281
     0
  0
CLASS
  1
ACMBOMSTANDARDBSI
  2
AcmBOMStdBSI
  3
"AcmSymBB|Product Description: AutoCAD Mechanical 2000|Company: Autodesk"
 90
        0
280
     0
281
     0
  0
CLASS
  1
LONG_TRANSACTION
  2
AcDbLongTransaction
  3
AutoCAD 2000
 90
        0
280
     0
281
     0
  0
CLASS
  1
LWPOLYLINE
  2
AcDbPolyline
  3
AutoCAD 2000
 90
        0
280
     0
281
     1
  0
CLASS
  1
HATCH
  2
AcDbHatch
  3
AutoCAD 2000
 90
        0
280
     0
281
     1
  0
CLASS
  1
XRECORD
  2
AcDbXrecord
  3
AutoCAD 2000
 90
        0
280
     0
281
     0
  0
ENDSEC
  0
SECTION
  2
TABLES
  0
TABLE
  2
VPORT
  5
8
330
0
100
AcDbSymbolTable
 70
     3
  0
VPORT
  5
1164
330
8
100
AcDbSymbolTableRecord
100
AcDbViewportTableRecord
  2
*ACTIVE
 70
     0
 10
0.0
 20
0.0
 11
1.0
 21
1.0
 12
-36.37229106220971
 22
-21.75196382164381
 13
0.0
 23
0.0
 14
2.5
 24
2.5
 15
10.0
 25
10.0
 16
0.0
 26
0.0
 36
1.0
 17
0.0
 27
0.0
 37
0.0
 40
72.76153702705825
 41
1.56570841889117
 42
50.0
 43
0.0
 44
0.0
 50
0.0
 51
0.0
 71
     0
 72
   100
 73
     1
 74
     3
 75
     0
 76
     0
 77
     0
 78
     0
  0
ENDTAB
  0
TABLE
  2
LTYPE
  5
5
330
0
100
AcDbSymbolTable
 70
    10
  0
LTYPE
  5
14
330
5
100
AcDbSymbolTableRecord
100
AcDbLinetypeTableRecord
  2
BYBLOCK
 70
     0
  3

 72
    65
 73
     0
 40
0.0
  0
LTYPE
  5
15
330
5
100
AcDbSymbolTableRecord
100
AcDbLinetypeTableRecord
  2
BYLAYER
 70
     0
  3

 72
    65
 73
     0
 40
0.0
  0
LTYPE
  5
16
330
5
100
AcDbSymbolTableRecord
100
AcDbLinetypeTableRecord
  2
CONTINUOUS
 70
     0
  3
Solid line
 72
    65
 73
     0
 40
0.0
  0
LTYPE
  5
4B
330
5
100
AcDbSymbolTableRecord
100
AcDbLinetypeTableRecord
  2
AM_ISO02W050
 70
     0
  3
__ __ __ __ __ __ __ __ __ __ __ __ __ __ __
 72
    65
 73
     2
 40
7.5
 49
6.0
 74
     0
 49
-1.5
 74
     0
  0
LTYPE
  5
4C
330
5
100
AcDbSymbolTableRecord
100
AcDbLinetypeTableRecord
  2
AM_ISO08W050
 70
     0
  3
____ . ____ . ____ . ____ . ____ . ____ . ____
 72
    65
 73
     4
 40
18.0
 49
12.0
 74
     0
 49
-1.5
 74
     0
 49
3.0
 74
     0
 49
-1.5
 74
     0
  0
LTYPE
  5
4D
330
5
100
AcDbSymbolTableRecord
100
AcDbLinetypeTableRecord
  2
AM_ISO09W050
 70
     0
  3
_____ . . _____ . . _____ . . ____ .. ____
 72
    65
 73
     6
 40
22.5
 49
12.0
 74
     0
 49
-1.5
 74
     0
 49
3.0
 74
     0
 49
-1.5
 74
     0
 49
3.0
 74
     0
 49
-1.5
 74
     0
  0
LTYPE
  5
4E
330
5
100
AcDbSymbolTableRecord
100
AcDbLinetypeTableRecord
  2
AMCONSTR
 70
     0
  3
_______________________
 72
    65
 73
     2
 40
9999.0
 49
9999.0
 74
     0
 49
0.0
 74
     0
  0
LTYPE
  5
4F
330
5
100
AcDbSymbolTableRecord
100
AcDbLinetypeTableRecord
  2
AM_ISO02W050X2
 70
     0
  3
 _ _ _ _ _ _ _ _ _ _ _ _
 72
    65
 73
     2
 40
3.75
 49
3.0
 74
     0
 49
-0.75
 74
     0
  0
LTYPE
  5
50
330
5
100
AcDbSymbolTableRecord
100
AcDbLinetypeTableRecord
  2
AM_ISO08W050X2
 70
     0
  3
__ . __ . __ . __ . __ . __
 72
    65
 73
     4
 40
9.0
 49
6.0
 74
     0
 49
-0.75
 74
     0
 49
1.5
 74
     0
 49
-0.75
 74
     0
  0
LTYPE
  5
53
330
5
100
AcDbSymbolTableRecord
100
AcDbLinetypeTableRecord
  2
AMZIGZAG
 70
     0
  3
/\/-/\/-/\/-/\/-/\/-/\/
 72
    65
 73
     2
 40
11.00009999999999
 49
0.0001
 74
     4
 75
   135
340
52
 46
0.04
 50
0.0
 44
0.0
 45
0.0
 49
-11.0
 74
     0
  0
LTYPE
  5
166
330
5
100
AcDbSymbolTableRecord
100
AcDbLinetypeTableRecord
  2
ACJISTGL
 70
     0
  3
_ _ _ _ _
 72
    65
 73
     2
 40
3.0
 49
2.0
 74
     0
 49
-1.0
 74
     0
  0
LTYPE
  5
26A
330
5
100
AcDbSymbolTableRecord
100
AcDbLinetypeTableRecord
  2
ACJISTGB
 70
     0
  3
__ . . __ . .
 72
    65
 73
     6
 40
9.0
 49
4.0
 74
     0
 49
-1.0
 74
     0
 49
1.0
 74
     0
 49
-1.0
 74
     0
 49
1.0
 74
     0
 49
-1.0
 74
     0
  0
ENDTAB
  0
TABLE
  2
LAYER
  5
2
330
0
100
AcDbSymbolTable
 70
     7
  0
LAYER
  5
10
330
2
100
AcDbSymbolTableRecord
100
AcDbLayerTableRecord
  2
0
 70
     0
 62
     7
  6
CONTINUOUS
  0
LAYER
  5
3F9
330
2
100
AcDbSymbolTableRecord
100
AcDbLayerTableRecord
  2
AM_0
 70
     0
 62
     7
  6
CONTINUOUS
  0
LAYER
  5
BA4
330
2
100
AcDbSymbolTableRecord
100
AcDbLayerTableRecord
  2
AM_11
 70
     0
 62
     3
  6
AM_ISO09W050
  0
LAYER
  5
BA5
330
2
100
AcDbSymbolTableRecord
100
AcDbLayerTableRecord
  2
AM_7
 70
     0
 62
     4
  6
AM_ISO08W050
  0
LAYER
  5
CAD
330
2
100
AcDbSymbolTableRecord
100
AcDbLayerTableRecord
  2
AM_5
 70
     0
 62
     3
  6
CONTINUOUS
  0
LAYER
  5
CAF
330
2
100
AcDbSymbolTableRecord
100
AcDbLayerTableRecord
  2
DEFPOINTS
 70
     0
 62
     7
  6
CONTINUOUS
  0
LAYER
  5
E75
330
2
100
AcDbSymbolTableRecord
100
AcDbLayerTableRecord
  2
AM_6
 70
     0
 62
     2
  6
CONTINUOUS
  0
ENDTAB
  0
TABLE
  2
STYLE
  5
3
330
0
100
AcDbSymbolTable
 70
     5
  0
STYLE
  5
11
330
3
100
AcDbSymbolTableRecord
100
AcDbTextStyleTableRecord
  2
STANDARD
 70
     0
 40
0.0
 41
1.0
 50
0.0
 71
     0
 42
2.5
  3
simplex.shx
  4
EXTFONT.SHX
  0
STYLE
  5
52
330
3
100
AcDbSymbolTableRecord
100
AcDbTextStyleTableRecord
  2

 70
     1
 40
0.0
 41
1.0
 50
0.0
 71
     0
 42
2.5
  3
ltypeshp.shx
  4

  0
STYLE
  5
6B
330
3
100
AcDbSymbolTableRecord
100
AcDbTextStyleTableRecord
  2
ASAMI
 70
     0
 40
0.0
 41
1.0
 50
0.0
 71
     0
 42
2.5
  3
simplex.shx
  4
EXTFONT.SHX
  0
STYLE
  5
262
330
3
100
AcDbSymbolTableRecord
100
AcDbTextStyleTableRecord
  2
ACJISTS
 70
     0
 40
1.0
 41
1.0
 50
0.0
 71
     0
 42
2.5
  3
simplex.shx
  4
bigfont.shx
  0
STYLE
  5
269
330
3
100
AcDbSymbolTableRecord
100
AcDbTextStyleTableRecord
  2
ACJISGDT
 70
     0
 40
0.0
 41
1.0
 50
0.0
 71
     0
 42
2.5
  3
amgdtans.shx
  4

  0
ENDTAB
  0
TABLE
  2
VIEW
  5
6
330
0
100
AcDbSymbolTable
 70
     0
  0
ENDTAB
  0
TABLE
  2
UCS
  5
7
330
0
100
AcDbSymbolTable
 70
     0
  0
ENDTAB
  0
TABLE
  2
APPID
  5
9
330
0
100
AcDbSymbolTable
 70
    12
  0
APPID
  5
12
330
9
100
AcDbSymbolTableRecord
100
AcDbRegAppTableRecord
  2
ACAD
 70
     0
  0
APPID
  5
30
330
9
100
AcDbSymbolTableRecord
100
AcDbRegAppTableRecord
  2
MCAD_NO_VIS
 70
     0
  0
APPID
  5
31
330
9
100
AcDbSymbolTableRecord
100
AcDbRegAppTableRecord
  2
ACAD_TEMP_GRAPHIC
 70
     0
  0
APPID
  5
2C2
330
9
100
AcDbSymbolTableRecord
100
AcDbRegAppTableRecord
  2
GENIUS_GENDTOL_13
 70
     0
  0
APPID
  5
339
330
9
100
AcDbSymbolTableRecord
100
AcDbRegAppTableRecord
  2
GENIUS_GENODEF_13
 70
     0
  0
APPID
  5
33A
330
9
100
AcDbSymbolTableRecord
100
AcDbRegAppTableRecord
  2
GENIUS_GENOBJ-N-RSBK_13
 70
     0
  0
APPID
  5
33B
330
9
100
AcDbSymbolTableRecord
100
AcDbRegAppTableRecord
  2
GENIUS_GENOBJ-N-LIB_13
 70
     0
  0
APPID
  5
33C
330
9
100
AcDbSymbolTableRecord
100
AcDbRegAppTableRecord
  2
GENIUS_GENSCALE_13
 70
     0
  0
APPID
  5
378
330
9
100
AcDbSymbolTableRecord
100
AcDbRegAppTableRecord
  2
GENIUS_GENDIMSH_14
 70
     0
  0
APPID
  5
BA6
330
9
100
AcDbSymbolTableRecord
100
AcDbRegAppTableRecord
  2
GENIUS_GENOBJ-N-CEN_13
 70
     0
  0
APPID
  5
C82
330
9
100
AcDbSymbolTableRecord
100
AcDbRegAppTableRecord
  2
GENIUS_GENFIL_13
 70
     0
  0
APPID
  5
C83
330
9
100
AcDbSymbolTableRecord
100
AcDbRegAppTableRecord
  2
GENIUS_GENOBJ-N-CHA_13
 70
     0
  0
ENDTAB
  0
TABLE
  2
DIMSTYLE
  5
A
330
0
100
AcDbSymbolTable
 70
     8
  0
DIMSTYLE
105
58
102
{ACAD_REACTORS
330
F12
330
F25
330
F55
330
10BA
102
}
330
A
100
AcDbSymbolTableRecord
100
AcDbDimStyleTableRecord
  2
AM_JIS
 70
     0
  3

  4
"
  5
OPEN30
  6

  7

 40
1.0
 41
2.5
 42
1.0
 43
12.0
 44
1.0
 45
0.0
 46
0.0
 47
0.1
 48
0.1
140
3.2
141
0.0
142
0.0
143
0.0393701
144
1.0
145
0.0
146
0.71
147
1.5
 71
     0
 72
     0
 73
     0
 74
     0
 75
     0
 76
     0
 77
     3
 78
     8
170
     0
171
     2
172
     1
173
     0
174
     0
175
     0
176
   256
177
   256
178
     2
270
     2
271
     3
272
     3
273
     2
274
     2
340
6B
275
     0
280
     0
281
     0
282
     0
283
     0
284
     0
285
     0
286
     0
287
     3
288
     0
  0
DIMSTYLE
105
5F
330
A
100
AcDbSymbolTableRecord
100
AcDbDimStyleTableRecord
  2
AM_JIS$3
 70
     0
  3

  4
"
  5
OPEN30
  6

  7

 40
1.0
 41
2.5
 42
1.0
 43
10.0
 44
1.0
 45
0.0
 46
0.0
 47
0.1
 48
0.1
140
3.2
141
0.0
142
0.0
143
0.0393701
144
1.0
145
0.0
146
0.71
147
1.5
 71
     0
 72
     0
 73
     0
 74
     1
 75
     0
 76
     0
 77
     3
 78
     8
170
     0
171
     2
172
     0
173
     0
174
     0
175
     0
176
   256
177
   256
178
     2
270
     2
271
     2
272
     3
273
     2
274
     2
340
6B
275
     0
280
     0
281
     0
282
     0
283
     0
284
     0
285
     0
286
     0
287
     0
288
     1
  0
DIMSTYLE
105
60
330
A
100
AcDbSymbolTableRecord
100
AcDbDimStyleTableRecord
  2
AM_JIS$4
 70
     0
  3

  4
"
  5
OPEN30
  6

  7

 40
1.0
 41
2.5
 42
1.0
 43
10.0
 44
1.0
 45
0.0
 46
0.0
 47
0.1
 48
0.1
140
3.2
141
0.0
142
0.0
143
0.0393701
144
1.0
145
0.0
146
0.71
147
1.5
 71
     0
 72
     0
 73
     0
 74
     1
 75
     0
 76
     0
 77
     3
 78
     8
170
     0
171
     2
172
     0
173
     0
174
     0
175
     0
176
   256
177
   256
178
     2
270
     2
271
     2
272
     3
273
     2
274
     2
340
6B
275
     0
280
     0
281
     0
282
     0
283
     0
284
     0
285
     0
286
     0
287
     0
288
     1
  0
DIMSTYLE
105
61
330
A
100
AcDbSymbolTableRecord
100
AcDbDimStyleTableRecord
  2
AM_JIS$6
 70
     0
  3

  4
"
  5
OPEN30
  6

  7

 40
1.0
 41
2.5
 42
1.0
 43
10.0
 44
1.0
 45
0.0
 46
0.0
 47
0.1
 48
0.1
140
3.2
141
0.0
142
0.0
143
0.0393701
144
1.0
145
0.0
146
0.71
147
1.5
 71
     0
 72
     0
 73
     0
 74
     0
 75
     0
 76
     0
 77
     0
 78
     8
170
     0
171
     2
172
     1
173
     0
174
     0
175
     0
176
   256
177
   256
178
     2
270
     2
271
     2
272
     2
273
     2
274
     2
340
6B
275
     0
280
     0
281
     0
282
     0
283
     0
284
     0
285
     0
286
     0
287
     3
288
     0
  0
DIMSTYLE
105
62
330
A
100
AcDbSymbolTableRecord
100
AcDbDimStyleTableRecord
  2
AM_JIS$7
 70
     0
  3

  4
"
  5
OPEN30
  6

  7

 40
1.0
 41
2.5
 42
1.0
 43
10.0
 44
1.0
 45
0.0
 46
0.0
 47
0.1
 48
0.1
140
3.2
141
0.0
142
0.0
143
0.0393701
144
1.0
145
0.0
146
0.71
147
1.5
 71
     0
 72
     0
 73
     0
 74
     0
 75
     0
 76
     0
 77
     3
 78
     8
170
     0
171
     2
172
     1
173
     0
174
     0
175
     0
176
   256
177
   256
178
     2
270
     2
271
     2
272
     3
273
     2
274
     2
340
6B
275
     0
280
     0
281
     0
282
     0
283
     0
284
     0
285
     0
286
     0
287
     3
288
     0
  0
DIMSTYLE
105
63
330
A
100
AcDbSymbolTableRecord
100
AcDbDimStyleTableRecord
  2
AM_JIS$SF
 70
     0
  3

  4
"
  5
OPEN30
  6

  7

 40
1.0
 41
2.5
 42
1.0
 43
10.0
 44
1.0
 45
0.0
 46
0.0
 47
0.1
 48
0.1
140
3.2
141
0.0
142
0.0
143
0.0393701
144
1.0
145
0.0
146
0.71
147
1.5
 71
     0
 72
     0
 73
     0
 74
     0
 75
     1
 76
     1
 77
     3
 78
     8
170
     0
171
     2
172
     1
173
     0
174
     0
175
     0
176
   256
177
   256
178
     2
270
     2
271
     2
272
     2
273
     2
274
     2
340
6B
275
     0
280
     0
281
     0
282
     0
283
     0
284
     0
285
     0
286
     0
287
     3
288
     0
  0
DIMSTYLE
105
68
330
A
100
AcDbSymbolTableRecord
100
AcDbDimStyleTableRecord
  2
AM_JIS$SH
 70
     0
  3

  4
"
  5

  6
GENAXEH
  7
OPEN30
 40
1.0
 41
2.5
 42
1.0
 43
10.0
 44
1.0
 45
0.0
 46
0.0
 47
0.1
 48
0.1
140
3.2
141
0.0
142
0.0
143
0.0393701
144
2.0
145
0.0
146
0.71
147
1.5
 71
     0
 72
     0
 73
     0
 74
     0
 75
     1
 76
     1
 77
     3
 78
     8
170
     0
171
     2
172
     1
173
     1
174
     0
175
     0
176
   256
177
   256
178
     2
270
     2
271
     2
272
     2
273
     2
274
     2
340
6B
275
     0
280
     0
281
     0
282
     0
283
     0
284
     0
285
     0
286
     0
287
     3
288
     0
  0
DIMSTYLE
105
B34
330
A
100
AcDbSymbolTableRecord
100
AcDbDimStyleTableRecord
  2
AM_JIS$2
 70
     0
  3

  4
"
  5
OPEN30
  6

  7

 40
1.0
 41
2.5
 42
1.0
 43
12.0
 44
1.0
 45
0.0
 46
0.0
 47
0.1
 48
0.1
140
3.2
141
0.0
142
0.0
143
0.0393701
144
1.0
145
0.0
146
0.71
147
1.5
 71
     0
 72
     0
 73
     0
 74
     0
 75
     0
 76
     0
 77
     3
 78
     8
170
     0
171
     2
172
     1
173
     0
174
     0
175
     0
176
   256
177
   256
178
     2
270
     2
271
     3
272
     3
273
     2
274
     2
340
6B
275
     0
280
     0
281
     0
282
     0
283
     0
284
     0
285
     0
286
     0
287
     3
288
     0
  0
ENDTAB
  0
TABLE
  2
BLOCK_RECORD
  5
1
330
0
100
AcDbSymbolTable
 70
     9
  0
BLOCK_RECORD
  5
1F
102
{ACAD_XDICTIONARY
360
74
102
}
330
1
100
AcDbSymbolTableRecord
100
AcDbBlockTableRecord
  2
*MODEL_SPACE
  0
BLOCK_RECORD
  5
101
102
{ACAD_XDICTIONARY
360
118D
102
}
330
1
100
AcDbSymbolTableRecord
100
AcDbBlockTableRecord
  2
*PAPER_SPACE
  0
BLOCK_RECORD
  5
59
330
1
100
AcDbSymbolTableRecord
100
AcDbBlockTableRecord
  2
_OPEN30
  0
BLOCK_RECORD
  5
64
330
1
100
AcDbSymbolTableRecord
100
AcDbBlockTableRecord
  2
GENAXEH
  0
BLOCK_RECORD
  5
F13
330
1
100
AcDbSymbolTableRecord
100
AcDbBlockTableRecord
  2
*D5
  0
BLOCK_RECORD
  5
F26
330
1
100
AcDbSymbolTableRecord
100
AcDbBlockTableRecord
  2
*D6
  0
BLOCK_RECORD
  5
F56
330
1
100
AcDbSymbolTableRecord
100
AcDbBlockTableRecord
  2
*D7
  0
BLOCK_RECORD
  5
10BB
330
1
100
AcDbSymbolTableRecord
100
AcDbBlockTableRecord
  2
*D8
  0
ENDTAB
  0
ENDSEC
  0
SECTION
  2
BLOCKS
  0
BLOCK
  5
20
330
1F
100
AcDbEntity
  8
0
100
AcDbBlockBegin
  2
*MODEL_SPACE
 70
     0
 10
0.0
 20
0.0
 30
0.0
  3
*MODEL_SPACE
  1

  0
ENDBLK
  5
21
330
1F
100
AcDbEntity
  8
0
100
AcDbBlockEnd
  0
BLOCK
  5
103
330
101
100
AcDbEntity
 67
     1
  8
0
100
AcDbBlockBegin
  2
*PAPER_SPACE
 70
     0
 10
0.0
 20
0.0
 30
0.0
  3
*PAPER_SPACE
  1

  0
ENDBLK
  5
104
330
101
100
AcDbEntity
 67
     1
  8
0
100
AcDbBlockEnd
  0
BLOCK
  5
5D
330
59
100
AcDbEntity
  8
0
100
AcDbBlockBegin
  2
_OPEN30
 70
     0
 10
0.0
 20
0.0
 30
0.0
  3
_OPEN30
  1

  0
LINE
  5
5A
330
59
100
AcDbEntity
  8
0
 62
     0
100
AcDbLine
 10
-1.0
 20
0.26794919
 30
0.0
 11
0.0
 21
0.0
 31
0.0
  0
LINE
  5
5B
330
59
100
AcDbEntity
  8
0
 62
     0
100
AcDbLine
 10
0.0
 20
0.0
 30
0.0
 11
-1.0
 21
-0.26794919
 31
0.0
  0
LINE
  5
5C
330
59
100
AcDbEntity
  8
0
 62
     0
100
AcDbLine
 10
0.0
 20
0.0
 30
0.0
 11
-1.0
 21
0.0
 31
0.0
  0
ENDBLK
  5
5E
330
59
100
AcDbEntity
  8
0
100
AcDbBlockEnd
  0
BLOCK
  5
66
330
64
100
AcDbEntity
  8
0
100
AcDbBlockBegin
  2
GENAXEH
 70
     0
 10
0.0
 20
0.0
 30
0.0
  3
GENAXEH
  1

  0
LINE
  5
65
330
64
100
AcDbEntity
  8
0
100
AcDbLine
 10
-1.0
 20
0.0
 30
0.0
 11
1.0
 21
0.0
 31
0.0
  0
ENDBLK
  5
67
330
64
100
AcDbEntity
  8
0
100
AcDbBlockEnd
  0
BLOCK
  5
F1D
330
F13
100
AcDbEntity
  8
0
100
AcDbBlockBegin
  2
*D5
 70
     1
 10
0.0
 20
0.0
 30
0.0
  3
*D5
  1

  0
LINE
  5
1028
330
F13
100
AcDbEntity
  8
AM_5
100
AcDbLine
 10
-26.0
 20
-6.994332589322475
 30
0.0
 11
-26.0
 21
-21.00000342364251
 31
0.0
  0
LINE
  5
1029
330
F13
100
AcDbEntity
  8
AM_5
100
AcDbLine
 10
-0.0000000000000001
 20
-6.999999850000198
 30
0.0
 11
-0.0000000000000009
 21
-21.00000342364251
 31
0.0
  0
LINE
  5
102A
330
F13
100
AcDbEntity
  8
AM_5
100
AcDbLine
 10
-23.5
 20
-20.00000342364252
 30
0.0
 11
-2.5
 21
-20.00000342364252
 31
0.0
  0
INSERT
  5
102B
330
F13
100
AcDbEntity
  8
AM_5
100
AcDbBlockReference
  2
_OPEN30
 10
-26.0
 20
-20.00000342364252
 30
0.0
 41
2.5
 42
2.5
 43
2.5
 50
180.0
  0
INSERT
  5
102C
330
F13
100
AcDbEntity
  8
AM_5
100
AcDbBlockReference
  2
_OPEN30
 10
-0.0000000000000009
 20
-20.00000342364252
 30
0.0
 41
2.5
 42
2.5
 43
2.5
  0
MTEXT
  5
102D
330
F13
100
AcDbEntity
  8
AM_5
 62
     2
100
AcDbMText
 10
-13.0
 20
-16.90000342364251
 30
0.0
 40
3.2
 41
0.0
 71
     5
 72
     1
  1
26
  7
ASAMI
1001
ACAD
1000
MTEXTBEGIN
1070
    73
1070
     1
1070
    44
1040
1.0
1070
    74
1070
     0
1000
MTEXTEND
  0
POINT
  5
102E
330
F13
100
AcDbEntity
  8
DEFPOINTS
 62
     0
100
AcDbPoint
 10
-26.0
 20
-5.994332589322475
 30
0.0
  0
POINT
  5
102F
330
F13
100
AcDbEntity
  8
DEFPOINTS
 62
     0
100
AcDbPoint
 10
0.0
 20
-5.999999850000198
 30
0.0
  0
POINT
  5
1030
330
F13
100
AcDbEntity
  8
DEFPOINTS
 62
     0
100
AcDbPoint
 10
-0.0000000000000009
 20
-20.00000342364252
 30
0.0
  0
ENDBLK
  5
F1E
330
F13
100
AcDbEntity
  8
0
100
AcDbBlockEnd
  0
BLOCK
  5
F32
330
F26
100
AcDbEntity
  8
0
100
AcDbBlockBegin
  2
*D6
 70
     1
 10
0.0
 20
0.0
 30
0.0
  3
*D6
  1

  0
LINE
  5
1031
330
F26
100
AcDbEntity
  8
AM_5
100
AcDbLine
 10
1.0
 20
-5.999999850000198
 30
0.0
 11
20.36184135363247
 21
-5.999999850000204
 31
0.0
  0
LINE
  5
1032
330
F26
100
AcDbEntity
  8
AM_5
100
AcDbLine
 10
1.0
 20
5.999999849999971
 30
0.0
 11
20.36184135363247
 21
5.999999849999966
 31
0.0
  0
LINE
  5
1033
330
F26
100
AcDbEntity
  8
AM_5
100
AcDbLine
 10
19.36184135363246
 20
-8.499999850000204
 30
0.0
 11
19.36184135363246
 21
-10.9999998500002
 31
0.0
  0
LINE
  5
1034
330
F26
100
AcDbEntity
  8
AM_5
100
AcDbLine
 10
19.36184135363247
 20
8.499999849999966
 30
0.0
 11
19.36184135363247
 21
10.99999984999996
 31
0.0
  0
LINE
  5
1035
330
F26
100
AcDbEntity
  8
AM_5
100
AcDbLine
 10
19.36184135363247
 20
-5.999999850000204
 30
0.0
 11
19.36184135363247
 21
5.999999849999966
 31
0.0
  0
INSERT
  5
1036
330
F26
100
AcDbEntity
  8
AM_5
100
AcDbBlockReference
  2
_OPEN30
 10
19.36184135363247
 20
-5.999999850000204
 30
0.0
 41
2.5
 42
2.5
 43
2.5
 50
90.0
  0
INSERT
  5
1037
330
F26
100
AcDbEntity
  8
AM_5
100
AcDbBlockReference
  2
_OPEN30
 10
19.36184135363247
 20
5.999999849999966
 30
0.0
 41
2.5
 42
2.5
 43
2.5
 50
270.0
  0
MTEXT
  5
1038
330
F26
100
AcDbEntity
  8
AM_5
 62
     2
100
AcDbMText
 10
16.26184135363247
 20
-0.0000000000001163
 30
0.0
 40
3.2
 41
0.0
 71
     5
 72
     1
  1
%%c12
  7
ASAMI
 11
0.0000000000000001
 21
1.0
 31
0.0
1001
ACAD
1000
MTEXTBEGIN
1070
    73
1070
     1
1070
    44
1040
1.0
1070
    74
1070
     0
1000
MTEXTEND
  0
POINT
  5
1039
330
F26
100
AcDbEntity
  8
DEFPOINTS
 62
     0
100
AcDbPoint
 10
0.0
 20
-5.999999850000198
 30
0.0
  0
POINT
  5
103A
330
F26
100
AcDbEntity
  8
DEFPOINTS
 62
     0
100
AcDbPoint
 10
0.0
 20
5.999999849999971
 30
0.0
  0
POINT
  5
103B
330
F26
100
AcDbEntity
  8
DEFPOINTS
 62
     0
100
AcDbPoint
 10
19.36184135363247
 20
5.999999849999966
 30
0.0
  0
ENDBLK
  5
F33
330
F26
100
AcDbEntity
  8
0
100
AcDbBlockEnd
  0
BLOCK
  5
F60
330
F56
100
AcDbEntity
  8
0
100
AcDbBlockBegin
  2
*D7
 70
     1
 10
0.0
 20
0.0
 30
0.0
  3
*D7
  1

  0
LINE
  5
101F
330
F56
100
AcDbEntity
  8
AM_5
100
AcDbLine
 10
-75.0
 20
-6.399999850000062
 30
0.0
 11
-75.0
 21
-33.00000342364251
 31
0.0
  0
LINE
  5
1020
330
F56
100
AcDbEntity
  8
AM_5
100
AcDbLine
 10
-0.0000000000000001
 20
-6.999999850000198
 30
0.0
 11
-0.0000000000000017
 21
-33.00000342364251
 31
0.0
  0
LINE
  5
1021
330
F56
100
AcDbEntity
  8
AM_5
100
AcDbLine
 10
-72.5
 20
-32.00000342364251
 30
0.0
 11
-2.500000000000001
 21
-32.00000342364251
 31
0.0
  0
INSERT
  5
1022
330
F56
100
AcDbEntity
  8
AM_5
100
AcDbBlockReference
  2
_OPEN30
 10
-75.0
 20
-32.00000342364251
 30
0.0
 41
2.5
 42
2.5
 43
2.5
 50
180.0
  0
INSERT
  5
1023
330
F56
100
AcDbEntity
  8
AM_5
100
AcDbBlockReference
  2
_OPEN30
 10
-0.0000000000000016
 20
-32.00000342364251
 30
0.0
 41
2.5
 42
2.5
 43
2.5
  0
MTEXT
  5
1024
330
F56
100
AcDbEntity
  8
AM_5
 62
     2
100
AcDbMText
 10
-37.5
 20
-28.90000342364251
 30
0.0
 40
3.2
 41
0.0
 71
     5
 72
     1
  1
75
  7
ASAMI
1001
ACAD
1000
MTEXTBEGIN
1070
    73
1070
     1
1070
    44
1040
1.0
1070
    74
1070
     0
1000
MTEXTEND
  0
POINT
  5
1025
330
F56
100
AcDbEntity
  8
DEFPOINTS
 62
     0
100
AcDbPoint
 10
-75.0
 20
-5.399999850000062
 30
0.0
  0
POINT
  5
1026
330
F56
100
AcDbEntity
  8
DEFPOINTS
 62
     0
100
AcDbPoint
 10
0.0
 20
-5.999999850000198
 30
0.0
  0
POINT
  5
1027
330
F56
100
AcDbEntity
  8
DEFPOINTS
 62
     0
100
AcDbPoint
 10
-0.0000000000000016
 20
-32.00000342364251
 30
0.0
  0
ENDBLK
  5
F61
330
F56
100
AcDbEntity
  8
0
100
AcDbBlockEnd
  0
BLOCK
  5
10C5
330
10BB
100
AcDbEntity
  8
0
100
AcDbBlockBegin
  2
*D8
 70
     1
 10
0.0
 20
0.0
 30
0.0
  3
*D8
  1

  0
LINE
  5
1134
330
10BB
100
AcDbEntity
  8
AM_5
100
AcDbLine
 10
-75.40909091458501
 20
-5.999918031002536
 30
0.0
 11
-89.40909091086039
 21
-5.999918031002533
 31
0.0
  0
LINE
  5
1135
330
10BB
100
AcDbEntity
  8
AM_5
100
AcDbLine
 10
-75.40909090909091
 20
5.999999850000108
 30
0.0
 11
-89.40909091086039
 21
5.999999850000111
 31
0.0
  0
LINE
  5
1136
330
10BB
100
AcDbEntity
  8
AM_5
100
AcDbLine
 10
-88.40909091086039
 20
-3.499918031002533
 30
0.0
 11
-88.40909091086039
 21
3.499999850000111
 31
0.0
  0
INSERT
  5
1137
330
10BB
100
AcDbEntity
  8
AM_5
100
AcDbBlockReference
  2
_OPEN30
 10
-88.40909091086039
 20
-5.999918031002533
 30
0.0
 41
2.5
 42
2.5
 43
2.5
 50
270.0
  0
INSERT
  5
1138
330
10BB
100
AcDbEntity
  8
AM_5
100
AcDbBlockReference
  2
_OPEN30
 10
-88.40909091086039
 20
5.999999850000111
 30
0.0
 41
2.5
 42
2.5
 43
2.5
 50
90.0
  0
MTEXT
  5
1139
330
10BB
100
AcDbEntity
  8
AM_5
 62
     2
100
AcDbMText
 10
-91.5090909108604
 20
0.0000409094987757
 30
0.0
 40
3.2
 41
0.0
 71
     5
 72
     1
  1
%%c12
  7
ASAMI
 11
0.0000000000000001
 21
1.0
 31
0.0
1001
ACAD
1000
MTEXTBEGIN
1070
    73
1070
     1
1070
    44
1040
1.0
1070
    74
1070
     0
1000
MTEXTEND
  0
POINT
  5
113A
330
10BB
100
AcDbEntity
  8
DEFPOINTS
 62
     0
100
AcDbPoint
 10
-74.409090914585
 20
-5.999918031002536
 30
0.0
  0
POINT
  5
113B
330
10BB
100
AcDbEntity
  8
DEFPOINTS
 62
     0
100
AcDbPoint
 10
-74.40909090909091
 20
5.999999850000108
 30
0.0
  0
POINT
  5
113C
330
10BB
100
AcDbEntity
  8
DEFPOINTS
 62
     0
100
AcDbPoint
 10
-88.40909091086039
 20
5.999999850000111
 30
0.0
  0
ENDBLK
  5
10C6
330
10BB
100
AcDbEntity
  8
0
100
AcDbBlockEnd
  0
ENDSEC
  0
SECTION
  2
ENTITIES
  0
TEXT
  5
E76
330
1F
100
AcDbEntity
  8
AM_6
100
AcDbText
 10
-57.85714285714286
 20
-54.50000342364251
 30
0.0
 40
5.0
  1
GLM4120SF
 72
     1
 11
-37.5
 21
-52.00000342364251
 31
0.0
100
AcDbText
 73
     2
  0
LINE
  5
EFF
330
1F
100
AcDbEntity
  8
AM_0
100
AcDbLine
 10
0.0
 20
-0.0000000000001137
 30
0.0
 11
-0.1453319958881862
 21
1.049999973749822
 31
0.0
  0
LINE
  5
F00
330
1F
100
AcDbEntity
  8
AM_0
100
AcDbLine
 10
-0.0726659979438244
 20
-1.160388614042471
 30
0.0
 11
-0.1453319958881862
 21
-1.58517283893268
 31
0.0
  0
LINE
  5
F01
330
1F
100
AcDbEntity
  8
AM_0
100
AcDbLine
 10
-0.0726659979438244
 20
-0.1499999962499487
 30
0.0
 11
-0.0726659979438244
 21
-1.160388614042471
 31
0.0
  0
LINE
  5
F02
330
1F
100
AcDbEntity
  8
AM_0
100
AcDbLine
 10
-2.24728926888991
 20
-0.1499999962499487
 30
0.0
 11
-0.0726659979438244
 21
-0.1499999962499487
 31
0.0
  0
LINE
  5
F03
330
1F
100
AcDbEntity
  8
AM_0
100
AcDbLine
 10
-0.1453319958881862
 20
1.049999973749822
 30
0.0
 11
-1.527774508490851
 21
3.481298500587604
 31
0.0
  0
ELLIPSE
  5
F04
330
1F
100
AcDbEntity
  8
AM_0
100
AcDbEllipse
 10
-2.247289268889926
 20
-0.8699999782500299
 30
0.0
 11
0.0000000000000097
 21
0.7199999820000063
 31
0.0
210
0.0
220
0.0
230
1.0
 40
0.9848484848484854
 41
0.0000000000000135
 42
2.730617453388607
  0
ELLIPSE
  5
F05
330
1F
100
AcDbEntity
  8
AM_0
100
AcDbEllipse
 10
-31.18649195343337
 20
2.043095552259785
 30
0.0
 11
0.000000000000075
 21
3.917337706306227
 31
0.0
210
0.0
220
0.0
230
1.0
 40
0.984848484848484
 41
-0.1176260625675101
 42
0.612886367628319
  0
LINE
  5
F06
330
1F
100
AcDbEntity
  8
AM_0
100
AcDbLine
 10
-29.54545454545455
 20
-1.511611224792227
 30
0.0
 11
-29.54545454545455
 21
-0.2930004660618351
 31
0.0
  0
LINE
  5
F07
330
1F
100
AcDbEntity
  8
AM_0
100
AcDbLine
 10
-31.02272727272727
 20
0.0000000000000227
 30
0.0
 11
-31.02272727272727
 21
2.377478265376453
 31
0.0
  0
ELLIPSE
  5
F08
330
1F
100
AcDbEntity
  8
AM_0
100
AcDbEllipse
 10
-33.65455115291245
 20
3.513562767378118
 30
0.0
 11
0.0000000000000966
 21
1.375298318148395
 31
0.0
210
0.0
220
0.0
230
1.0
 40
0.9848484848484808
 41
0.5157909989585919
 42
2.610186101354912
  0
ELLIPSE
  5
F09
330
1F
100
AcDbEntity
  8
AM_0
100
AcDbEllipse
 10
-32.17298228263563
 20
-3.186563571073417
 30
0.0
 11
-0.0000000000000085
 21
2.767660101554062
 31
0.0
210
0.0
220
0.0
230
1.0
 40
0.9848484848484828
 41
-0.5562700788786728
 42
0.5778980406257253
  0
LINE
  5
F0A
330
1F
100
AcDbEntity
  8
AM_0
100
AcDbLine
 10
-34.34091914984959
 20
-1.266370321530644
 30
0.0
 11
-33.40572352960684
 21
-0.7181281793140215
 31
0.0
  0
LINE
  5
F0B
330
1F
100
AcDbEntity
  8
AM_0
100
AcDbLine
 10
-34.34091914985497
 20
4.699200788551229
 30
0.0
 11
-33.40572352960684
 21
5.24744293077058
 31
0.0
  0
LINE
  5
F0C
330
1F
100
AcDbEntity
  8
AM_11
100
AcDbLine
 10
-0.0000000000000036
 20
6.000002423642563
 30
0.0
 11
-26.0
 21
5.9943325893223
 31
0.0
  0
ELLIPSE
  5
F0D
330
1F
100
AcDbEntity
  8
AM_0
100
AcDbEllipse
 10
-5.385193117352727
 20
-2.356470874425735
 30
0.0
 11
-0.0000000000001717
 21
4.184755973465185
 31
0.0
210
0.0
220
0.0
230
1.0
 40
0.9848484848484886
 41
4.35256789305717
 42
4.725555131914788
  0
LINE
  5
F0E
330
1F
100
AcDbEntity
  8
AM_0
100
AcDbLine
 10
-0.1453319958881862
 20
-5.640873519894443
 30
0.0
 11
-1.527774508490851
 21
-3.829951841381239
 31
0.0
  0
LINE
  5
F0F
330
1F
100
AcDbEntity
  8
AM_0
100
AcDbLine
 10
-0.1453319958881862
 20
-5.640873519894443
 30
0.0
 11
0.0
 21
-5.999999850000198
 31
0.0
  0
LINE
  5
F10
330
1F
100
AcDbEntity
  8
AM_0
100
AcDbLine
 10
-31.02272727272727
 20
-4.601679763177958
 30
0.0
 11
-31.02272727272727
 21
-5.955316494970861
 31
0.0
  0
LINE
  5
F11
330
1F
100
AcDbEntity
  8
AM_11
100
AcDbLine
 10
-26.0
 20
-5.994332589322475
 30
0.0
 11
-0.0000000000000036
 21
-6.000002423642518
 31
0.0
  0
DIMENSION
  5
F12
330
1F
100
AcDbEntity
  8
AM_5
100
AcDbDimension
  2
*D5
 10
-0.0000000000000009
 20
-20.00000342364252
 30
0.0
 11
-13.0
 21
-16.90000342364251
 31
0.0
 70
    32
  1
<>
  3
AM_JIS
100
AcDbAlignedDimension
 13
-26.0
 23
-5.994332589322475
 33
0.0
 14
0.0
 24
-5.999999850000198
 34
0.0
 50
0.0000000000001149
100
AcDbRotatedDimension
1001
GENIUS_GENDTOL_13
1000

1000
h7
1000

1040
0.0
  0
LINE
  5
F1F
330
1F
100
AcDbEntity
  8
AM_0
100
AcDbLine
 10
-0.1453319958881862
 20
-1.58517283893268
 30
0.0
 11
-1.264199745269831
 21
-2.301375334974159
 31
0.0
  0
ELLIPSE
  5
F20
330
1F
100
AcDbEntity
  8
AM_0
100
AcDbEllipse
 10
-4.648159188300162
 20
-6.592454754828372
 30
0.0
 11
0.0000000000003048
 21
5.49723553114796
 31
0.0
210
0.0
220
0.0
230
1.0
 40
0.984848484848484
 41
-0.6751893610036123
 42
-0.4012567811812435
  0
LINE
  5
F21
330
1F
100
AcDbEntity
  8
AM_0
100
AcDbLine
 10
-0.1453319958881862
 20
-5.640873519894716
 30
0.0
 11
-0.1453319958881862
 21
-1.58517283893268
 31
0.0
  0
LINE
  5
F22
330
1F
100
AcDbEntity
  8
AM_0
100
AcDbLine
 10
0.0
 20
-6.000002423642517
 30
0.0
 11
0.0
 21
6.000002423642563
 31
0.0
  0
ELLIPSE
  5
F23
330
1F
100
AcDbEntity
  8
AM_0
100
AcDbEllipse
 10
-33.12687777156669
 20
-2.83727208039794
 30
0.0
 11
-0.0000000000001249
 21
1.996829566084573
 31
0.0
210
0.0
220
0.0
230
1.0
 40
0.9848484848484847
 41
0.6653545353675412
 42
2.999320557457918
  0
LINE
  5
F24
330
1F
100
AcDbEntity
  8
AM_11
100
AcDbLine
 10
-26.0
 20
-5.994332589322475
 30
0.0
 11
-26.0
 21
5.9943325893223
 31
0.0
  0
DIMENSION
  5
F25
330
1F
100
AcDbEntity
  8
AM_5
100
AcDbDimension
  2
*D6
 10
19.36184135363247
 20
5.999999849999966
 30
0.0
 11
19.36184135363247
 21
-0.0000000000001167
 31
0.0
 70
   160
  1
%%c<>
  3
AM_JIS
100
AcDbAlignedDimension
 13
0.0
 23
-5.999999850000198
 33
0.0
 14
0.0
 24
5.999999849999971
 34
0.0
 50
90.0
100
AcDbRotatedDimension
1001
GENIUS_GENDTOL_13
1000

1000
h7
1000

1040
0.0
  0
SPLINE
  5
F34
330
1F
100
AcDbEntity
  8
AM_0
100
AcDbSpline
210
0.0
220
0.0
230
1.0
 70
     8
 71
     3
 72
     8
 73
     4
 74
     0
 42
0.0000000001
 43
0.0000000001
 40
0.0
 40
0.0
 40
0.0
 40
0.0
 40
14.47015062460583
 40
14.47015062460583
 40
14.47015062460583
 40
14.47015062460583
 10
-16.05027453090344
 20
5.992994707952242
 30
0.0
 10
-10.34991216363447
 20
5.992994707952242
 30
0.0
 10
-5.174956081817239
 20
2.996497353976064
 30
0.0
 10
0.0
 20
-0.0000000000001137
 30
0.0
  0
SPLINE
  5
F35
330
1F
100
AcDbEntity
  8
AM_0
100
AcDbSpline
210
0.0
220
0.0
230
1.0
 70
     8
 71
     3
 72
     8
 73
     4
 74
     0
 42
0.0000000001
 43
0.0000000001
 40
4.041712701031824
 40
4.041712701031824
 40
4.041712701031824
 40
4.041712701031824
 40
43.20630823911048
 40
43.20630823911048
 40
43.20630823911048
 40
43.20630823911048
 10
-28.48158844262558
 20
5.597554258567401
 30
0.0
 10
-23.41539518793996
 20
5.137841175884955
 30
0.0
 10
-18.70227114244314
 20
2.560084547512837
 30
0.0
 10
-13.98914709694633
 20
-0.0176720808595519
 30
0.0
  0
SPLINE
  5
F36
330
1F
100
AcDbEntity
  8
AM_0
100
AcDbSpline
210
0.0
220
0.0
230
1.0
 70
     8
 71
     3
 72
     8
 73
     4
 74
     0
 42
0.0000000001
 43
0.0000000001
 40
0.0
 40
0.0
 40
0.0
 40
0.0
 40
14.47293633748905
 40
14.47293633748905
 40
14.47293633748905
 40
14.47293633748905
 10
-32.13508502306306
 20
5.992994707952242
 30
0.0
 10
-26.43362525374919
 20
5.992994707952242
 30
0.0
 10
-21.25873307709666
 20
2.992994782952268
 30
0.0
 10
-16.08384090044414
 20
-0.0070051420477057
 30
0.0
  0
SPLINE
  5
F37
330
1F
100
AcDbEntity
  8
AM_0
100
AcDbSpline
210
0.0
220
0.0
230
1.0
 70
     8
 71
     3
 72
     8
 73
     4
 74
     0
 42
0.0000000001
 43
0.0000000001
 40
0.0
 40
0.0
 40
0.0
 40
0.0
 40
16.40765811415315
 40
16.40765811415315
 40
16.40765811415315
 40
16.40765811415315
 10
-16.12949089123499
 20
5.999999849999971
 30
0.0
 10
-18.28403180185618
 20
5.999999849999971
 30
0.0
 10
-20.3633772753002
 20
5.571590830840546
 30
0.0
 10
-22.39594313001341
 20
4.876665499934665
 30
0.0
  0
SPLINE
  5
F38
330
1F
100
AcDbEntity
  8
AM_0
100
AcDbSpline
210
0.0
220
0.0
230
1.0
 70
     8
 71
     3
 72
     8
 73
     4
 74
     0
 42
0.0000000001
 43
0.0000000001
 40
0.0
 40
0.0
 40
0.0
 40
0.0
 40
14.30142107637939
 40
14.30142107637939
 40
14.30142107637939
 40
14.30142107637939
 10
-26.13565231581697
 20
5.244339811288886
 30
0.0
 10
-20.501759164516
 20
5.244339811288885
 30
0.0
 10
-15.27321835454046
 20
2.61866733462059
 30
0.0
 10
-10.04467754456494
 20
-0.0070051420477057
 30
0.0
  0
SPLINE
  5
F39
330
1F
100
AcDbEntity
  8
AM_0
100
AcDbSpline
210
0.0
220
0.0
230
1.0
 70
     8
 71
     3
 72
     8
 73
     4
 74
     0
 42
0.0000000001
 43
0.0000000001
 40
0.0
 40
0.0
 40
0.0
 40
0.0
 40
14.30142107637946
 40
14.30142107637946
 40
14.30142107637946
 40
14.30142107637946
 10
-10.02642964422185
 20
-5.251344953336842
 30
0.0
 10
-15.66032279552285
 20
-5.251344953336841
 30
0.0
 10
-20.88886360549837
 20
-2.625672476668409
 30
0.0
 10
-26.11740441547388
 20
0.0000000000000227
 30
0.0
  0
SPLINE
  5
F3A
330
1F
100
AcDbEntity
  8
AM_0
100
AcDbSpline
210
0.0
220
0.0
230
1.0
 70
     8
 71
     3
 72
     8
 73
     4
 74
     0
 42
0.0000000001
 43
0.0000000001
 40
0.0
 40
0.0
 40
0.0
 40
0.0
 40
11.14024708123303
 40
11.14024708123303
 40
11.14024708123303
 40
11.14024708123303
 10
-13.98929929262476
 20
-5.698219480625788
 30
0.0
 10
-19.47502702201956
 20
-5.698219480625788
 30
0.0
 10
-24.5175766725227
 20
-3.039617582871755
 30
0.0
 10
-29.54545454545455
 20
-0.2930004660618351
 30
0.0
  0
SPLINE
  5
F3B
330
1F
100
AcDbEntity
  8
AM_0
100
AcDbSpline
210
0.0
220
0.0
230
1.0
 70
     8
 71
     3
 72
     8
 73
     4
 74
     0
 42
0.0000000001
 43
0.0000000001
 40
0.0
 40
0.0
 40
0.0
 40
0.0
 40
10.49949233464396
 40
10.49949233464396
 40
10.49949233464396
 40
10.49949233464396
 10
-16.12949089123499
 20
-5.999999849999926
 30
0.0
 10
-21.299695449961
 20
-5.999999849999926
 30
0.0
 10
-26.03689048213432
 20
-3.533025874982536
 30
0.0
 10
-30.7337382038779
 20
-0.836182211913433
 30
0.0
  0
SPLINE
  5
F3C
330
1F
100
AcDbEntity
  8
AM_0
100
AcDbSpline
210
0.0
220
0.0
230
1.0
 70
     8
 71
     3
 72
     8
 73
     4
 74
     0
 42
0.0000000001
 43
0.0000000001
 40
0.0
 40
0.0
 40
0.0
 40
0.0
 40
14.47293633748862
 40
14.47293633748862
 40
14.47293633748862
 40
14.47293633748862
 10
0.0
 20
-6.000002423642517
 30
0.0
 10
-5.746140168389612
 20
-5.999999849999925
 30
0.0
 10
-10.92103234504195
 20
-2.999999924999951
 30
0.0
 10
-16.09592452169429
 20
0.0000000000000227
 30
0.0
  0
SPLINE
  5
F3D
330
1F
100
AcDbEntity
  8
AM_0
100
AcDbSpline
210
0.0
220
0.0
230
1.0
 70
     8
 71
     3
 72
     8
 73
     4
 74
     0
 42
0.0000000001
 43
0.0000000001
 40
5.940484414839465
 40
5.940484414839465
 40
5.940484414839465
 40
5.940484414839465
 40
43.20630823911048
 40
43.20630823911048
 40
43.20630823911048
 40
43.20630823911048
 10
-0.2190278438996013
 20
-5.544336117739907
 30
0.0
 10
-5.0078172507149
 20
-4.916231418923302
 30
0.0
 10
-9.49244036320554
 20
-2.463449178867426
 30
0.0
 10
-13.97706347569617
 20
-0.0106669388118235
 30
0.0
  0
SPLINE
  5
F3E
330
1F
100
AcDbEntity
  8
AM_0
100
AcDbSpline
210
0.0
220
0.0
230
1.0
 70
     8
 71
     3
 72
     8
 73
     4
 74
     0
 42
0.0000000001
 43
0.0000000001
 40
19.81419196662877
 40
19.81419196662877
 40
19.81419196662877
 40
19.81419196662877
 40
42.90426430174475
 40
42.90426430174475
 40
42.90426430174475
 40
42.90426430174475
 10
-1.527774508490314
 20
-3.829951841381239
 30
0.0
 10
-4.404836987063639
 20
-2.826151125128649
 30
0.0
 10
-7.218715455189216
 20
-1.413075562564313
 30
0.0
 10
-10.03259392331425
 20
0.0000000000000227
 30
0.0
  0
SPLINE
  5
F3F
330
1F
100
AcDbEntity
  8
AM_0
100
AcDbSpline
210
0.0
220
0.0
230
1.0
 70
     8
 71
     3
 72
     8
 73
     4
 74
     0
 42
0.0000000001
 43
0.0000000001
 40
4.041712701031824
 40
4.041712701031824
 40
4.041712701031824
 40
4.041712701031824
 40
36.66696766287024
 40
36.66696766287024
 40
36.66696766287024
 40
36.66696766287024
 10
-12.3967779504665
 20
5.597554258567401
 30
0.0
 10
-8.176490613160074
 20
5.214599798659059
 30
0.0
 10
-4.201211341628839
 20
3.361854887331469
 30
0.0
 10
-0.2668412423744154
 20
1.263698011307701
 30
0.0
  0
SPLINE
  5
F40
330
1F
100
AcDbEntity
  8
AM_0
100
AcDbSpline
210
0.0
220
0.0
230
1.0
 70
     8
 71
     3
 72
     8
 73
     4
 74
     0
 42
0.0000000001
 43
0.0000000001
 40
0.0
 40
0.0
 40
0.0
 40
0.0
 40
22.32639506415645
 40
22.32639506415645
 40
22.32639506415645
 40
22.32639506415645
 10
-10.05084182365734
 20
5.244339811288886
 30
0.0
 10
-7.119093050142758
 20
5.244339811288886
 30
0.0
 10
-4.297110564622347
 20
4.533327953530556
 30
0.0
 10
-1.527774508490851
 20
3.481298500587604
 30
0.0
  0
SPLINE
  5
F41
330
1F
100
AcDbEntity
  8
AM_0
100
AcDbSpline
210
0.0
220
0.0
230
1.0
 70
     8
 71
     3
 72
     8
 73
     4
 74
     0
 42
0.0000000001
 43
0.0000000001
 40
0.0
 40
0.0
 40
0.0
 40
0.0
 40
16.40765811415315
 40
16.40765811415315
 40
16.40765811415315
 40
16.40765811415315
 10
0.0
 20
6.000002423642563
 30
0.0
 10
-2.199221309697102
 20
5.999999849999971
 30
0.0
 10
-4.278566783140584
 20
5.571590830840546
 30
0.0
 10
-6.311132637854329
 20
4.876665499934665
 30
0.0
  0
SPLINE
  5
F42
330
1F
100
AcDbEntity
  8
AM_0
100
AcDbSpline
210
0.0
220
0.0
230
1.0
 70
     8
 71
     3
 72
     8
 73
     4
 74
     0
 42
0.0000000001
 43
0.0000000001
 40
4.497685297584327
 40
4.497685297584327
 40
4.497685297584327
 40
4.497685297584327
 40
9.915363876658778
 40
9.915363876658778
 40
9.915363876658778
 40
9.915363876658778
 10
-2.092382118464022
 20
3.690673193947281
 30
0.0
 10
-1.407989265092717
 20
3.893038202125285
 30
0.0
 10
-0.7350960943343705
 20
4.181531235038096
 30
0.0
 10
-0.0622029235754863
 20
4.470024267950907
 30
0.0
  0
SPLINE
  5
F43
330
1F
100
AcDbEntity
  8
AM_0
100
AcDbSpline
210
0.0
220
0.0
230
1.0
 70
     8
 71
     3
 72
     8
 73
     4
 74
     0
 42
0.0000000001
 43
0.0000000001
 40
0.0
 40
0.0
 40
0.0
 40
0.0
 40
9.450452127946082
 40
9.450452127946082
 40
9.450452127946082
 40
9.450452127946082
 10
-16.05027453090344
 20
-5.99299470795247
 30
0.0
 10
-14.80930610068216
 20
-5.99299470795247
 30
0.0
 10
-13.59328381678795
 20
-5.850869673764805
 30
0.0
 10
-12.3967779504665
 20
-5.597554258567629
 30
0.0
  0
SPLINE
  5
F44
330
1F
100
AcDbEntity
  8
AM_0
100
AcDbSpline
210
0.0
220
0.0
230
1.0
 70
     8
 71
     3
 72
     8
 73
     4
 74
     0
 42
0.0000000001
 43
0.0000000001
 40
0.0
 40
0.0
 40
0.0
 40
0.0
 40
9.964098609850829
 40
9.964098609850829
 40
9.964098609850829
 40
9.964098609850829
 10
-13.97691128001828
 20
-5.669880460954641
 30
0.0
 10
-12.66849432355638
 20
-5.669880460954641
 30
0.0
 10
-11.38528906535268
 20
-5.518636814151864
 30
0.0
 10
-10.1214812653617
 20
-5.251028839614968
 30
0.0
  0
SPLINE
  5
F45
330
1F
100
AcDbEntity
  8
AM_0
100
AcDbSpline
210
0.0
220
0.0
230
1.0
 70
     8
 71
     3
 72
     8
 73
     4
 74
     0
 42
0.0000000001
 43
0.0000000001
 40
0.0
 40
0.0
 40
0.0
 40
0.0
 40
9.637195575647414
 40
9.637195575647414
 40
9.637195575647414
 40
9.637195575647414
 10
-10.05084182365734
 20
-5.244339811289114
 30
0.0
 10
-8.785351527179294
 20
-5.244339811289114
 30
0.0
 10
-7.540313104883932
 20
-5.111862660763994
 30
0.0
 10
-6.311132637854329
 20
-4.876665499934619
 30
0.0
  0
SPLINE
  5
F46
330
1F
100
AcDbEntity
  8
AM_0
100
AcDbSpline
210
0.0
220
0.0
230
1.0
 70
     8
 71
     3
 72
     8
 73
     4
 74
     0
 42
0.0000000001
 43
0.0000000001
 40
0.0
 40
0.0
 40
0.0
 40
0.0
 40
9.450452127946082
 40
9.450452127946082
 40
9.450452127946082
 40
9.450452127946082
 10
-32.13508502306306
 20
-5.99299470795247
 30
0.0
 10
-30.89411659284178
 20
-5.99299470795247
 30
0.0
 10
-29.67809430894703
 20
-5.850869673764805
 30
0.0
 10
-28.48158844262558
 20
-5.597554258567629
 30
0.0
  0
SPLINE
  5
F47
330
1F
100
AcDbEntity
  8
AM_0
100
AcDbSpline
210
0.0
220
0.0
230
1.0
 70
     8
 71
     3
 72
     8
 73
     4
 74
     0
 42
0.0000000001
 43
0.0000000001
 40
10.43080782587999
 40
10.43080782587999
 40
10.43080782587999
 40
10.43080782587999
 40
11.52168190905409
 40
11.52168190905409
 40
11.52168190905409
 40
11.52168190905409
 10
-29.54545454545455
 20
-0.8053334948425572
 30
0.0
 10
-30.03814701664743
 20
-0.5384980867836703
 30
0.0
 10
-30.53043714468735
 20
-0.2692490433920966
 30
0.0
 10
-31.02272727272727
 20
0.0000000000000227
 30
0.0
  0
SPLINE
  5
F48
330
1F
100
AcDbEntity
  8
AM_0
100
AcDbSpline
210
0.0
220
0.0
230
1.0
 70
     8
 71
     3
 72
     8
 73
     4
 74
     0
 42
0.0000000001
 43
0.0000000001
 40
7.872155465811081
 40
7.872155465811081
 40
7.872155465811081
 40
7.872155465811081
 40
11.44113686110349
 40
11.44113686110349
 40
11.44113686110349
 40
11.44113686110349
 10
-31.02272727272727
 20
2.377478265376453
 30
0.0
 10
-29.37941676649627
 20
1.638119766090335
 30
0.0
 10
-27.7484105909848
 20
0.819059883045179
 30
0.0
 10
-26.11740441547388
 20
-0.0000000000002501
 30
0.0
  0
SPLINE
  5
F49
330
1F
100
AcDbEntity
  8
AM_0
100
AcDbSpline
210
0.0
220
0.0
230
1.0
 70
     8
 71
     3
 72
     8
 73
     4
 74
     0
 42
0.0000000001
 43
0.0000000001
 40
0.0
 40
0.0
 40
0.0
 40
0.0
 40
3.445482686890237
 40
3.445482686890237
 40
3.445482686890237
 40
3.445482686890237
 10
-26.03202377604777
 20
-5.244339811289114
 30
0.0
 10
-27.72866297792594
 20
-5.244339811289114
 30
0.0
 10
-29.38854057446203
 20
-5.006216269117953
 30
0.0
 10
-31.02272727272727
 20
-4.601679763177958
 30
0.0
  0
SPLINE
  5
F4A
330
1F
100
AcDbEntity
  8
AM_0
100
AcDbSpline
210
0.0
220
0.0
230
1.0
 70
     8
 71
     3
 72
     8
 73
     4
 74
     0
 42
0.0000000001
 43
0.0000000001
 40
4.041712701031851
 40
4.041712701031851
 40
4.041712701031851
 40
4.041712701031851
 40
9.964098609850829
 40
9.964098609850829
 40
9.964098609850829
 40
9.964098609850829
 10
-28.48158844262558
 20
-5.597554258567629
 30
0.0
 10
-27.71548959414572
 20
-5.528037434876
 30
0.0
 10
-26.95746432206421
 20
-5.410087652613651
 30
0.0
 10
-26.20629175752132
 20
-5.251028839614968
 30
0.0
  0
SPLINE
  5
F4B
330
1F
100
AcDbEntity
  8
AM_0
100
AcDbSpline
210
0.0
220
0.0
230
1.0
 70
     8
 71
     3
 72
     8
 73
     4
 74
     0
 42
0.0000000001
 43
0.0000000001
 40
0.0
 40
0.0
 40
0.0
 40
0.0
 40
9.637195575647414
 40
9.637195575647414
 40
9.637195575647414
 40
9.637195575647414
 10
-26.13565231581697
 20
-5.244339811289114
 30
0.0
 10
-24.87016201933891
 20
-5.244339811289114
 30
0.0
 10
-23.62512359704302
 20
-5.111862660763994
 30
0.0
 10
-22.39594313001341
 20
-4.876665499934619
 30
0.0
  0
SPLINE
  5
F4C
330
1F
100
AcDbEntity
  8
AM_0
100
AcDbSpline
210
0.0
220
0.0
230
1.0
 70
     8
 71
     3
 72
     8
 73
     4
 74
     0
 42
0.0000000001
 43
0.0000000001
 40
1.140063819971138
 40
1.140063819971138
 40
1.140063819971138
 40
1.140063819971138
 40
2.790246636948332
 40
2.790246636948332
 40
2.790246636948332
 40
2.790246636948332
 10
-31.02272727272727
 20
-5.168724190506304
 30
0.0
 10
-31.82424621463575
 20
-5.097011186071517
 30
0.0
 10
-32.61817288502218
 20
-4.97611919254557
 30
0.0
 10
-33.40572352960684
 20
-4.813926449645054
 30
0.0
  0
SPLINE
  5
F4D
330
1F
100
AcDbEntity
  8
AM_0
100
AcDbSpline
210
0.0
220
0.0
230
1.0
 70
     8
 71
     3
 72
     8
 73
     4
 74
     0
 42
0.0000000001
 43
0.0000000001
 40
7.951699575921333
 40
7.951699575921333
 40
7.951699575921333
 40
7.951699575921333
 40
10.36385682192277
 40
10.36385682192277
 40
10.36385682192277
 40
10.36385682192277
 10
-34.34091914984959
 20
2.327924746201665
 30
0.0
 10
-33.23062613990673
 20
1.825842231331375
 30
0.0
 10
-32.12582843459019
 20
1.288163844335417
 30
0.0
 10
-31.02272727272727
 20
0.7394960858777494
 30
0.0
  0
LINE
  5
F4E
330
1F
100
AcDbEntity
  8
AM_0
100
AcDbLine
 10
-75.0
 20
5.399999850000108
 30
0.0
 11
-74.40909090909091
 21
5.999999850000108
 31
0.0
1001
GENIUS_GENFIL_13
1070
     0
1040
0.5
1040
0.5
1040
20.0
1040
0.0
1002
{
1002
}
1001
GENIUS_GENODEF_13
1002
{
1000
HIER
1070
     0
1002
}
1002
{
1000
MANEDIT
1070
     0
1002
}
1002
{
1000
NOSEL
1070
     0
1002
}
1002
{
1000
BEHIND
1070
     0
1002
}
1002
{
1000
REACTOR
1002
}
1001
GENIUS_GENOBJ-N-CHA_13
1002
{
1000
OWNER
1000
GEN
1002
}
  0
LINE
  5
F4F
330
1F
100
AcDbEntity
  8
AM_0
100
AcDbLine
 10
-75.0
 20
-5.399999850000062
 30
0.0
 11
-74.409090914585
 21
-5.999918031002536
 31
0.0
1001
GENIUS_GENFIL_13
1070
     0
1040
0.5
1040
0.5
1040
20.0
1040
0.0
1002
{
1002
}
1001
GENIUS_GENODEF_13
1002
{
1000
HIER
1070
     0
1002
}
1002
{
1000
MANEDIT
1070
     0
1002
}
1002
{
1000
NOSEL
1070
     0
1002
}
1002
{
1000
BEHIND
1070
     0
1002
}
1002
{
1000
REACTOR
1002
}
1001
GENIUS_GENOBJ-N-CHA_13
1002
{
1000
OWNER
1000
GEN
1002
}
  0
LINE
  5
F50
330
1F
100
AcDbEntity
  8
AM_0
100
AcDbLine
 10
-75.0
 20
-5.399999850000062
 30
0.0
 11
-75.0
 21
5.399999850000108
 31
0.0
  0
LINE
  5
F51
330
1F
100
AcDbEntity
  8
AM_0
100
AcDbLine
 10
-74.409090914585
 20
-5.999918031002536
 30
0.0
 11
-74.40909090909091
 21
5.999999850000108
 31
0.0
  0
LINE
  5
F52
330
1F
100
AcDbEntity
  8
AM_0
100
AcDbLine
 10
-32.13508502306306
 20
-5.99299470795247
 30
0.0
 11
-74.409090914585
 21
-5.999918031002536
 31
0.0
  0
LINE
  5
F53
330
1F
100
AcDbEntity
  8
AM_0
100
AcDbLine
 10
-74.40909090909091
 20
5.999999850000108
 30
0.0
 11
-32.13508502306306
 21
5.999999849999927
 31
0.0
  0
LINE
  5
F54
330
1F
100
AcDbEntity
  8
AM_7
100
AcDbLine
 10
-77.25875978811529
 20
0.0000000000000227
 30
0.0
 11
2.332490663884527
 21
0.0000000000000231
 31
0.0
1001
GENIUS_GENODEF_13
1002
{
1000
HIER
1070
     0
1002
}
1002
{
1000
MANEDIT
1070
     0
1002
}
1002
{
1000
NOSEL
1070
     0
1002
}
1002
{
1000
BEHIND
1070
     0
1002
}
1002
{
1000
REACTOR
1002
}
1001
GENIUS_GENOBJ-N-CEN_13
1002
{
1000
OWNER
1000
GEN
1002
}
  0
DIMENSION
  5
F55
330
1F
100
AcDbEntity
  8
AM_5
100
AcDbDimension
  2
*D7
 10
-0.0000000000000016
 20
-32.00000342364251
 30
0.0
 11
-37.5
 21
-28.90000342364251
 31
0.0
 70
    32
  1
<>
  3
AM_JIS
100
AcDbAlignedDimension
 13
-75.0
 23
-5.399999850000062
 33
0.0
 14
0.0
 24
-5.999999850000198
 34
0.0
 50
0.0000000000001149
100
AcDbRotatedDimension
1001
GENIUS_GENDTOL_13
1000

1000
h7
1000

1040
0.0
  0
LINE
  5
101B
330
1F
100
AcDbEntity
  8
AM_11
100
AcDbLine
 10
-0.0000000000000036
 20
-6.000002423642518
 30
0.0
 11
-0.0000000000000036
 21
6.000002423642563
 31
0.0
  0
DIMENSION
  5
10BA
330
1F
100
AcDbEntity
  8
AM_5
100
AcDbDimension
  2
*D8
 10
-88.40909091086039
 20
5.999999850000111
 30
0.0
 11
-91.5090909108604
 21
0.0000409094987757
 31
0.0
 70
    32
  1
%%c<>
  3
AM_JIS
100
AcDbAlignedDimension
 13
-74.409090914585
 23
-5.999918031002536
 33
0.0
 14
-74.40909090909091
 24
5.999999850000108
 34
0.0
 50
269.9999999737674
100
AcDbRotatedDimension
1001
GENIUS_GENDTOL_13
1000

1000
h7
1000

1040
0.0
  0
VIEWPORT
  5
110
330
101
100
AcDbEntity
 67
     1
  8
0
100
AcDbViewport
 10
420.5
 20
297.0
 30
0.0
 40
948.9782706766916
 41
628.452
 68
     1
 69
     1
1001
ACAD
1000
MVIEW
1002
{
1070
    16
1010
0.0
1020
0.0
1030
0.0
1010
0.0
1020
0.0
1030
1.0
1040
0.0
1040
628.452
1040
420.5
1040
297.0
1040
50.0
1040
0.0
1040
0.0
1070
     0
1070
   100
1070
     1
1070
     1
1070
     0
1070
     0
1070
     0
1070
     0
1040
0.0
1040
0.0
1040
0.0
1040
10.0
1040
10.0
1040
10.0
1040
10.0
1070
     0
1002
{
1002
}
1002
}
  0
ENDSEC
  0
SECTION
  2
OBJECTS
  0
DICTIONARY
  5
C
330
0
100
AcDbDictionary
  3
ACAD_GROUP
350
D
  3
ACAD_LAYOUT
350
1A
  3
ACAD_MLINESTYLE
350
17
  3
ACAD_PLOTSETTINGS
350
19
  3
ACAD_PLOTSTYLENAME
350
E
  3
ACDBVARIABLEDICTIONARY
350
34
  3
ACMDICTIONARY
350
43
  3
AMG
350
2B
  3
AMGSNAPSETTINGS
350
6E
  3
DWGPROPS
350
1159
  3
ACDBHEADERROUNDTRIPXREC
350
1165
  0
DICTIONARY
  5
74
330
1F
100
AcDbDictionary
280
     1
  3
ACAD_INDEX
360
115B
  3
ACAD_LAYOUTSELFREF
360
1188
  0
DICTIONARY
  5
118D
330
101
100
AcDbDictionary
280
     1
  3
ACAD_LAYOUTSELFREF
360
118E
  0
DICTIONARY
  5
D
102
{ACAD_REACTORS
330
C
102
}
330
C
100
AcDbDictionary
  0
DICTIONARY
  5
1A
102
{ACAD_REACTORS
330
C
102
}
330
C
100
AcDbDictionary
  0
DICTIONARY
  5
17
102
{ACAD_REACTORS
330
C
102
}
330
C
100
AcDbDictionary
  3
STANDARD
350
18
  0
DICTIONARY
  5
19
102
{ACAD_REACTORS
330
C
102
}
330
C
100
AcDbDictionary
  0
ACDBDICTIONARYWDFLT
  5
E
102
{ACAD_REACTORS
330
C
102
}
330
C
100
AcDbDictionary
281
     1
  3
Normal
350
F
100
AcDbDictionaryWithDefault
340
F
  0
DICTIONARY
  5
34
102
{ACAD_REACTORS
330
C
102
}
330
C
100
AcDbDictionary
  3
INDEXCTL
350
35
  3
SORTENTS
350
B5E
  0
DICTIONARY
  5
43
102
{ACAD_REACTORS
330
C
102
}
330
C
100
AcDbDictionary
  3
ACMSTDDICTIONARY
350
260
  0
DICTIONARY
  5
2B
102
{ACAD_REACTORS
330
C
102
}
330
C
100
AcDbDictionary
  3
ACMGSETTINGS
350
2C
  0
DICTIONARY
  5
6E
102
{ACAD_REACTORS
330
C
102
}
330
C
100
AcDbDictionary
  0
XRECORD
  5
1159
102
{ACAD_REACTORS
330
C
102
}
330
C
100
AcDbXrecord
  1
DWGPROPS COOKIE
  2

  3

  4

  6

  7

  8

  9

300
AmdtFileType=82
301
=
302
=
303
=
304
=
305
=
306
=
307
=
308
=
309
=
 40
0.0236094791666667
 41
2452809.375295671
 42
2452839.643682002
  1

 90
        1
  0
DICTIONARY
  5
1165
102
{ACAD_REACTORS
330
C
102
}
330
C
100
AcDbDictionary
  3
TSTACKALIGN
350
1166
  3
TSTACKSIZE
350
1167
  3
HYPERLINKBASE
350
1168
  3
STYLESHEET
350
1169
  3
LAYOUTDICT
350
116A
  3
PLOTSETDICT
350
116B
  3
PLOTSTYLNAMDICT
350
116C
  3
LWETCUNION
350
116D
  3
INSUNITS
350
116E
  3
CEPSNTYPE
350
116F
  3
FINGERPRINTGUID
350
1170
  3
VERSIONGUID
350
1171
  3
PSVPSCALE
350
1172
  3
DIMSTYLEDATA
350
1173
  3
PUCSORTHOREF
350
1174
  3
PUCSORTHOVIEW
350
1175
  3
PUCSBASE
350
1176
  3
PUCSORGTOP
350
1177
  3
PUCSORGBOTTOM
350
1178
  3
PUCSORGLEFT
350
1179
  3
PUCSORGRIGHT
350
117A
  3
PUCSORGFRONT
350
117B
  3
PUCSORGBACK
350
117C
  3
UCSORTHOREF
350
117D
  3
UCSORTHOVIEW
350
117E
  3
UCSBASE
350
117F
  3
UCSORGTOP
350
1180
  3
UCSORGBOTTOM
350
1181
  3
UCSORGLEFT
350
1182
  3
UCSORGRIGHT
350
1183
  3
UCSORGFRONT
350
1184
  3
UCSORGBACK
350
1185
  0
DICTIONARY
  5
115B
102
{ACAD_REACTORS
330
74
102
}
330
74
100
AcDbDictionary
  3
*A1
350
115C
  0
XRECORD
  5
1188
102
{ACAD_REACTORS
330
74
102
}
330
74
100
AcDbXrecord
340
1F
  0
XRECORD
  5
118E
102
{ACAD_REACTORS
330
118D
102
}
330
118D
100
AcDbXrecord
340
101
  0
MLINESTYLE
  5
18
102
{ACAD_REACTORS
330
17
102
}
330
17
100
AcDbMlineStyle
  2
STANDARD
 70
     0
  3

 62
   256
 51
90.0
 52
90.0
 71
     2
 49
0.5
 62
   256
  6
BYLAYER
 49
-0.5
 62
   256
  6
BYLAYER
  0
ACDBPLACEHOLDER
  5
F
102
{ACAD_REACTORS
330
E
102
}
330
E
100
AcDbPlaceHolder
280
     0
  0
DICTIONARYVAR
  5
35
102
{ACAD_REACTORS
330
34
102
}
330
34
100
DictionaryVariables
280
     0
  1
1
  0
DICTIONARYVAR
  5
B5E
102
{ACAD_REACTORS
330
34
102
}
330
34
100
DictionaryVariables
280
     0
  1
96
  0
DICTIONARY
  5
260
102
{ACAD_REACTORS
330
43
102
}
330
43
100
AcDbDictionary
  0
DICTIONARY
  5
2C
102
{ACAD_REACTORS
330
2B
102
}
330
2B
100
AcDbDictionary
  3
DWGSETTINGS
350
2D
  0
XRECORD
  5
1166
102
{ACAD_REACTORS
330
1165
102
}
330
1165
100
AcDbXrecord
 90
        1
  0
XRECORD
  5
1167
102
{ACAD_REACTORS
330
1165
102
}
330
1165
100
AcDbXrecord
 90
       70
  0
XRECORD
  5
1168
102
{ACAD_REACTORS
330
1165
102
}
330
1165
100
AcDbXrecord
  1

  0
XRECORD
  5
1169
102
{ACAD_REACTORS
330
1165
102
}
330
1165
100
AcDbXrecord
  1
ASAMI.ctb
  0
XRECORD
  5
116A
102
{ACAD_REACTORS
330
1165
102
}
330
1165
100
AcDbXrecord
340
1A
  0
XRECORD
  5
116B
102
{ACAD_REACTORS
330
1165
102
}
330
1165
100
AcDbXrecord
340
19
  0
XRECORD
  5
116C
102
{ACAD_REACTORS
330
1165
102
}
330
1165
100
AcDbXrecord
340
E
  0
XRECORD
  5
116D
102
{ACAD_REACTORS
330
1165
102
}
330
1165
100
AcDbXrecord
 90
    10781
  0
XRECORD
  5
116E
102
{ACAD_REACTORS
330
1165
102
}
330
1165
100
AcDbXrecord
 90
        4
  0
XRECORD
  5
116F
102
{ACAD_REACTORS
330
1165
102
}
330
1165
100
AcDbXrecord
 90
        0
  0
XRECORD
  5
1170
102
{ACAD_REACTORS
330
1165
102
}
330
1165
100
AcDbXrecord
  1
{AFB28963-8C59-40AE-9337-C84526B81ACE}
  0
XRECORD
  5
1171
102
{ACAD_REACTORS
330
1165
102
}
330
1165
100
AcDbXrecord
  1
{6D90DEEC-3841-41E4-BBAE-1AB48FF42BF9}
  0
XRECORD
  5
1172
102
{ACAD_REACTORS
330
1165
102
}
330
1165
100
AcDbXrecord
 40
0.0
  0
XRECORD
  5
1173
102
{ACAD_REACTORS
330
1165
102
}
330
1165
100
AcDbXrecord
1000
DSTYLE
1002
{
1070
    79
 70
     2
1070
   341
340
59
1070
   342
340
59
1070
   371
 70
    -1
1070
   372
 70
    -1
1002
}
  0
XRECORD
  5
1174
102
{ACAD_REACTORS
330
1165
102
}
330
1165
100
AcDbXrecord
340
0
  0
XRECORD
  5
1175
102
{ACAD_REACTORS
330
1165
102
}
330
1165
100
AcDbXrecord
 70
     0
  0
XRECORD
  5
1176
102
{ACAD_REACTORS
330
1165
102
}
330
1165
100
AcDbXrecord
340
0
  0
XRECORD
  5
1177
102
{ACAD_REACTORS
330
1165
102
}
330
1165
100
AcDbXrecord
 10
0.0
 20
0.0
 30
0.0
  0
XRECORD
  5
1178
102
{ACAD_REACTORS
330
1165
102
}
330
1165
100
AcDbXrecord
 10
0.0
 20
0.0
 30
0.0
  0
XRECORD
  5
1179
102
{ACAD_REACTORS
330
1165
102
}
330
1165
100
AcDbXrecord
 10
0.0
 20
0.0
 30
0.0
  0
XRECORD
  5
117A
102
{ACAD_REACTORS
330
1165
102
}
330
1165
100
AcDbXrecord
 10
0.0
 20
0.0
 30
0.0
  0
XRECORD
  5
117B
102
{ACAD_REACTORS
330
1165
102
}
330
1165
100
AcDbXrecord
 10
0.0
 20
0.0
 30
0.0
  0
XRECORD
  5
117C
102
{ACAD_REACTORS
330
1165
102
}
330
1165
100
AcDbXrecord
 10
0.0
 20
0.0
 30
0.0
  0
XRECORD
  5
117D
102
{ACAD_REACTORS
330
1165
102
}
330
1165
100
AcDbXrecord
340
0
  0
XRECORD
  5
117E
102
{ACAD_REACTORS
330
1165
102
}
330
1165
100
AcDbXrecord
 70
     0
  0
XRECORD
  5
117F
102
{ACAD_REACTORS
330
1165
102
}
330
1165
100
AcDbXrecord
340
0
  0
XRECORD
  5
1180
102
{ACAD_REACTORS
330
1165
102
}
330
1165
100
AcDbXrecord
 10
0.0
 20
0.0
 30
0.0
  0
XRECORD
  5
1181
102
{ACAD_REACTORS
330
1165
102
}
330
1165
100
AcDbXrecord
 10
0.0
 20
0.0
 30
0.0
  0
XRECORD
  5
1182
102
{ACAD_REACTORS
330
1165
102
}
330
1165
100
AcDbXrecord
 10
0.0
 20
0.0
 30
0.0
  0
XRECORD
  5
1183
102
{ACAD_REACTORS
330
1165
102
}
330
1165
100
AcDbXrecord
 10
0.0
 20
0.0
 30
0.0
  0
XRECORD
  5
1184
102
{ACAD_REACTORS
330
1165
102
}
330
1165
100
AcDbXrecord
 10
0.0
 20
0.0
 30
0.0
  0
XRECORD
  5
1185
102
{ACAD_REACTORS
330
1165
102
}
330
1165
100
AcDbXrecord
 10
0.0
 20
0.0
 30
0.0
  0
LAYER_INDEX
  5
115C
102
{ACAD_REACTORS
330
115B
102
}
330
115B
100
AcDbIndex
 40
2452839.678845116
100
AcDbLayerIndex
  8
0
360
115D
 90
        0
  8
AM_0
360
115E
 90
       54
  8
AM_11
360
115F
 90
        4
  8
AM_7
360
1160
 90
        1
  8
AM_5
360
1161
 90
        4
  8
Defpoints
360
1162
 90
        0
  8
AM_6
360
1163
 90
        1
  0
XRECORD
  5
2D
102
{ACAD_REACTORS
330
2C
102
}
330
2C
100
AcDbXrecord
  1
VERSION
140
15.0
  1
PRODUCT
  2
AutoCAD Mechanical 2000
  0
IDBUFFER
  5
115D
330
0
100
AcDbIdBuffer
  0
IDBUFFER
  5
115E
330
0
100
AcDbIdBuffer
330
F4E
330
F4F
330
F50
330
F51
330
F52
330
F53
330
EFF
330
F00
330
F01
330
F02
330
F03
330
F04
330
F05
330
F06
330
F07
330
F08
330
F09
330
F0A
330
F0B
330
F0D
330
F0E
330
F0F
330
F10
330
F1F
330
F20
330
F21
330
F22
330
F23
330
F34
330
F35
330
F36
330
F37
330
F38
330
F39
330
F3A
330
F3B
330
F3C
330
F3D
330
F3E
330
F3F
330
F40
330
F41
330
F42
330
F43
330
F44
330
F45
330
F46
330
F47
330
F48
330
F49
330
F4A
330
F4B
330
F4C
330
F4D
  0
IDBUFFER
  5
115F
330
0
100
AcDbIdBuffer
330
F0C
330
F11
330
F24
330
101B
  0
IDBUFFER
  5
1160
330
0
100
AcDbIdBuffer
330
F54
  0
IDBUFFER
  5
1161
330
0
100
AcDbIdBuffer
330
F12
330
F25
330
F55
330
10BA
  0
IDBUFFER
  5
1162
330
0
100
AcDbIdBuffer
  0
IDBUFFER
  5
1163
330
0
100
AcDbIdBuffer
330
E76
  0
ENDSEC
  0
EOF
