  0
SECTION
  2
HEADER
  9
$ACADVER
  1
AC1014
  9
$ACADMAINTVER
 70
     9
  9
$DWGCODEPAGE
  3
ANSI_932
  9
$INSBASE
 10
0.0
 20
0.0
 30
0.0
  9
$EXTMIN
 10
-61.7348742152464
 20
-27.25000099999999
 30
-0.00000001
  9
$EXTMAX
 10
8.829530889074508
 20
5.5
 30
0.00000001
  9
$LIMMIN
 10
-75.39320468207454
 20
-40.73039478042001
  9
$LIMMAX
 10
32.76373417768513
 20
35.72733941427884
  9
$ORTHOMODE
 70
     0
  9
$REGENMODE
 70
     1
  9
$FILLMODE
 70
     1
  9
$QTEXTMODE
 70
     0
  9
$MIRRTEXT
 70
     0
  9
$DRAGMODE
 70
     2
  9
$LTSCALE
 40
0.3
  9
$OSMODE
 70
    55
  9
$ATTMODE
 70
     1
  9
$TEXTSIZE
 40
2.5
  9
$TRACEWID
 40
1.0
  9
$TEXTSTYLE
  7
STANDARD
  9
$CLAYER
  8
AM_0
  9
$CELTYPE
  6
BYLAYER
  9
$CECOLOR
 62
   256
  9
$CELTSCALE
 40
1.0
  9
$DELOBJ
 70
     1
  9
$DISPSILH
 70
     0
  9
$DIMSCALE
 40
0.5
  9
$DIMASZ
 40
2.5
  9
$DIMEXO
 40
1.0
  9
$DIMDLI
 40
12.0
  9
$DIMRND
 40
0.0
  9
$DIMDLE
 40
0.0
  9
$DIMEXE
 40
1.0
  9
$DIMTP
 40
0.1
  9
$DIMTM
 40
0.1
  9
$DIMTXT
 40
3.2
  9
$DIMCEN
 40
0.0
  9
$DIMTSZ
 40
0.0
  9
$DIMTOL
 70
     0
  9
$DIMLIM
 70
     0
  9
$DIMTIH
 70
     0
  9
$DIMTOH
 70
     0
  9
$DIMSE1
 70
     0
  9
$DIMSE2
 70
     0
  9
$DIMTAD
 70
     3
  9
$DIMZIN
 70
     8
  9
$DIMBLK
  1
OPEN30
  9
$DIMASO
 70
     1
  9
$DIMSHO
 70
     1
  9
$DIMPOST
  1

  9
$DIMAPOST
  1
"
  9
$DIMALT
 70
     0
  9
$DIMALTD
 70
     2
  9
$DIMALTF
 40
0.0393701
  9
$DIMLFAC
 40
1.0
  9
$DIMTOFL
 70
     1
  9
$DIMTVP
 40
0.0
  9
$DIMTIX
 70
     0
  9
$DIMSOXD
 70
     0
  9
$DIMSAH
 70
     0
  9
$DIMBLK1
  1

  9
$DIMBLK2
  1

  9
$DIMSTYLE
  2
AM_JIS
  9
$DIMCLRD
 70
   256
  9
$DIMCLRE
 70
   256
  9
$DIMCLRT
 70
     2
  9
$DIMTFAC
 40
0.71
  9
$DIMGAP
 40
1.5
  9
$DIMJUST
 70
     0
  9
$DIMSD1
 70
     0
  9
$DIMSD2
 70
     0
  9
$DIMTOLJ
 70
     0
  9
$DIMTZIN
 70
     0
  9
$DIMALTZ
 70
     0
  9
$DIMALTTZ
 70
     0
  9
$DIMFIT
 70
     3
  9
$DIMUPT
 70
     0
  9
$DIMUNIT
 70
     2
  9
$DIMDEC
 70
     3
  9
$DIMTDEC
 70
     3
  9
$DIMALTU
 70
     2
  9
$DIMALTTD
 70
     2
  9
$DIMTXSTY
  7
ASAMI
  9
$DIMAUNIT
 70
     0
  9
$LUNITS
 70
     2
  9
$LUPREC
 70
     2
  9
$SKETCHINC
 40
1.0
  9
$FILLETRAD
 40
2.5
  9
$AUNITS
 70
     0
  9
$AUPREC
 70
     0
  9
$MENU
  1
.
  9
$ELEVATION
 40
0.0
  9
$PELEVATION
 40
0.0
  9
$THICKNESS
 40
0.0
  9
$LIMCHECK
 70
     0
  9
$BLIPMODE
 70
     0
  9
$CHAMFERA
 40
2.5
  9
$CHAMFERB
 40
2.5
  9
$CHAMFERC
 40
20.0
  9
$CHAMFERD
 40
0.0
  9
$SKPOLY
 70
     0
  9
$TDCREATE
 40
2452838.620506898
  9
$TDUPDATE
 40
2453152.481607338
  9
$TDINDWG
 40
0.0643498264
  9
$TDUSRTIMER
 40
0.0643498264
  9
$USRTIMER
 70
     1
  9
$ANGBASE
 50
0.0
  9
$ANGDIR
 70
     0
  9
$PDMODE
 70
     0
  9
$PDSIZE
 40
0.0
  9
$PLINEWID
 40
0.0
  9
$COORDS
 70
     1
  9
$SPLFRAME
 70
     0
  9
$SPLINETYPE
 70
     6
  9
$SPLINESEGS
 70
     8
  9
$ATTDIA
 70
     1
  9
$ATTREQ
 70
     1
  9
$HANDLING
 70
 12289
  9
$HANDSEED
  5
18A8
  9
$SURFTAB1
 70
     6
  9
$SURFTAB2
 70
     6
  9
$SURFTYPE
 70
     6
  9
$SURFU
 70
     6
  9
$SURFV
 70
     6
  9
$UCSNAME
  2

  9
$UCSORG
 10
-0.0000000000000566
 20
-0.0000000000000036
 30
0.0
  9
$UCSXDIR
 10
1.0
 20
0.0
 30
0.0
  9
$UCSYDIR
 10
0.0
 20
1.0
 30
0.0
  9
$PUCSNAME
  2

  9
$PUCSORG
 10
0.0
 20
0.0
 30
0.0
  9
$PUCSXDIR
 10
1.0
 20
0.0
 30
0.0
  9
$PUCSYDIR
 10
0.0
 20
1.0
 30
0.0
  9
$USERI1
 70
     0
  9
$USERI2
 70
     0
  9
$USERI3
 70
     0
  9
$USERI4
 70
     0
  9
$USERI5
 70
     0
  9
$USERR1
 40
0.0
  9
$USERR2
 40
0.0
  9
$USERR3
 40
0.0
  9
$USERR4
 40
0.0
  9
$USERR5
 40
0.0
  9
$WORLDVIEW
 70
     1
  9
$SHADEDGE
 70
     3
  9
$SHADEDIF
 70
    70
  9
$TILEMODE
 70
     1
  9
$MAXACTVP
 70
    64
  9
$PINSBASE
 10
0.0
 20
0.0
 30
0.0
  9
$PLIMCHECK
 70
     0
  9
$PEXTMIN
 10
1.000000000000000E+20
 20
1.000000000000000E+20
 30
1.000000000000000E+20
  9
$PEXTMAX
 10
-1.000000000000000E+20
 20
-1.000000000000000E+20
 30
-1.000000000000000E+20
  9
$PLIMMIN
 10
0.0
 20
0.0
  9
$PLIMMAX
 10
841.0
 20
594.0
  9
$UNITMODE
 70
     0
  9
$VISRETAIN
 70
     1
  9
$PLINEGEN
 70
     0
  9
$PSLTSCALE
 70
     0
  9
$TREEDEPTH
 70
  3020
  9
$PICKSTYLE
 70
     0
  9
$CMLSTYLE
  2
STANDARD
  9
$CMLJUST
 70
     0
  9
$CMLSCALE
 40
20.0
  9
$PROXYGRAPHICS
 70
     1
  9
$MEASUREMENT
 70
     1
  0
ENDSEC
  0
SECTION
  2
CLASSES
  0
CLASS
  1
ACDBDICTIONARYWDFLT
  2
AcDbDictionaryWithDefault
  3
AutoCAD 2000
 90
        0
280
     0
281
     0
  0
CLASS
  1
ACDBPLACEHOLDER
  2
AcDbPlaceHolder
  3
AutoCAD 2000
 90
        0
280
     0
281
     0
  0
CLASS
  1
LAYOUT
  2
AcDbLayout
  3
AutoCAD 2000
 90
        0
280
     0
281
     0
  0
CLASS
  1
AMGSETTINGSOBJ
  2
AmgSettingsObj
  3
"AcadM|Product Description: AutoCAD Mechanical 2000|Company: Autodesk"
 90
        0
280
     0
281
     0
  0
CLASS
  1
ACME_DOCUMENT
  2
AcMeDbDoc
  3
AcMeServices
 90
        0
280
     0
281
     0
  0
CLASS
  1
ACMESCOPE
  2
AcMeScope
  3
AcMeServices
 90
        0
280
     0
281
     0
  0
CLASS
  1
ACMECOMMANDHISTORY
  2
AcMeCommandHistory
  3
AcMeServices
 90
        0
280
     0
281
     0
  0
CLASS
  1
DICTIONARYVAR
  2
AcDbDictionaryVar
  3
AutoCAD 2000
 90
        0
280
     0
281
     0
  0
CLASS
  1
ACIMSYSVARMAN
  2
AcImSysVarManager
  3
AcMeServices
 90
        0
280
     0
281
     0
  0
CLASS
  1
ACIMREALSYSVAR
  2
AcImRealSysVar
  3
AcMeServices
 90
        0
280
     0
281
     0
  0
CLASS
  1
ACIMINTSYSVAR
  2
AcImIntSysVar
  3
AcMeServices
 90
        0
280
     0
281
     0
  0
CLASS
  1
ACMEDRAWINGMAN
  2
AcMeDrawingMan
  3
AcMeServices
 90
        0
280
     0
281
     0
  0
CLASS
  1
ACMEVIEW
  2
AcMeView
  3
AcMeServices
 90
        0
280
     0
281
     0
  0
CLASS
  1
ACDBENTITYCACHE
  2
AcMeEntityCache
  3
AcMeServices
 90
        0
280
     0
281
     0
  0
CLASS
  1
GSMANAGER
  2
AcMeGSManager
  3
AcMeServices
 90
        0
280
     0
281
     0
  0
CLASS
  1
AmdtInternalReactor
  2
AmdtInternalReactor
  3
AcMeServices
 90
        0
280
     0
281
     0
  0
CLASS
  1
ACMESTATEMGR
  2
AcMeStateMgr
  3
AcMeServices
 90
        0
280
     0
281
     0
  0
CLASS
  1
ACME_DATABASE
  2
AcMeDbDatabase
  3
AcMeServices
 90
        0
280
     0
281
     0
  0
CLASS
  1
ACRFINSADJUSTERMGR
  2
AcRfInsAdjusterMgr
  3
AcMeServices
 90
        0
280
     0
281
     0
  0
CLASS
  1
ACMDATADICTIONARY
  2
AcmDataDictionary
  3
"AcmSymBB|Product Description: AutoCAD Mechanical 2000|Company: Autodesk"
 90
        0
280
     0
281
     0
  0
CLASS
  1
ACMDATAENTRYBLOCK
  2
AcmDataEntryBlock
  3
"AcmSymBB|Product Description: AutoCAD Mechanical 2000|Company: Autodesk"
 90
        0
280
     0
281
     0
  0
CLASS
  1
AMGOBJPROPCFG
  2
AmgObjPropCfg
  3
"AmgLay|Product Description: AutoCAD Mechanical 2000|Company: Autodesk"
 90
        1
280
     0
281
     0
  0
CLASS
  1
ACAMGFILTERDAT
  2
AcAmgFilterDat
  3
"AcadM|Product Description: AutoCAD Mechanical 2000|Company: Autodesk"
 90
        0
280
     0
281
     0
  0
CLASS
  1
LAYER_INDEX
  2
AcDbLayerIndex
  3
AutoCAD 2000
 90
        0
280
     0
281
     0
  0
CLASS
  1
IDBUFFER
  2
AcDbIdBuffer
  3
AutoCAD 2000
 90
        0
280
     0
281
     0
  0
CLASS
  1
ACIMSTRSYSVAR
  2
AcImStrSysVar
  3
AcMeServices
 90
        0
280
     0
281
     0
  0
CLASS
  1
ACMSTANDARDJIS
  2
AcmStandardJIS
  3
"AcmSymBB|Product Description: AutoCAD Mechanical 2000|Company: Autodesk"
 90
        0
280
     0
281
     0
  0
CLASS
  1
ACMSURFSTANDARDJIS
  2
AcmSurfTextStdJIS
  3
"AcmSymBB|Product Description: AutoCAD Mechanical 2000|Company: Autodesk"
 90
        0
280
     0
281
     0
  0
CLASS
  1
ACMFCFSTANDARDJIS
  2
AcmFCFStdJIS
  3
"AcmSymBB|Product Description: AutoCAD Mechanical 2000|Company: Autodesk"
 90
        0
280
     0
281
     0
  0
CLASS
  1
ACMWELDSTANDARDJIS
  2
AcmWeldingStdJIS
  3
"AcmSymBB|Product Description: AutoCAD Mechanical 2000|Company: Autodesk"
 90
        0
280
     0
281
     0
  0
CLASS
  1
ACMIDSTANDARDJIS
  2
AcmIdStdJIS
  3
"AcmSymBB|Product Description: AutoCAD Mechanical 2000|Company: Autodesk"
 90
        0
280
     0
281
     0
  0
CLASS
  1
ACMDATUMSTANDARDJIS
  2
AcmDatumStdJIS
  3
"AcmSymBB|Product Description: AutoCAD Mechanical 2000|Company: Autodesk"
 90
        0
280
     0
281
     0
  0
CLASS
  1
ACMBOMSTANDARDJIS
  2
AcmBOMStdJIS
  3
"AcmSymBB|Product Description: AutoCAD Mechanical 2000|Company: Autodesk"
 90
        0
280
     0
281
     0
  0
CLASS
  1
ACMSTANDARDANSI
  2
AcmStandardANSI
  3
"AcmSymBB|Product Description: AutoCAD Mechanical 2000|Company: Autodesk"
 90
        0
280
     0
281
     0
  0
CLASS
  1
ACMSURFSTANDARDANSI
  2
AcmSurfTextStdANSI
  3
"AcmSymBB|Product Description: AutoCAD Mechanical 2000|Company: Autodesk"
 90
        0
280
     0
281
     0
  0
CLASS
  1
ACMFCFSTANDARDANSI
  2
AcmFCFStdANSI
  3
"AcmSymBB|Product Description: AutoCAD Mechanical 2000|Company: Autodesk"
 90
        0
280
     0
281
     0
  0
CLASS
  1
ACMWELDSTANDARDANSI
  2
AcmWeldingStdANSI
  3
"AcmSymBB|Product Description: AutoCAD Mechanical 2000|Company: Autodesk"
 90
        0
280
     0
281
     0
  0
CLASS
  1
ACMIDSTANDARDANSI
  2
AcmIdStdANSI
  3
"AcmSymBB|Product Description: AutoCAD Mechanical 2000|Company: Autodesk"
 90
        0
280
     0
281
     0
  0
CLASS
  1
ACMDATUMSTANDARDANSI
  2
AcmDatumStdANSI
  3
"AcmSymBB|Product Description: AutoCAD Mechanical 2000|Company: Autodesk"
 90
        0
280
     0
281
     0
  0
CLASS
  1
ACMBOMSTANDARDANSI
  2
AcmBOMStdANSI
  3
"AcmSymBB|Product Description: AutoCAD Mechanical 2000|Company: Autodesk"
 90
        0
280
     0
281
     0
  0
CLASS
  1
ACMSTANDARDBSI
  2
AcmStandardBSI
  3
"AcmSymBB|Product Description: AutoCAD Mechanical 2000|Company: Autodesk"
 90
        0
280
     0
281
     0
  0
CLASS
  1
ACMSURFSTANDARDBSI
  2
AcmSurfTextStdBSI
  3
"AcmSymBB|Product Description: AutoCAD Mechanical 2000|Company: Autodesk"
 90
        0
280
     0
281
     0
  0
CLASS
  1
ACMFCFSTANDARDBSI
  2
AcmFCFStdBSI
  3
"AcmSymBB|Product Description: AutoCAD Mechanical 2000|Company: Autodesk"
 90
        0
280
     0
281
     0
  0
CLASS
  1
ACMWELDSTANDARDBSI
  2
AcmWeldingStdBSI
  3
"AcmSymBB|Product Description: AutoCAD Mechanical 2000|Company: Autodesk"
 90
        0
280
     0
281
     0
  0
CLASS
  1
ACMIDSTANDARDBSI
  2
AcmIdStdBSI
  3
"AcmSymBB|Product Description: AutoCAD Mechanical 2000|Company: Autodesk"
 90
        0
280
     0
281
     0
  0
CLASS
  1
ACMDATUMSTANDARDBSI
  2
AcmDatumStdBSI
  3
"AcmSymBB|Product Description: AutoCAD Mechanical 2000|Company: Autodesk"
 90
        0
280
     0
281
     0
  0
CLASS
  1
ACMBOMSTANDARDBSI
  2
AcmBOMStdBSI
  3
"AcmSymBB|Product Description: AutoCAD Mechanical 2000|Company: Autodesk"
 90
        0
280
     0
281
     0
  0
CLASS
  1
LONG_TRANSACTION
  2
AcDbLongTransaction
  3
AutoCAD 2000
 90
        0
280
     0
281
     0
  0
CLASS
  1
LWPOLYLINE
  2
AcDbPolyline
  3
AutoCAD 2000
 90
        0
280
     0
281
     1
  0
CLASS
  1
HATCH
  2
AcDbHatch
  3
AutoCAD 2000
 90
        0
280
     0
281
     1
  0
CLASS
  1
XRECORD
  2
AcDbXrecord
  3
AutoCAD 2000
 90
        0
280
     0
281
     0
  0
ENDSEC
  0
SECTION
  2
TABLES
  0
TABLE
  2
VPORT
  5
8
330
0
100
AcDbSymbolTable
 70
     3
  0
VPORT
  5
187D
330
8
100
AcDbSymbolTableRecord
100
AcDbViewportTableRecord
  2
*ACTIVE
 70
     0
 10
0.0
 20
0.0
 11
1.0
 21
1.0
 12
-17.93329358325329
 22
2.006416846405993
 13
0.0
 23
0.0
 14
2.5
 24
2.5
 15
10.0
 25
10.0
 16
0.0
 26
0.0
 36
1.0
 17
0.0
 27
0.0
 37
0.0
 40
62.91091333266248
 41
1.56570841889117
 42
50.0
 43
0.0
 44
0.0
 50
0.0
 51
0.0
 71
     0
 72
   100
 73
     1
 74
     3
 75
     0
 76
     0
 77
     0
 78
     0
  0
ENDTAB
  0
TABLE
  2
LTYPE
  5
5
330
0
100
AcDbSymbolTable
 70
    10
  0
LTYPE
  5
14
330
5
100
AcDbSymbolTableRecord
100
AcDbLinetypeTableRecord
  2
BYBLOCK
 70
     0
  3

 72
    65
 73
     0
 40
0.0
  0
LTYPE
  5
15
330
5
100
AcDbSymbolTableRecord
100
AcDbLinetypeTableRecord
  2
BYLAYER
 70
     0
  3

 72
    65
 73
     0
 40
0.0
  0
LTYPE
  5
16
330
5
100
AcDbSymbolTableRecord
100
AcDbLinetypeTableRecord
  2
CONTINUOUS
 70
     0
  3
Solid line
 72
    65
 73
     0
 40
0.0
  0
LTYPE
  5
4B
330
5
100
AcDbSymbolTableRecord
100
AcDbLinetypeTableRecord
  2
AM_ISO02W050
 70
     0
  3
__ __ __ __ __ __ __ __ __ __ __ __ __ __ __
 72
    65
 73
     2
 40
7.5
 49
6.0
 74
     0
 49
-1.5
 74
     0
  0
LTYPE
  5
4C
330
5
100
AcDbSymbolTableRecord
100
AcDbLinetypeTableRecord
  2
AM_ISO08W050
 70
     0
  3
____ . ____ . ____ . ____ . ____ . ____ . ____
 72
    65
 73
     4
 40
18.0
 49
12.0
 74
     0
 49
-1.5
 74
     0
 49
3.0
 74
     0
 49
-1.5
 74
     0
  0
LTYPE
  5
4D
330
5
100
AcDbSymbolTableRecord
100
AcDbLinetypeTableRecord
  2
AM_ISO09W050
 70
     0
  3
_____ . . _____ . . _____ . . ____ .. ____
 72
    65
 73
     6
 40
22.5
 49
12.0
 74
     0
 49
-1.5
 74
     0
 49
3.0
 74
     0
 49
-1.5
 74
     0
 49
3.0
 74
     0
 49
-1.5
 74
     0
  0
LTYPE
  5
4E
330
5
100
AcDbSymbolTableRecord
100
AcDbLinetypeTableRecord
  2
AMCONSTR
 70
     0
  3
_______________________
 72
    65
 73
     2
 40
9999.0
 49
9999.0
 74
     0
 49
0.0
 74
     0
  0
LTYPE
  5
4F
330
5
100
AcDbSymbolTableRecord
100
AcDbLinetypeTableRecord
  2
AM_ISO02W050X2
 70
     0
  3
 _ _ _ _ _ _ _ _ _ _ _ _
 72
    65
 73
     2
 40
3.75
 49
3.0
 74
     0
 49
-0.75
 74
     0
  0
LTYPE
  5
50
330
5
100
AcDbSymbolTableRecord
100
AcDbLinetypeTableRecord
  2
AM_ISO08W050X2
 70
     0
  3
__ . __ . __ . __ . __ . __
 72
    65
 73
     4
 40
9.0
 49
6.0
 74
     0
 49
-0.75
 74
     0
 49
1.5
 74
     0
 49
-0.75
 74
     0
  0
LTYPE
  5
53
330
5
100
AcDbSymbolTableRecord
100
AcDbLinetypeTableRecord
  2
AMZIGZAG
 70
     0
  3
/\/-/\/-/\/-/\/-/\/-/\/
 72
    65
 73
     2
 40
11.00009999999999
 49
0.0001
 74
     4
 75
   135
340
52
 46
0.04
 50
0.0
 44
0.0
 45
0.0
 49
-11.0
 74
     0
  0
LTYPE
  5
166
330
5
100
AcDbSymbolTableRecord
100
AcDbLinetypeTableRecord
  2
ACJISTGL
 70
     0
  3
_ _ _ _ _
 72
    65
 73
     2
 40
3.0
 49
2.0
 74
     0
 49
-1.0
 74
     0
  0
LTYPE
  5
26A
330
5
100
AcDbSymbolTableRecord
100
AcDbLinetypeTableRecord
  2
ACJISTGB
 70
     0
  3
__ . . __ . .
 72
    65
 73
     6
 40
9.0
 49
4.0
 74
     0
 49
-1.0
 74
     0
 49
1.0
 74
     0
 49
-1.0
 74
     0
 49
1.0
 74
     0
 49
-1.0
 74
     0
  0
ENDTAB
  0
TABLE
  2
LAYER
  5
2
330
0
100
AcDbSymbolTable
 70
     7
  0
LAYER
  5
10
330
2
100
AcDbSymbolTableRecord
100
AcDbLayerTableRecord
  2
0
 70
     0
 62
     7
  6
CONTINUOUS
  0
LAYER
  5
3F9
330
2
100
AcDbSymbolTableRecord
100
AcDbLayerTableRecord
  2
AM_0
 70
     0
 62
     7
  6
CONTINUOUS
  0
LAYER
  5
BD6
330
2
100
AcDbSymbolTableRecord
100
AcDbLayerTableRecord
  2
AM_11
 70
     0
 62
     3
  6
AM_ISO09W050
  0
LAYER
  5
BD7
330
2
100
AcDbSymbolTableRecord
100
AcDbLayerTableRecord
  2
AM_7
 70
     0
 62
     4
  6
AM_ISO08W050
  0
LAYER
  5
BD8
330
2
100
AcDbSymbolTableRecord
100
AcDbLayerTableRecord
  2
AM_5
 70
     0
 62
     3
  6
CONTINUOUS
  0
LAYER
  5
BD9
330
2
100
AcDbSymbolTableRecord
100
AcDbLayerTableRecord
  2
DEFPOINTS
 70
     0
 62
     7
  6
CONTINUOUS
  0
LAYER
  5
BDA
330
2
100
AcDbSymbolTableRecord
100
AcDbLayerTableRecord
  2
AM_6
 70
     0
 62
     2
  6
CONTINUOUS
  0
ENDTAB
  0
TABLE
  2
STYLE
  5
3
330
0
100
AcDbSymbolTable
 70
     5
  0
STYLE
  5
11
330
3
100
AcDbSymbolTableRecord
100
AcDbTextStyleTableRecord
  2
STANDARD
 70
     0
 40
0.0
 41
1.0
 50
0.0
 71
     0
 42
2.5
  3
simplex.shx
  4
EXTFONT.SHX
  0
STYLE
  5
52
330
3
100
AcDbSymbolTableRecord
100
AcDbTextStyleTableRecord
  2

 70
     1
 40
0.0
 41
1.0
 50
0.0
 71
     0
 42
2.5
  3
ltypeshp.shx
  4

  0
STYLE
  5
6B
330
3
100
AcDbSymbolTableRecord
100
AcDbTextStyleTableRecord
  2
ASAMI
 70
     0
 40
0.0
 41
1.0
 50
0.0
 71
     0
 42
2.5
  3
simplex.shx
  4
EXTFONT.SHX
  0
STYLE
  5
262
330
3
100
AcDbSymbolTableRecord
100
AcDbTextStyleTableRecord
  2
ACJISTS
 70
     0
 40
1.0
 41
1.0
 50
0.0
 71
     0
 42
2.5
  3
simplex.shx
  4
bigfont.shx
  0
STYLE
  5
269
330
3
100
AcDbSymbolTableRecord
100
AcDbTextStyleTableRecord
  2
ACJISGDT
 70
     0
 40
0.0
 41
1.0
 50
0.0
 71
     0
 42
2.5
  3
amgdtans.shx
  4

  0
ENDTAB
  0
TABLE
  2
VIEW
  5
6
330
0
100
AcDbSymbolTable
 70
     0
  0
ENDTAB
  0
TABLE
  2
UCS
  5
7
330
0
100
AcDbSymbolTable
 70
     0
  0
ENDTAB
  0
TABLE
  2
APPID
  5
9
330
0
100
AcDbSymbolTable
 70
    13
  0
APPID
  5
12
330
9
100
AcDbSymbolTableRecord
100
AcDbRegAppTableRecord
  2
ACAD
 70
     0
  0
APPID
  5
30
330
9
100
AcDbSymbolTableRecord
100
AcDbRegAppTableRecord
  2
MCAD_NO_VIS
 70
     0
  0
APPID
  5
31
330
9
100
AcDbSymbolTableRecord
100
AcDbRegAppTableRecord
  2
ACAD_TEMP_GRAPHIC
 70
     0
  0
APPID
  5
2C2
330
9
100
AcDbSymbolTableRecord
100
AcDbRegAppTableRecord
  2
GENIUS_GENDTOL_13
 70
     0
  0
APPID
  5
339
330
9
100
AcDbSymbolTableRecord
100
AcDbRegAppTableRecord
  2
GENIUS_GENODEF_13
 70
     0
  0
APPID
  5
33A
330
9
100
AcDbSymbolTableRecord
100
AcDbRegAppTableRecord
  2
GENIUS_GENOBJ-N-RSBK_13
 70
     0
  0
APPID
  5
33B
330
9
100
AcDbSymbolTableRecord
100
AcDbRegAppTableRecord
  2
GENIUS_GENOBJ-N-LIB_13
 70
     0
  0
APPID
  5
33C
330
9
100
AcDbSymbolTableRecord
100
AcDbRegAppTableRecord
  2
GENIUS_GENSCALE_13
 70
     0
  0
APPID
  5
378
330
9
100
AcDbSymbolTableRecord
100
AcDbRegAppTableRecord
  2
GENIUS_GENDIMSH_14
 70
     0
  0
APPID
  5
BDB
330
9
100
AcDbSymbolTableRecord
100
AcDbRegAppTableRecord
  2
GENIUS_GENOBJ-N-CEN_13
 70
     0
  0
APPID
  5
BDC
330
9
100
AcDbSymbolTableRecord
100
AcDbRegAppTableRecord
  2
GENIUS_GENFIL_13
 70
     0
  0
APPID
  5
BDD
330
9
100
AcDbSymbolTableRecord
100
AcDbRegAppTableRecord
  2
GENIUS_GENOBJ-N-FIL_13
 70
     0
  0
APPID
  5
12AD
330
9
100
AcDbSymbolTableRecord
100
AcDbRegAppTableRecord
  2
GENIUS_GENOREF_13
 70
     0
  0
ENDTAB
  0
TABLE
  2
DIMSTYLE
  5
A
330
0
100
AcDbSymbolTable
 70
     8
  0
DIMSTYLE
105
58
102
{ACAD_REACTORS
330
C4F
330
C53
330
16F7
330
1704
102
}
330
A
100
AcDbSymbolTableRecord
100
AcDbDimStyleTableRecord
  2
AM_JIS
 70
     0
  3

  4
"
  5
OPEN30
  6

  7

 40
0.5
 41
2.5
 42
1.0
 43
12.0
 44
1.0
 45
0.0
 46
0.0
 47
0.1
 48
0.1
140
3.2
141
0.0
142
0.0
143
0.0393701
144
1.0
145
0.0
146
0.71
147
1.5
 71
     0
 72
     0
 73
     0
 74
     0
 75
     0
 76
     0
 77
     3
 78
     8
170
     0
171
     2
172
     1
173
     0
174
     0
175
     0
176
   256
177
   256
178
     2
270
     2
271
     3
272
     3
273
     2
274
     2
340
6B
275
     0
280
     0
281
     0
282
     0
283
     0
284
     0
285
     0
286
     0
287
     3
288
     0
  0
DIMSTYLE
105
5F
330
A
100
AcDbSymbolTableRecord
100
AcDbDimStyleTableRecord
  2
AM_JIS$3
 70
     0
  3

  4
"
  5
OPEN30
  6

  7

 40
0.5
 41
2.5
 42
1.0
 43
10.0
 44
1.0
 45
0.0
 46
0.0
 47
0.1
 48
0.1
140
3.2
141
0.0
142
0.0
143
0.0393701
144
1.0
145
0.0
146
0.71
147
1.5
 71
     0
 72
     0
 73
     0
 74
     1
 75
     0
 76
     0
 77
     3
 78
     8
170
     0
171
     2
172
     0
173
     0
174
     0
175
     0
176
   256
177
   256
178
     2
270
     2
271
     2
272
     3
273
     2
274
     2
340
6B
275
     0
280
     0
281
     0
282
     0
283
     0
284
     0
285
     0
286
     0
287
     0
288
     1
  0
DIMSTYLE
105
60
330
A
100
AcDbSymbolTableRecord
100
AcDbDimStyleTableRecord
  2
AM_JIS$4
 70
     0
  3

  4
"
  5
OPEN30
  6

  7

 40
0.5
 41
2.5
 42
1.0
 43
10.0
 44
1.0
 45
0.0
 46
0.0
 47
0.1
 48
0.1
140
3.2
141
0.0
142
0.0
143
0.0393701
144
1.0
145
0.0
146
0.71
147
1.5
 71
     0
 72
     0
 73
     0
 74
     1
 75
     0
 76
     0
 77
     3
 78
     8
170
     0
171
     2
172
     0
173
     0
174
     0
175
     0
176
   256
177
   256
178
     2
270
     2
271
     2
272
     3
273
     2
274
     2
340
6B
275
     0
280
     0
281
     0
282
     0
283
     0
284
     0
285
     0
286
     0
287
     0
288
     1
  0
DIMSTYLE
105
61
330
A
100
AcDbSymbolTableRecord
100
AcDbDimStyleTableRecord
  2
AM_JIS$6
 70
     0
  3

  4
"
  5
OPEN30
  6

  7

 40
0.5
 41
2.5
 42
1.0
 43
10.0
 44
1.0
 45
0.0
 46
0.0
 47
0.1
 48
0.1
140
3.2
141
0.0
142
0.0
143
0.0393701
144
1.0
145
0.0
146
0.71
147
1.5
 71
     0
 72
     0
 73
     0
 74
     0
 75
     0
 76
     0
 77
     0
 78
     8
170
     0
171
     2
172
     1
173
     0
174
     0
175
     0
176
   256
177
   256
178
     2
270
     2
271
     2
272
     2
273
     2
274
     2
340
6B
275
     0
280
     0
281
     0
282
     0
283
     0
284
     0
285
     0
286
     0
287
     3
288
     0
  0
DIMSTYLE
105
62
330
A
100
AcDbSymbolTableRecord
100
AcDbDimStyleTableRecord
  2
AM_JIS$7
 70
     0
  3

  4
"
  5
OPEN30
  6

  7

 40
0.5
 41
2.5
 42
1.0
 43
10.0
 44
1.0
 45
0.0
 46
0.0
 47
0.1
 48
0.1
140
3.2
141
0.0
142
0.0
143
0.0393701
144
1.0
145
0.0
146
0.71
147
1.5
 71
     0
 72
     0
 73
     0
 74
     0
 75
     0
 76
     0
 77
     3
 78
     8
170
     0
171
     2
172
     1
173
     0
174
     0
175
     0
176
   256
177
   256
178
     2
270
     2
271
     2
272
     3
273
     2
274
     2
340
6B
275
     0
280
     0
281
     0
282
     0
283
     0
284
     0
285
     0
286
     0
287
     3
288
     0
  0
DIMSTYLE
105
63
330
A
100
AcDbSymbolTableRecord
100
AcDbDimStyleTableRecord
  2
AM_JIS$SF
 70
     0
  3

  4
"
  5
OPEN30
  6

  7

 40
0.5
 41
2.5
 42
1.0
 43
10.0
 44
1.0
 45
0.0
 46
0.0
 47
0.1
 48
0.1
140
3.2
141
0.0
142
0.0
143
0.0393701
144
1.0
145
0.0
146
0.71
147
1.5
 71
     0
 72
     0
 73
     0
 74
     0
 75
     1
 76
     1
 77
     3
 78
     8
170
     0
171
     2
172
     1
173
     0
174
     0
175
     0
176
   256
177
   256
178
     2
270
     2
271
     2
272
     2
273
     2
274
     2
340
6B
275
     0
280
     0
281
     0
282
     0
283
     0
284
     0
285
     0
286
     0
287
     3
288
     0
  0
DIMSTYLE
105
68
330
A
100
AcDbSymbolTableRecord
100
AcDbDimStyleTableRecord
  2
AM_JIS$SH
 70
     0
  3

  4
"
  5

  6
GENAXEH
  7
OPEN30
 40
0.5
 41
2.5
 42
1.0
 43
10.0
 44
1.0
 45
0.0
 46
0.0
 47
0.1
 48
0.1
140
3.2
141
0.0
142
0.0
143
0.0393701
144
2.0
145
0.0
146
0.71
147
1.5
 71
     0
 72
     0
 73
     0
 74
     0
 75
     1
 76
     1
 77
     3
 78
     8
170
     0
171
     2
172
     1
173
     1
174
     0
175
     0
176
   256
177
   256
178
     2
270
     2
271
     2
272
     2
273
     2
274
     2
340
6B
275
     0
280
     0
281
     0
282
     0
283
     0
284
     0
285
     0
286
     0
287
     3
288
     0
  0
DIMSTYLE
105
B34
330
A
100
AcDbSymbolTableRecord
100
AcDbDimStyleTableRecord
  2
AM_JIS$2
 70
     0
  3

  4
"
  5
OPEN30
  6

  7

 40
0.5
 41
2.5
 42
1.0
 43
12.0
 44
1.0
 45
0.0
 46
0.0
 47
0.1
 48
0.1
140
3.2
141
0.0
142
0.0
143
0.0393701
144
1.0
145
0.0
146
0.71
147
1.5
 71
     0
 72
     0
 73
     0
 74
     0
 75
     0
 76
     0
 77
     3
 78
     8
170
     0
171
     2
172
     1
173
     0
174
     0
175
     0
176
   256
177
   256
178
     2
270
     2
271
     3
272
     3
273
     2
274
     2
340
6B
275
     0
280
     0
281
     0
282
     0
283
     0
284
     0
285
     0
286
     0
287
     3
288
     0
  0
ENDTAB
  0
TABLE
  2
BLOCK_RECORD
  5
1
330
0
100
AcDbSymbolTable
 70
     9
  0
BLOCK_RECORD
  5
1F
102
{ACAD_XDICTIONARY
360
74
102
}
330
1
100
AcDbSymbolTableRecord
100
AcDbBlockTableRecord
  2
*MODEL_SPACE
  0
BLOCK_RECORD
  5
101
102
{ACAD_XDICTIONARY
360
18A6
102
}
330
1
100
AcDbSymbolTableRecord
100
AcDbBlockTableRecord
  2
*PAPER_SPACE
  0
BLOCK_RECORD
  5
59
330
1
100
AcDbSymbolTableRecord
100
AcDbBlockTableRecord
  2
_OPEN30
  0
BLOCK_RECORD
  5
64
330
1
100
AcDbSymbolTableRecord
100
AcDbBlockTableRecord
  2
GENAXEH
  0
BLOCK_RECORD
  5
C75
330
1
100
AcDbSymbolTableRecord
100
AcDbBlockTableRecord
  2
*D5
  0
BLOCK_RECORD
  5
C81
330
1
100
AcDbSymbolTableRecord
100
AcDbBlockTableRecord
  2
*D6
  0
BLOCK_RECORD
  5
16F8
330
1
100
AcDbSymbolTableRecord
100
AcDbBlockTableRecord
  2
*D7
  0
BLOCK_RECORD
  5
1705
330
1
100
AcDbSymbolTableRecord
100
AcDbBlockTableRecord
  2
*D8
  0
ENDTAB
  0
ENDSEC
  0
SECTION
  2
BLOCKS
  0
BLOCK
  5
20
330
1F
100
AcDbEntity
  8
0
100
AcDbBlockBegin
  2
*MODEL_SPACE
 70
     0
 10
0.0
 20
0.0
 30
0.0
  3
*MODEL_SPACE
  1

  0
ENDBLK
  5
21
330
1F
100
AcDbEntity
  8
0
100
AcDbBlockEnd
  0
BLOCK
  5
103
330
101
100
AcDbEntity
 67
     1
  8
0
100
AcDbBlockBegin
  2
*PAPER_SPACE
 70
     0
 10
0.0
 20
0.0
 30
0.0
  3
*PAPER_SPACE
  1

  0
ENDBLK
  5
104
330
101
100
AcDbEntity
 67
     1
  8
0
100
AcDbBlockEnd
  0
BLOCK
  5
5D
330
59
100
AcDbEntity
  8
0
100
AcDbBlockBegin
  2
_OPEN30
 70
     0
 10
0.0
 20
0.0
 30
0.0
  3
_OPEN30
  1

  0
LINE
  5
5A
330
59
100
AcDbEntity
  8
0
 62
     0
100
AcDbLine
 10
-1.0
 20
0.26794919
 30
0.0
 11
0.0
 21
0.0
 31
0.0
  0
LINE
  5
5B
330
59
100
AcDbEntity
  8
0
 62
     0
100
AcDbLine
 10
0.0
 20
0.0
 30
0.0
 11
-1.0
 21
-0.26794919
 31
0.0
  0
LINE
  5
5C
330
59
100
AcDbEntity
  8
0
 62
     0
100
AcDbLine
 10
0.0
 20
0.0
 30
0.0
 11
-1.0
 21
0.0
 31
0.0
  0
ENDBLK
  5
5E
330
59
100
AcDbEntity
  8
0
100
AcDbBlockEnd
  0
BLOCK
  5
66
330
64
100
AcDbEntity
  8
0
100
AcDbBlockBegin
  2
GENAXEH
 70
     0
 10
0.0
 20
0.0
 30
0.0
  3
GENAXEH
  1

  0
LINE
  5
65
330
64
100
AcDbEntity
  8
0
100
AcDbLine
 10
-1.0
 20
0.0
 30
0.0
 11
1.0
 21
0.0
 31
0.0
  0
ENDBLK
  5
67
330
64
100
AcDbEntity
  8
0
100
AcDbBlockEnd
  0
BLOCK
  5
C7F
330
C75
100
AcDbEntity
  8
0
100
AcDbBlockBegin
  2
*D5
 70
     1
 10
0.0
 20
0.0
 30
0.0
  3
*D5
  1

  0
LINE
  5
1851
330
C75
100
AcDbEntity
  8
AM_5
100
AcDbLine
 10
-50.00000000000007
 20
-2.750000000000006
 30
0.0
 11
-50.00000000000007
 21
-16.50000099999994
 31
0.0
  0
LINE
  5
1852
330
C75
100
AcDbEntity
  8
AM_5
100
AcDbLine
 10
-0.0000000000000569
 20
-2.500000000000003
 30
0.0
 11
-0.0000000000000577
 21
-16.50000099999994
 31
0.0
  0
LINE
  5
1853
330
C75
100
AcDbEntity
  8
AM_5
100
AcDbLine
 10
-48.75000000000007
 20
-16.00000099999994
 30
0.0
 11
-1.250000000000057
 21
-16.00000099999994
 31
0.0
  0
INSERT
  5
1854
330
C75
100
AcDbEntity
  8
AM_5
100
AcDbBlockReference
  2
_OPEN30
 10
-50.00000000000007
 20
-16.00000099999994
 30
0.0
 41
1.25
 42
1.25
 43
1.25
 50
180.0
  0
INSERT
  5
1855
330
C75
100
AcDbEntity
  8
AM_5
100
AcDbBlockReference
  2
_OPEN30
 10
-0.0000000000000577
 20
-16.00000099999994
 30
0.0
 41
1.25
 42
1.25
 43
1.25
  0
MTEXT
  5
1856
330
C75
100
AcDbEntity
  8
AM_5
 62
     2
100
AcDbMText
 10
-25.00000000000006
 20
-14.45000099999994
 30
0.0
 40
1.6
 41
0.0
 71
     5
 72
     1
  1
50
  7
ASAMI
1001
ACAD
1000
MTEXTBEGIN
1070
    73
1070
     1
1070
    44
1040
1.0
1070
    74
1070
     0
1000
MTEXTEND
  0
POINT
  5
1857
330
C75
100
AcDbEntity
  8
DEFPOINTS
 62
     0
100
AcDbPoint
 10
-50.00000000000007
 20
-2.250000000000006
 30
0.0
  0
POINT
  5
1858
330
C75
100
AcDbEntity
  8
DEFPOINTS
 62
     0
100
AcDbPoint
 10
-0.0000000000000569
 20
-2.000000000000003
 30
0.0
  0
POINT
  5
1859
330
C75
100
AcDbEntity
  8
DEFPOINTS
 62
     0
100
AcDbPoint
 10
-0.0000000000000577
 20
-16.00000099999994
 30
0.0
  0
ENDBLK
  5
C80
330
C75
100
AcDbEntity
  8
0
100
AcDbBlockEnd
  0
BLOCK
  5
C8B
330
C81
100
AcDbEntity
  8
0
100
AcDbBlockBegin
  2
*D6
 70
     1
 10
0.0
 20
0.0
 30
0.0
  3
*D6
  1

  0
LINE
  5
153D
330
C81
100
AcDbEntity
  8
AM_5
100
AcDbLine
 10
-50.00000000000007
 20
-3.000000000000006
 30
0.0
 11
-59.8848742152464
 21
-3.000000000000003
 31
0.0
  0
LINE
  5
153E
330
C81
100
AcDbEntity
  8
AM_5
100
AcDbLine
 10
-50.00000000000007
 20
2.999999999999998
 30
0.0
 11
-59.8848742152464
 21
3.000000000000001
 31
0.0
  0
LINE
  5
153F
330
C81
100
AcDbEntity
  8
AM_5
100
AcDbLine
 10
-59.3848742152464
 20
-4.250000000000003
 30
0.0
 11
-59.3848742152464
 21
-5.500000000000003
 31
0.0
  0
LINE
  5
1540
330
C81
100
AcDbEntity
  8
AM_5
100
AcDbLine
 10
-59.3848742152464
 20
4.25
 30
0.0
 11
-59.3848742152464
 21
5.5
 31
0.0
  0
LINE
  5
1541
330
C81
100
AcDbEntity
  8
AM_5
100
AcDbLine
 10
-59.3848742152464
 20
-3.000000000000003
 30
0.0
 11
-59.3848742152464
 21
3.000000000000001
 31
0.0
  0
INSERT
  5
1542
330
C81
100
AcDbEntity
  8
AM_5
100
AcDbBlockReference
  2
_OPEN30
 10
-59.3848742152464
 20
-3.000000000000003
 30
0.0
 41
1.25
 42
1.25
 43
1.25
 50
90.0
  0
INSERT
  5
1543
330
C81
100
AcDbEntity
  8
AM_5
100
AcDbBlockReference
  2
_OPEN30
 10
-59.3848742152464
 20
3.000000000000001
 30
0.0
 41
1.25
 42
1.25
 43
1.25
 50
270.0
  0
MTEXT
  5
1544
330
C81
100
AcDbEntity
  8
AM_5
 62
     2
100
AcDbMText
 10
-60.93487421524639
 20
-0.0000000000000075
 30
0.0
 40
1.6
 41
0.0
 71
     5
 72
     1
  1
%%c6
  7
ASAMI
 11
0.0000000000000001
 21
1.0
 31
0.0
1001
ACAD
1000
MTEXTBEGIN
1070
    73
1070
     1
1070
    44
1040
1.0
1070
    74
1070
     0
1000
MTEXTEND
  0
POINT
  5
1545
330
C81
100
AcDbEntity
  8
DEFPOINTS
 62
     0
100
AcDbPoint
 10
-49.50000000000007
 20
-3.000000000000006
 30
0.0
  0
POINT
  5
1546
330
C81
100
AcDbEntity
  8
DEFPOINTS
 62
     0
100
AcDbPoint
 10
-49.50000000000007
 20
2.999999999999998
 30
0.0
  0
POINT
  5
1547
330
C81
100
AcDbEntity
  8
DEFPOINTS
 62
     0
100
AcDbPoint
 10
-59.3848742152464
 20
3.000000000000001
 30
0.0
  0
ENDBLK
  5
C8C
330
C81
100
AcDbEntity
  8
0
100
AcDbBlockEnd
  0
BLOCK
  5
1702
330
16F8
100
AcDbEntity
  8
0
100
AcDbBlockBegin
  2
*D7
 70
     1
 10
0.0
 20
0.0
 30
0.0
  3
*D7
  1

  0
LINE
  5
1822
330
16F8
100
AcDbEntity
  8
AM_5
100
AcDbLine
 10
-10.00000000000005
 20
-2.500000000000003
 30
0.0
 11
-10.00000000000005
 21
-10.5000010000001
 31
0.0
  0
LINE
  5
1823
330
16F8
100
AcDbEntity
  8
AM_5
100
AcDbLine
 10
-0.0000000000000569
 20
-2.500000000000003
 30
0.0
 11
-0.0000000000000574
 21
-10.5000010000001
 31
0.0
  0
LINE
  5
1824
330
16F8
100
AcDbEntity
  8
AM_5
100
AcDbLine
 10
-8.75000000000006
 20
-10.0000010000001
 30
0.0
 11
-1.250000000000057
 21
-10.0000010000001
 31
0.0
  0
INSERT
  5
1825
330
16F8
100
AcDbEntity
  8
AM_5
100
AcDbBlockReference
  2
_OPEN30
 10
-10.00000000000005
 20
-10.0000010000001
 30
0.0
 41
1.25
 42
1.25
 43
1.25
 50
180.0
  0
INSERT
  5
1826
330
16F8
100
AcDbEntity
  8
AM_5
100
AcDbBlockReference
  2
_OPEN30
 10
-0.0000000000000573
 20
-10.0000010000001
 30
0.0
 41
1.25
 42
1.25
 43
1.25
  0
MTEXT
  5
1827
330
16F8
100
AcDbEntity
  8
AM_5
 62
     2
100
AcDbMText
 10
-5.000000000000058
 20
-8.450001000000099
 30
0.0
 40
1.6
 41
0.0
 71
     5
 72
     1
  1
10
  7
ASAMI
1001
ACAD
1000
MTEXTBEGIN
1070
    73
1070
     1
1070
    44
1040
1.0
1070
    74
1070
     0
1000
MTEXTEND
  0
POINT
  5
1828
330
16F8
100
AcDbEntity
  8
DEFPOINTS
 62
     0
100
AcDbPoint
 10
-10.00000000000005
 20
-2.000000000000003
 30
0.0
  0
POINT
  5
1829
330
16F8
100
AcDbEntity
  8
DEFPOINTS
 62
     0
100
AcDbPoint
 10
-0.0000000000000569
 20
-2.000000000000003
 30
0.0
  0
POINT
  5
182A
330
16F8
100
AcDbEntity
  8
DEFPOINTS
 62
     0
100
AcDbPoint
 10
-0.0000000000000573
 20
-10.0000010000001
 30
0.0
  0
ENDBLK
  5
1703
330
16F8
100
AcDbEntity
  8
0
100
AcDbBlockEnd
  0
BLOCK
  5
1710
330
1705
100
AcDbEntity
  8
0
100
AcDbBlockBegin
  2
*D8
 70
     1
 10
0.0
 20
0.0
 30
0.0
  3
*D8
  1

  0
LINE
  5
1837
330
1705
100
AcDbEntity
  8
AM_5
100
AcDbLine
 10
0.4999999999999432
 20
-2.000000000000003
 30
0.0
 11
8.829530889074508
 21
-2.000000000000005
 31
0.0
  0
LINE
  5
1838
330
1705
100
AcDbEntity
  8
AM_5
100
AcDbLine
 10
0.2980486836125273
 20
2.00000000001091
 30
0.0
 11
8.829530889074508
 21
2.000000000010908
 31
0.0
  0
LINE
  5
1839
330
1705
100
AcDbEntity
  8
AM_5
100
AcDbLine
 10
8.329530889074508
 20
-0.7500000000000055
 30
0.0
 11
8.329530889074508
 21
0.7500000000109086
 31
0.0
  0
INSERT
  5
183A
330
1705
100
AcDbEntity
  8
AM_5
100
AcDbBlockReference
  2
_OPEN30
 10
8.329530889074508
 20
-2.000000000000005
 30
0.0
 41
1.25
 42
1.25
 43
1.25
 50
270.0
  0
INSERT
  5
183B
330
1705
100
AcDbEntity
  8
AM_5
100
AcDbBlockReference
  2
_OPEN30
 10
8.329530889074508
 20
2.000000000010908
 30
0.0
 41
1.25
 42
1.25
 43
1.25
 50
90.0
  0
MTEXT
  5
183C
330
1705
100
AcDbEntity
  8
AM_5
 62
     2
100
AcDbMText
 10
6.779530889074507
 20
0.0000000000054531
 30
0.0
 40
1.6
 41
0.0
 71
     5
 72
     1
  1
%%c4
  7
ASAMI
 11
0.0000000000000001
 21
1.0
 31
0.0
1001
ACAD
1000
MTEXTBEGIN
1070
    73
1070
     1
1070
    44
1040
1.0
1070
    74
1070
     0
1000
MTEXTEND
  0
POINT
  5
183D
330
1705
100
AcDbEntity
  8
DEFPOINTS
 62
     0
100
AcDbPoint
 10
-0.0000000000000569
 20
-2.000000000000003
 30
0.0
  0
POINT
  5
183E
330
1705
100
AcDbEntity
  8
DEFPOINTS
 62
     0
100
AcDbPoint
 10
-0.2019513163874727
 20
2.00000000001091
 30
0.0
  0
POINT
  5
183F
330
1705
100
AcDbEntity
  8
DEFPOINTS
 62
     0
100
AcDbPoint
 10
8.329530889074508
 20
2.000000000010908
 30
0.0
  0
ENDBLK
  5
1711
330
1705
100
AcDbEntity
  8
0
100
AcDbBlockEnd
  0
ENDSEC
  0
SECTION
  2
ENTITIES
  0
DIMENSION
  5
C4F
330
1F
100
AcDbEntity
  8
AM_5
100
AcDbDimension
  2
*D5
 10
-0.0000000000000577
 20
-16.00000099999994
 30
0.0
 11
-25.00000000000006
 21
-14.45000099999994
 31
0.0
 70
    32
  1
<>
  3
AM_JIS
100
AcDbAlignedDimension
 13
-50.00000000000007
 23
-2.250000000000006
 33
0.0
 14
-0.0000000000000569
 24
-2.000000000000003
 34
0.0
 50
0.0000000000002036
100
AcDbRotatedDimension
1001
GENIUS_GENDTOL_13
1000

1000
H7
1000

1040
0.0
  0
LINE
  5
C50
330
1F
100
AcDbEntity
  8
AM_7
100
AcDbLine
 10
-52.38487321524641
 20
-0.0000000000000036
 30
0.0
 11
1.32952988907452
 21
-0.0000000000000036
 31
0.0
1001
GENIUS_GENODEF_13
1002
{
1000
HIER
1070
     0
1002
}
1002
{
1000
MANEDIT
1070
     0
1002
}
1002
{
1000
NOSEL
1070
     0
1002
}
1002
{
1000
BEHIND
1070
     0
1002
}
1002
{
1000
REACTOR
1002
}
1001
GENIUS_GENOBJ-N-CEN_13
1002
{
1000
OWNER
1000
GEN
1002
}
  0
DIMENSION
  5
C53
330
1F
100
AcDbEntity
  8
AM_5
100
AcDbDimension
  2
*D6
 10
-59.3848742152464
 20
3.000000000000001
 30
0.0
 11
-59.3848742152464
 21
-0.0000000000000077
 31
0.0
 70
   160
  1
%%c<>
  3
AM_JIS
100
AcDbAlignedDimension
 13
-49.50000000000007
 23
-3.000000000000006
 33
0.0
 14
-49.50000000000007
 24
2.999999999999998
 34
0.0
 50
270.0
100
AcDbRotatedDimension
1001
ACAD
1000
DSTYLE
1002
{
1070
    48
1040
0.1
1070
    47
1040
0.1
1070
   274
1070
     2
1070
   272
1070
     3
1002
}
1001
GENIUS_GENDTOL_13
1000

1000
h6
1000

1040
0.0
  0
TEXT
  5
C58
330
1F
100
AcDbEntity
  8
AM_6
100
AcDbText
 10
-35.83333333333339
 20
-27.25000099999999
 30
0.0
 40
2.5
  1
HHM4040ZX
 50
0.0000000000002036
 72
     4
 11
-25.00000000000007
 21
-26.00000099999995
 31
0.0
100
AcDbText
  0
LINE
  5
DFA
330
1F
100
AcDbEntity
  8
AM_0
100
AcDbLine
 10
-16.70000000000008
 20
-3.000000000000006
 30
0.0
 11
-16.70000000000008
 21
2.999999999999992
 31
0.0
  0
LINE
  5
DFB
330
1F
100
AcDbEntity
  8
AM_0
100
AcDbLine
 10
-50.00000000000007
 20
2.249999999999993
 30
0.0
 11
-49.50000000000007
 21
2.999999999999993
 31
0.0
1001
GENIUS_GENFIL_13
1070
     0
1040
0.5
1040
0.5
1040
0.4999999999999716
1040
45.0
1002
{
1002
}
  0
LINE
  5
DFC
330
1F
100
AcDbEntity
  8
AM_0
100
AcDbLine
 10
-50.00000000000007
 20
-2.250000000000006
 30
0.0
 11
-49.50000000000007
 21
-3.000000000000006
 31
0.0
1001
GENIUS_GENFIL_13
1070
     0
1040
0.5
1040
0.5
1040
0.4999999999999716
1040
45.00000000000036
1002
{
1002
}
  0
LINE
  5
DFD
330
1F
100
AcDbEntity
  8
0
100
AcDbLine
 10
-49.50000000000007
 20
-3.000000000000006
 30
0.0
 11
-49.50000000000007
 21
2.999999999999993
 31
0.0
  0
LINE
  5
DFE
330
1F
100
AcDbEntity
  8
AM_0
100
AcDbLine
 10
-50.00000000000007
 20
-2.250000000000006
 30
0.0
 11
-50.00000000000007
 21
2.249999999999993
 31
0.0
  0
LINE
  5
DFF
330
1F
100
AcDbEntity
  8
AM_0
100
AcDbLine
 10
-49.50000000000007
 20
2.999999999999993
 30
0.0
 11
-16.60669872981086
 21
2.999999999999993
 31
0.0
1001
GENIUS_GENODEF_13
1002
{
1000
HIER
1070
     0
1002
}
1002
{
1000
MANEDIT
1070
     0
1002
}
1002
{
1000
NOSEL
1070
     0
1002
}
1002
{
1000
BEHIND
1070
     0
1002
}
1002
{
1000
REACTOR
1002
}
1001
GENIUS_GENOBJ-N-CEN_13
1002
{
1000
OWNER
1000
GEN
1002
}
  0
LINE
  5
E00
330
1F
100
AcDbEntity
  8
AM_0
100
AcDbLine
 10
-49.50000000000007
 20
-3.000000000000006
 30
0.0
 11
-16.70000000000008
 21
-3.000000000000006
 31
0.0
1001
GENIUS_GENODEF_13
1002
{
1000
HIER
1070
     0
1002
}
1002
{
1000
MANEDIT
1070
     0
1002
}
1002
{
1000
NOSEL
1070
     0
1002
}
1002
{
1000
BEHIND
1070
     0
1002
}
1002
{
1000
REACTOR
1002
}
1001
GENIUS_GENOBJ-N-CEN_13
1002
{
1000
OWNER
1000
GEN
1002
}
  0
LINE
  5
E32
330
1F
100
AcDbEntity
  8
AM_0
100
AcDbLine
 10
-16.70000000000008
 20
2.999999999999992
 30
0.0
 11
-12.96794919243122
 21
1.999999999999997
 31
0.0
  0
LINE
  5
1174
330
1F
100
AcDbEntity
  8
AM_0
100
AcDbLine
 10
-16.70000000000008
 20
-3.000000000000006
 30
0.0
 11
-12.96794919243122
 21
-2.00000000000001
 31
0.0
  0
LINE
  5
16BD
330
1F
100
AcDbEntity
  8
AM_11
100
AcDbLine
 10
-0.0000000000000611
 20
-2.000000000000003
 30
0.0
 11
-0.0000000000000608
 21
1.999999999999996
 31
0.0
  0
LINE
  5
16DD
330
1F
100
AcDbEntity
  8
AM_11
 48
0.4
100
AcDbLine
 10
-10.00000000000005
 20
1.999999999999996
 30
0.0
 11
-10.00000000000005
 21
-2.000000000000003
 31
0.0
  0
LINE
  5
16F0
330
1F
100
AcDbEntity
  8
AM_11
100
AcDbLine
 10
-10.00000000000005
 20
1.999999999999996
 30
0.0
 11
-0.0000000000000569
 21
1.999999999999996
 31
0.0
1001
GENIUS_GENODEF_13
1002
{
1000
HIER
1070
     0
1002
}
1002
{
1000
MANEDIT
1070
     0
1002
}
1002
{
1000
NOSEL
1070
     0
1002
}
1002
{
1000
BEHIND
1070
     0
1002
}
1002
{
1000
REACTOR
1002
}
1001
GENIUS_GENOBJ-N-CEN_13
1002
{
1000
OWNER
1000
GEN
1002
}
  0
LINE
  5
16F1
330
1F
100
AcDbEntity
  8
AM_11
100
AcDbLine
 10
-10.00000000000005
 20
-2.000000000000003
 30
0.0
 11
-0.0000000000000569
 21
-2.000000000000003
 31
0.0
1001
GENIUS_GENODEF_13
1002
{
1000
HIER
1070
     0
1002
}
1002
{
1000
MANEDIT
1070
     0
1002
}
1002
{
1000
NOSEL
1070
     0
1002
}
1002
{
1000
BEHIND
1070
     0
1002
}
1002
{
1000
REACTOR
1002
}
1001
GENIUS_GENOBJ-N-CEN_13
1002
{
1000
OWNER
1000
GEN
1002
}
  0
DIMENSION
  5
16F7
330
1F
100
AcDbEntity
  8
AM_5
100
AcDbDimension
  2
*D7
 10
-0.0000000000000573
 20
-10.0000010000001
 30
0.0
 11
-5.000000000000058
 21
-8.450001000000099
 31
0.0
 70
    32
  1
<>
  3
AM_JIS
100
AcDbAlignedDimension
 13
-10.00000000000005
 23
-2.000000000000003
 33
0.0
 14
-0.0000000000000569
 24
-2.000000000000003
 34
0.0
 50
359.9999999999993
100
AcDbRotatedDimension
1001
GENIUS_GENDTOL_13
1000

1000
H7
1000

1040
0.0
  0
DIMENSION
  5
1704
330
1F
100
AcDbEntity
  8
AM_5
100
AcDbDimension
  2
*D8
 10
8.329530889074508
 20
2.000000000010908
 30
0.0
 11
8.329530889074508
 21
0.0000000000054529
 31
0.0
 70
   160
  1
%%c<>
  3
AM_JIS
100
AcDbAlignedDimension
 13
-0.0000000000000569
 23
-2.000000000000003
 33
0.0
 14
-0.2019513163874727
 24
2.00000000001091
 34
0.0
 50
90.00000000000005
100
AcDbRotatedDimension
1001
ACAD
1000
DSTYLE
1002
{
1070
    48
1040
0.05
1070
    47
1040
0.0
1070
   274
1070
     1
1070
   272
1070
     2
1002
}
1001
GENIUS_GENDTOL_13
1000

1000
H7
1000

1040
0.0
  0
LINE
  5
17E0
330
1F
100
AcDbEntity
  8
AM_0
100
AcDbLine
 10
-0.0000000000000736
 20
-1.978840762315079
 30
0.0
 11
-0.106082849665696
 21
-1.999999999999821
 31
0.0
  0
LINE
  5
17E1
330
1F
100
AcDbEntity
  8
AM_0
100
AcDbLine
 10
-0.0371658559636311
 20
-1.92687303021194
 30
0.0
 11
-0.0000000000000736
 21
-1.978840762315079
 31
0.0
  0
LINE
  5
17E2
330
1F
100
AcDbEntity
  8
AM_0
100
AcDbLine
 10
-0.0000000000000736
 20
-1.978840762315079
 30
0.0
 11
-0.0000000000000736
 21
-0.5838688579552162
 31
0.0
  0
LINE
  5
17E3
330
1F
100
AcDbEntity
  8
AM_0
100
AcDbLine
 10
-0.0371658559636311
 20
-1.92687303021194
 30
0.0
 11
-0.0371658559636311
 21
-0.8148089656310311
 31
0.0
  0
LINE
  5
17E4
330
1F
100
AcDbEntity
  8
AM_0
100
AcDbLine
 10
-1.031947666959132
 20
-1.75639648455531
 30
0.0
 11
-1.886384942279246
 21
-1.851081708080667
 31
0.0
  0
LINE
  5
17E5
330
1F
100
AcDbEntity
  8
AM_0
100
AcDbLine
 10
-0.2626325234117812
 20
-1.156291278934262
 30
0.0
 11
-0.5230270898399501
 21
-0.3999999999998216
 31
0.0
  0
SPLINE
  5
17E6
330
1F
100
AcDbEntity
  8
AM_0
100
AcDbSpline
210
0.0
220
0.0
230
1.0
 70
     8
 71
     3
 72
     8
 73
     4
 74
     0
 42
0.0000000001
 43
0.0000000001
 40
0.0
 40
0.0
 40
0.0
 40
0.0
 40
1.168827779870509
 40
1.168827779870509
 40
1.168827779870509
 40
1.168827779870509
 10
-2.881917415953614
 20
-1.999999999999821
 30
0.0
 10
-2.744147880777372
 20
-1.999999999999821
 30
0.0
 10
-2.610441467574529
 20
-1.984228596738561
 30
0.0
 10
-2.480287912228934
 20
-1.954666430029241
 30
0.0
  0
SPLINE
  5
17E7
330
1F
100
AcDbEntity
  8
AM_0
100
AcDbSpline
210
0.0
220
0.0
230
1.0
 70
     8
 71
     3
 72
     8
 73
     4
 74
     0
 42
0.0000000001
 43
0.0000000001
 40
0.0
 40
0.0
 40
0.0
 40
0.0
 40
1.797797194454997
 40
1.797797194454997
 40
1.797797194454997
 40
1.797797194454997
 10
-2.495912072540162
 20
-1.954733416506272
 30
0.0
 10
-2.284006017527861
 20
-1.954733416506272
 30
0.0
 10
-2.081435310573843
 20
-1.917788531055069
 30
0.0
 10
-1.886384942163149
 20
-1.851081708040968
 30
0.0
  0
SPLINE
  5
17E8
330
1F
100
AcDbEntity
  8
AM_0
100
AcDbSpline
210
0.0
220
0.0
230
1.0
 70
     8
 71
     3
 72
     8
 73
     4
 74
     0
 42
0.0000000001
 43
0.0000000001
 40
0.0
 40
0.0
 40
0.0
 40
0.0
 40
2.792136278909009
 40
2.792136278909009
 40
2.792136278909009
 40
2.792136278909009
 10
-0.106082849665696
 20
-1.999999999999821
 30
0.0
 10
-1.203111639018592
 20
-1.999999999999821
 30
0.0
 10
-2.042514527485379
 20
-0.9999999999998211
 30
0.0
 10
-2.881917415952165
 20
0.0000000000001787
 30
0.0
  0
SPLINE
  5
17E9
330
1F
100
AcDbEntity
  8
AM_0
100
AcDbSpline
210
0.0
220
0.0
230
1.0
 70
     8
 71
     3
 72
     8
 73
     4
 74
     0
 42
0.0000000001
 43
0.0000000001
 40
0.9166275210629445
 40
0.9166275210629445
 40
0.9166275210629445
 40
0.9166275210629445
 40
9.246817942408316
 40
9.246817942408316
 40
9.246817942408316
 40
9.246817942408316
 10
-0.0371658559636311
 20
-1.92687303021194
 30
0.0
 10
-0.9771212760084262
 20
-1.760962709970184
 30
0.0
 10
-1.736516674273607
 20
-0.8804813549850257
 30
0.0
 10
-2.495912072538872
 20
0.0000000000001787
 30
0.0
  0
ELLIPSE
  5
17EA
330
1F
100
AcDbEntity
  8
AM_0
100
AcDbEllipse
 10
1.825504666506972
 20
-0.8019910823626144
 30
0.0
 11
-0.0000000000000133
 21
2.388506491222025
 31
0.0
210
0.0
220
0.0
230
1.0
 40
0.8840237472250006
 41
1.719681220318971
 42
2.061170729468632
  0
LINE
  5
17EB
330
1F
100
AcDbEntity
  8
AM_0
100
AcDbLine
 10
-0.0371658559636311
 20
-0.8148089656310311
 30
0.0
 11
-0.2626325234117812
 21
-1.156291278934262
 31
0.0
  0
SPLINE
  5
17EC
330
1F
100
AcDbEntity
  8
AM_0
100
AcDbSpline
210
0.0
220
0.0
230
1.0
 70
     8
 71
     3
 72
     8
 73
     4
 74
     0
 42
0.0000000001
 43
0.0000000001
 40
0.0
 40
0.0
 40
0.0
 40
0.0
 40
1.168827779870509
 40
1.168827779870509
 40
1.168827779870509
 40
1.168827779870509
 10
-5.657751982238643
 20
-1.99999999999982
 30
0.0
 10
-5.519982447062478
 20
-1.99999999999982
 30
0.0
 10
-5.386276033859634
 20
-1.98422859673856
 30
0.0
 10
-5.256122478514048
 20
-1.95466643002924
 30
0.0
  0
SPLINE
  5
17ED
330
1F
100
AcDbEntity
  8
AM_0
100
AcDbSpline
210
0.0
220
0.0
230
1.0
 70
     8
 71
     3
 72
     8
 73
     4
 74
     0
 42
0.0000000001
 43
0.0000000001
 40
0.0
 40
0.0
 40
0.0
 40
0.0
 40
1.797797194454997
 40
1.797797194454997
 40
1.797797194454997
 40
1.797797194454997
 10
-5.271746638825351
 20
-1.954733416506272
 30
0.0
 10
-5.059840583812975
 20
-1.954733416506272
 30
0.0
 10
-4.857269876858872
 20
-1.917788531055069
 30
0.0
 10
-4.662219508448179
 20
-1.851081708040968
 30
0.0
  0
SPLINE
  5
17EE
330
1F
100
AcDbEntity
  8
AM_0
100
AcDbSpline
210
0.0
220
0.0
230
1.0
 70
     8
 71
     3
 72
     8
 73
     4
 74
     0
 42
0.0000000001
 43
0.0000000001
 40
0.0
 40
0.0
 40
0.0
 40
0.0
 40
1.797797194454997
 40
1.797797194454997
 40
1.797797194454997
 40
1.797797194454997
 10
-8.047581205110455
 20
-1.954733416506271
 30
0.0
 10
-7.835675150098079
 20
-1.954733416506271
 30
0.0
 10
-7.63310444314406
 20
-1.917788531055069
 30
0.0
 10
-7.438054074733367
 20
-1.851081708040967
 30
0.0
  0
LINE
  5
17EF
330
1F
100
AcDbEntity
  8
AM_0
100
AcDbLine
 10
-6.583616799529349
 20
-1.75639648455531
 30
0.0
 11
-7.438054074849548
 21
-1.851081708080666
 31
0.0
  0
SPLINE
  5
17F0
330
1F
100
AcDbEntity
  8
AM_0
100
AcDbSpline
210
0.0
220
0.0
230
1.0
 70
     8
 71
     3
 72
     8
 73
     4
 74
     0
 42
0.0000000001
 43
0.0000000001
 40
0.0
 40
0.0
 40
0.0
 40
0.0
 40
2.774045382722535
 40
2.774045382722535
 40
2.774045382722535
 40
2.774045382722535
 10
-5.271746638822536
 20
-1.954733416506317
 30
0.0
 10
-6.361667525136577
 20
-1.954733416506317
 30
0.0
 10
-7.204624365122834
 20
-0.9773667082530687
 30
0.0
 10
-8.047581205109089
 20
0.0000000000001795
 30
0.0
  0
SPLINE
  5
17F1
330
1F
100
AcDbEntity
  8
AM_0
100
AcDbSpline
210
0.0
220
0.0
230
1.0
 70
     8
 71
     3
 72
     8
 73
     4
 74
     0
 42
0.0000000001
 43
0.0000000001
 40
0.0
 40
0.0
 40
0.0
 40
0.0
 40
1.797797194454997
 40
1.797797194454997
 40
1.797797194454997
 40
1.797797194454997
 10
-10.82341577139556
 20
-1.954733416506271
 30
0.0
 10
-10.61150971638318
 20
-1.954733416506271
 30
0.0
 10
-10.40893900942916
 20
-1.917788531055068
 30
0.0
 10
-10.21388864101847
 20
-1.851081708040967
 30
0.0
  0
SPLINE
  5
17F2
330
1F
100
AcDbEntity
  8
AM_0
100
AcDbSpline
210
0.0
220
0.0
230
1.0
 70
     8
 71
     3
 72
     8
 73
     4
 74
     0
 42
0.0000000001
 43
0.0000000001
 40
0.0
 40
0.0
 40
0.0
 40
0.0
 40
1.168827779870509
 40
1.168827779870509
 40
1.168827779870509
 40
1.168827779870509
 10
-11.20942111480893
 20
-1.99999999999982
 30
0.0
 10
-11.07165157963269
 20
-1.99999999999982
 30
0.0
 10
-10.93794516642993
 20
-1.984228596738559
 30
0.0
 10
-10.80779161108426
 20
-1.954666430029239
 30
0.0
  0
LINE
  5
17F3
330
1F
100
AcDbEntity
  8
AM_0
100
AcDbLine
 10
-9.359451365814454
 20
-1.756396484555309
 30
0.0
 11
-10.21388864113465
 21
-1.851081708080666
 31
0.0
  0
SPLINE
  5
17F4
330
1F
100
AcDbEntity
  8
AM_0
100
AcDbSpline
210
0.0
220
0.0
230
1.0
 70
     8
 71
     3
 72
     8
 73
     4
 74
     0
 42
0.0000000001
 43
0.0000000001
 40
0.0
 40
0.0
 40
0.0
 40
0.0
 40
2.713830576726758
 40
2.713830576726758
 40
2.713830576726758
 40
2.713830576726758
 10
-8.433586548521093
 20
-1.99999999999982
 30
0.0
 10
-9.499849071086325
 20
-1.99999999999982
 30
0.0
 10
-10.32273334419073
 20
-1.055303645232204
 30
0.0
 10
-11.13879205334832
 20
-0.084113199911817
 30
0.0
  0
SPLINE
  5
17F5
330
1F
100
AcDbEntity
  8
AM_0
100
AcDbSpline
210
0.0
220
0.0
230
1.0
 70
     8
 71
     3
 72
     8
 73
     4
 74
     0
 42
0.0000000001
 43
0.0000000001
 40
0.0
 40
0.0
 40
0.0
 40
0.0
 40
1.168827779870509
 40
1.168827779870509
 40
1.168827779870509
 40
1.168827779870509
 10
-8.433586548523832
 20
-1.99999999999982
 30
0.0
 10
-8.295817013347591
 20
-1.99999999999982
 30
0.0
 10
-8.162110600144748
 20
-1.98422859673856
 30
0.0
 10
-8.031957044799153
 20
-1.95466643002924
 30
0.0
  0
SPLINE
  5
17F6
330
1F
100
AcDbEntity
  8
AM_0
100
AcDbSpline
210
0.0
220
0.0
230
1.0
 70
     8
 71
     3
 72
     8
 73
     4
 74
     0
 42
0.0000000001
 43
0.0000000001
 40
0.0
 40
0.0
 40
0.0
 40
0.0
 40
2.792136278909016
 40
2.792136278909016
 40
2.792136278909016
 40
2.792136278909016
 10
-5.657751982235905
 20
-1.99999999999982
 30
0.0
 10
-6.754780771588803
 20
-1.99999999999982
 30
0.0
 10
-7.594183660055594
 20
-0.9999999999998207
 30
0.0
 10
-8.433586548522383
 20
0.0000000000001795
 30
0.0
  0
SPLINE
  5
17F7
330
1F
100
AcDbEntity
  8
AM_0
100
AcDbSpline
210
0.0
220
0.0
230
1.0
 70
     8
 71
     3
 72
     8
 73
     4
 74
     0
 42
0.0000000001
 43
0.0000000001
 40
0.0
 40
0.0
 40
0.0
 40
0.0
 40
2.774045382722535
 40
2.774045382722535
 40
2.774045382722535
 40
2.774045382722535
 10
-8.047581205107642
 20
-1.954733416506317
 30
0.0
 10
-9.137502091421682
 20
-1.954733416506316
 30
0.0
 10
-9.980458931407939
 20
-0.9773667082530684
 30
0.0
 10
-10.82341577139419
 20
0.0000000000001798
 30
0.0
  0
SPLINE
  5
17F8
330
1F
100
AcDbEntity
  8
AM_0
100
AcDbSpline
210
0.0
220
0.0
230
1.0
 70
     8
 71
     3
 72
     8
 73
     4
 74
     0
 42
0.0000000001
 43
0.0000000001
 40
0.0
 40
0.0
 40
0.0
 40
0.0
 40
2.057843192737954
 40
2.057843192737954
 40
2.057843192737954
 40
2.057843192737954
 10
-10.82341577139283
 20
-1.954733416506316
 30
0.0
 10
-11.63194121603534
 20
-1.954733416506316
 30
0.0
 10
-12.30456299664476
 20
-1.416891091962891
 30
0.0
 10
-12.94209721076603
 20
-0.7401888002741815
 30
0.0
  0
LINE
  5
17F9
330
1F
100
AcDbEntity
  8
AM_0
100
AcDbLine
 10
-12.96794919243122
 20
-2.00000000000001
 30
0.0
 11
-11.20942111480893
 21
-2.00000000000001
 31
0.0
  0
LINE
  5
17FA
330
1F
100
AcDbEntity
  8
AM_0
100
AcDbLine
 10
-3.807782233244161
 20
-1.75639648455531
 30
0.0
 11
-4.662219508564434
 21
-1.851081708080667
 31
0.0
  0
SPLINE
  5
17FB
330
1F
100
AcDbEntity
  8
AM_0
100
AcDbSpline
210
0.0
220
0.0
230
1.0
 70
     8
 71
     3
 72
     8
 73
     4
 74
     0
 42
0.0000000001
 43
0.0000000001
 40
0.0
 40
0.0
 40
0.0
 40
0.0
 40
2.77404538272248
 40
2.77404538272248
 40
2.77404538272248
 40
2.77404538272248
 10
-2.495912072537423
 20
-1.954733416506318
 30
0.0
 10
-3.585832958851441
 20
-1.954733416506317
 30
0.0
 10
-4.428789798837672
 20
-0.9773667082530693
 30
0.0
 10
-5.271746638823901
 20
0.0000000000001791
 30
0.0
  0
SPLINE
  5
17FC
330
1F
100
AcDbEntity
  8
AM_0
100
AcDbSpline
210
0.0
220
0.0
230
1.0
 70
     8
 71
     3
 72
     8
 73
     4
 74
     0
 42
0.0000000001
 43
0.0000000001
 40
0.0
 40
0.0
 40
0.0
 40
0.0
 40
2.792136278909016
 40
2.792136278909016
 40
2.792136278909016
 40
2.792136278909016
 10
-2.8819174159508
 20
-1.999999999999821
 30
0.0
 10
-3.978946205303699
 20
-1.99999999999982
 30
0.0
 10
-4.818349093770489
 20
-0.9999999999998207
 30
0.0
 10
-5.657751982237278
 20
0.0000000000001791
 30
0.0
  0
LINE
  5
17FD
330
1F
100
AcDbEntity
  8
AM_0
100
AcDbLine
 10
-12.96794919243122
 20
1.999999999999996
 30
0.0
 11
-12.96794919243122
 21
-2.00000000000001
 31
0.0
  0
LINE
  5
17FE
330
1F
100
AcDbEntity
  8
AM_0
100
AcDbLine
 10
-0.1060828496674631
 20
2.000000000000178
 30
0.0
 11
-0.0000000000000736
 21
1.978840762315117
 31
0.0
  0
LINE
  5
17FF
330
1F
100
AcDbEntity
  8
AM_0
100
AcDbLine
 10
-0.0000000000000736
 20
0.5838688579555501
 30
0.0
 11
-0.0000000000000736
 21
1.978840762315094
 31
0.0
  0
LINE
  5
1800
330
1F
100
AcDbEntity
  8
AM_0
100
AcDbLine
 10
-0.0000000000000736
 20
0.0000000000001783
 30
0.0
 11
-0.0371658559636311
 21
-0.3999999999998216
 31
0.0
  0
LINE
  5
1801
330
1F
100
AcDbEntity
  8
AM_0
100
AcDbLine
 10
-0.0371658559636311
 20
-0.8148089656310311
 30
0.0
 11
-0.0000000000000736
 21
-0.5838688579551708
 31
0.0
  0
LINE
  5
1802
330
1F
100
AcDbEntity
  8
AM_0
100
AcDbLine
 10
-0.0000000000000736
 20
-0.5838688579551708
 30
0.0
 11
-0.1548461807094068
 21
0.0000000000001784
 31
0.0
  0
LINE
  5
1803
330
1F
100
AcDbEntity
  8
AM_0
100
AcDbLine
 10
-0.0371658559636311
 20
-0.3999999999998216
 30
0.0
 11
-0.0426373560960291
 21
-0.423098832527743
 31
0.0
  0
LINE
  5
1804
330
1F
100
AcDbEntity
  8
AM_0
100
AcDbLine
 10
-0.0000000000000736
 20
0.0000000000001783
 30
0.0
 11
-0.0371658559636311
 21
0.4000000000001782
 31
0.0
  0
LINE
  5
1805
330
1F
100
AcDbEntity
  8
AM_0
100
AcDbLine
 10
-0.0000000000000736
 20
0.5838688579555501
 30
0.0
 11
-0.0426373560960291
 21
0.4230988325280997
 31
0.0
  0
LINE
  5
1806
330
1F
100
AcDbEntity
  8
AM_0
100
AcDbLine
 10
-0.2626325234117812
 20
1.351844405731431
 30
0.0
 11
-0.5230270898399501
 21
1.700000000000178
 31
0.0
  0
LINE
  5
1807
330
1F
100
AcDbEntity
  8
AM_0
100
AcDbLine
 10
-0.5230270898399501
 20
1.700000000000178
 30
0.0
 11
-1.886384942279246
 21
1.851081708081047
 31
0.0
  0
SPLINE
  5
1808
330
1F
100
AcDbEntity
  8
AM_0
100
AcDbSpline
210
0.0
220
0.0
230
1.0
 70
     8
 71
     3
 72
     8
 73
     4
 74
     0
 42
0.0000000001
 43
0.0000000001
 40
0.0
 40
0.0
 40
0.0
 40
0.0
 40
2.795805529891336
 40
2.795805529891336
 40
2.795805529891336
 40
2.795805529891336
 10
-2.8819174159508
 20
2.000000000000178
 30
0.0
 10
-3.211458546757087
 20
2.000000000000178
 30
0.0
 10
-3.517752366387554
 20
1.909763299824449
 30
0.0
 10
-3.807782233244002
 20
1.756396484555167
 30
0.0
  0
LINE
  5
1809
330
1F
100
AcDbEntity
  8
AM_0
100
AcDbLine
 10
-0.5230270898399501
 20
-0.3999999999998216
 30
0.0
 11
-0.5230270898399501
 21
0.0000000000001784
 31
0.0
  0
LINE
  5
180A
330
1F
100
AcDbEntity
  8
AM_0
100
AcDbLine
 10
-0.0371658559636311
 20
0.4000000000001782
 30
0.0
 11
-0.2626325234117812
 21
1.351844405731431
 31
0.0
  0
SPLINE
  5
180B
330
1F
100
AcDbEntity
  8
AM_0
100
AcDbSpline
210
0.0
220
0.0
230
1.0
 70
     8
 71
     3
 72
     8
 73
     4
 74
     0
 42
0.0000000001
 43
0.0000000001
 40
0.0
 40
0.0
 40
0.0
 40
0.0
 40
2.792136278909016
 40
2.792136278909016
 40
2.792136278909016
 40
2.792136278909016
 10
-2.881917415953614
 20
2.000000000000178
 30
0.0
 10
-1.784888626600715
 20
2.000000000000178
 30
0.0
 10
-0.9454857381339264
 20
1.000000000000178
 30
0.0
 10
-0.1060828496671365
 20
0.0000000000001784
 30
0.0
  0
SPLINE
  5
180C
330
1F
100
AcDbEntity
  8
AM_0
100
AcDbSpline
210
0.0
220
0.0
230
1.0
 70
     8
 71
     3
 72
     8
 73
     4
 74
     0
 42
0.0000000001
 43
0.0000000001
 40
0.0
 40
0.0
 40
0.0
 40
0.0
 40
8.102326919110769
 40
8.102326919110769
 40
8.102326919110769
 40
8.102326919110769
 10
-2.495912072540162
 20
1.954733416506652
 30
0.0
 10
-1.54089215197034
 20
1.954733416506651
 30
0.0
 10
-0.7754854642987162
 20
1.204334060670517
 30
0.0
 10
-0.0335474600489574
 20
0.3610567729888963
 30
0.0
  0
LINE
  5
180D
330
1F
100
AcDbEntity
  8
AM_0
100
AcDbLine
 10
-0.5230270898399501
 20
0.0000000000001784
 30
0.0
 11
-0.0000000000000736
 21
-0.0000000000000036
 31
0.0
  0
LINE
  5
180E
330
1F
100
AcDbEntity
  8
AM_0
100
AcDbLine
 10
-0.0487633310424277
 20
-0.3999999999998216
 30
0.0
 11
-0.5230270898399501
 21
-0.3999999999998216
 31
0.0
  0
SPLINE
  5
180F
330
1F
100
AcDbEntity
  8
AM_0
100
AcDbSpline
210
0.0
220
0.0
230
1.0
 70
     8
 71
     3
 72
     8
 73
     4
 74
     0
 42
0.0000000001
 43
0.0000000001
 40
0.0
 40
0.0
 40
0.0
 40
0.0
 40
2.795805529891336
 40
2.795805529891336
 40
2.795805529891336
 40
2.795805529891336
 10
-0.106082849665696
 20
2.000000000000178
 30
0.0
 10
-0.435623980471899
 20
2.000000000000178
 30
0.0
 10
-0.7419178001024422
 20
1.909763299824449
 30
0.0
 10
-1.031947666958889
 20
1.756396484555167
 30
0.0
  0
SPLINE
  5
1810
330
1F
100
AcDbEntity
  8
AM_0
100
AcDbSpline
210
0.0
220
0.0
230
1.0
 70
     8
 71
     3
 72
     8
 73
     4
 74
     0
 42
0.0000000001
 43
0.0000000001
 40
0.0
 40
0.0
 40
0.0
 40
0.0
 40
0.4192277204543643
 40
0.4192277204543643
 40
0.4192277204543643
 40
0.4192277204543643
 10
-0.1060828496671365
 20
2.000000000000178
 30
0.0
 10
-0.1352013698907909
 20
1.81661115485941
 30
0.0
 10
-0.3583127518947665
 20
1.700000000000185
 30
0.0
 10
-0.5230270898399501
 20
1.700000000000177
 30
0.0
  0
SPLINE
  5
1811
330
1F
100
AcDbEntity
  8
AM_0
100
AcDbSpline
210
0.0
220
0.0
230
1.0
 70
     8
 71
     3
 72
     8
 73
     4
 74
     0
 42
0.0000000001
 43
0.0000000001
 40
0.0
 40
0.0
 40
0.0
 40
0.0
 40
2.795805529891336
 40
2.795805529891336
 40
2.795805529891336
 40
2.795805529891336
 10
-5.657751982235905
 20
2.000000000000178
 30
0.0
 10
-5.987293113042116
 20
2.000000000000178
 30
0.0
 10
-6.293586932672668
 20
1.90976329982445
 30
0.0
 10
-6.58361679952919
 20
1.756396484555167
 30
0.0
  0
LINE
  5
1812
330
1F
100
AcDbEntity
  8
AM_0
100
AcDbLine
 10
-6.074696222410243
 20
1.700000000000178
 30
0.0
 11
-7.438054074849548
 21
1.851081708081048
 31
0.0
  0
SPLINE
  5
1813
330
1F
100
AcDbEntity
  8
AM_0
100
AcDbSpline
210
0.0
220
0.0
230
1.0
 70
     8
 71
     3
 72
     8
 73
     4
 74
     0
 42
0.0000000001
 43
0.0000000001
 40
0.0
 40
0.0
 40
0.0
 40
0.0
 40
2.774045382722471
 40
2.774045382722471
 40
2.774045382722471
 40
2.774045382722471
 10
-8.047581205110379
 20
1.954733416506653
 30
0.0
 10
-6.957660318796364
 20
1.954733416506652
 30
0.0
 10
-6.114703478810133
 20
0.977366708253416
 30
0.0
 10
-5.271746638823901
 20
0.0000000000001791
 30
0.0
  0
SPLINE
  5
1814
330
1F
100
AcDbEntity
  8
AM_0
100
AcDbSpline
210
0.0
220
0.0
230
1.0
 70
     8
 71
     3
 72
     8
 73
     4
 74
     0
 42
0.0000000001
 43
0.0000000001
 40
0.0
 40
0.0
 40
0.0
 40
0.0
 40
2.795805529891336
 40
2.795805529891336
 40
2.795805529891336
 40
2.795805529891336
 10
-8.433586548521093
 20
2.000000000000178
 30
0.0
 10
-8.763127679327304
 20
2.000000000000178
 30
0.0
 10
-9.069421498957773
 20
1.90976329982445
 30
0.0
 10
-9.359451365814219
 20
1.756396484555168
 30
0.0
  0
LINE
  5
1815
330
1F
100
AcDbEntity
  8
AM_0
100
AcDbLine
 10
-8.850530788695271
 20
1.700000000000179
 30
0.0
 11
-10.21388864113465
 21
1.851081708081048
 31
0.0
  0
ELLIPSE
  5
1816
330
1F
100
AcDbEntity
  8
AM_0
100
AcDbEllipse
 10
-11.58971447483513
 20
-0.7004076656232725
 30
0.0
 11
0.0000000000000055
 21
0.7999999999999997
 31
0.0
210
0.0
220
0.0
230
1.0
 40
0.8840237472250016
 41
-0.6913780825675831
 42
0.448179501288001
1001
GENIUS_GENODEF_13
1002
{
1000
HIER
1070
     0
1002
}
1002
{
1000
MANEDIT
1070
     0
1002
}
1002
{
1000
NOSEL
1070
     0
1002
}
1002
{
1000
BEHIND
1070
     0
1002
}
1002
{
1000
REACTOR
1002
}
1001
GENIUS_GENOBJ-N-FIL_13
1002
{
1000
OWNER
1000
GEN
1002
}
  0
SPLINE
  5
1817
330
1F
100
AcDbEntity
  8
AM_0
100
AcDbSpline
210
0.0
220
0.0
230
1.0
 70
     8
 71
     3
 72
     8
 73
     4
 74
     0
 42
0.0000000001
 43
0.0000000001
 40
0.0
 40
0.0
 40
0.0
 40
0.0
 40
2.792136278909069
 40
2.792136278909069
 40
2.792136278909069
 40
2.792136278909069
 10
-11.20942111480893
 20
2.000000000000179
 30
0.0
 10
-10.11239232545601
 20
2.000000000000178
 30
0.0
 10
-9.272989436989199
 20
1.000000000000178
 30
0.0
 10
-8.433586548522383
 20
0.0000000000001795
 30
0.0
  0
SPLINE
  5
1818
330
1F
100
AcDbEntity
  8
AM_0
100
AcDbSpline
210
0.0
220
0.0
230
1.0
 70
     8
 71
     3
 72
     8
 73
     4
 74
     0
 42
0.0000000001
 43
0.0000000001
 40
0.0
 40
0.0
 40
0.0
 40
0.0
 40
2.792136278909015
 40
2.792136278909015
 40
2.792136278909015
 40
2.792136278909015
 10
-8.433586548523832
 20
2.000000000000178
 30
0.0
 10
-7.336557759170934
 20
2.000000000000178
 30
0.0
 10
-6.497154870704143
 20
1.000000000000178
 30
0.0
 10
-5.657751982237353
 20
0.0000000000001791
 30
0.0
  0
SPLINE
  5
1819
330
1F
100
AcDbEntity
  8
AM_0
100
AcDbSpline
210
0.0
220
0.0
230
1.0
 70
     8
 71
     3
 72
     8
 73
     4
 74
     0
 42
0.0000000001
 43
0.0000000001
 40
0.0
 40
0.0
 40
0.0
 40
0.0
 40
2.774045382722471
 40
2.774045382722471
 40
2.774045382722471
 40
2.774045382722471
 10
-10.82341577139556
 20
1.954733416506653
 30
0.0
 10
-9.733494885081553
 20
1.954733416506653
 30
0.0
 10
-8.890538045095322
 20
0.9773667082534164
 30
0.0
 10
-8.047581205109089
 20
0.0000000000001795
 30
0.0
  0
SPLINE
  5
181A
330
1F
100
AcDbEntity
  8
AM_0
100
AcDbSpline
210
0.0
220
0.0
230
1.0
 70
     8
 71
     3
 72
     8
 73
     4
 74
     0
 42
0.0000000001
 43
0.0000000001
 40
0.0
 40
0.0
 40
0.0
 40
0.0
 40
2.795805529891336
 40
2.795805529891336
 40
2.795805529891336
 40
2.795805529891336
 10
-11.20942111480612
 20
2.000000000000179
 30
0.0
 10
-11.5389622456124
 20
2.000000000000179
 30
0.0
 10
-11.84525606524296
 20
1.909763299824451
 30
0.0
 10
-12.1352859320994
 20
1.756396484555168
 30
0.0
  0
LINE
  5
181B
330
1F
100
AcDbEntity
  8
AM_0
100
AcDbLine
 10
-11.62636535498046
 20
1.700000000000179
 30
0.0
 11
-12.98972320741984
 21
1.851081708081049
 31
0.0
  0
ELLIPSE
  5
181C
330
1F
100
AcDbEntity
  8
AM_0
100
AcDbEllipse
 10
-9.704942050462387
 20
-5.134655127248431
 30
0.0
 11
-0.0000000000004419
 21
5.720176578191251
 31
0.0
210
0.0
220
0.0
230
1.0
 40
0.8840237472249956
 41
0.448179501287914
 42
0.6947096144600132
  0
SPLINE
  5
181D
330
1F
100
AcDbEntity
  8
AM_0
100
AcDbSpline
210
0.0
220
0.0
230
1.0
 70
     8
 71
     3
 72
     8
 73
     4
 74
     0
 42
0.0000000001
 43
0.0000000001
 40
0.5594372577521371
 40
0.5594372577521371
 40
0.5594372577521371
 40
0.5594372577521371
 40
2.774045382722525
 40
2.774045382722525
 40
2.774045382722525
 40
2.774045382722525
 10
-12.96794919243122
 20
1.848668801322657
 30
0.0
 10
-12.16933395893349
 20
1.560525481417427
 30
0.0
 10
-11.4963748651638
 20
0.7802627407088037
 30
0.0
 10
-10.82341577139412
 20
0.0000000000001798
 30
0.0
  0
LINE
  5
181E
330
1F
100
AcDbEntity
  8
AM_0
100
AcDbLine
 10
-3.298861656125054
 20
1.700000000000178
 30
0.0
 11
-4.662219508564434
 21
1.851081708081048
 31
0.0
  0
SPLINE
  5
181F
330
1F
100
AcDbEntity
  8
AM_0
100
AcDbSpline
210
0.0
220
0.0
230
1.0
 70
     8
 71
     3
 72
     8
 73
     4
 74
     0
 42
0.0000000001
 43
0.0000000001
 40
0.0
 40
0.0
 40
0.0
 40
0.0
 40
2.792136278909015
 40
2.792136278909015
 40
2.792136278909015
 40
2.792136278909015
 10
-5.657751982238643
 20
2.000000000000178
 30
0.0
 10
-4.560723192885745
 20
2.000000000000178
 30
0.0
 10
-3.721320304418956
 20
1.000000000000178
 30
0.0
 10
-2.881917415952165
 20
0.0000000000001787
 30
0.0
  0
SPLINE
  5
1820
330
1F
100
AcDbEntity
  8
AM_0
100
AcDbSpline
210
0.0
220
0.0
230
1.0
 70
     8
 71
     3
 72
     8
 73
     4
 74
     0
 42
0.0000000001
 43
0.0000000001
 40
0.0
 40
0.0
 40
0.0
 40
0.0
 40
2.774045382722525
 40
2.774045382722525
 40
2.774045382722525
 40
2.774045382722525
 10
-5.271746638825351
 20
1.954733416506652
 30
0.0
 10
-4.181825752511314
 20
1.954733416506652
 30
0.0
 10
-3.338868912525056
 20
0.9773667082534156
 30
0.0
 10
-2.495912072538796
 20
0.0000000000001787
 30
0.0
  0
VIEWPORT
  5
110
330
101
100
AcDbEntity
 67
     1
  8
0
100
AcDbViewport
 10
420.5
 20
297.0
 30
0.0
 40
948.9782706766916
 41
628.452
 68
     1
 69
     1
1001
ACAD
1000
MVIEW
1002
{
1070
    16
1010
0.0
1020
0.0
1030
0.0
1010
0.0
1020
0.0
1030
1.0
1040
0.0
1040
628.452
1040
420.5
1040
297.0
1040
50.0
1040
0.0
1040
0.0
1070
     0
1070
   100
1070
     1
1070
     1
1070
     0
1070
     0
1070
     0
1070
     0
1040
0.0
1040
0.0
1040
0.0
1040
10.0
1040
10.0
1040
10.0
1040
10.0
1070
     0
1002
{
1002
}
1002
}
  0
ENDSEC
  0
SECTION
  2
OBJECTS
  0
DICTIONARY
  5
C
330
0
100
AcDbDictionary
  3
ACAD_GROUP
350
D
  3
ACAD_LAYOUT
350
1A
  3
ACAD_MLINESTYLE
350
17
  3
ACAD_PLOTSETTINGS
350
19
  3
ACAD_PLOTSTYLENAME
350
E
  3
ACDBVARIABLEDICTIONARY
350
34
  3
ACMDICTIONARY
350
43
  3
AMG
350
2B
  3
AMGSNAPSETTINGS
350
6E
  3
DWGPROPS
350
1872
  3
ACDBHEADERROUNDTRIPXREC
350
187E
  0
DICTIONARY
  5
74
330
1F
100
AcDbDictionary
280
     1
  3
ACAD_INDEX
360
1874
  3
ACAD_LAYOUTSELFREF
360
18A1
  0
DICTIONARY
  5
18A6
330
101
100
AcDbDictionary
280
     1
  3
ACAD_LAYOUTSELFREF
360
18A7
  0
DICTIONARY
  5
D
102
{ACAD_REACTORS
330
C
102
}
330
C
100
AcDbDictionary
  0
DICTIONARY
  5
1A
102
{ACAD_REACTORS
330
C
102
}
330
C
100
AcDbDictionary
  0
DICTIONARY
  5
17
102
{ACAD_REACTORS
330
C
102
}
330
C
100
AcDbDictionary
  3
STANDARD
350
18
  0
DICTIONARY
  5
19
102
{ACAD_REACTORS
330
C
102
}
330
C
100
AcDbDictionary
  0
ACDBDICTIONARYWDFLT
  5
E
102
{ACAD_REACTORS
330
C
102
}
330
C
100
AcDbDictionary
281
     1
  3
Normal
350
F
100
AcDbDictionaryWithDefault
340
F
  0
DICTIONARY
  5
34
102
{ACAD_REACTORS
330
C
102
}
330
C
100
AcDbDictionary
  3
INDEXCTL
350
35
  3
SORTENTS
350
B5E
  0
DICTIONARY
  5
43
102
{ACAD_REACTORS
330
C
102
}
330
C
100
AcDbDictionary
  3
ACMSTDDICTIONARY
350
260
  0
DICTIONARY
  5
2B
102
{ACAD_REACTORS
330
C
102
}
330
C
100
AcDbDictionary
  3
ACMGSETTINGS
350
2C
  0
DICTIONARY
  5
6E
102
{ACAD_REACTORS
330
C
102
}
330
C
100
AcDbDictionary
  0
XRECORD
  5
1872
102
{ACAD_REACTORS
330
C
102
}
330
C
100
AcDbXrecord
  1
DWGPROPS COOKIE
  2

  3

  4

  6

  7

  8

  9

300
AmdtFileType=82
301
=
302
=
303
=
304
=
305
=
306
=
307
=
308
=
309
=
 40
0.0642033449074074
 41
2452838.620506898
 42
2452841.528315416
  1

 90
        1
  0
DICTIONARY
  5
187E
102
{ACAD_REACTORS
330
C
102
}
330
C
100
AcDbDictionary
  3
TSTACKALIGN
350
187F
  3
TSTACKSIZE
350
1880
  3
HYPERLINKBASE
350
1881
  3
STYLESHEET
350
1882
  3
LAYOUTDICT
350
1883
  3
PLOTSETDICT
350
1884
  3
PLOTSTYLNAMDICT
350
1885
  3
LWETCUNION
350
1886
  3
INSUNITS
350
1887
  3
CEPSNTYPE
350
1888
  3
FINGERPRINTGUID
350
1889
  3
VERSIONGUID
350
188A
  3
PSVPSCALE
350
188B
  3
DIMSTYLEDATA
350
188C
  3
PUCSORTHOREF
350
188D
  3
PUCSORTHOVIEW
350
188E
  3
PUCSBASE
350
188F
  3
PUCSORGTOP
350
1890
  3
PUCSORGBOTTOM
350
1891
  3
PUCSORGLEFT
350
1892
  3
PUCSORGRIGHT
350
1893
  3
PUCSORGFRONT
350
1894
  3
PUCSORGBACK
350
1895
  3
UCSORTHOREF
350
1896
  3
UCSORTHOVIEW
350
1897
  3
UCSBASE
350
1898
  3
UCSORGTOP
350
1899
  3
UCSORGBOTTOM
350
189A
  3
UCSORGLEFT
350
189B
  3
UCSORGRIGHT
350
189C
  3
UCSORGFRONT
350
189D
  3
UCSORGBACK
350
189E
  0
DICTIONARY
  5
1874
102
{ACAD_REACTORS
330
74
102
}
330
74
100
AcDbDictionary
  3
*A1
350
1875
  0
XRECORD
  5
18A1
102
{ACAD_REACTORS
330
74
102
}
330
74
100
AcDbXrecord
340
1F
  0
XRECORD
  5
18A7
102
{ACAD_REACTORS
330
18A6
102
}
330
18A6
100
AcDbXrecord
340
101
  0
MLINESTYLE
  5
18
102
{ACAD_REACTORS
330
17
102
}
330
17
100
AcDbMlineStyle
  2
STANDARD
 70
     0
  3

 62
   256
 51
90.0
 52
90.0
 71
     2
 49
0.5
 62
   256
  6
BYLAYER
 49
-0.5
 62
   256
  6
BYLAYER
  0
ACDBPLACEHOLDER
  5
F
102
{ACAD_REACTORS
330
E
102
}
330
E
100
AcDbPlaceHolder
280
     0
  0
DICTIONARYVAR
  5
35
102
{ACAD_REACTORS
330
34
102
}
330
34
100
DictionaryVariables
280
     0
  1
1
  0
DICTIONARYVAR
  5
B5E
102
{ACAD_REACTORS
330
34
102
}
330
34
100
DictionaryVariables
280
     0
  1
96
  0
DICTIONARY
  5
260
102
{ACAD_REACTORS
330
43
102
}
330
43
100
AcDbDictionary
  0
DICTIONARY
  5
2C
102
{ACAD_REACTORS
330
2B
102
}
330
2B
100
AcDbDictionary
  3
DWGSETTINGS
350
2D
  0
XRECORD
  5
187F
102
{ACAD_REACTORS
330
187E
102
}
330
187E
100
AcDbXrecord
 90
        1
  0
XRECORD
  5
1880
102
{ACAD_REACTORS
330
187E
102
}
330
187E
100
AcDbXrecord
 90
       70
  0
XRECORD
  5
1881
102
{ACAD_REACTORS
330
187E
102
}
330
187E
100
AcDbXrecord
  1

  0
XRECORD
  5
1882
102
{ACAD_REACTORS
330
187E
102
}
330
187E
100
AcDbXrecord
  1
ACAD_M_9400.ctb
  0
XRECORD
  5
1883
102
{ACAD_REACTORS
330
187E
102
}
330
187E
100
AcDbXrecord
340
1A
  0
XRECORD
  5
1884
102
{ACAD_REACTORS
330
187E
102
}
330
187E
100
AcDbXrecord
340
19
  0
XRECORD
  5
1885
102
{ACAD_REACTORS
330
187E
102
}
330
187E
100
AcDbXrecord
340
E
  0
XRECORD
  5
1886
102
{ACAD_REACTORS
330
187E
102
}
330
187E
100
AcDbXrecord
 90
    10781
  0
XRECORD
  5
1887
102
{ACAD_REACTORS
330
187E
102
}
330
187E
100
AcDbXrecord
 90
        4
  0
XRECORD
  5
1888
102
{ACAD_REACTORS
330
187E
102
}
330
187E
100
AcDbXrecord
 90
        0
  0
XRECORD
  5
1889
102
{ACAD_REACTORS
330
187E
102
}
330
187E
100
AcDbXrecord
  1
{AFB28963-8C59-40AE-9337-C84526B81ACE}
  0
XRECORD
  5
188A
102
{ACAD_REACTORS
330
187E
102
}
330
187E
100
AcDbXrecord
  1
{19FCC1C7-2694-4F57-BE31-9FCD5D449BF2}
  0
XRECORD
  5
188B
102
{ACAD_REACTORS
330
187E
102
}
330
187E
100
AcDbXrecord
 40
0.0
  0
XRECORD
  5
188C
102
{ACAD_REACTORS
330
187E
102
}
330
187E
100
AcDbXrecord
1000
DSTYLE
1002
{
1070
    79
 70
     2
1070
   341
340
59
1070
   342
340
59
1070
   371
 70
    -1
1070
   372
 70
    -1
1002
}
  0
XRECORD
  5
188D
102
{ACAD_REACTORS
330
187E
102
}
330
187E
100
AcDbXrecord
340
0
  0
XRECORD
  5
188E
102
{ACAD_REACTORS
330
187E
102
}
330
187E
100
AcDbXrecord
 70
     0
  0
XRECORD
  5
188F
102
{ACAD_REACTORS
330
187E
102
}
330
187E
100
AcDbXrecord
340
0
  0
XRECORD
  5
1890
102
{ACAD_REACTORS
330
187E
102
}
330
187E
100
AcDbXrecord
 10
0.0
 20
0.0
 30
0.0
  0
XRECORD
  5
1891
102
{ACAD_REACTORS
330
187E
102
}
330
187E
100
AcDbXrecord
 10
0.0
 20
0.0
 30
0.0
  0
XRECORD
  5
1892
102
{ACAD_REACTORS
330
187E
102
}
330
187E
100
AcDbXrecord
 10
0.0
 20
0.0
 30
0.0
  0
XRECORD
  5
1893
102
{ACAD_REACTORS
330
187E
102
}
330
187E
100
AcDbXrecord
 10
0.0
 20
0.0
 30
0.0
  0
XRECORD
  5
1894
102
{ACAD_REACTORS
330
187E
102
}
330
187E
100
AcDbXrecord
 10
0.0
 20
0.0
 30
0.0
  0
XRECORD
  5
1895
102
{ACAD_REACTORS
330
187E
102
}
330
187E
100
AcDbXrecord
 10
0.0
 20
0.0
 30
0.0
  0
XRECORD
  5
1896
102
{ACAD_REACTORS
330
187E
102
}
330
187E
100
AcDbXrecord
340
0
  0
XRECORD
  5
1897
102
{ACAD_REACTORS
330
187E
102
}
330
187E
100
AcDbXrecord
 70
     0
  0
XRECORD
  5
1898
102
{ACAD_REACTORS
330
187E
102
}
330
187E
100
AcDbXrecord
340
0
  0
XRECORD
  5
1899
102
{ACAD_REACTORS
330
187E
102
}
330
187E
100
AcDbXrecord
 10
0.0
 20
0.0
 30
0.0
  0
XRECORD
  5
189A
102
{ACAD_REACTORS
330
187E
102
}
330
187E
100
AcDbXrecord
 10
0.0
 20
0.0
 30
0.0
  0
XRECORD
  5
189B
102
{ACAD_REACTORS
330
187E
102
}
330
187E
100
AcDbXrecord
 10
0.0
 20
0.0
 30
0.0
  0
XRECORD
  5
189C
102
{ACAD_REACTORS
330
187E
102
}
330
187E
100
AcDbXrecord
 10
0.0
 20
0.0
 30
0.0
  0
XRECORD
  5
189D
102
{ACAD_REACTORS
330
187E
102
}
330
187E
100
AcDbXrecord
 10
0.0
 20
0.0
 30
0.0
  0
XRECORD
  5
189E
102
{ACAD_REACTORS
330
187E
102
}
330
187E
100
AcDbXrecord
 10
0.0
 20
0.0
 30
0.0
  0
LAYER_INDEX
  5
1875
102
{ACAD_REACTORS
330
1874
102
}
330
1874
100
AcDbIndex
 40
2453152.481607338
100
AcDbLayerIndex
  8
0
360
1876
 90
        1
  8
AM_0
360
1877
 90
       73
  8
AM_11
360
1878
 90
        4
  8
AM_7
360
1879
 90
        1
  8
AM_5
360
187A
 90
        4
  8
Defpoints
360
187B
 90
        0
  8
AM_6
360
187C
 90
        1
  0
XRECORD
  5
2D
102
{ACAD_REACTORS
330
2C
102
}
330
2C
100
AcDbXrecord
  1
VERSION
140
15.0
  1
PRODUCT
  2
AutoCAD Mechanical 2000
  0
IDBUFFER
  5
1876
330
0
100
AcDbIdBuffer
330
DFD
  0
IDBUFFER
  5
1877
330
0
100
AcDbIdBuffer
330
1808
330
1809
330
180A
330
180B
330
180C
330
180D
330
180E
330
180F
330
1810
330
1811
330
1812
330
1813
330
1814
330
1815
330
1816
330
1817
330
1818
330
1819
330
181A
330
181B
330
181C
330
181D
330
181E
330
181F
330
1820
330
DFA
330
DFB
330
DFC
330
DFE
330
DFF
330
E00
330
E32
330
1174
330
17E0
330
17E1
330
17E2
330
17E3
330
17E4
330
17E5
330
17E6
330
17E7
330
17E8
330
17E9
330
17EA
330
17EB
330
17EC
330
17ED
330
17EE
330
17EF
330
17F0
330
17F1
330
17F2
330
17F3
330
17F4
330
17F5
330
17F6
330
17F7
330
17F8
330
17F9
330
17FA
330
17FB
330
17FC
330
17FD
330
17FE
330
17FF
330
1800
330
1801
330
1802
330
1803
330
1804
330
1805
330
1806
330
1807
  0
IDBUFFER
  5
1878
330
0
100
AcDbIdBuffer
330
16BD
330
16DD
330
16F0
330
16F1
  0
IDBUFFER
  5
1879
330
0
100
AcDbIdBuffer
330
C50
  0
IDBUFFER
  5
187A
330
0
100
AcDbIdBuffer
330
C4F
330
C53
330
16F7
330
1704
  0
IDBUFFER
  5
187B
330
0
100
AcDbIdBuffer
  0
IDBUFFER
  5
187C
330
0
100
AcDbIdBuffer
330
C58
  0
ENDSEC
  0
EOF
