  0
SECTION
  2
HEADER
  9
$ACADVER
  1
AC1014
  9
$ACADMAINTVER
 70
     9
  9
$DWGCODEPAGE
  3
ANSI_932
  9
$INSBASE
 10
0.0
 20
0.0
 30
0.0
  9
$EXTMIN
 10
-63.25430219514823
 20
-27.25000101000752
 30
-0.00000001
  9
$EXTMAX
 10
10.89356115204065
 20
5.5
 30
0.00000001
  9
$LIMMIN
 10
-81.92840211254987
 20
-43.57653721046313
  9
$LIMMAX
 10
28.35800026806396
 20
19.81498491563462
  9
$ORTHOMODE
 70
     0
  9
$REGENMODE
 70
     1
  9
$FILLMODE
 70
     1
  9
$QTEXTMODE
 70
     0
  9
$MIRRTEXT
 70
     0
  9
$DRAGMODE
 70
     2
  9
$LTSCALE
 40
1.0
  9
$OSMODE
 70
    55
  9
$ATTMODE
 70
     1
  9
$TEXTSIZE
 40
2.5
  9
$TRACEWID
 40
1.0
  9
$TEXTSTYLE
  7
STANDARD
  9
$CLAYER
  8
AM_0
  9
$CELTYPE
  6
BYLAYER
  9
$CECOLOR
 62
   256
  9
$CELTSCALE
 40
1.0
  9
$DELOBJ
 70
     1
  9
$DISPSILH
 70
     0
  9
$DIMSCALE
 40
0.5
  9
$DIMASZ
 40
2.5
  9
$DIMEXO
 40
1.0
  9
$DIMDLI
 40
12.0
  9
$DIMRND
 40
0.0
  9
$DIMDLE
 40
0.0
  9
$DIMEXE
 40
1.0
  9
$DIMTP
 40
0.1
  9
$DIMTM
 40
0.1
  9
$DIMTXT
 40
3.2
  9
$DIMCEN
 40
0.0
  9
$DIMTSZ
 40
0.0
  9
$DIMTOL
 70
     0
  9
$DIMLIM
 70
     0
  9
$DIMTIH
 70
     0
  9
$DIMTOH
 70
     0
  9
$DIMSE1
 70
     0
  9
$DIMSE2
 70
     0
  9
$DIMTAD
 70
     3
  9
$DIMZIN
 70
     8
  9
$DIMBLK
  1
OPEN30
  9
$DIMASO
 70
     1
  9
$DIMSHO
 70
     1
  9
$DIMPOST
  1

  9
$DIMAPOST
  1
"
  9
$DIMALT
 70
     0
  9
$DIMALTD
 70
     2
  9
$DIMALTF
 40
0.0393701
  9
$DIMLFAC
 40
1.0
  9
$DIMTOFL
 70
     1
  9
$DIMTVP
 40
0.0
  9
$DIMTIX
 70
     0
  9
$DIMSOXD
 70
     0
  9
$DIMSAH
 70
     0
  9
$DIMBLK1
  1

  9
$DIMBLK2
  1

  9
$DIMSTYLE
  2
AM_JIS
  9
$DIMCLRD
 70
   256
  9
$DIMCLRE
 70
   256
  9
$DIMCLRT
 70
     2
  9
$DIMTFAC
 40
0.71
  9
$DIMGAP
 40
1.5
  9
$DIMJUST
 70
     0
  9
$DIMSD1
 70
     0
  9
$DIMSD2
 70
     0
  9
$DIMTOLJ
 70
     0
  9
$DIMTZIN
 70
     0
  9
$DIMALTZ
 70
     0
  9
$DIMALTTZ
 70
     0
  9
$DIMFIT
 70
     3
  9
$DIMUPT
 70
     0
  9
$DIMUNIT
 70
     2
  9
$DIMDEC
 70
     3
  9
$DIMTDEC
 70
     3
  9
$DIMALTU
 70
     2
  9
$DIMALTTD
 70
     2
  9
$DIMTXSTY
  7
ASAMI
  9
$DIMAUNIT
 70
     0
  9
$LUNITS
 70
     2
  9
$LUPREC
 70
     2
  9
$SKETCHINC
 40
1.0
  9
$FILLETRAD
 40
2.5
  9
$AUNITS
 70
     0
  9
$AUPREC
 70
     0
  9
$MENU
  1
.
  9
$ELEVATION
 40
0.0
  9
$PELEVATION
 40
0.0
  9
$THICKNESS
 40
0.0
  9
$LIMCHECK
 70
     0
  9
$BLIPMODE
 70
     0
  9
$CHAMFERA
 40
2.5
  9
$CHAMFERB
 40
2.5
  9
$CHAMFERC
 40
20.0
  9
$CHAMFERD
 40
0.0
  9
$SKPOLY
 70
     0
  9
$TDCREATE
 40
2452838.620506898
  9
$TDUPDATE
 40
2453152.480891713
  9
$TDINDWG
 40
0.1022964005
  9
$TDUSRTIMER
 40
0.1022964005
  9
$USRTIMER
 70
     1
  9
$ANGBASE
 50
0.0
  9
$ANGDIR
 70
     0
  9
$PDMODE
 70
     0
  9
$PDSIZE
 40
0.0
  9
$PLINEWID
 40
0.0
  9
$COORDS
 70
     1
  9
$SPLFRAME
 70
     0
  9
$SPLINETYPE
 70
     6
  9
$SPLINESEGS
 70
     8
  9
$ATTDIA
 70
     1
  9
$ATTREQ
 70
     1
  9
$HANDLING
 70
 12289
  9
$HANDSEED
  5
1CD4
  9
$SURFTAB1
 70
     6
  9
$SURFTAB2
 70
     6
  9
$SURFTYPE
 70
     6
  9
$SURFU
 70
     6
  9
$SURFV
 70
     6
  9
$UCSNAME
  2

  9
$UCSORG
 10
-0.0000000000000568
 20
-0.0000000000000036
 30
0.0
  9
$UCSXDIR
 10
1.0
 20
0.0
 30
0.0
  9
$UCSYDIR
 10
0.0
 20
1.0
 30
0.0
  9
$PUCSNAME
  2

  9
$PUCSORG
 10
0.0
 20
0.0
 30
0.0
  9
$PUCSXDIR
 10
1.0
 20
0.0
 30
0.0
  9
$PUCSYDIR
 10
0.0
 20
1.0
 30
0.0
  9
$USERI1
 70
     0
  9
$USERI2
 70
     0
  9
$USERI3
 70
     0
  9
$USERI4
 70
     0
  9
$USERI5
 70
     0
  9
$USERR1
 40
0.0
  9
$USERR2
 40
0.0
  9
$USERR3
 40
0.0
  9
$USERR4
 40
0.0
  9
$USERR5
 40
0.0
  9
$WORLDVIEW
 70
     1
  9
$SHADEDGE
 70
     3
  9
$SHADEDIF
 70
    70
  9
$TILEMODE
 70
     1
  9
$MAXACTVP
 70
    64
  9
$PINSBASE
 10
0.0
 20
0.0
 30
0.0
  9
$PLIMCHECK
 70
     0
  9
$PEXTMIN
 10
1.000000000000000E+20
 20
1.000000000000000E+20
 30
1.000000000000000E+20
  9
$PEXTMAX
 10
-1.000000000000000E+20
 20
-1.000000000000000E+20
 30
-1.000000000000000E+20
  9
$PLIMMIN
 10
0.0
 20
0.0
  9
$PLIMMAX
 10
841.0
 20
594.0
  9
$UNITMODE
 70
     0
  9
$VISRETAIN
 70
     1
  9
$PLINEGEN
 70
     0
  9
$PSLTSCALE
 70
     0
  9
$TREEDEPTH
 70
  3020
  9
$PICKSTYLE
 70
     0
  9
$CMLSTYLE
  2
STANDARD
  9
$CMLJUST
 70
     0
  9
$CMLSCALE
 40
20.0
  9
$PROXYGRAPHICS
 70
     1
  9
$MEASUREMENT
 70
     1
  0
ENDSEC
  0
SECTION
  2
CLASSES
  0
CLASS
  1
ACDBDICTIONARYWDFLT
  2
AcDbDictionaryWithDefault
  3
AutoCAD 2000
 90
        0
280
     0
281
     0
  0
CLASS
  1
ACDBPLACEHOLDER
  2
AcDbPlaceHolder
  3
AutoCAD 2000
 90
        0
280
     0
281
     0
  0
CLASS
  1
LAYOUT
  2
AcDbLayout
  3
AutoCAD 2000
 90
        0
280
     0
281
     0
  0
CLASS
  1
AMGSETTINGSOBJ
  2
AmgSettingsObj
  3
"AcadM|Product Description: AutoCAD Mechanical 2000|Company: Autodesk"
 90
        0
280
     0
281
     0
  0
CLASS
  1
ACME_DOCUMENT
  2
AcMeDbDoc
  3
AcMeServices
 90
        0
280
     0
281
     0
  0
CLASS
  1
ACMESCOPE
  2
AcMeScope
  3
AcMeServices
 90
        0
280
     0
281
     0
  0
CLASS
  1
ACMECOMMANDHISTORY
  2
AcMeCommandHistory
  3
AcMeServices
 90
        0
280
     0
281
     0
  0
CLASS
  1
DICTIONARYVAR
  2
AcDbDictionaryVar
  3
AutoCAD 2000
 90
        0
280
     0
281
     0
  0
CLASS
  1
ACIMSYSVARMAN
  2
AcImSysVarManager
  3
AcMeServices
 90
        0
280
     0
281
     0
  0
CLASS
  1
ACIMREALSYSVAR
  2
AcImRealSysVar
  3
AcMeServices
 90
        0
280
     0
281
     0
  0
CLASS
  1
ACIMINTSYSVAR
  2
AcImIntSysVar
  3
AcMeServices
 90
        0
280
     0
281
     0
  0
CLASS
  1
ACMEDRAWINGMAN
  2
AcMeDrawingMan
  3
AcMeServices
 90
        0
280
     0
281
     0
  0
CLASS
  1
ACMEVIEW
  2
AcMeView
  3
AcMeServices
 90
        0
280
     0
281
     0
  0
CLASS
  1
ACDBENTITYCACHE
  2
AcMeEntityCache
  3
AcMeServices
 90
        0
280
     0
281
     0
  0
CLASS
  1
GSMANAGER
  2
AcMeGSManager
  3
AcMeServices
 90
        0
280
     0
281
     0
  0
CLASS
  1
AmdtInternalReactor
  2
AmdtInternalReactor
  3
AcMeServices
 90
        0
280
     0
281
     0
  0
CLASS
  1
ACMESTATEMGR
  2
AcMeStateMgr
  3
AcMeServices
 90
        0
280
     0
281
     0
  0
CLASS
  1
ACME_DATABASE
  2
AcMeDbDatabase
  3
AcMeServices
 90
        0
280
     0
281
     0
  0
CLASS
  1
ACRFINSADJUSTERMGR
  2
AcRfInsAdjusterMgr
  3
AcMeServices
 90
        0
280
     0
281
     0
  0
CLASS
  1
ACMDATADICTIONARY
  2
AcmDataDictionary
  3
"AcmSymBB|Product Description: AutoCAD Mechanical 2000|Company: Autodesk"
 90
        0
280
     0
281
     0
  0
CLASS
  1
ACMDATAENTRYBLOCK
  2
AcmDataEntryBlock
  3
"AcmSymBB|Product Description: AutoCAD Mechanical 2000|Company: Autodesk"
 90
        0
280
     0
281
     0
  0
CLASS
  1
AMGOBJPROPCFG
  2
AmgObjPropCfg
  3
"AmgLay|Product Description: AutoCAD Mechanical 2000|Company: Autodesk"
 90
        1
280
     0
281
     0
  0
CLASS
  1
ACAMGFILTERDAT
  2
AcAmgFilterDat
  3
"AcadM|Product Description: AutoCAD Mechanical 2000|Company: Autodesk"
 90
        0
280
     0
281
     0
  0
CLASS
  1
LAYER_INDEX
  2
AcDbLayerIndex
  3
AutoCAD 2000
 90
        0
280
     0
281
     0
  0
CLASS
  1
IDBUFFER
  2
AcDbIdBuffer
  3
AutoCAD 2000
 90
        0
280
     0
281
     0
  0
CLASS
  1
ACIMSTRSYSVAR
  2
AcImStrSysVar
  3
AcMeServices
 90
        0
280
     0
281
     0
  0
CLASS
  1
ACMSTANDARDJIS
  2
AcmStandardJIS
  3
"AcmSymBB|Product Description: AutoCAD Mechanical 2000|Company: Autodesk"
 90
        0
280
     0
281
     0
  0
CLASS
  1
ACMSURFSTANDARDJIS
  2
AcmSurfTextStdJIS
  3
"AcmSymBB|Product Description: AutoCAD Mechanical 2000|Company: Autodesk"
 90
        0
280
     0
281
     0
  0
CLASS
  1
ACMFCFSTANDARDJIS
  2
AcmFCFStdJIS
  3
"AcmSymBB|Product Description: AutoCAD Mechanical 2000|Company: Autodesk"
 90
        0
280
     0
281
     0
  0
CLASS
  1
ACMWELDSTANDARDJIS
  2
AcmWeldingStdJIS
  3
"AcmSymBB|Product Description: AutoCAD Mechanical 2000|Company: Autodesk"
 90
        0
280
     0
281
     0
  0
CLASS
  1
ACMIDSTANDARDJIS
  2
AcmIdStdJIS
  3
"AcmSymBB|Product Description: AutoCAD Mechanical 2000|Company: Autodesk"
 90
        0
280
     0
281
     0
  0
CLASS
  1
ACMDATUMSTANDARDJIS
  2
AcmDatumStdJIS
  3
"AcmSymBB|Product Description: AutoCAD Mechanical 2000|Company: Autodesk"
 90
        0
280
     0
281
     0
  0
CLASS
  1
ACMBOMSTANDARDJIS
  2
AcmBOMStdJIS
  3
"AcmSymBB|Product Description: AutoCAD Mechanical 2000|Company: Autodesk"
 90
        0
280
     0
281
     0
  0
CLASS
  1
ACMSTANDARDANSI
  2
AcmStandardANSI
  3
"AcmSymBB|Product Description: AutoCAD Mechanical 2000|Company: Autodesk"
 90
        0
280
     0
281
     0
  0
CLASS
  1
ACMSURFSTANDARDANSI
  2
AcmSurfTextStdANSI
  3
"AcmSymBB|Product Description: AutoCAD Mechanical 2000|Company: Autodesk"
 90
        0
280
     0
281
     0
  0
CLASS
  1
ACMFCFSTANDARDANSI
  2
AcmFCFStdANSI
  3
"AcmSymBB|Product Description: AutoCAD Mechanical 2000|Company: Autodesk"
 90
        0
280
     0
281
     0
  0
CLASS
  1
ACMWELDSTANDARDANSI
  2
AcmWeldingStdANSI
  3
"AcmSymBB|Product Description: AutoCAD Mechanical 2000|Company: Autodesk"
 90
        0
280
     0
281
     0
  0
CLASS
  1
ACMIDSTANDARDANSI
  2
AcmIdStdANSI
  3
"AcmSymBB|Product Description: AutoCAD Mechanical 2000|Company: Autodesk"
 90
        0
280
     0
281
     0
  0
CLASS
  1
ACMDATUMSTANDARDANSI
  2
AcmDatumStdANSI
  3
"AcmSymBB|Product Description: AutoCAD Mechanical 2000|Company: Autodesk"
 90
        0
280
     0
281
     0
  0
CLASS
  1
ACMBOMSTANDARDANSI
  2
AcmBOMStdANSI
  3
"AcmSymBB|Product Description: AutoCAD Mechanical 2000|Company: Autodesk"
 90
        0
280
     0
281
     0
  0
CLASS
  1
ACMSTANDARDBSI
  2
AcmStandardBSI
  3
"AcmSymBB|Product Description: AutoCAD Mechanical 2000|Company: Autodesk"
 90
        0
280
     0
281
     0
  0
CLASS
  1
ACMSURFSTANDARDBSI
  2
AcmSurfTextStdBSI
  3
"AcmSymBB|Product Description: AutoCAD Mechanical 2000|Company: Autodesk"
 90
        0
280
     0
281
     0
  0
CLASS
  1
ACMFCFSTANDARDBSI
  2
AcmFCFStdBSI
  3
"AcmSymBB|Product Description: AutoCAD Mechanical 2000|Company: Autodesk"
 90
        0
280
     0
281
     0
  0
CLASS
  1
ACMWELDSTANDARDBSI
  2
AcmWeldingStdBSI
  3
"AcmSymBB|Product Description: AutoCAD Mechanical 2000|Company: Autodesk"
 90
        0
280
     0
281
     0
  0
CLASS
  1
ACMIDSTANDARDBSI
  2
AcmIdStdBSI
  3
"AcmSymBB|Product Description: AutoCAD Mechanical 2000|Company: Autodesk"
 90
        0
280
     0
281
     0
  0
CLASS
  1
ACMDATUMSTANDARDBSI
  2
AcmDatumStdBSI
  3
"AcmSymBB|Product Description: AutoCAD Mechanical 2000|Company: Autodesk"
 90
        0
280
     0
281
     0
  0
CLASS
  1
ACMBOMSTANDARDBSI
  2
AcmBOMStdBSI
  3
"AcmSymBB|Product Description: AutoCAD Mechanical 2000|Company: Autodesk"
 90
        0
280
     0
281
     0
  0
CLASS
  1
LONG_TRANSACTION
  2
AcDbLongTransaction
  3
AutoCAD 2000
 90
        0
280
     0
281
     0
  0
CLASS
  1
LWPOLYLINE
  2
AcDbPolyline
  3
AutoCAD 2000
 90
        0
280
     0
281
     1
  0
CLASS
  1
HATCH
  2
AcDbHatch
  3
AutoCAD 2000
 90
        0
280
     0
281
     1
  0
CLASS
  1
XRECORD
  2
AcDbXrecord
  3
AutoCAD 2000
 90
        0
280
     0
281
     0
  0
ENDSEC
  0
SECTION
  2
TABLES
  0
TABLE
  2
VPORT
  5
8
330
0
100
AcDbSymbolTable
 70
     3
  0
VPORT
  5
1CA9
330
8
100
AcDbSymbolTableRecord
100
AcDbViewportTableRecord
  2
*ACTIVE
 70
     0
 10
0.0
 20
0.0
 11
1.0
 21
1.0
 12
-15.96408876420326
 22
3.609991922816718
 13
0.0
 23
0.0
 14
2.5
 24
2.5
 15
10.0
 25
10.0
 16
0.0
 26
0.0
 36
1.0
 17
0.0
 27
0.0
 37
0.0
 40
177.6114586948805
 41
1.56570841889117
 42
50.0
 43
0.0
 44
0.0
 50
0.0
 51
0.0
 71
     0
 72
   100
 73
     1
 74
     3
 75
     0
 76
     0
 77
     0
 78
     0
  0
ENDTAB
  0
TABLE
  2
LTYPE
  5
5
330
0
100
AcDbSymbolTable
 70
    10
  0
LTYPE
  5
14
330
5
100
AcDbSymbolTableRecord
100
AcDbLinetypeTableRecord
  2
BYBLOCK
 70
     0
  3

 72
    65
 73
     0
 40
0.0
  0
LTYPE
  5
15
330
5
100
AcDbSymbolTableRecord
100
AcDbLinetypeTableRecord
  2
BYLAYER
 70
     0
  3

 72
    65
 73
     0
 40
0.0
  0
LTYPE
  5
16
330
5
100
AcDbSymbolTableRecord
100
AcDbLinetypeTableRecord
  2
CONTINUOUS
 70
     0
  3
Solid line
 72
    65
 73
     0
 40
0.0
  0
LTYPE
  5
4B
330
5
100
AcDbSymbolTableRecord
100
AcDbLinetypeTableRecord
  2
AM_ISO02W050
 70
     0
  3
__ __ __ __ __ __ __ __ __ __ __ __ __ __ __
 72
    65
 73
     2
 40
7.5
 49
6.0
 74
     0
 49
-1.5
 74
     0
  0
LTYPE
  5
4C
330
5
100
AcDbSymbolTableRecord
100
AcDbLinetypeTableRecord
  2
AM_ISO08W050
 70
     0
  3
____ . ____ . ____ . ____ . ____ . ____ . ____
 72
    65
 73
     4
 40
18.0
 49
12.0
 74
     0
 49
-1.5
 74
     0
 49
3.0
 74
     0
 49
-1.5
 74
     0
  0
LTYPE
  5
4D
330
5
100
AcDbSymbolTableRecord
100
AcDbLinetypeTableRecord
  2
AM_ISO09W050
 70
     0
  3
_____ . . _____ . . _____ . . ____ .. ____
 72
    65
 73
     6
 40
22.5
 49
12.0
 74
     0
 49
-1.5
 74
     0
 49
3.0
 74
     0
 49
-1.5
 74
     0
 49
3.0
 74
     0
 49
-1.5
 74
     0
  0
LTYPE
  5
4E
330
5
100
AcDbSymbolTableRecord
100
AcDbLinetypeTableRecord
  2
AMCONSTR
 70
     0
  3
_______________________
 72
    65
 73
     2
 40
9999.0
 49
9999.0
 74
     0
 49
0.0
 74
     0
  0
LTYPE
  5
4F
330
5
100
AcDbSymbolTableRecord
100
AcDbLinetypeTableRecord
  2
AM_ISO02W050X2
 70
     0
  3
 _ _ _ _ _ _ _ _ _ _ _ _
 72
    65
 73
     2
 40
3.75
 49
3.0
 74
     0
 49
-0.75
 74
     0
  0
LTYPE
  5
50
330
5
100
AcDbSymbolTableRecord
100
AcDbLinetypeTableRecord
  2
AM_ISO08W050X2
 70
     0
  3
__ . __ . __ . __ . __ . __
 72
    65
 73
     4
 40
9.0
 49
6.0
 74
     0
 49
-0.75
 74
     0
 49
1.5
 74
     0
 49
-0.75
 74
     0
  0
LTYPE
  5
53
330
5
100
AcDbSymbolTableRecord
100
AcDbLinetypeTableRecord
  2
AMZIGZAG
 70
     0
  3
/\/-/\/-/\/-/\/-/\/-/\/
 72
    65
 73
     2
 40
11.00009999999999
 49
0.0001
 74
     4
 75
   135
340
52
 46
0.04
 50
0.0
 44
0.0
 45
0.0
 49
-11.0
 74
     0
  0
LTYPE
  5
166
330
5
100
AcDbSymbolTableRecord
100
AcDbLinetypeTableRecord
  2
ACJISTGL
 70
     0
  3
_ _ _ _ _
 72
    65
 73
     2
 40
3.0
 49
2.0
 74
     0
 49
-1.0
 74
     0
  0
LTYPE
  5
26A
330
5
100
AcDbSymbolTableRecord
100
AcDbLinetypeTableRecord
  2
ACJISTGB
 70
     0
  3
__ . . __ . .
 72
    65
 73
     6
 40
9.0
 49
4.0
 74
     0
 49
-1.0
 74
     0
 49
1.0
 74
     0
 49
-1.0
 74
     0
 49
1.0
 74
     0
 49
-1.0
 74
     0
  0
ENDTAB
  0
TABLE
  2
LAYER
  5
2
330
0
100
AcDbSymbolTable
 70
     9
  0
LAYER
  5
10
330
2
100
AcDbSymbolTableRecord
100
AcDbLayerTableRecord
  2
0
 70
     0
 62
     7
  6
CONTINUOUS
  0
LAYER
  5
3F9
330
2
100
AcDbSymbolTableRecord
100
AcDbLayerTableRecord
  2
AM_0
 70
     0
 62
     7
  6
CONTINUOUS
  0
LAYER
  5
BD6
330
2
100
AcDbSymbolTableRecord
100
AcDbLayerTableRecord
  2
AM_11
 70
     0
 62
     3
  6
AM_ISO09W050
  0
LAYER
  5
BD7
330
2
100
AcDbSymbolTableRecord
100
AcDbLayerTableRecord
  2
AM_7
 70
     0
 62
     4
  6
AM_ISO08W050
  0
LAYER
  5
BD8
330
2
100
AcDbSymbolTableRecord
100
AcDbLayerTableRecord
  2
AM_5
 70
     0
 62
     3
  6
CONTINUOUS
  0
LAYER
  5
BD9
330
2
100
AcDbSymbolTableRecord
100
AcDbLayerTableRecord
  2
DEFPOINTS
 70
     0
 62
     7
  6
CONTINUOUS
  0
LAYER
  5
BDA
330
2
100
AcDbSymbolTableRecord
100
AcDbLayerTableRecord
  2
AM_6
 70
     0
 62
     2
  6
CONTINUOUS
  0
LAYER
  5
196C
330
2
100
AcDbSymbolTableRecord
100
AcDbLayerTableRecord
  2
AM_4
 70
     0
 62
     3
  6
CONTINUOUS
  0
LAYER
  5
19A2
330
2
100
AcDbSymbolTableRecord
100
AcDbLayerTableRecord
  2
AM_CL
 70
     0
 62
     1
  6
AMCONSTR
  0
ENDTAB
  0
TABLE
  2
STYLE
  5
3
330
0
100
AcDbSymbolTable
 70
     5
  0
STYLE
  5
11
330
3
100
AcDbSymbolTableRecord
100
AcDbTextStyleTableRecord
  2
STANDARD
 70
     0
 40
0.0
 41
1.0
 50
0.0
 71
     0
 42
2.5
  3
simplex.shx
  4
EXTFONT.SHX
  0
STYLE
  5
52
330
3
100
AcDbSymbolTableRecord
100
AcDbTextStyleTableRecord
  2

 70
     1
 40
0.0
 41
1.0
 50
0.0
 71
     0
 42
2.5
  3
ltypeshp.shx
  4

  0
STYLE
  5
6B
330
3
100
AcDbSymbolTableRecord
100
AcDbTextStyleTableRecord
  2
ASAMI
 70
     0
 40
0.0
 41
1.0
 50
0.0
 71
     0
 42
2.5
  3
simplex.shx
  4
EXTFONT.SHX
  0
STYLE
  5
262
330
3
100
AcDbSymbolTableRecord
100
AcDbTextStyleTableRecord
  2
ACJISTS
 70
     0
 40
1.0
 41
1.0
 50
0.0
 71
     0
 42
2.5
  3
simplex.shx
  4
bigfont.shx
  0
STYLE
  5
269
330
3
100
AcDbSymbolTableRecord
100
AcDbTextStyleTableRecord
  2
ACJISGDT
 70
     0
 40
0.0
 41
1.0
 50
0.0
 71
     0
 42
2.5
  3
amgdtans.shx
  4

  0
ENDTAB
  0
TABLE
  2
VIEW
  5
6
330
0
100
AcDbSymbolTable
 70
     0
  0
ENDTAB
  0
TABLE
  2
UCS
  5
7
330
0
100
AcDbSymbolTable
 70
     0
  0
ENDTAB
  0
TABLE
  2
APPID
  5
9
330
0
100
AcDbSymbolTable
 70
    13
  0
APPID
  5
12
330
9
100
AcDbSymbolTableRecord
100
AcDbRegAppTableRecord
  2
ACAD
 70
     0
  0
APPID
  5
30
330
9
100
AcDbSymbolTableRecord
100
AcDbRegAppTableRecord
  2
MCAD_NO_VIS
 70
     0
  0
APPID
  5
31
330
9
100
AcDbSymbolTableRecord
100
AcDbRegAppTableRecord
  2
ACAD_TEMP_GRAPHIC
 70
     0
  0
APPID
  5
2C2
330
9
100
AcDbSymbolTableRecord
100
AcDbRegAppTableRecord
  2
GENIUS_GENDTOL_13
 70
     0
  0
APPID
  5
339
330
9
100
AcDbSymbolTableRecord
100
AcDbRegAppTableRecord
  2
GENIUS_GENODEF_13
 70
     0
  0
APPID
  5
33A
330
9
100
AcDbSymbolTableRecord
100
AcDbRegAppTableRecord
  2
GENIUS_GENOBJ-N-RSBK_13
 70
     0
  0
APPID
  5
33B
330
9
100
AcDbSymbolTableRecord
100
AcDbRegAppTableRecord
  2
GENIUS_GENOBJ-N-LIB_13
 70
     0
  0
APPID
  5
33C
330
9
100
AcDbSymbolTableRecord
100
AcDbRegAppTableRecord
  2
GENIUS_GENSCALE_13
 70
     0
  0
APPID
  5
378
330
9
100
AcDbSymbolTableRecord
100
AcDbRegAppTableRecord
  2
GENIUS_GENDIMSH_14
 70
     0
  0
APPID
  5
BDB
330
9
100
AcDbSymbolTableRecord
100
AcDbRegAppTableRecord
  2
GENIUS_GENOBJ-N-CEN_13
 70
     0
  0
APPID
  5
BDC
330
9
100
AcDbSymbolTableRecord
100
AcDbRegAppTableRecord
  2
GENIUS_GENFIL_13
 70
     0
  0
APPID
  5
BDD
330
9
100
AcDbSymbolTableRecord
100
AcDbRegAppTableRecord
  2
GENIUS_GENOBJ-N-FIL_13
 70
     0
  0
APPID
  5
12AD
330
9
100
AcDbSymbolTableRecord
100
AcDbRegAppTableRecord
  2
GENIUS_GENOREF_13
 70
     0
  0
ENDTAB
  0
TABLE
  2
DIMSTYLE
  5
A
330
0
100
AcDbSymbolTable
 70
     8
  0
DIMSTYLE
105
58
102
{ACAD_REACTORS
330
C4F
330
C53
330
15A7
330
1B34
102
}
330
A
100
AcDbSymbolTableRecord
100
AcDbDimStyleTableRecord
  2
AM_JIS
 70
     0
  3

  4
"
  5
OPEN30
  6

  7

 40
0.5
 41
2.5
 42
1.0
 43
12.0
 44
1.0
 45
0.0
 46
0.0
 47
0.1
 48
0.1
140
3.2
141
0.0
142
0.0
143
0.0393701
144
1.0
145
0.0
146
0.71
147
1.5
 71
     0
 72
     0
 73
     0
 74
     0
 75
     0
 76
     0
 77
     3
 78
     8
170
     0
171
     2
172
     1
173
     0
174
     0
175
     0
176
   256
177
   256
178
     2
270
     2
271
     3
272
     3
273
     2
274
     2
340
6B
275
     0
280
     0
281
     0
282
     0
283
     0
284
     0
285
     0
286
     0
287
     3
288
     0
  0
DIMSTYLE
105
5F
330
A
100
AcDbSymbolTableRecord
100
AcDbDimStyleTableRecord
  2
AM_JIS$3
 70
     0
  3

  4
"
  5
OPEN30
  6

  7

 40
0.5
 41
2.5
 42
1.0
 43
10.0
 44
1.0
 45
0.0
 46
0.0
 47
0.1
 48
0.1
140
3.2
141
0.0
142
0.0
143
0.0393701
144
1.0
145
0.0
146
0.71
147
1.5
 71
     0
 72
     0
 73
     0
 74
     1
 75
     0
 76
     0
 77
     3
 78
     8
170
     0
171
     2
172
     0
173
     0
174
     0
175
     0
176
   256
177
   256
178
     2
270
     2
271
     2
272
     3
273
     2
274
     2
340
6B
275
     0
280
     0
281
     0
282
     0
283
     0
284
     0
285
     0
286
     0
287
     0
288
     1
  0
DIMSTYLE
105
60
330
A
100
AcDbSymbolTableRecord
100
AcDbDimStyleTableRecord
  2
AM_JIS$4
 70
     0
  3

  4
"
  5
OPEN30
  6

  7

 40
0.5
 41
2.5
 42
1.0
 43
10.0
 44
1.0
 45
0.0
 46
0.0
 47
0.1
 48
0.1
140
3.2
141
0.0
142
0.0
143
0.0393701
144
1.0
145
0.0
146
0.71
147
1.5
 71
     0
 72
     0
 73
     0
 74
     1
 75
     0
 76
     0
 77
     3
 78
     8
170
     0
171
     2
172
     0
173
     0
174
     0
175
     0
176
   256
177
   256
178
     2
270
     2
271
     2
272
     3
273
     2
274
     2
340
6B
275
     0
280
     0
281
     0
282
     0
283
     0
284
     0
285
     0
286
     0
287
     0
288
     1
  0
DIMSTYLE
105
61
330
A
100
AcDbSymbolTableRecord
100
AcDbDimStyleTableRecord
  2
AM_JIS$6
 70
     0
  3

  4
"
  5
OPEN30
  6

  7

 40
0.5
 41
2.5
 42
1.0
 43
10.0
 44
1.0
 45
0.0
 46
0.0
 47
0.1
 48
0.1
140
3.2
141
0.0
142
0.0
143
0.0393701
144
1.0
145
0.0
146
0.71
147
1.5
 71
     0
 72
     0
 73
     0
 74
     0
 75
     0
 76
     0
 77
     0
 78
     8
170
     0
171
     2
172
     1
173
     0
174
     0
175
     0
176
   256
177
   256
178
     2
270
     2
271
     2
272
     2
273
     2
274
     2
340
6B
275
     0
280
     0
281
     0
282
     0
283
     0
284
     0
285
     0
286
     0
287
     3
288
     0
  0
DIMSTYLE
105
62
330
A
100
AcDbSymbolTableRecord
100
AcDbDimStyleTableRecord
  2
AM_JIS$7
 70
     0
  3

  4
"
  5
OPEN30
  6

  7

 40
0.5
 41
2.5
 42
1.0
 43
10.0
 44
1.0
 45
0.0
 46
0.0
 47
0.1
 48
0.1
140
3.2
141
0.0
142
0.0
143
0.0393701
144
1.0
145
0.0
146
0.71
147
1.5
 71
     0
 72
     0
 73
     0
 74
     0
 75
     0
 76
     0
 77
     3
 78
     8
170
     0
171
     2
172
     1
173
     0
174
     0
175
     0
176
   256
177
   256
178
     2
270
     2
271
     2
272
     3
273
     2
274
     2
340
6B
275
     0
280
     0
281
     0
282
     0
283
     0
284
     0
285
     0
286
     0
287
     3
288
     0
  0
DIMSTYLE
105
63
330
A
100
AcDbSymbolTableRecord
100
AcDbDimStyleTableRecord
  2
AM_JIS$SF
 70
     0
  3

  4
"
  5
OPEN30
  6

  7

 40
0.5
 41
2.5
 42
1.0
 43
10.0
 44
1.0
 45
0.0
 46
0.0
 47
0.1
 48
0.1
140
3.2
141
0.0
142
0.0
143
0.0393701
144
1.0
145
0.0
146
0.71
147
1.5
 71
     0
 72
     0
 73
     0
 74
     0
 75
     1
 76
     1
 77
     3
 78
     8
170
     0
171
     2
172
     1
173
     0
174
     0
175
     0
176
   256
177
   256
178
     2
270
     2
271
     2
272
     2
273
     2
274
     2
340
6B
275
     0
280
     0
281
     0
282
     0
283
     0
284
     0
285
     0
286
     0
287
     3
288
     0
  0
DIMSTYLE
105
68
330
A
100
AcDbSymbolTableRecord
100
AcDbDimStyleTableRecord
  2
AM_JIS$SH
 70
     0
  3

  4
"
  5

  6
GENAXEH
  7
OPEN30
 40
0.5
 41
2.5
 42
1.0
 43
10.0
 44
1.0
 45
0.0
 46
0.0
 47
0.1
 48
0.1
140
3.2
141
0.0
142
0.0
143
0.0393701
144
2.0
145
0.0
146
0.71
147
1.5
 71
     0
 72
     0
 73
     0
 74
     0
 75
     1
 76
     1
 77
     3
 78
     8
170
     0
171
     2
172
     1
173
     1
174
     0
175
     0
176
   256
177
   256
178
     2
270
     2
271
     2
272
     2
273
     2
274
     2
340
6B
275
     0
280
     0
281
     0
282
     0
283
     0
284
     0
285
     0
286
     0
287
     3
288
     0
  0
DIMSTYLE
105
B34
330
A
100
AcDbSymbolTableRecord
100
AcDbDimStyleTableRecord
  2
AM_JIS$2
 70
     0
  3

  4
"
  5
OPEN30
  6

  7

 40
0.5
 41
2.5
 42
1.0
 43
12.0
 44
1.0
 45
0.0
 46
0.0
 47
0.1
 48
0.1
140
3.2
141
0.0
142
0.0
143
0.0393701
144
1.0
145
0.0
146
0.71
147
1.5
 71
     0
 72
     0
 73
     0
 74
     0
 75
     0
 76
     0
 77
     3
 78
     8
170
     0
171
     2
172
     1
173
     0
174
     0
175
     0
176
   256
177
   256
178
     2
270
     2
271
     3
272
     3
273
     2
274
     2
340
6B
275
     0
280
     0
281
     0
282
     0
283
     0
284
     0
285
     0
286
     0
287
     3
288
     0
  0
ENDTAB
  0
TABLE
  2
BLOCK_RECORD
  5
1
330
0
100
AcDbSymbolTable
 70
     9
  0
BLOCK_RECORD
  5
1F
102
{ACAD_XDICTIONARY
360
74
102
}
330
1
100
AcDbSymbolTableRecord
100
AcDbBlockTableRecord
  2
*MODEL_SPACE
  0
BLOCK_RECORD
  5
101
102
{ACAD_XDICTIONARY
360
1CD2
102
}
330
1
100
AcDbSymbolTableRecord
100
AcDbBlockTableRecord
  2
*PAPER_SPACE
  0
BLOCK_RECORD
  5
59
330
1
100
AcDbSymbolTableRecord
100
AcDbBlockTableRecord
  2
_OPEN30
  0
BLOCK_RECORD
  5
64
330
1
100
AcDbSymbolTableRecord
100
AcDbBlockTableRecord
  2
GENAXEH
  0
BLOCK_RECORD
  5
C75
330
1
100
AcDbSymbolTableRecord
100
AcDbBlockTableRecord
  2
*D5
  0
BLOCK_RECORD
  5
C81
330
1
100
AcDbSymbolTableRecord
100
AcDbBlockTableRecord
  2
*D6
  0
BLOCK_RECORD
  5
15A8
330
1
100
AcDbSymbolTableRecord
100
AcDbBlockTableRecord
  2
*D7
  0
BLOCK_RECORD
  5
1B35
330
1
100
AcDbSymbolTableRecord
100
AcDbBlockTableRecord
  2
*D8
  0
ENDTAB
  0
ENDSEC
  0
SECTION
  2
BLOCKS
  0
BLOCK
  5
20
330
1F
100
AcDbEntity
  8
0
100
AcDbBlockBegin
  2
*MODEL_SPACE
 70
     0
 10
0.0
 20
0.0
 30
0.0
  3
*MODEL_SPACE
  1

  0
ENDBLK
  5
21
330
1F
100
AcDbEntity
  8
0
100
AcDbBlockEnd
  0
BLOCK
  5
103
330
101
100
AcDbEntity
 67
     1
  8
0
100
AcDbBlockBegin
  2
*PAPER_SPACE
 70
     0
 10
0.0
 20
0.0
 30
0.0
  3
*PAPER_SPACE
  1

  0
ENDBLK
  5
104
330
101
100
AcDbEntity
 67
     1
  8
0
100
AcDbBlockEnd
  0
BLOCK
  5
5D
330
59
100
AcDbEntity
  8
0
100
AcDbBlockBegin
  2
_OPEN30
 70
     0
 10
0.0
 20
0.0
 30
0.0
  3
_OPEN30
  1

  0
LINE
  5
5A
330
59
100
AcDbEntity
  8
0
 62
     0
100
AcDbLine
 10
-1.0
 20
0.26794919
 30
0.0
 11
0.0
 21
0.0
 31
0.0
  0
LINE
  5
5B
330
59
100
AcDbEntity
  8
0
 62
     0
100
AcDbLine
 10
0.0
 20
0.0
 30
0.0
 11
-1.0
 21
-0.26794919
 31
0.0
  0
LINE
  5
5C
330
59
100
AcDbEntity
  8
0
 62
     0
100
AcDbLine
 10
0.0
 20
0.0
 30
0.0
 11
-1.0
 21
0.0
 31
0.0
  0
ENDBLK
  5
5E
330
59
100
AcDbEntity
  8
0
100
AcDbBlockEnd
  0
BLOCK
  5
66
330
64
100
AcDbEntity
  8
0
100
AcDbBlockBegin
  2
GENAXEH
 70
     0
 10
0.0
 20
0.0
 30
0.0
  3
GENAXEH
  1

  0
LINE
  5
65
330
64
100
AcDbEntity
  8
0
100
AcDbLine
 10
-1.0
 20
0.0
 30
0.0
 11
1.0
 21
0.0
 31
0.0
  0
ENDBLK
  5
67
330
64
100
AcDbEntity
  8
0
100
AcDbBlockEnd
  0
BLOCK
  5
C7F
330
C75
100
AcDbEntity
  8
0
100
AcDbBlockBegin
  2
*D5
 70
     1
 10
0.0
 20
0.0
 30
0.0
  3
*D5
  1

  0
LINE
  5
1C5F
330
C75
100
AcDbEntity
  8
AM_5
100
AcDbLine
 10
-50.00000000000006
 20
-2.75
 30
0.0
 11
-50.00000000000006
 21
-16.50000101000748
 31
0.0
  0
LINE
  5
1C60
330
C75
100
AcDbEntity
  8
AM_5
100
AcDbLine
 10
-0.0000000000000569
 20
-3.500000000007911
 30
0.0
 11
-0.0000000000000577
 21
-16.50000101000748
 31
0.0
  0
LINE
  5
1C61
330
C75
100
AcDbEntity
  8
AM_5
100
AcDbLine
 10
-48.75000000000006
 20
-16.00000101000748
 30
0.0
 11
-1.250000000000057
 21
-16.00000101000748
 31
0.0
  0
INSERT
  5
1C62
330
C75
100
AcDbEntity
  8
AM_5
100
AcDbBlockReference
  2
_OPEN30
 10
-50.00000000000006
 20
-16.00000101000748
 30
0.0
 41
1.25
 42
1.25
 43
1.25
 50
180.0
  0
INSERT
  5
1C63
330
C75
100
AcDbEntity
  8
AM_5
100
AcDbBlockReference
  2
_OPEN30
 10
-0.0000000000000577
 20
-16.00000101000748
 30
0.0
 41
1.25
 42
1.25
 43
1.25
  0
MTEXT
  5
1C64
330
C75
100
AcDbEntity
  8
AM_5
 62
     2
100
AcDbMText
 10
-25.00000000000005
 20
-14.45000101000748
 30
0.0
 40
1.6
 41
0.0
 71
     5
 72
     1
  1
50
  7
ASAMI
1001
ACAD
1000
MTEXTBEGIN
1070
    73
1070
     1
1070
    44
1040
1.0
1070
    74
1070
     0
1000
MTEXTEND
  0
POINT
  5
1C65
330
C75
100
AcDbEntity
  8
DEFPOINTS
 62
     0
100
AcDbPoint
 10
-50.00000000000006
 20
-2.25
 30
0.0
  0
POINT
  5
1C66
330
C75
100
AcDbEntity
  8
DEFPOINTS
 62
     0
100
AcDbPoint
 10
-0.0000000000000569
 20
-3.000000000007911
 30
0.0
  0
POINT
  5
1C67
330
C75
100
AcDbEntity
  8
DEFPOINTS
 62
     0
100
AcDbPoint
 10
-0.0000000000000577
 20
-16.00000101000748
 30
0.0
  0
ENDBLK
  5
C80
330
C75
100
AcDbEntity
  8
0
100
AcDbBlockEnd
  0
BLOCK
  5
C8B
330
C81
100
AcDbEntity
  8
0
100
AcDbBlockBegin
  2
*D6
 70
     1
 10
0.0
 20
0.0
 30
0.0
  3
*D6
  1

  0
LINE
  5
1C25
330
C81
100
AcDbEntity
  8
AM_5
100
AcDbLine
 10
-50.00000000000006
 20
-3.000000000000002
 30
0.0
 11
-61.40430219514822
 21
-2.999999999999999
 31
0.0
  0
LINE
  5
1C26
330
C81
100
AcDbEntity
  8
AM_5
100
AcDbLine
 10
-50.00000000000006
 20
2.999999999999997
 30
0.0
 11
-61.40430219514822
 21
3.0
 31
0.0
  0
LINE
  5
1C27
330
C81
100
AcDbEntity
  8
AM_5
100
AcDbLine
 10
-60.90430219514822
 20
-4.249999999999999
 30
0.0
 11
-60.90430219514822
 21
-5.499999999999999
 31
0.0
  0
LINE
  5
1C28
330
C81
100
AcDbEntity
  8
AM_5
100
AcDbLine
 10
-60.90430219514822
 20
4.25
 30
0.0
 11
-60.90430219514822
 21
5.5
 31
0.0
  0
LINE
  5
1C29
330
C81
100
AcDbEntity
  8
AM_5
100
AcDbLine
 10
-60.90430219514822
 20
-2.999999999999999
 30
0.0
 11
-60.90430219514822
 21
3.0
 31
0.0
  0
INSERT
  5
1C2A
330
C81
100
AcDbEntity
  8
AM_5
100
AcDbBlockReference
  2
_OPEN30
 10
-60.90430219514822
 20
-2.999999999999999
 30
0.0
 41
1.25
 42
1.25
 43
1.25
 50
90.0
  0
INSERT
  5
1C2B
330
C81
100
AcDbEntity
  8
AM_5
100
AcDbBlockReference
  2
_OPEN30
 10
-60.90430219514822
 20
3.0
 30
0.0
 41
1.25
 42
1.25
 43
1.25
 50
270.0
  0
MTEXT
  5
1C2C
330
C81
100
AcDbEntity
  8
AM_5
 62
     2
100
AcDbMText
 10
-62.45430219514823
 20
-0.0000000000000089
 30
0.0
 40
1.6
 41
0.0
 71
     5
 72
     1
  1
%%c6
  7
ASAMI
 11
0.0000000000000001
 21
1.0
 31
0.0
1001
ACAD
1000
MTEXTBEGIN
1070
    73
1070
     1
1070
    44
1040
1.0
1070
    74
1070
     0
1000
MTEXTEND
  0
POINT
  5
1C2D
330
C81
100
AcDbEntity
  8
DEFPOINTS
 62
     0
100
AcDbPoint
 10
-49.50000000000006
 20
-3.000000000000002
 30
0.0
  0
POINT
  5
1C2E
330
C81
100
AcDbEntity
  8
DEFPOINTS
 62
     0
100
AcDbPoint
 10
-49.50000000000006
 20
2.999999999999997
 30
0.0
  0
POINT
  5
1C2F
330
C81
100
AcDbEntity
  8
DEFPOINTS
 62
     0
100
AcDbPoint
 10
-60.90430219514822
 20
3.0
 30
0.0
  0
ENDBLK
  5
C8C
330
C81
100
AcDbEntity
  8
0
100
AcDbBlockEnd
  0
BLOCK
  5
15B2
330
15A8
100
AcDbEntity
  8
0
100
AcDbBlockBegin
  2
*D7
 70
     1
 10
0.0
 20
0.0
 30
0.0
  3
*D7
  1

  0
LINE
  5
1C68
330
15A8
100
AcDbEntity
  8
AM_5
100
AcDbLine
 10
-12.00000000000005
 20
-3.500000000000003
 30
0.0
 11
-12.00000000000005
 21
-10.50000101000766
 31
0.0
  0
LINE
  5
1C69
330
15A8
100
AcDbEntity
  8
AM_5
100
AcDbLine
 10
-0.0000000000000569
 20
-3.500000000007911
 30
0.0
 11
-0.0000000000000574
 21
-10.50000101000766
 31
0.0
  0
LINE
  5
1C6A
330
15A8
100
AcDbEntity
  8
AM_5
100
AcDbLine
 10
-10.75000000000005
 20
-10.00000101000766
 30
0.0
 11
-1.250000000000057
 21
-10.00000101000766
 31
0.0
  0
INSERT
  5
1C6B
330
15A8
100
AcDbEntity
  8
AM_5
100
AcDbBlockReference
  2
_OPEN30
 10
-12.00000000000005
 20
-10.00000101000766
 30
0.0
 41
1.25
 42
1.25
 43
1.25
 50
180.0
  0
INSERT
  5
1C6C
330
15A8
100
AcDbEntity
  8
AM_5
100
AcDbBlockReference
  2
_OPEN30
 10
-0.0000000000000573
 20
-10.00000101000766
 30
0.0
 41
1.25
 42
1.25
 43
1.25
  0
MTEXT
  5
1C6D
330
15A8
100
AcDbEntity
  8
AM_5
 62
     2
100
AcDbMText
 10
-6.000000000000056
 20
-8.450001010007664
 30
0.0
 40
1.6
 41
0.0
 71
     5
 72
     1
  1
12
  7
ASAMI
1001
ACAD
1000
MTEXTBEGIN
1070
    73
1070
     1
1070
    44
1040
1.0
1070
    74
1070
     0
1000
MTEXTEND
  0
POINT
  5
1C6E
330
15A8
100
AcDbEntity
  8
DEFPOINTS
 62
     0
100
AcDbPoint
 10
-12.00000000000005
 20
-3.000000000000003
 30
0.0
  0
POINT
  5
1C6F
330
15A8
100
AcDbEntity
  8
DEFPOINTS
 62
     0
100
AcDbPoint
 10
-0.0000000000000569
 20
-3.000000000007911
 30
0.0
  0
POINT
  5
1C70
330
15A8
100
AcDbEntity
  8
DEFPOINTS
 62
     0
100
AcDbPoint
 10
-0.0000000000000573
 20
-10.00000101000766
 30
0.0
  0
ENDBLK
  5
15B3
330
15A8
100
AcDbEntity
  8
0
100
AcDbBlockEnd
  0
BLOCK
  5
1B3F
330
1B35
100
AcDbEntity
  8
0
100
AcDbBlockBegin
  2
*D8
 70
     1
 10
0.0
 20
0.0
 30
0.0
  3
*D8
  1

  0
LINE
  5
1C1B
330
1B35
100
AcDbEntity
  8
AM_5
100
AcDbLine
 10
0.4999999999999432
 20
2.999999999999996
 30
0.0
 11
10.89356115204065
 21
2.999999999999993
 31
0.0
  0
LINE
  5
1C1C
330
1B35
100
AcDbEntity
  8
AM_5
100
AcDbLine
 10
0.4999999999998011
 20
-3.000000000007478
 30
0.0
 11
10.89356115204065
 21
-3.000000000007481
 31
0.0
  0
LINE
  5
1C1D
330
1B35
100
AcDbEntity
  8
AM_5
100
AcDbLine
 10
10.39356115204065
 20
1.749999999999993
 30
0.0
 11
10.39356115204065
 21
-1.750000000007481
 31
0.0
  0
INSERT
  5
1C1E
330
1B35
100
AcDbEntity
  8
AM_5
100
AcDbBlockReference
  2
_OPEN30
 10
10.39356115204065
 20
2.999999999999993
 30
0.0
 41
1.25
 42
1.25
 43
1.25
 50
90.0
  0
INSERT
  5
1C1F
330
1B35
100
AcDbEntity
  8
AM_5
100
AcDbBlockReference
  2
_OPEN30
 10
10.39356115204065
 20
-3.000000000007481
 30
0.0
 41
1.25
 42
1.25
 43
1.25
 50
270.0
  0
MTEXT
  5
1C20
330
1B35
100
AcDbEntity
  8
AM_5
 62
     2
100
AcDbMText
 10
8.843561152040651
 20
-0.0000000000037419
 30
0.0
 40
1.6
 41
0.0
 71
     5
 72
     1
  1
%%c6
  7
ASAMI
 11
0.0000000000000001
 21
1.0
 31
0.0
1001
ACAD
1000
MTEXTBEGIN
1070
    73
1070
     1
1070
    44
1040
1.0
1070
    74
1070
     0
1000
MTEXTEND
  0
POINT
  5
1C21
330
1B35
100
AcDbEntity
  8
DEFPOINTS
 62
     0
100
AcDbPoint
 10
-0.0000000000000568
 20
2.999999999999996
 30
0.0
  0
POINT
  5
1C22
330
1B35
100
AcDbEntity
  8
DEFPOINTS
 62
     0
100
AcDbPoint
 10
-0.000000000000199
 20
-3.000000000007478
 30
0.0
  0
POINT
  5
1C23
330
1B35
100
AcDbEntity
  8
DEFPOINTS
 62
     0
100
AcDbPoint
 10
10.39356115204065
 20
-3.000000000007481
 30
0.0
  0
ENDBLK
  5
1B40
330
1B35
100
AcDbEntity
  8
0
100
AcDbBlockEnd
  0
ENDSEC
  0
SECTION
  2
ENTITIES
  0
DIMENSION
  5
C4F
330
1F
100
AcDbEntity
  8
AM_5
100
AcDbDimension
  2
*D5
 10
-0.0000000000000577
 20
-16.00000101000748
 30
0.0
 11
-25.00000000000005
 21
-14.45000101000748
 31
0.0
 70
    32
  1
<>
  3
AM_JIS
100
AcDbAlignedDimension
 13
-50.00000000000006
 23
-2.25
 33
0.0
 14
-0.0000000000000569
 24
-3.000000000007911
 34
0.0
 50
0.0000000000002036
100
AcDbRotatedDimension
1001
GENIUS_GENDTOL_13
1000

1000
H7
1000

1040
0.0
  0
LINE
  5
C50
330
1F
100
AcDbEntity
  8
AM_7
100
AcDbLine
 10
-53.90430119514826
 20
-0.0000000000000036
 30
0.0
 11
3.393560152040663
 21
-0.0000000000000036
 31
0.0
1001
GENIUS_GENODEF_13
1002
{
1000
HIER
1070
     0
1002
}
1002
{
1000
MANEDIT
1070
     0
1002
}
1002
{
1000
NOSEL
1070
     0
1002
}
1002
{
1000
BEHIND
1070
     0
1002
}
1002
{
1000
REACTOR
1002
}
1001
GENIUS_GENOBJ-N-CEN_13
1002
{
1000
OWNER
1000
GEN
1002
}
  0
DIMENSION
  5
C53
330
1F
100
AcDbEntity
  8
AM_5
100
AcDbDimension
  2
*D6
 10
-60.90430219514822
 20
3.0
 30
0.0
 11
-60.90430219514822
 21
-0.0000000000000091
 31
0.0
 70
   160
  1
%%c<>
  3
AM_JIS
100
AcDbAlignedDimension
 13
-49.50000000000006
 23
-3.000000000000002
 33
0.0
 14
-49.50000000000006
 24
2.999999999999997
 34
0.0
 50
270.0
100
AcDbRotatedDimension
1001
ACAD
1000
DSTYLE
1002
{
1070
    48
1040
0.1
1070
    47
1040
0.1
1070
   274
1070
     2
1070
   272
1070
     3
1002
}
1001
GENIUS_GENDTOL_13
1000

1000
h6
1000

1040
0.0
  0
TEXT
  5
C58
330
1F
100
AcDbEntity
  8
AM_6
100
AcDbText
 10
-35.83333333333338
 20
-27.25000101000752
 30
0.0
 40
2.5
  1
HHM6060ZX
 50
0.0000000000002036
 72
     4
 11
-25.00000000000005
 21
-26.00000101000748
 31
0.0
100
AcDbText
  0
LINE
  5
DFB
330
1F
100
AcDbEntity
  8
AM_0
100
AcDbLine
 10
-50.00000000000006
 20
2.25
 30
0.0
 11
-49.50000000000006
 21
2.999999999999996
 31
0.0
1001
GENIUS_GENFIL_13
1070
     0
1040
0.5
1040
0.5
1040
0.4999999999999716
1040
45.0
1002
{
1002
}
  0
LINE
  5
DFC
330
1F
100
AcDbEntity
  8
AM_0
100
AcDbLine
 10
-50.00000000000006
 20
-2.25
 30
0.0
 11
-49.50000000000006
 21
-3.0
 31
0.0
1001
GENIUS_GENFIL_13
1070
     0
1040
0.5
1040
0.5
1040
0.4999999999999716
1040
45.00000000000036
1002
{
1002
}
  0
LINE
  5
DFD
330
1F
100
AcDbEntity
  8
0
100
AcDbLine
 10
-49.50000000000006
 20
-3.0
 30
0.0
 11
-49.50000000000006
 21
2.999999999999996
 31
0.0
  0
LINE
  5
DFE
330
1F
100
AcDbEntity
  8
AM_0
100
AcDbLine
 10
-50.00000000000006
 20
-2.25
 30
0.0
 11
-50.00000000000006
 21
2.25
 31
0.0
  0
LINE
  5
DFF
330
1F
100
AcDbEntity
  8
AM_0
100
AcDbLine
 10
-49.50000000000006
 20
2.999999999999996
 30
0.0
 11
-15.0450311522316
 21
2.999999999999996
 31
0.0
1001
GENIUS_GENODEF_13
1002
{
1000
HIER
1070
     0
1002
}
1002
{
1000
MANEDIT
1070
     0
1002
}
1002
{
1000
NOSEL
1070
     0
1002
}
1002
{
1000
BEHIND
1070
     0
1002
}
1002
{
1000
REACTOR
1002
}
1001
GENIUS_GENOBJ-N-CEN_13
1002
{
1000
OWNER
1000
GEN
1002
}
  0
LINE
  5
E00
330
1F
100
AcDbEntity
  8
AM_0
100
AcDbLine
 10
-49.50000000000006
 20
-3.0
 30
0.0
 11
-12.56000000000023
 21
-3.0
 31
0.0
1001
GENIUS_GENODEF_13
1002
{
1000
HIER
1070
     0
1002
}
1002
{
1000
MANEDIT
1070
     0
1002
}
1002
{
1000
NOSEL
1070
     0
1002
}
1002
{
1000
BEHIND
1070
     0
1002
}
1002
{
1000
REACTOR
1002
}
1001
GENIUS_GENOBJ-N-CEN_13
1002
{
1000
OWNER
1000
GEN
1002
}
  0
DIMENSION
  5
15A7
330
1F
100
AcDbEntity
  8
AM_5
100
AcDbDimension
  2
*D7
 10
-0.0000000000000573
 20
-10.00000101000766
 30
0.0
 11
-6.000000000000056
 21
-8.450001010007664
 31
0.0
 70
    32
  1
<>
  3
AM_JIS
100
AcDbAlignedDimension
 13
-12.00000000000005
 23
-3.000000000000003
 33
0.0
 14
-0.0000000000000569
 24
-3.000000000007911
 34
0.0
 50
359.9999999999993
100
AcDbRotatedDimension
1001
GENIUS_GENDTOL_13
1000

1000
H7
1000

1040
0.0
  0
LINE
  5
18B7
330
1F
100
AcDbEntity
  8
AM_0
100
AcDbLine
 10
-41.04856863520305
 20
2.999999999999964
 30
0.0
 11
-42.09231026004887
 21
2.999999999999964
 31
0.0
  0
LINE
  5
18B8
330
1F
100
AcDbEntity
  8
AM_0
100
AcDbLine
 10
-40.6733224918831
 20
-3.000000000000071
 30
0.0
 11
-42.09231026004887
 21
-3.000000000000071
 31
0.0
  0
SPLINE
  5
1AAF
330
1F
100
AcDbEntity
  8
AM_0
100
AcDbSpline
210
0.0
220
0.0
230
1.0
 70
     8
 71
     3
 72
     8
 73
     4
 74
     0
 42
0.0000000001
 43
0.0000000001
 40
0.0
 40
0.0
 40
0.0
 40
0.0
 40
2.345304910305074
 40
2.345304910305074
 40
2.345304910305074
 40
2.345304910305074
 10
-3.140000000000071
 20
2.999999999999996
 30
0.0
 10
-3.609060982061066
 20
2.999999999999996
 30
0.0
 10
-4.050364181970067
 20
2.904751274975328
 30
0.0
 10
-4.470904293711484
 20
2.738255587037791
 30
0.0
  0
SPLINE
  5
1AB0
330
1F
100
AcDbEntity
  8
AM_0
100
AcDbSpline
210
0.0
220
0.0
230
1.0
 70
     8
 71
     3
 72
     8
 73
     4
 74
     2
 42
0.0000000001
 43
0.0000000001
 44
0.0000000001
 12
-1.0
 22
0.0000000000000001
 32
0.0
 40
0.0
 40
0.0
 40
0.0
 40
0.0
 40
5.548090765444937
 40
5.548090765444937
 40
5.548090765444937
 40
5.548090765444937
 10
-2.485031152231584
 20
-2.932100124759749
 30
0.0
 10
-4.33439474071323
 20
-2.932100124759748
 30
0.0
 10
-5.764712946472369
 20
-1.466050062379875
 30
0.0
 10
-7.195031152231507
 20
-0.0000000000000018
 30
0.0
 11
-2.485031152231584
 21
-2.932100124759749
 31
0.0
 11
-7.195031152231507
 21
-0.0000000000000018
 31
0.0
  0
SPLINE
  5
1AB1
330
1F
100
AcDbEntity
  8
AM_0
100
AcDbSpline
210
0.0
220
0.0
230
1.0
 70
     8
 71
     3
 72
     8
 73
     4
 74
     2
 42
0.0000000001
 43
0.0000000001
 44
0.0000000001
 12
-1.0
 22
0.0000000000000001
 32
0.0
 40
0.0
 40
0.0
 40
0.0
 40
0.0
 40
5.584272557818042
 40
5.584272557818042
 40
5.584272557818042
 40
5.584272557818042
 10
-3.140000000000185
 20
-3.0
 30
0.0
 10
-5.001424185939532
 20
-2.999999999999999
 30
0.0
 10
-6.425712092969841
 20
-1.5
 30
0.0
 10
-7.85000000000015
 20
-0.0000000000000018
 30
0.0
 11
-3.140000000000185
 21
-3.0
 31
0.0
 11
-7.85000000000015
 21
-0.0000000000000018
 31
0.0
  0
SPLINE
  5
1AB2
330
1F
100
AcDbEntity
  8
AM_0
100
AcDbSpline
210
0.0
220
0.0
230
1.0
 70
     8
 71
     3
 72
     8
 73
     4
 74
     2
 42
0.0000000001
 43
0.0000000001
 44
0.0000000001
 12
1.0
 22
-0.0000000000000002
 32
0.0
 40
0.0
 40
0.0
 40
0.0
 40
0.0
 40
5.584272557818042
 40
5.584272557818042
 40
5.584272557818042
 40
5.584272557818042
 10
-6.280000000000214
 20
2.999999999999996
 30
0.0
 10
-4.418575814060867
 20
2.999999999999996
 30
0.0
 10
-2.994287907030558
 20
1.499999999999997
 30
0.0
 10
-1.570000000000248
 20
-0.0000000000000018
 30
0.0
 11
-6.280000000000214
 21
2.999999999999996
 31
0.0
 11
-1.570000000000248
 21
-0.0000000000000018
 31
0.0
  0
SPLINE
  5
1AB3
330
1F
100
AcDbEntity
  8
AM_0
100
AcDbSpline
210
0.0
220
0.0
230
1.0
 70
     8
 71
     3
 72
     8
 73
     4
 74
     2
 42
0.0000000001
 43
0.0000000001
 44
0.0000000001
 12
1.0
 22
-0.0000000000000002
 32
0.0
 40
0.0
 40
0.0
 40
0.0
 40
0.0
 40
5.548090765444942
 40
5.548090765444942
 40
5.548090765444942
 40
5.548090765444942
 10
-5.625031152231457
 20
2.932100124759708
 30
0.0
 10
-3.77566756374981
 20
2.932100124759708
 30
0.0
 10
-2.345349357990658
 20
1.466050062379853
 30
0.0
 10
-0.9150311522315064
 20
-0.0000000000000018
 30
0.0
 11
-5.625031152231457
 21
2.932100124759708
 31
0.0
 11
-0.9150311522315064
 21
-0.0000000000000018
 31
0.0
  0
SPLINE
  5
1AB4
330
1F
100
AcDbEntity
  8
AM_0
100
AcDbSpline
210
0.0
220
0.0
230
1.0
 70
     8
 71
     3
 72
     8
 73
     4
 74
     2
 42
0.0000000001
 43
0.0000000001
 44
0.0000000001
 12
1.0
 22
-0.0000000000000002
 32
0.0
 40
0.0
 40
0.0
 40
0.0
 40
0.0
 40
5.548090765444954
 40
5.548090765444954
 40
5.548090765444954
 40
5.548090765444954
 10
-8.7650311522316
 20
2.932100124759708
 30
0.0
 10
-6.915667563749948
 20
2.932100124759708
 30
0.0
 10
-5.485349357990791
 20
1.466050062379853
 30
0.0
 10
-4.055031152231634
 20
-0.0000000000000018
 30
0.0
 11
-8.7650311522316
 21
2.932100124759708
 31
0.0
 11
-4.055031152231634
 21
-0.0000000000000018
 31
0.0
  0
SPLINE
  5
1AB5
330
1F
100
AcDbEntity
  8
AM_0
100
AcDbSpline
210
0.0
220
0.0
230
1.0
 70
     8
 71
     3
 72
     8
 73
     4
 74
     2
 42
0.0000000001
 43
0.0000000001
 44
0.0000000001
 12
-1.0
 22
0.0000000000000001
 32
0.0
 40
0.0
 40
0.0
 40
0.0
 40
0.0
 40
5.584272557818006
 40
5.584272557818006
 40
5.584272557818006
 40
5.584272557818006
 10
-0.000000000000199
 20
-3.0
 30
0.0
 10
-1.861424185939534
 20
-2.999999999999999
 30
0.0
 10
-3.285712092969828
 20
-1.5
 30
0.0
 10
-4.710000000000121
 20
-0.0000000000000018
 30
0.0
 11
-0.000000000000199
 21
-3.0
 31
0.0
 11
-4.710000000000121
 21
-0.0000000000000018
 31
0.0
  0
LINE
  5
1AB6
330
1F
100
AcDbEntity
  8
AM_0
100
AcDbLine
 10
-0.000000000000199
 20
-3.000000000000003
 30
0.0
 11
-0.000000000000199
 21
-0.5399999999998517
 31
0.0
  0
ARC
  5
1AB7
330
1F
100
AcDbEntity
  8
AM_0
100
AcDbCircle
 10
3.200651357829329
 20
-0.7411423960254791
 30
0.0
 40
3.328282302801901
100
AcDbArc
 50
173.7739608084316
 51
195.9185404207847
  0
LINE
  5
1AB8
330
1F
100
AcDbEntity
  8
AM_0
100
AcDbLine
 10
-0.000000000000199
 20
-1.560029995318679
 30
0.0
 11
-0.000000000000199
 21
-0.5399999999998517
 31
0.0
  0
SPLINE
  5
1AB9
330
1F
100
AcDbEntity
  8
AM_0
100
AcDbSpline
210
0.0
220
0.0
230
1.0
 70
     8
 71
     3
 72
     8
 73
     4
 74
     0
 42
0.0000000001
 43
0.0000000001
 40
5.932736810651414
 40
5.932736810651414
 40
5.932736810651414
 40
5.932736810651414
 40
9.307120929696782
 40
9.307120929696782
 40
9.307120929696782
 40
9.307120929696782
 10
0.0000000000002132
 20
-1.56002999531902
 30
0.0
 10
-0.5372220806553685
 20
-1.087678180352796
 30
0.0
 10
-1.053611040327808
 20
-0.5438390901763804
 30
0.0
 10
-1.570000000000135
 20
-0.0000000000000018
 30
0.0
  0
SPLINE
  5
1ABA
330
1F
100
AcDbEntity
  8
AM_0
100
AcDbSpline
210
0.0
220
0.0
230
1.0
 70
     8
 71
     3
 72
     8
 73
     4
 74
     0
 42
0.0000000001
 43
0.0000000001
 40
7.554568944210345
 40
7.554568944210345
 40
7.554568944210345
 40
7.554568944210345
 40
9.246817942408316
 40
9.246817942408316
 40
9.246817942408316
 40
9.246817942408316
 10
-0.1271802390211576
 20
-0.7959141966850325
 30
0.0
 10
-0.391509533037663
 20
-0.5366001071551878
 30
0.0
 10
-0.6532703426346558
 20
-0.2683000535775619
 30
0.0
 10
-0.9150311522315064
 20
-0.0000000000000018
 30
0.0
  0
SPLINE
  5
1ABB
330
1F
100
AcDbEntity
  8
AM_0
100
AcDbSpline
210
0.0
220
0.0
230
1.0
 70
     8
 71
     3
 72
     8
 73
     4
 74
     0
 42
0.0000000001
 43
0.0000000001
 40
1.192975873175178
 40
1.192975873175178
 40
1.192975873175178
 40
1.192975873175178
 40
9.246817942408316
 40
9.246817942408316
 40
9.246817942408316
 40
9.246817942408316
 10
-0.0407917589575959
 20
-2.862042006260189
 30
0.0
 10
-1.563459022298886
 20
-2.553815970323221
 30
0.0
 10
-2.809245087265111
 20
-1.276907985161642
 30
0.0
 10
-4.055031152231634
 20
-0.0000000000000018
 30
0.0
  0
LINE
  5
1ABC
330
1F
100
AcDbEntity
  8
AM_0
100
AcDbLine
 10
-0.2531198064313855
 20
-0.0000000000000018
 30
0.0
 11
-0.000000000000199
 21
0.5699269208101186
 31
0.0
  0
LINE
  5
1ABD
330
1F
100
AcDbEntity
  8
AM_0
100
AcDbLine
 10
-0.8073005406670006
 20
0.8483849233886289
 30
0.0
 11
-0.2531198064313855
 21
-0.0000000000000018
 31
0.0
  0
LINE
  5
1ABE
330
1F
100
AcDbEntity
  8
AM_0
100
AcDbLine
 10
-0.2531198064313855
 20
-0.0000000000000018
 30
0.0
 11
-0.000000000000199
 21
-0.5399999999998517
 31
0.0
  0
LINE
  5
1ABF
330
1F
100
AcDbEntity
  8
AM_0
100
AcDbLine
 10
-0.1707178617462119
 20
0.2699999999997527
 30
0.0
 11
-0.2531198064313855
 21
-0.0000000000000018
 31
0.0
  0
LINE
  5
1AC0
330
1F
100
AcDbEntity
  8
AM_0
100
AcDbLine
 10
-0.1622006871031942
 20
0.2849634604050593
 30
0.0
 11
-0.000000000000199
 21
0.5699269208101186
 31
0.0
  0
LINE
  5
1AC1
330
1F
100
AcDbEntity
  8
AM_0
100
AcDbLine
 10
-0.8073005406670006
 20
0.8483849233886289
 30
0.0
 11
-0.1080000000000894
 21
-0.3801863329405499
 31
0.0
  0
LINE
  5
1AC2
330
1F
100
AcDbEntity
  8
AM_0
100
AcDbLine
 10
-0.000000000000199
 20
-0.5399999999998517
 30
0.0
 11
-0.1080000000000894
 21
-0.3801863329405499
 31
0.0
  0
LINE
  5
1AC3
330
1F
100
AcDbEntity
  8
AM_0
100
AcDbLine
 10
-0.1080000000000894
 20
2.201856882455466
 30
0.0
 11
-0.8073005406670006
 21
2.549999999999997
 31
0.0
  0
LINE
  5
1AC4
330
1F
100
AcDbEntity
  8
AM_0
100
AcDbLine
 10
-0.1080000000000894
 20
2.201856882455466
 30
0.0
 11
-0.0000000000005969
 21
1.560029995319084
 31
0.0
  0
LINE
  5
1AC5
330
1F
100
AcDbEntity
  8
AM_0
100
AcDbLine
 10
-0.1622006871031942
 20
0.2849634604050593
 30
0.0
 11
-0.8073005406670006
 21
1.272534763472297
 31
0.0
  0
LINE
  5
1AC6
330
1F
100
AcDbEntity
  8
AM_0
100
AcDbLine
 10
-0.8073005406670006
 20
1.272534763472297
 30
0.0
 11
-0.8073005406670006
 21
0.8483849233886289
 31
0.0
  0
LINE
  5
1AC7
330
1F
100
AcDbEntity
  8
AM_0
100
AcDbLine
 10
-0.000000000000199
 20
0.5699269208101186
 30
0.0
 11
-0.000000000000199
 21
2.999999999999998
 31
0.0
  0
SPLINE
  5
1AC8
330
1F
100
AcDbEntity
  8
AM_0
100
AcDbSpline
210
0.0
220
0.0
230
1.0
 70
     8
 71
     3
 72
     8
 73
     4
 74
     2
 42
0.0000000001
 43
0.0000000001
 44
0.0000000001
 12
0.048394826887431
 22
-0.9988282839059653
 32
0.0
 13
-1.0
 23
0.0000000000000579
 33
0.0
 40
0.0
 40
0.0
 40
0.0
 40
0.0
 40
0.8315775647388605
 40
0.8315775647388605
 40
0.8315775647388605
 40
0.8315775647388605
 10
-0.1080000000001036
 20
2.999999999999996
 30
0.0
 10
-0.0945853159037674
 20
2.723132269359057
 30
0.0
 10
-0.5301080190873805
 20
2.549999999999981
 30
0.0
 10
-0.8073005406670006
 20
2.549999999999997
 30
0.0
 11
-0.1080000000001036
 21
2.999999999999996
 31
0.0
 11
-0.8073005406670006
 21
2.549999999999997
 31
0.0
  0
SPLINE
  5
1AC9
330
1F
100
AcDbEntity
  8
AM_0
100
AcDbSpline
210
0.0
220
0.0
230
1.0
 70
     8
 71
     3
 72
     8
 73
     4
 74
     2
 42
0.0000000001
 43
0.0000000001
 44
0.0000000001
 12
-0.0755671695063503
 22
-0.9971407136872903
 32
0.0
 13
-1.0
 23
0.0000000000000001
 33
0.0
 40
0.0
 40
0.0
 40
0.0
 40
0.0
 40
0.7964627256794639
 40
0.7964627256794639
 40
0.7964627256794639
 40
0.7964627256794639
 10
-0.1080000000001036
 20
1.653758617945946
 30
0.0
 10
-0.1280621445990735
 20
1.389030147709498
 30
0.0
 10
-0.5418129654405127
 20
1.272534763472297
 30
0.0
 10
-0.8073005406670006
 20
1.272534763472297
 30
0.0
 11
-0.1080000000001036
 21
1.653758617945946
 31
0.0
 11
-0.8073005406670006
 21
1.272534763472297
 31
0.0
  0
SPLINE
  5
1ACA
330
1F
100
AcDbEntity
  8
AM_0
100
AcDbSpline
210
0.0
220
0.0
230
1.0
 70
     8
 71
     3
 72
     8
 73
     4
 74
     0
 42
0.0000000001
 43
0.0000000001
 40
0.0
 40
0.0
 40
0.0
 40
0.0
 40
2.345304910305074
 40
2.345304910305074
 40
2.345304910305074
 40
2.345304910305074
 10
-0.0000000000000568
 20
2.999999999999996
 30
0.0
 10
-0.4690609820610661
 20
2.999999999999996
 30
0.0
 10
-0.9103641819699248
 20
2.904751274975328
 30
0.0
 10
-1.330904293711313
 20
2.738255587037791
 30
0.0
  0
SPLINE
  5
1ACB
330
1F
100
AcDbEntity
  8
AM_0
100
AcDbSpline
210
0.0
220
0.0
230
1.0
 70
     8
 71
     3
 72
     8
 73
     4
 74
     0
 42
0.0000000001
 43
0.0000000001
 40
0.0
 40
0.0
 40
0.0
 40
0.0
 40
4.387916526981712
 40
4.387916526981712
 40
4.387916526981712
 40
4.387916526981712
 10
-2.485031152231442
 20
2.932100124759708
 30
0.0
 10
-1.607447846835015
 20
2.932100124759708
 30
0.0
 10
-0.8242256773226159
 20
2.601973234325985
 30
0.0
 10
-0.0905872088803932
 20
2.098375423929493
 30
0.0
  0
SPLINE
  5
1ACC
330
1F
100
AcDbEntity
  8
AM_0
100
AcDbSpline
210
0.0
220
0.0
230
1.0
 70
     8
 71
     3
 72
     8
 73
     4
 74
     0
 42
0.0000000001
 43
0.0000000001
 40
0.0
 40
0.0
 40
0.0
 40
0.0
 40
5.932736810651199
 40
5.932736810651199
 40
5.932736810651199
 40
5.932736810651199
 10
-3.140000000000071
 20
2.999999999999996
 30
0.0
 10
-1.953452637869844
 20
2.999999999999996
 30
0.0
 10
-0.9445270902660212
 20
2.390504209683555
 30
0.0
 10
-0.0000000000006111
 20
1.560029995319084
 30
0.0
  0
ARC
  5
1ACD
330
1F
100
AcDbEntity
  8
AM_0
100
AcDbCircle
 10
3.96760227209269
 20
-1.751839899502812
 30
0.0
 40
4.159299391244688
100
AcDbArc
 50
191.5136697230841
 51
197.4629502698801
  0
LINE
  5
1ACE
330
1F
100
AcDbEntity
  8
AM_0
100
AcDbLine
 10
-0.8073005406670006
 20
-1.455770048492471
 30
0.0
 11
-0.8073005406670006
 21
-1.658384923388407
 31
0.0
  0
LINE
  5
1ACF
330
1F
100
AcDbEntity
  8
AM_0
100
AcDbLine
 10
-0.1169942287882009
 20
-1.455770048492471
 30
0.0
 11
-0.8073005406670006
 21
-1.455770048492471
 31
0.0
  0
LINE
  5
1AD0
330
1F
100
AcDbEntity
  8
AM_0
100
AcDbLine
 10
-0.8073005406670006
 20
-1.658384923388407
 30
0.0
 11
-0.1080000000000894
 21
-2.582043215396016
 31
0.0
  0
LINE
  5
1AD1
330
1F
100
AcDbEntity
  8
AM_0
100
AcDbLine
 10
-0.1080000000000894
 20
-2.582043215396016
 30
0.0
 11
-0.0324555000070319
 21
-1.531384848033692
 31
0.0
  0
SPLINE
  5
1AD2
330
1F
100
AcDbEntity
  8
AM_0
100
AcDbSpline
210
0.0
220
0.0
230
1.0
 70
     8
 71
     3
 72
     8
 73
     4
 74
     0
 42
0.0000000001
 43
0.0000000001
 40
0.0
 40
0.0
 40
0.0
 40
0.0
 40
2.01589001736573
 40
2.01589001736573
 40
2.01589001736573
 40
2.01589001736573
 10
-2.485031152231584
 20
-2.932100124759614
 30
0.0
 10
-2.081853148758426
 20
-2.932100124759614
 30
0.0
 10
-1.698591511996454
 20
-2.862421775198747
 30
0.0
 10
-1.330904293711469
 20
-2.738255587037727
 30
0.0
  0
SPLINE
  5
1AD3
330
1F
100
AcDbEntity
  8
AM_0
100
AcDbSpline
210
0.0
220
0.0
230
1.0
 70
     8
 71
     3
 72
     8
 73
     4
 74
     0
 42
0.0000000001
 43
0.0000000001
 40
0.0
 40
0.0
 40
0.0
 40
0.0
 40
1.168827779863518
 40
1.168827779863518
 40
1.168827779863518
 40
1.168827779863518
 10
-3.140000000000341
 20
-2.999999999999868
 30
0.0
 10
-2.906234444027461
 20
-2.999999999999868
 30
0.0
 10
-2.679363140589629
 20
-2.976342895108317
 30
0.0
 10
-2.458520280168443
 20
-2.931999645044811
 30
0.0
  0
POLYLINE
  5
1AD4
330
1F
100
AcDbEntity
  8
AM_0
100
AcDb2dPolyline
 66
     1
 10
0.0
 20
0.0
 30
0.0
 70
     2
  0
VERTEX
  5
1AD5
330
1AD4
100
AcDbEntity
  8
AM_0
100
AcDbVertex
100
AcDb2dVertex
 10
-12.5460000000001
 20
-2.872691110483426
 30
0.0
 42
-0.0185434125079168
  0
VERTEX
  5
1AD6
330
1AD4
100
AcDbEntity
  8
AM_0
100
AcDbVertex
100
AcDb2dVertex
 10
-13.14562398604786
 20
-2.483796048213744
 30
0.0
 42
-0.0322429997831346
 70
     1
  0
VERTEX
  5
1AD7
330
1AD4
100
AcDbEntity
  8
AM_0
100
AcDbVertex
100
AcDb2dVertex
 10
-13.46625
 20
-2.226151684146159
 30
0.0
 42
-0.0154837447810757
  0
VERTEX
  5
1AD8
330
1AD4
100
AcDbEntity
  8
AM_0
100
AcDbVertex
100
AcDb2dVertex
 10
-14.25081749289667
 20
-1.461810293257101
 30
0.0
 42
-0.0252025959969089
 70
     1
  0
VERTEX
  5
1AD9
330
1AD4
100
AcDbEntity
  8
AM_0
100
AcDbVertex
100
AcDb2dVertex
 10
-14.69325000000004
 20
-0.9544005981516558
 30
0.0
 42
-0.0526924355685501
  0
VERTEX
  5
1ADA
330
1AD4
100
AcDbEntity
  8
AM_0
100
AcDbVertex
100
AcDb2dVertex
 10
-14.97816946655004
 20
-0.5013717807737752
 30
0.0
 42
-0.1665203413769803
 70
     1
  0
VERTEX
  5
1ADB
330
1AD4
100
AcDbEntity
  8
AM_0
100
AcDbVertex
100
AcDb2dVertex
 10
-15.00000000000005
 20
-0.3291889384944184
 30
0.0
 42
-0.2307572350833865
  0
VERTEX
  5
1ADC
330
1AD4
100
AcDbEntity
  8
AM_0
100
AcDbVertex
100
AcDb2dVertex
 10
-14.92152937953598
 20
-0.2275515475558123
 30
0.0
 42
-0.122151321937318
 70
     1
  0
VERTEX
  5
1ADD
330
1AD4
100
AcDbEntity
  8
AM_0
100
AcDbVertex
100
AcDb2dVertex
 10
-14.69325000000004
 20
-0.1773063208389569
 30
0.0
 42
-0.1110641781431695
  0
VERTEX
  5
1ADE
330
1AD4
100
AcDbEntity
  8
AM_0
100
AcDbVertex
100
AcDb2dVertex
 10
-14.42450978427906
 20
-0.2452604999211889
 30
0.0
 42
-0.0275008346235786
 70
     1
  0
VERTEX
  5
1ADF
330
1AD4
100
AcDbEntity
  8
AM_0
100
AcDbVertex
100
AcDb2dVertex
 10
-13.46625
 20
-0.7988714028516171
 30
0.0
 42
-0.030026725591371
  0
VERTEX
  5
1AE0
330
1AD4
100
AcDbEntity
  8
AM_0
100
AcDbVertex
100
AcDb2dVertex
 10
-13.01019162679414
 20
-1.13764999801215
 30
0.0
 42
-0.0268199095458923
 70
     1
  0
VERTEX
  5
1AE1
330
1AD4
100
AcDbEntity
  8
AM_0
100
AcDbVertex
100
AcDb2dVertex
 10
-12.5460000000001
 20
-1.572319102519738
 30
0.0
  0
SEQEND
  5
1AE2
330
1AD4
100
AcDbEntity
  8
AM_0
  0
SPLINE
  5
1AE3
330
1F
100
AcDbEntity
  8
AM_0
100
AcDbSpline
210
0.0
220
0.0
230
1.0
 70
     8
 71
     3
 72
     8
 73
     4
 74
     2
 42
0.0000000001
 43
0.0000000001
 44
0.0000000001
 12
-1.0
 22
0.0000000000000001
 32
0.0
 40
0.0
 40
0.0
 40
0.0
 40
0.0
 40
5.548090765445053
 40
5.548090765445053
 40
5.548090765445053
 40
5.548090765445053
 10
-8.7650311522316
 20
-2.932100124759749
 30
0.0
 10
-10.61439474071328
 20
-2.932100124759748
 30
0.0
 10
-12.04471294647248
 20
-1.466050062379891
 30
0.0
 10
-13.47503115223168
 20
-0.0000000000000355
 30
0.0
 11
-8.7650311522316
 21
-2.932100124759749
 31
0.0
 11
-13.47503115223168
 21
-0.0000000000000355
 31
0.0
  0
SPLINE
  5
1AE4
330
1F
100
AcDbEntity
  8
AM_0
100
AcDbSpline
210
0.0
220
0.0
230
1.0
 70
     8
 71
     3
 72
     8
 73
     4
 74
     2
 42
0.0000000001
 43
0.0000000001
 44
0.0000000001
 12
-1.0
 22
0.0000000000000001
 32
0.0
 40
0.0
 40
0.0
 40
0.0
 40
0.0
 40
5.548090765445064
 40
5.548090765445064
 40
5.548090765445064
 40
5.548090765445064
 10
-5.625031152231571
 20
-2.932100124759749
 30
0.0
 10
-7.474394740713259
 20
-2.932100124759748
 30
0.0
 10
-8.904712946472463
 20
-1.466050062379892
 30
0.0
 10
-10.33503115223166
 20
-0.0000000000000355
 30
0.0
 11
-5.625031152231571
 21
-2.932100124759749
 31
0.0
 11
-10.33503115223166
 21
-0.0000000000000355
 31
0.0
  0
SPLINE
  5
1AE5
330
1F
100
AcDbEntity
  8
AM_0
100
AcDbSpline
210
0.0
220
0.0
230
1.0
 70
     8
 71
     3
 72
     8
 73
     4
 74
     2
 42
0.0000000001
 43
0.0000000001
 44
0.0000000001
 12
-1.0
 22
0.0000000000000001
 32
0.0
 40
0.0
 40
0.0
 40
0.0
 40
0.0
 40
5.584272557818021
 40
5.584272557818021
 40
5.584272557818021
 40
5.584272557818021
 10
-6.280000000000214
 20
-3.000000000000039
 30
0.0
 10
-8.141424185939554
 20
-3.000000000000038
 30
0.0
 10
-9.565712092969851
 20
-1.500000000000037
 30
0.0
 10
-10.99000000000015
 20
-0.0000000000000355
 30
0.0
 11
-6.280000000000214
 21
-3.000000000000039
 31
0.0
 11
-10.99000000000015
 21
-0.0000000000000355
 31
0.0
  0
SPLINE
  5
1AE6
330
1F
100
AcDbEntity
  8
AM_0
100
AcDbSpline
210
0.0
220
0.0
230
1.0
 70
     8
 71
     3
 72
     8
 73
     4
 74
     0
 42
0.0000000001
 43
0.0000000001
 40
0.0
 40
0.0
 40
0.0
 40
0.0
 40
2.181562449810529
 40
2.181562449810529
 40
2.181562449810529
 40
2.181562449810529
 10
-12.56000000000023
 20
2.999999999999968
 30
0.0
 10
-12.9963124899622
 20
3.0
 30
0.0
 10
-13.40860783178988
 20
2.917586977013641
 30
0.0
 10
-13.80251557611565
 20
2.772078307239258
 30
0.0
  0
SPLINE
  5
1AE7
330
1F
100
AcDbEntity
  8
AM_0
100
AcDbSpline
210
0.0
220
0.0
230
1.0
 70
     8
 71
     3
 72
     8
 73
     4
 74
     0
 42
0.0000000001
 43
0.0000000001
 40
3.822114358298356
 40
3.822114358298356
 40
3.822114358298356
 40
3.822114358298356
 40
9.307120929696807
 40
9.307120929696807
 40
9.307120929696807
 40
9.307120929696807
 10
-13.59762070611283
 20
2.344977766768604
 30
0.0
 10
-12.66876373126271
 20
1.768003213721092
 30
0.0
 10
-11.82938186563143
 20
0.8840016068605063
 30
0.0
 10
-10.99000000000015
 20
-0.0000000000000675
 30
0.0
  0
SPLINE
  5
1AE8
330
1F
100
AcDbEntity
  8
AM_0
100
AcDbSpline
210
0.0
220
0.0
230
1.0
 70
     8
 71
     3
 72
     8
 73
     4
 74
     2
 42
0.0000000001
 43
0.0000000001
 44
0.0000000001
 12
1.0
 22
-0.0000000000000002
 32
0.0
 40
0.0
 40
0.0
 40
0.0
 40
0.0
 40
5.584272557818067
 40
5.584272557818067
 40
5.584272557818067
 40
5.584272557818067
 10
-15.04503115223161
 20
3.0
 30
0.0
 10
-13.18360696629226
 20
2.999999999999999
 30
0.0
 10
-11.75931905926196
 20
1.499999999999966
 30
0.0
 10
-10.33503115223166
 20
-0.0000000000000675
 30
0.0
 11
-15.04503115223161
 21
3.0
 31
0.0
 11
-10.33503115223166
 21
-0.0000000000000675
 31
0.0
  0
SPLINE
  5
1AE9
330
1F
100
AcDbEntity
  8
AM_0
100
AcDbSpline
210
0.0
220
0.0
230
1.0
 70
     8
 71
     3
 72
     8
 73
     4
 74
     2
 42
0.0000000001
 43
0.0000000001
 44
0.0000000001
 12
1.0
 22
-0.0000000000000002
 32
0.0
 40
0.0
 40
0.0
 40
0.0
 40
0.0
 40
5.584272557818032
 40
5.584272557818032
 40
5.584272557818032
 40
5.584272557818032
 10
-12.56000000000023
 20
3.0
 30
0.0
 10
-10.69857581406088
 20
2.999999999999999
 30
0.0
 10
-9.274287907030583
 20
1.499999999999998
 30
0.0
 10
-7.850000000000278
 20
-0.0000000000000018
 30
0.0
 11
-12.56000000000023
 21
3.0
 31
0.0
 11
-7.850000000000278
 21
-0.0000000000000018
 31
0.0
  0
SPLINE
  5
1AEA
330
1F
100
AcDbEntity
  8
AM_0
100
AcDbSpline
210
0.0
220
0.0
230
1.0
 70
     8
 71
     3
 72
     8
 73
     4
 74
     2
 42
0.0000000001
 43
0.0000000001
 44
0.0000000001
 12
1.0
 22
-0.0000000000000002
 32
0.0
 40
0.0
 40
0.0
 40
0.0
 40
0.0
 40
5.548090765444954
 40
5.548090765444954
 40
5.548090765444954
 40
5.548090765444954
 10
-11.90503115223147
 20
2.932100124759708
 30
0.0
 10
-10.05566756374982
 20
2.932100124759708
 30
0.0
 10
-8.625349357990664
 20
1.466050062379853
 30
0.0
 10
-7.195031152231507
 20
-0.0000000000000018
 30
0.0
 11
-11.90503115223147
 21
2.932100124759708
 31
0.0
 11
-7.195031152231507
 21
-0.0000000000000018
 31
0.0
  0
SPLINE
  5
1AEB
330
1F
100
AcDbEntity
  8
AM_0
100
AcDbSpline
210
0.0
220
0.0
230
1.0
 70
     8
 71
     3
 72
     8
 73
     4
 74
     2
 42
0.0000000001
 43
0.0000000001
 44
0.0000000001
 12
1.0
 22
-0.0000000000000002
 32
0.0
 40
0.0
 40
0.0
 40
0.0
 40
0.0
 40
5.58427255781815
 40
5.58427255781815
 40
5.58427255781815
 40
5.58427255781815
 10
-9.420000000000214
 20
2.999999999999996
 30
0.0
 10
-7.558575814060831
 20
2.999999999999996
 30
0.0
 10
-6.134287907030476
 20
1.499999999999996
 30
0.0
 10
-4.710000000000121
 20
-0.0000000000000018
 30
0.0
 11
-9.420000000000214
 21
2.999999999999996
 31
0.0
 11
-4.710000000000121
 21
-0.0000000000000018
 31
0.0
  0
SPLINE
  5
1AEC
330
1F
100
AcDbEntity
  8
AM_0
100
AcDbSpline
210
0.0
220
0.0
230
1.0
 70
     8
 71
     3
 72
     8
 73
     4
 74
     0
 42
0.0000000001
 43
0.0000000001
 40
0.0
 40
0.0
 40
0.0
 40
0.0
 40
2.345304910305074
 40
2.345304910305074
 40
2.345304910305074
 40
2.345304910305074
 10
-6.280000000000057
 20
2.999999999999964
 30
0.0
 10
-6.749060982061081
 20
2.999999999999996
 30
0.0
 10
-7.19036418196994
 20
2.904751274975293
 30
0.0
 10
-7.610904293711342
 20
2.738255587037755
 30
0.0
  0
SPLINE
  5
1AED
330
1F
100
AcDbEntity
  8
AM_0
100
AcDbSpline
210
0.0
220
0.0
230
1.0
 70
     8
 71
     3
 72
     8
 73
     4
 74
     0
 42
0.0000000001
 43
0.0000000001
 40
0.0
 40
0.0
 40
0.0
 40
0.0
 40
2.345304910305074
 40
2.345304910305074
 40
2.345304910305074
 40
2.345304910305074
 10
-9.420000000000086
 20
2.999999999999964
 30
0.0
 10
-9.889060982061067
 20
2.999999999999996
 30
0.0
 10
-10.33036418197008
 20
2.904751274975293
 30
0.0
 10
-10.7509042937115
 20
2.738255587037755
 30
0.0
  0
POLYLINE
  5
1AEE
330
1F
100
AcDbEntity
  8
AM_0
100
AcDb2dPolyline
 66
     1
 10
0.0
 20
0.0
 30
0.0
 70
     2
  0
VERTEX
  5
1AEF
330
1AEE
100
AcDbEntity
  8
AM_0
100
AcDbVertex
100
AcDb2dVertex
 10
-13.59762070611283
 20
0.1290598677080865
 30
0.0
 42
-0.0118474845559968
  0
VERTEX
  5
1AF0
330
1AEE
100
AcDbEntity
  8
AM_0
100
AcDbVertex
100
AcDb2dVertex
 10
-13.95494679242065
 20
0.5236863177065719
 30
0.0
 42
-0.0229587367005704
 70
     1
  0
VERTEX
  5
1AF1
330
1AEE
100
AcDbEntity
  8
AM_0
100
AcDbVertex
100
AcDb2dVertex
 10
-14.12479570611286
 20
0.7397412931365111
 30
0.0
 42
-0.0074393672839035
  0
VERTEX
  5
1AF2
330
1AEE
100
AcDbEntity
  8
AM_0
100
AcDbVertex
100
AcDb2dVertex
 10
-14.59132611215838
 20
1.413764991294621
 30
0.0
 42
-0.0137723123631775
 70
     1
  0
VERTEX
  5
1AF3
330
1AEE
100
AcDbEntity
  8
AM_0
100
AcDbVertex
100
AcDb2dVertex
 10
-14.82769570611282
 20
1.788261192172488
 30
0.0
 42
-0.0384719672123456
  0
VERTEX
  5
1AF4
330
1AEE
100
AcDbEntity
  8
AM_0
100
AcDbVertex
100
AcDb2dVertex
 10
-14.97797144767665
 20
2.092664956094015
 30
0.0
 42
-0.0969044761549296
 70
     1
  0
VERTEX
  5
1AF5
330
1AEE
100
AcDbEntity
  8
AM_0
100
AcDbVertex
100
AcDb2dVertex
 10
-15.00342070611287
 20
2.226099665780042
 30
0.0
 42
-0.1871793730324737
  0
VERTEX
  5
1AF6
330
1AEE
100
AcDbEntity
  8
AM_0
100
AcDbVertex
100
AcDb2dVertex
 10
-14.96990122750358
 20
2.311299926421382
 30
0.0
 42
-0.0943844175758712
 70
     1
  0
VERTEX
  5
1AF7
330
1AEE
100
AcDbEntity
  8
AM_0
100
AcDbVertex
100
AcDb2dVertex
 10
-14.82769570611282
 20
2.41666792725217
 30
0.0
 42
-0.0915329679940561
  0
VERTEX
  5
1AF8
330
1AEE
100
AcDbEntity
  8
AM_0
100
AcDbVertex
100
AcDb2dVertex
 10
-14.62447808065945
 20
2.472236587394727
 30
0.0
 42
-0.038326924455418
 70
     1
  0
VERTEX
  5
1AF9
330
1AEE
100
AcDbEntity
  8
AM_0
100
AcDbVertex
100
AcDb2dVertex
 10
-14.12479570611286
 20
2.476106977746551
 30
0.0
 42
-0.0437581705911492
  0
VERTEX
  5
1AFA
330
1AEE
100
AcDbEntity
  8
AM_0
100
AcDbVertex
100
AcDb2dVertex
 10
-13.88301123225753
 20
2.43799751913302
 30
0.0
 42
-0.0356593958927609
 70
     1
  0
VERTEX
  5
1AFB
330
1AEE
100
AcDbEntity
  8
AM_0
100
AcDbVertex
100
AcDb2dVertex
 10
-13.59762070611283
 20
2.344977766768771
 30
0.0
  0
SEQEND
  5
1AFC
330
1AEE
100
AcDbEntity
  8
AM_0
  0
SPLINE
  5
1AFD
330
1F
100
AcDbEntity
  8
AM_0
100
AcDbSpline
210
0.0
220
0.0
230
1.0
 70
     8
 71
     3
 72
     8
 73
     4
 74
     0
 42
0.0000000001
 43
0.0000000001
 40
9.040119728417035
 40
9.040119728417035
 40
9.040119728417035
 40
9.040119728417035
 40
9.307120929696868
 40
9.307120929696868
 40
9.307120929696868
 40
9.307120929696868
 10
-13.59762070611624
 20
0.129059867705017
 30
0.0
 10
-13.55675064100116
 20
0.0860635216722123
 30
0.0
 10
-13.51589089661646
 20
0.0430317608360706
 30
0.0
 10
-13.47503115223153
 20
-0.0000000000000675
 30
0.0
  0
SPLINE
  5
1AFE
330
1F
100
AcDbEntity
  8
AM_0
100
AcDbSpline
210
0.0
220
0.0
230
1.0
 70
     8
 71
     3
 72
     8
 73
     4
 74
     0
 42
0.0000000001
 43
0.0000000001
 40
0.0
 40
0.0
 40
0.0
 40
0.0
 40
2.01589001736573
 40
2.01589001736573
 40
2.01589001736573
 40
2.01589001736573
 10
-8.7650311522316
 20
-2.932100124759642
 30
0.0
 10
-8.361853148758441
 20
-2.932100124759678
 30
0.0
 10
-7.978591511996469
 20
-2.862421775198782
 30
0.0
 10
-7.610904293711485
 20
-2.738255587037798
 30
0.0
  0
SPLINE
  5
1AFF
330
1F
100
AcDbEntity
  8
AM_0
100
AcDbSpline
210
0.0
220
0.0
230
1.0
 70
     8
 71
     3
 72
     8
 73
     4
 74
     0
 42
0.0000000001
 43
0.0000000001
 40
0.0
 40
0.0
 40
0.0
 40
0.0
 40
1.168827779863518
 40
1.168827779863518
 40
1.168827779863518
 40
1.168827779863518
 10
-6.280000000000214
 20
-2.999999999999868
 30
0.0
 10
-6.046234444027589
 20
-2.999999999999868
 30
0.0
 10
-5.819363140589501
 20
-2.976342895108317
 30
0.0
 10
-5.598520280168571
 20
-2.931999645044811
 30
0.0
  0
SPLINE
  5
1B00
330
1F
100
AcDbEntity
  8
AM_0
100
AcDbSpline
210
0.0
220
0.0
230
1.0
 70
     8
 71
     3
 72
     8
 73
     4
 74
     0
 42
0.0000000001
 43
0.0000000001
 40
0.0
 40
0.0
 40
0.0
 40
0.0
 40
2.01589001736573
 40
2.01589001736573
 40
2.01589001736573
 40
2.01589001736573
 10
-5.625031152231571
 20
-2.932100124759614
 30
0.0
 10
-5.221853148758412
 20
-2.932100124759614
 30
0.0
 10
-4.838591511996327
 20
-2.862421775198747
 30
0.0
 10
-4.470904293711484
 20
-2.738255587037727
 30
0.0
  0
SPLINE
  5
1B01
330
1F
100
AcDbEntity
  8
AM_0
100
AcDbSpline
210
0.0
220
0.0
230
1.0
 70
     8
 71
     3
 72
     8
 73
     4
 74
     0
 42
0.0000000001
 43
0.0000000001
 40
0.0
 40
0.0
 40
0.0
 40
0.0
 40
1.096583167168162
 40
1.096583167168162
 40
1.096583167168162
 40
1.096583167168162
 10
-11.90503115223174
 20
-2.932100124759749
 30
0.0
 10
-12.12434778566532
 20
-2.932100124759749
 30
0.0
 10
-12.33777110490146
 20
-2.911482086706648
 30
0.0
 10
-12.5460000000001
 20
-2.872691110483422
 30
0.0
  0
SPLINE
  5
1B02
330
1F
100
AcDbEntity
  8
AM_0
100
AcDbSpline
210
0.0
220
0.0
230
1.0
 70
     8
 71
     3
 72
     8
 73
     4
 74
     0
 42
0.0000000001
 43
0.0000000001
 40
0.0
 40
0.0
 40
0.0
 40
0.0
 40
5.903434572215495
 40
5.903434572215495
 40
5.903434572215495
 40
5.903434572215495
 10
-9.420000000000356
 20
-3.000000000000035
 30
0.0
 10
-10.6006869144434
 20
-3.000000000000035
 30
0.0
 10
-11.60550225667836
 20
-2.396510033505869
 30
0.0
 10
-12.5460000000001
 20
-1.572319102519053
 30
0.0
  0
SPLINE
  5
1B03
330
1F
100
AcDbEntity
  8
AM_0
100
AcDbSpline
210
0.0
220
0.0
230
1.0
 70
     8
 71
     3
 72
     8
 73
     4
 74
     0
 42
0.0000000001
 43
0.0000000001
 40
0.0
 40
0.0
 40
0.0
 40
0.0
 40
1.168827779863518
 40
1.168827779863518
 40
1.168827779863518
 40
1.168827779863518
 10
-12.56000000000023
 20
-2.999999999999864
 30
0.0
 10
-12.32623444402761
 20
-2.999999999999896
 30
0.0
 10
-12.09936314058964
 20
-2.976342895108313
 30
0.0
 10
-11.8785202801686
 20
-2.931999645044879
 30
0.0
  0
SPLINE
  5
1B04
330
1F
100
AcDbEntity
  8
AM_0
100
AcDbSpline
210
0.0
220
0.0
230
1.0
 70
     8
 71
     3
 72
     8
 73
     4
 74
     0
 42
0.0000000001
 43
0.0000000001
 40
0.0
 40
0.0
 40
0.0
 40
0.0
 40
2.01589001736573
 40
2.01589001736573
 40
2.01589001736573
 40
2.01589001736573
 10
-11.90503115223174
 20
-2.932100124759642
 30
0.0
 10
-11.50185314875844
 20
-2.932100124759678
 30
0.0
 10
-11.11859151199647
 20
-2.862421775198775
 30
0.0
 10
-10.7509042937115
 20
-2.738255587037791
 30
0.0
  0
SPLINE
  5
1B05
330
1F
100
AcDbEntity
  8
AM_0
100
AcDbSpline
210
0.0
220
0.0
230
1.0
 70
     8
 71
     3
 72
     8
 73
     4
 74
     0
 42
0.0000000001
 43
0.0000000001
 40
0.0
 40
0.0
 40
0.0
 40
0.0
 40
1.168827779863518
 40
1.168827779863518
 40
1.168827779863518
 40
1.168827779863518
 10
-9.420000000000356
 20
-2.999999999999864
 30
0.0
 10
-9.186234444027462
 20
-2.999999999999896
 30
0.0
 10
-8.959363140589644
 20
-2.976342895108313
 30
0.0
 10
-8.738520280168444
 20
-2.931999645044879
 30
0.0
  0
LINE
  5
1B07
330
1F
100
AcDbEntity
  8
AM_11
100
AcDbLine
 10
-0.000000000000739
 20
2.999999999999998
 30
0.0
 11
-12.00000000000007
 21
3.0
 31
0.0
  0
LINE
  5
1B08
330
1F
100
AcDbEntity
  8
AM_11
100
AcDbLine
 10
-12.00000000000007
 20
-3.0
 30
0.0
 11
-0.000000000000199
 21
-3.000000000000003
 31
0.0
  0
DIMENSION
  5
1B34
330
1F
100
AcDbEntity
  8
AM_5
100
AcDbDimension
  2
*D8
 10
10.39356115204065
 20
-3.000000000007481
 30
0.0
 11
8.843561152040651
 21
-0.0000000000037419
 31
0.0
 70
    32
  1
%%c<>
  3
AM_JIS
100
AcDbAlignedDimension
 13
-0.0000000000000568
 23
2.999999999999996
 33
0.0
 14
-0.000000000000199
 24
-3.000000000007478
 34
0.0
 50
90.0
100
AcDbRotatedDimension
1001
GENIUS_GENDTOL_13
1000

1000
h7
1000

1040
0.0
  0
LINE
  5
1BBF
330
1F
100
AcDbEntity
  8
AM_11
100
AcDbLine
 10
-0.0000000000000568
 20
-3.000000000000003
 30
0.0
 11
-0.0000000000000568
 21
2.999999999999998
 31
0.0
  0
LINE
  5
1BE0
330
1F
100
AcDbEntity
  8
AM_11
100
AcDbLine
 10
-12.00000000000005
 20
-3.000000000000003
 30
0.0
 11
-12.00000000000005
 21
2.999999999999998
 31
0.0
  0
VIEWPORT
  5
110
330
101
100
AcDbEntity
 67
     1
  8
0
100
AcDbViewport
 10
420.5
 20
297.0
 30
0.0
 40
948.9782706766916
 41
628.452
 68
     1
 69
     1
1001
ACAD
1000
MVIEW
1002
{
1070
    16
1010
0.0
1020
0.0
1030
0.0
1010
0.0
1020
0.0
1030
1.0
1040
0.0
1040
628.452
1040
420.5
1040
297.0
1040
50.0
1040
0.0
1040
0.0
1070
     0
1070
   100
1070
     1
1070
     1
1070
     0
1070
     0
1070
     0
1070
     0
1040
0.0
1040
0.0
1040
0.0
1040
10.0
1040
10.0
1040
10.0
1040
10.0
1070
     0
1002
{
1002
}
1002
}
  0
ENDSEC
  0
SECTION
  2
OBJECTS
  0
DICTIONARY
  5
C
330
0
100
AcDbDictionary
  3
ACAD_GROUP
350
D
  3
ACAD_LAYOUT
350
1A
  3
ACAD_MLINESTYLE
350
17
  3
ACAD_PLOTSETTINGS
350
19
  3
ACAD_PLOTSTYLENAME
350
E
  3
ACDBVARIABLEDICTIONARY
350
34
  3
ACMDICTIONARY
350
43
  3
AMG
350
2B
  3
AMGSNAPSETTINGS
350
6E
  3
DWGPROPS
350
1C9C
  3
ACDBHEADERROUNDTRIPXREC
350
1CAA
  0
DICTIONARY
  5
74
330
1F
100
AcDbDictionary
280
     1
  3
ACAD_INDEX
360
1C9E
  3
ACAD_LAYOUTSELFREF
360
1CCD
  0
DICTIONARY
  5
1CD2
330
101
100
AcDbDictionary
280
     1
  3
ACAD_LAYOUTSELFREF
360
1CD3
  0
DICTIONARY
  5
D
102
{ACAD_REACTORS
330
C
102
}
330
C
100
AcDbDictionary
  0
DICTIONARY
  5
1A
102
{ACAD_REACTORS
330
C
102
}
330
C
100
AcDbDictionary
  0
DICTIONARY
  5
17
102
{ACAD_REACTORS
330
C
102
}
330
C
100
AcDbDictionary
  3
STANDARD
350
18
  0
DICTIONARY
  5
19
102
{ACAD_REACTORS
330
C
102
}
330
C
100
AcDbDictionary
  0
ACDBDICTIONARYWDFLT
  5
E
102
{ACAD_REACTORS
330
C
102
}
330
C
100
AcDbDictionary
281
     1
  3
Normal
350
F
100
AcDbDictionaryWithDefault
340
F
  0
DICTIONARY
  5
34
102
{ACAD_REACTORS
330
C
102
}
330
C
100
AcDbDictionary
  3
INDEXCTL
350
35
  3
SORTENTS
350
B5E
  0
DICTIONARY
  5
43
102
{ACAD_REACTORS
330
C
102
}
330
C
100
AcDbDictionary
  3
ACMSTDDICTIONARY
350
260
  0
DICTIONARY
  5
2B
102
{ACAD_REACTORS
330
C
102
}
330
C
100
AcDbDictionary
  3
ACMGSETTINGS
350
2C
  0
DICTIONARY
  5
6E
102
{ACAD_REACTORS
330
C
102
}
330
C
100
AcDbDictionary
  0
XRECORD
  5
1C9C
102
{ACAD_REACTORS
330
C
102
}
330
C
100
AcDbXrecord
  1
DWGPROPS COOKIE
  2

  3

  4

  6

  7

  8

  9

300
AmdtFileType=82
301
=
302
=
303
=
304
=
305
=
306
=
307
=
308
=
309
=
 40
0.1021484722222222
 41
2452838.620506898
 42
2452841.532499444
  1

 90
        1
  0
DICTIONARY
  5
1CAA
102
{ACAD_REACTORS
330
C
102
}
330
C
100
AcDbDictionary
  3
TSTACKALIGN
350
1CAB
  3
TSTACKSIZE
350
1CAC
  3
HYPERLINKBASE
350
1CAD
  3
STYLESHEET
350
1CAE
  3
LAYOUTDICT
350
1CAF
  3
PLOTSETDICT
350
1CB0
  3
PLOTSTYLNAMDICT
350
1CB1
  3
LWETCUNION
350
1CB2
  3
INSUNITS
350
1CB3
  3
CEPSNTYPE
350
1CB4
  3
FINGERPRINTGUID
350
1CB5
  3
VERSIONGUID
350
1CB6
  3
PSVPSCALE
350
1CB7
  3
DIMSTYLEDATA
350
1CB8
  3
PUCSORTHOREF
350
1CB9
  3
PUCSORTHOVIEW
350
1CBA
  3
PUCSBASE
350
1CBB
  3
PUCSORGTOP
350
1CBC
  3
PUCSORGBOTTOM
350
1CBD
  3
PUCSORGLEFT
350
1CBE
  3
PUCSORGRIGHT
350
1CBF
  3
PUCSORGFRONT
350
1CC0
  3
PUCSORGBACK
350
1CC1
  3
UCSORTHOREF
350
1CC2
  3
UCSORTHOVIEW
350
1CC3
  3
UCSBASE
350
1CC4
  3
UCSORGTOP
350
1CC5
  3
UCSORGBOTTOM
350
1CC6
  3
UCSORGLEFT
350
1CC7
  3
UCSORGRIGHT
350
1CC8
  3
UCSORGFRONT
350
1CC9
  3
UCSORGBACK
350
1CCA
  0
DICTIONARY
  5
1C9E
102
{ACAD_REACTORS
330
74
102
}
330
74
100
AcDbDictionary
  3
*A1
350
1C9F
  0
XRECORD
  5
1CCD
102
{ACAD_REACTORS
330
74
102
}
330
74
100
AcDbXrecord
340
1F
  0
XRECORD
  5
1CD3
102
{ACAD_REACTORS
330
1CD2
102
}
330
1CD2
100
AcDbXrecord
340
101
  0
MLINESTYLE
  5
18
102
{ACAD_REACTORS
330
17
102
}
330
17
100
AcDbMlineStyle
  2
STANDARD
 70
     0
  3

 62
   256
 51
90.0
 52
90.0
 71
     2
 49
0.5
 62
   256
  6
BYLAYER
 49
-0.5
 62
   256
  6
BYLAYER
  0
ACDBPLACEHOLDER
  5
F
102
{ACAD_REACTORS
330
E
102
}
330
E
100
AcDbPlaceHolder
280
     0
  0
DICTIONARYVAR
  5
35
102
{ACAD_REACTORS
330
34
102
}
330
34
100
DictionaryVariables
280
     0
  1
1
  0
DICTIONARYVAR
  5
B5E
102
{ACAD_REACTORS
330
34
102
}
330
34
100
DictionaryVariables
280
     0
  1
96
  0
DICTIONARY
  5
260
102
{ACAD_REACTORS
330
43
102
}
330
43
100
AcDbDictionary
  0
DICTIONARY
  5
2C
102
{ACAD_REACTORS
330
2B
102
}
330
2B
100
AcDbDictionary
  3
DWGSETTINGS
350
2D
  0
XRECORD
  5
1CAB
102
{ACAD_REACTORS
330
1CAA
102
}
330
1CAA
100
AcDbXrecord
 90
        1
  0
XRECORD
  5
1CAC
102
{ACAD_REACTORS
330
1CAA
102
}
330
1CAA
100
AcDbXrecord
 90
       70
  0
XRECORD
  5
1CAD
102
{ACAD_REACTORS
330
1CAA
102
}
330
1CAA
100
AcDbXrecord
  1

  0
XRECORD
  5
1CAE
102
{ACAD_REACTORS
330
1CAA
102
}
330
1CAA
100
AcDbXrecord
  1
ACAD_M_9400.ctb
  0
XRECORD
  5
1CAF
102
{ACAD_REACTORS
330
1CAA
102
}
330
1CAA
100
AcDbXrecord
340
1A
  0
XRECORD
  5
1CB0
102
{ACAD_REACTORS
330
1CAA
102
}
330
1CAA
100
AcDbXrecord
340
19
  0
XRECORD
  5
1CB1
102
{ACAD_REACTORS
330
1CAA
102
}
330
1CAA
100
AcDbXrecord
340
E
  0
XRECORD
  5
1CB2
102
{ACAD_REACTORS
330
1CAA
102
}
330
1CAA
100
AcDbXrecord
 90
    10781
  0
XRECORD
  5
1CB3
102
{ACAD_REACTORS
330
1CAA
102
}
330
1CAA
100
AcDbXrecord
 90
        4
  0
XRECORD
  5
1CB4
102
{ACAD_REACTORS
330
1CAA
102
}
330
1CAA
100
AcDbXrecord
 90
        0
  0
XRECORD
  5
1CB5
102
{ACAD_REACTORS
330
1CAA
102
}
330
1CAA
100
AcDbXrecord
  1
{AFB28963-8C59-40AE-9337-C84526B81ACE}
  0
XRECORD
  5
1CB6
102
{ACAD_REACTORS
330
1CAA
102
}
330
1CAA
100
AcDbXrecord
  1
{94A6397D-8D4B-4FCD-9B65-79A43307565D}
  0
XRECORD
  5
1CB7
102
{ACAD_REACTORS
330
1CAA
102
}
330
1CAA
100
AcDbXrecord
 40
0.0
  0
XRECORD
  5
1CB8
102
{ACAD_REACTORS
330
1CAA
102
}
330
1CAA
100
AcDbXrecord
1000
DSTYLE
1002
{
1070
    79
 70
     2
1070
   341
340
59
1070
   342
340
59
1070
   371
 70
    -1
1070
   372
 70
    -1
1002
}
  0
XRECORD
  5
1CB9
102
{ACAD_REACTORS
330
1CAA
102
}
330
1CAA
100
AcDbXrecord
340
0
  0
XRECORD
  5
1CBA
102
{ACAD_REACTORS
330
1CAA
102
}
330
1CAA
100
AcDbXrecord
 70
     0
  0
XRECORD
  5
1CBB
102
{ACAD_REACTORS
330
1CAA
102
}
330
1CAA
100
AcDbXrecord
340
0
  0
XRECORD
  5
1CBC
102
{ACAD_REACTORS
330
1CAA
102
}
330
1CAA
100
AcDbXrecord
 10
0.0
 20
0.0
 30
0.0
  0
XRECORD
  5
1CBD
102
{ACAD_REACTORS
330
1CAA
102
}
330
1CAA
100
AcDbXrecord
 10
0.0
 20
0.0
 30
0.0
  0
XRECORD
  5
1CBE
102
{ACAD_REACTORS
330
1CAA
102
}
330
1CAA
100
AcDbXrecord
 10
0.0
 20
0.0
 30
0.0
  0
XRECORD
  5
1CBF
102
{ACAD_REACTORS
330
1CAA
102
}
330
1CAA
100
AcDbXrecord
 10
0.0
 20
0.0
 30
0.0
  0
XRECORD
  5
1CC0
102
{ACAD_REACTORS
330
1CAA
102
}
330
1CAA
100
AcDbXrecord
 10
0.0
 20
0.0
 30
0.0
  0
XRECORD
  5
1CC1
102
{ACAD_REACTORS
330
1CAA
102
}
330
1CAA
100
AcDbXrecord
 10
0.0
 20
0.0
 30
0.0
  0
XRECORD
  5
1CC2
102
{ACAD_REACTORS
330
1CAA
102
}
330
1CAA
100
AcDbXrecord
340
0
  0
XRECORD
  5
1CC3
102
{ACAD_REACTORS
330
1CAA
102
}
330
1CAA
100
AcDbXrecord
 70
     0
  0
XRECORD
  5
1CC4
102
{ACAD_REACTORS
330
1CAA
102
}
330
1CAA
100
AcDbXrecord
340
0
  0
XRECORD
  5
1CC5
102
{ACAD_REACTORS
330
1CAA
102
}
330
1CAA
100
AcDbXrecord
 10
0.0
 20
0.0
 30
0.0
  0
XRECORD
  5
1CC6
102
{ACAD_REACTORS
330
1CAA
102
}
330
1CAA
100
AcDbXrecord
 10
0.0
 20
0.0
 30
0.0
  0
XRECORD
  5
1CC7
102
{ACAD_REACTORS
330
1CAA
102
}
330
1CAA
100
AcDbXrecord
 10
0.0
 20
0.0
 30
0.0
  0
XRECORD
  5
1CC8
102
{ACAD_REACTORS
330
1CAA
102
}
330
1CAA
100
AcDbXrecord
 10
0.0
 20
0.0
 30
0.0
  0
XRECORD
  5
1CC9
102
{ACAD_REACTORS
330
1CAA
102
}
330
1CAA
100
AcDbXrecord
 10
0.0
 20
0.0
 30
0.0
  0
XRECORD
  5
1CCA
102
{ACAD_REACTORS
330
1CAA
102
}
330
1CAA
100
AcDbXrecord
 10
0.0
 20
0.0
 30
0.0
  0
LAYER_INDEX
  5
1C9F
102
{ACAD_REACTORS
330
1C9E
102
}
330
1C9E
100
AcDbIndex
 40
2453152.480891713
100
AcDbLayerIndex
  8
0
360
1CA0
 90
        1
  8
AM_0
360
1CA1
 90
       66
  8
AM_11
360
1CA2
 90
        4
  8
AM_7
360
1CA3
 90
        1
  8
AM_5
360
1CA4
 90
        4
  8
Defpoints
360
1CA5
 90
        0
  8
AM_6
360
1CA6
 90
        1
  8
AM_4
360
1CA7
 90
        0
  8
AM_CL
360
1CA8
 90
        0
  0
XRECORD
  5
2D
102
{ACAD_REACTORS
330
2C
102
}
330
2C
100
AcDbXrecord
  1
VERSION
140
15.0
  1
PRODUCT
  2
AutoCAD Mechanical 2000
  0
IDBUFFER
  5
1CA0
330
0
100
AcDbIdBuffer
330
DFD
  0
IDBUFFER
  5
1CA1
330
0
100
AcDbIdBuffer
330
1AE6
330
1AE7
330
1AE8
330
1AE9
330
1AEA
330
1AEB
330
1AEC
330
1AED
330
1AEE
330
1AFD
330
1AFE
330
1AFF
330
1B00
330
1B01
330
1B02
330
1B03
330
1B04
330
1B05
330
DFB
330
DFC
330
DFE
330
DFF
330
E00
330
18B7
330
18B8
330
1AAF
330
1AB0
330
1AB1
330
1AB2
330
1AB3
330
1AB4
330
1AB5
330
1AB6
330
1AB7
330
1AB8
330
1AB9
330
1ABA
330
1ABB
330
1ABC
330
1ABD
330
1ABE
330
1ABF
330
1AC0
330
1AC1
330
1AC2
330
1AC3
330
1AC4
330
1AC5
330
1AC6
330
1AC7
330
1AC8
330
1AC9
330
1ACA
330
1ACB
330
1ACC
330
1ACD
330
1ACE
330
1ACF
330
1AD0
330
1AD1
330
1AD2
330
1AD3
330
1AD4
330
1AE3
330
1AE4
330
1AE5
  0
IDBUFFER
  5
1CA2
330
0
100
AcDbIdBuffer
330
1B07
330
1B08
330
1BBF
330
1BE0
  0
IDBUFFER
  5
1CA3
330
0
100
AcDbIdBuffer
330
C50
  0
IDBUFFER
  5
1CA4
330
0
100
AcDbIdBuffer
330
C4F
330
C53
330
15A7
330
1B34
  0
IDBUFFER
  5
1CA5
330
0
100
AcDbIdBuffer
  0
IDBUFFER
  5
1CA6
330
0
100
AcDbIdBuffer
330
C58
  0
IDBUFFER
  5
1CA7
330
0
100
AcDbIdBuffer
  0
IDBUFFER
  5
1CA8
330
0
100
AcDbIdBuffer
  0
ENDSEC
  0
EOF
