  0
SECTION
  2
HEADER
  9
$ACADVER
  1
AC1014
  9
$ACADMAINTVER
 70
     9
  9
$DWGCODEPAGE
  3
ANSI_932
  9
$INSBASE
 10
0.0
 20
0.0
 30
0.0
  9
$EXTMIN
 10
-83.97488136096777
 20
-29.25000101001254
 30
-0.00000001
  9
$EXTMAX
 10
10.5926458981446
 20
6.00667818980573
 30
0.00000001
  9
$LIMMIN
 10
-100.6161294986213
 20
-45.92440863029973
  9
$LIMMAX
 10
23.71667507654751
 20
25.23187193568256
  9
$ORTHOMODE
 70
     0
  9
$REGENMODE
 70
     1
  9
$FILLMODE
 70
     1
  9
$QTEXTMODE
 70
     0
  9
$MIRRTEXT
 70
     0
  9
$DRAGMODE
 70
     2
  9
$LTSCALE
 40
0.3
  9
$OSMODE
 70
    55
  9
$ATTMODE
 70
     1
  9
$TEXTSIZE
 40
2.5
  9
$TRACEWID
 40
1.0
  9
$TEXTSTYLE
  7
STANDARD
  9
$CLAYER
  8
AM_5
  9
$CELTYPE
  6
BYLAYER
  9
$CECOLOR
 62
   256
  9
$CELTSCALE
 40
1.0
  9
$DELOBJ
 70
     1
  9
$DISPSILH
 70
     0
  9
$DIMSCALE
 40
0.5
  9
$DIMASZ
 40
2.5
  9
$DIMEXO
 40
1.0
  9
$DIMDLI
 40
12.0
  9
$DIMRND
 40
0.0
  9
$DIMDLE
 40
0.0
  9
$DIMEXE
 40
1.0
  9
$DIMTP
 40
0.1
  9
$DIMTM
 40
0.1
  9
$DIMTXT
 40
3.2
  9
$DIMCEN
 40
0.0
  9
$DIMTSZ
 40
0.0
  9
$DIMTOL
 70
     0
  9
$DIMLIM
 70
     0
  9
$DIMTIH
 70
     0
  9
$DIMTOH
 70
     0
  9
$DIMSE1
 70
     0
  9
$DIMSE2
 70
     0
  9
$DIMTAD
 70
     3
  9
$DIMZIN
 70
     8
  9
$DIMBLK
  1
OPEN30
  9
$DIMASO
 70
     1
  9
$DIMSHO
 70
     1
  9
$DIMPOST
  1

  9
$DIMAPOST
  1
"
  9
$DIMALT
 70
     0
  9
$DIMALTD
 70
     2
  9
$DIMALTF
 40
0.0393701
  9
$DIMLFAC
 40
1.0
  9
$DIMTOFL
 70
     1
  9
$DIMTVP
 40
0.0
  9
$DIMTIX
 70
     0
  9
$DIMSOXD
 70
     0
  9
$DIMSAH
 70
     0
  9
$DIMBLK1
  1

  9
$DIMBLK2
  1

  9
$DIMSTYLE
  2
AM_JIS
  9
$DIMCLRD
 70
   256
  9
$DIMCLRE
 70
   256
  9
$DIMCLRT
 70
     2
  9
$DIMTFAC
 40
0.71
  9
$DIMGAP
 40
1.5
  9
$DIMJUST
 70
     0
  9
$DIMSD1
 70
     0
  9
$DIMSD2
 70
     0
  9
$DIMTOLJ
 70
     0
  9
$DIMTZIN
 70
     0
  9
$DIMALTZ
 70
     0
  9
$DIMALTTZ
 70
     0
  9
$DIMFIT
 70
     3
  9
$DIMUPT
 70
     0
  9
$DIMUNIT
 70
     2
  9
$DIMDEC
 70
     3
  9
$DIMTDEC
 70
     3
  9
$DIMALTU
 70
     2
  9
$DIMALTTD
 70
     2
  9
$DIMTXSTY
  7
ASAMI
  9
$DIMAUNIT
 70
     0
  9
$LUNITS
 70
     2
  9
$LUPREC
 70
     2
  9
$SKETCHINC
 40
1.0
  9
$FILLETRAD
 40
2.5
  9
$AUNITS
 70
     0
  9
$AUPREC
 70
     0
  9
$MENU
  1
.
  9
$ELEVATION
 40
0.0
  9
$PELEVATION
 40
0.0
  9
$THICKNESS
 40
0.0
  9
$LIMCHECK
 70
     0
  9
$BLIPMODE
 70
     0
  9
$CHAMFERA
 40
2.5
  9
$CHAMFERB
 40
2.5
  9
$CHAMFERC
 40
20.0
  9
$CHAMFERD
 40
0.0
  9
$SKPOLY
 70
     0
  9
$TDCREATE
 40
2452838.620506898
  9
$TDUPDATE
 40
2453152.479462639
  9
$TDINDWG
 40
0.1184772454
  9
$TDUSRTIMER
 40
0.1184772454
  9
$USRTIMER
 70
     1
  9
$ANGBASE
 50
0.0
  9
$ANGDIR
 70
     0
  9
$PDMODE
 70
     0
  9
$PDSIZE
 40
0.0
  9
$PLINEWID
 40
0.0
  9
$COORDS
 70
     1
  9
$SPLFRAME
 70
     0
  9
$SPLINETYPE
 70
     6
  9
$SPLINESEGS
 70
     8
  9
$ATTDIA
 70
     1
  9
$ATTREQ
 70
     1
  9
$HANDLING
 70
 12289
  9
$HANDSEED
  5
22CA
  9
$SURFTAB1
 70
     6
  9
$SURFTAB2
 70
     6
  9
$SURFTYPE
 70
     6
  9
$SURFU
 70
     6
  9
$SURFV
 70
     6
  9
$UCSNAME
  2

  9
$UCSORG
 10
-0.0000000000000568
 20
-0.0000000000000036
 30
0.0
  9
$UCSXDIR
 10
1.0
 20
0.0
 30
0.0
  9
$UCSYDIR
 10
0.0
 20
1.0
 30
0.0
  9
$PUCSNAME
  2

  9
$PUCSORG
 10
0.0
 20
0.0
 30
0.0
  9
$PUCSXDIR
 10
1.0
 20
0.0
 30
0.0
  9
$PUCSYDIR
 10
0.0
 20
1.0
 30
0.0
  9
$USERI1
 70
     0
  9
$USERI2
 70
     0
  9
$USERI3
 70
     0
  9
$USERI4
 70
     0
  9
$USERI5
 70
     0
  9
$USERR1
 40
0.0
  9
$USERR2
 40
0.0
  9
$USERR3
 40
0.0
  9
$USERR4
 40
0.0
  9
$USERR5
 40
0.0
  9
$WORLDVIEW
 70
     1
  9
$SHADEDGE
 70
     3
  9
$SHADEDIF
 70
    70
  9
$TILEMODE
 70
     1
  9
$MAXACTVP
 70
    64
  9
$PINSBASE
 10
0.0
 20
0.0
 30
0.0
  9
$PLIMCHECK
 70
     0
  9
$PEXTMIN
 10
1.000000000000000E+20
 20
1.000000000000000E+20
 30
1.000000000000000E+20
  9
$PEXTMAX
 10
-1.000000000000000E+20
 20
-1.000000000000000E+20
 30
-1.000000000000000E+20
  9
$PLIMMIN
 10
0.0
 20
0.0
  9
$PLIMMAX
 10
841.0
 20
594.0
  9
$UNITMODE
 70
     0
  9
$VISRETAIN
 70
     1
  9
$PLINEGEN
 70
     0
  9
$PSLTSCALE
 70
     0
  9
$TREEDEPTH
 70
  3020
  9
$PICKSTYLE
 70
     0
  9
$CMLSTYLE
  2
STANDARD
  9
$CMLJUST
 70
     0
  9
$CMLSCALE
 40
20.0
  9
$PROXYGRAPHICS
 70
     1
  9
$MEASUREMENT
 70
     1
  0
ENDSEC
  0
SECTION
  2
CLASSES
  0
CLASS
  1
ACDBDICTIONARYWDFLT
  2
AcDbDictionaryWithDefault
  3
AutoCAD 2000
 90
        0
280
     0
281
     0
  0
CLASS
  1
ACDBPLACEHOLDER
  2
AcDbPlaceHolder
  3
AutoCAD 2000
 90
        0
280
     0
281
     0
  0
CLASS
  1
LAYOUT
  2
AcDbLayout
  3
AutoCAD 2000
 90
        0
280
     0
281
     0
  0
CLASS
  1
AMGSETTINGSOBJ
  2
AmgSettingsObj
  3
"AcadM|Product Description: AutoCAD Mechanical 2000|Company: Autodesk"
 90
        0
280
     0
281
     0
  0
CLASS
  1
ACME_DOCUMENT
  2
AcMeDbDoc
  3
AcMeServices
 90
        0
280
     0
281
     0
  0
CLASS
  1
ACMESCOPE
  2
AcMeScope
  3
AcMeServices
 90
        0
280
     0
281
     0
  0
CLASS
  1
ACMECOMMANDHISTORY
  2
AcMeCommandHistory
  3
AcMeServices
 90
        0
280
     0
281
     0
  0
CLASS
  1
DICTIONARYVAR
  2
AcDbDictionaryVar
  3
AutoCAD 2000
 90
        0
280
     0
281
     0
  0
CLASS
  1
ACIMSYSVARMAN
  2
AcImSysVarManager
  3
AcMeServices
 90
        0
280
     0
281
     0
  0
CLASS
  1
ACIMREALSYSVAR
  2
AcImRealSysVar
  3
AcMeServices
 90
        0
280
     0
281
     0
  0
CLASS
  1
ACIMINTSYSVAR
  2
AcImIntSysVar
  3
AcMeServices
 90
        0
280
     0
281
     0
  0
CLASS
  1
ACMEDRAWINGMAN
  2
AcMeDrawingMan
  3
AcMeServices
 90
        0
280
     0
281
     0
  0
CLASS
  1
ACMEVIEW
  2
AcMeView
  3
AcMeServices
 90
        0
280
     0
281
     0
  0
CLASS
  1
ACDBENTITYCACHE
  2
AcMeEntityCache
  3
AcMeServices
 90
        0
280
     0
281
     0
  0
CLASS
  1
GSMANAGER
  2
AcMeGSManager
  3
AcMeServices
 90
        0
280
     0
281
     0
  0
CLASS
  1
AmdtInternalReactor
  2
AmdtInternalReactor
  3
AcMeServices
 90
        0
280
     0
281
     0
  0
CLASS
  1
ACMESTATEMGR
  2
AcMeStateMgr
  3
AcMeServices
 90
        0
280
     0
281
     0
  0
CLASS
  1
ACME_DATABASE
  2
AcMeDbDatabase
  3
AcMeServices
 90
        0
280
     0
281
     0
  0
CLASS
  1
ACRFINSADJUSTERMGR
  2
AcRfInsAdjusterMgr
  3
AcMeServices
 90
        0
280
     0
281
     0
  0
CLASS
  1
ACMDATADICTIONARY
  2
AcmDataDictionary
  3
"AcmSymBB|Product Description: AutoCAD Mechanical 2000|Company: Autodesk"
 90
        0
280
     0
281
     0
  0
CLASS
  1
ACMDATAENTRYBLOCK
  2
AcmDataEntryBlock
  3
"AcmSymBB|Product Description: AutoCAD Mechanical 2000|Company: Autodesk"
 90
        0
280
     0
281
     0
  0
CLASS
  1
AMGOBJPROPCFG
  2
AmgObjPropCfg
  3
"AmgLay|Product Description: AutoCAD Mechanical 2000|Company: Autodesk"
 90
        1
280
     0
281
     0
  0
CLASS
  1
ACAMGFILTERDAT
  2
AcAmgFilterDat
  3
"AcadM|Product Description: AutoCAD Mechanical 2000|Company: Autodesk"
 90
        0
280
     0
281
     0
  0
CLASS
  1
LAYER_INDEX
  2
AcDbLayerIndex
  3
AutoCAD 2000
 90
        0
280
     0
281
     0
  0
CLASS
  1
IDBUFFER
  2
AcDbIdBuffer
  3
AutoCAD 2000
 90
        0
280
     0
281
     0
  0
CLASS
  1
ACIMSTRSYSVAR
  2
AcImStrSysVar
  3
AcMeServices
 90
        0
280
     0
281
     0
  0
CLASS
  1
ACMSTANDARDJIS
  2
AcmStandardJIS
  3
"AcmSymBB|Product Description: AutoCAD Mechanical 2000|Company: Autodesk"
 90
        0
280
     0
281
     0
  0
CLASS
  1
ACMSURFSTANDARDJIS
  2
AcmSurfTextStdJIS
  3
"AcmSymBB|Product Description: AutoCAD Mechanical 2000|Company: Autodesk"
 90
        0
280
     0
281
     0
  0
CLASS
  1
ACMFCFSTANDARDJIS
  2
AcmFCFStdJIS
  3
"AcmSymBB|Product Description: AutoCAD Mechanical 2000|Company: Autodesk"
 90
        0
280
     0
281
     0
  0
CLASS
  1
ACMWELDSTANDARDJIS
  2
AcmWeldingStdJIS
  3
"AcmSymBB|Product Description: AutoCAD Mechanical 2000|Company: Autodesk"
 90
        0
280
     0
281
     0
  0
CLASS
  1
ACMIDSTANDARDJIS
  2
AcmIdStdJIS
  3
"AcmSymBB|Product Description: AutoCAD Mechanical 2000|Company: Autodesk"
 90
        0
280
     0
281
     0
  0
CLASS
  1
ACMDATUMSTANDARDJIS
  2
AcmDatumStdJIS
  3
"AcmSymBB|Product Description: AutoCAD Mechanical 2000|Company: Autodesk"
 90
        0
280
     0
281
     0
  0
CLASS
  1
ACMBOMSTANDARDJIS
  2
AcmBOMStdJIS
  3
"AcmSymBB|Product Description: AutoCAD Mechanical 2000|Company: Autodesk"
 90
        0
280
     0
281
     0
  0
CLASS
  1
ACMSTANDARDANSI
  2
AcmStandardANSI
  3
"AcmSymBB|Product Description: AutoCAD Mechanical 2000|Company: Autodesk"
 90
        0
280
     0
281
     0
  0
CLASS
  1
ACMSURFSTANDARDANSI
  2
AcmSurfTextStdANSI
  3
"AcmSymBB|Product Description: AutoCAD Mechanical 2000|Company: Autodesk"
 90
        0
280
     0
281
     0
  0
CLASS
  1
ACMFCFSTANDARDANSI
  2
AcmFCFStdANSI
  3
"AcmSymBB|Product Description: AutoCAD Mechanical 2000|Company: Autodesk"
 90
        0
280
     0
281
     0
  0
CLASS
  1
ACMWELDSTANDARDANSI
  2
AcmWeldingStdANSI
  3
"AcmSymBB|Product Description: AutoCAD Mechanical 2000|Company: Autodesk"
 90
        0
280
     0
281
     0
  0
CLASS
  1
ACMIDSTANDARDANSI
  2
AcmIdStdANSI
  3
"AcmSymBB|Product Description: AutoCAD Mechanical 2000|Company: Autodesk"
 90
        0
280
     0
281
     0
  0
CLASS
  1
ACMDATUMSTANDARDANSI
  2
AcmDatumStdANSI
  3
"AcmSymBB|Product Description: AutoCAD Mechanical 2000|Company: Autodesk"
 90
        0
280
     0
281
     0
  0
CLASS
  1
ACMBOMSTANDARDANSI
  2
AcmBOMStdANSI
  3
"AcmSymBB|Product Description: AutoCAD Mechanical 2000|Company: Autodesk"
 90
        0
280
     0
281
     0
  0
CLASS
  1
ACMSTANDARDBSI
  2
AcmStandardBSI
  3
"AcmSymBB|Product Description: AutoCAD Mechanical 2000|Company: Autodesk"
 90
        0
280
     0
281
     0
  0
CLASS
  1
ACMSURFSTANDARDBSI
  2
AcmSurfTextStdBSI
  3
"AcmSymBB|Product Description: AutoCAD Mechanical 2000|Company: Autodesk"
 90
        0
280
     0
281
     0
  0
CLASS
  1
ACMFCFSTANDARDBSI
  2
AcmFCFStdBSI
  3
"AcmSymBB|Product Description: AutoCAD Mechanical 2000|Company: Autodesk"
 90
        0
280
     0
281
     0
  0
CLASS
  1
ACMWELDSTANDARDBSI
  2
AcmWeldingStdBSI
  3
"AcmSymBB|Product Description: AutoCAD Mechanical 2000|Company: Autodesk"
 90
        0
280
     0
281
     0
  0
CLASS
  1
ACMIDSTANDARDBSI
  2
AcmIdStdBSI
  3
"AcmSymBB|Product Description: AutoCAD Mechanical 2000|Company: Autodesk"
 90
        0
280
     0
281
     0
  0
CLASS
  1
ACMDATUMSTANDARDBSI
  2
AcmDatumStdBSI
  3
"AcmSymBB|Product Description: AutoCAD Mechanical 2000|Company: Autodesk"
 90
        0
280
     0
281
     0
  0
CLASS
  1
ACMBOMSTANDARDBSI
  2
AcmBOMStdBSI
  3
"AcmSymBB|Product Description: AutoCAD Mechanical 2000|Company: Autodesk"
 90
        0
280
     0
281
     0
  0
CLASS
  1
LONG_TRANSACTION
  2
AcDbLongTransaction
  3
AutoCAD 2000
 90
        0
280
     0
281
     0
  0
CLASS
  1
LWPOLYLINE
  2
AcDbPolyline
  3
AutoCAD 2000
 90
        0
280
     0
281
     1
  0
CLASS
  1
HATCH
  2
AcDbHatch
  3
AutoCAD 2000
 90
        0
280
     0
281
     1
  0
CLASS
  1
XRECORD
  2
AcDbXrecord
  3
AutoCAD 2000
 90
        0
280
     0
281
     0
  0
ENDSEC
  0
SECTION
  2
TABLES
  0
TABLE
  2
VPORT
  5
8
330
0
100
AcDbSymbolTable
 70
     3
  0
VPORT
  5
229F
330
8
100
AcDbSymbolTableRecord
100
AcDbViewportTableRecord
  2
*ACTIVE
 70
     0
 10
0.0
 20
0.0
 11
1.0
 21
1.0
 12
-17.70123064567427
 22
16.85086722448581
 13
0.0
 23
0.0
 14
2.5
 24
2.5
 15
10.0
 25
10.0
 16
0.0
 26
0.0
 36
1.0
 17
0.0
 27
0.0
 37
0.0
 40
126.3592022453866
 41
1.56570841889117
 42
50.0
 43
0.0
 44
0.0
 50
0.0
 51
0.0
 71
     0
 72
   100
 73
     1
 74
     3
 75
     0
 76
     0
 77
     0
 78
     0
  0
ENDTAB
  0
TABLE
  2
LTYPE
  5
5
330
0
100
AcDbSymbolTable
 70
    10
  0
LTYPE
  5
14
330
5
100
AcDbSymbolTableRecord
100
AcDbLinetypeTableRecord
  2
BYBLOCK
 70
     0
  3

 72
    65
 73
     0
 40
0.0
  0
LTYPE
  5
15
330
5
100
AcDbSymbolTableRecord
100
AcDbLinetypeTableRecord
  2
BYLAYER
 70
     0
  3

 72
    65
 73
     0
 40
0.0
  0
LTYPE
  5
16
330
5
100
AcDbSymbolTableRecord
100
AcDbLinetypeTableRecord
  2
CONTINUOUS
 70
     0
  3
Solid line
 72
    65
 73
     0
 40
0.0
  0
LTYPE
  5
4B
330
5
100
AcDbSymbolTableRecord
100
AcDbLinetypeTableRecord
  2
AM_ISO02W050
 70
     0
  3
__ __ __ __ __ __ __ __ __ __ __ __ __ __ __
 72
    65
 73
     2
 40
7.5
 49
6.0
 74
     0
 49
-1.5
 74
     0
  0
LTYPE
  5
4C
330
5
100
AcDbSymbolTableRecord
100
AcDbLinetypeTableRecord
  2
AM_ISO08W050
 70
     0
  3
____ . ____ . ____ . ____ . ____ . ____ . ____
 72
    65
 73
     4
 40
18.0
 49
12.0
 74
     0
 49
-1.5
 74
     0
 49
3.0
 74
     0
 49
-1.5
 74
     0
  0
LTYPE
  5
4D
330
5
100
AcDbSymbolTableRecord
100
AcDbLinetypeTableRecord
  2
AM_ISO09W050
 70
     0
  3
_____ . . _____ . . _____ . . ____ .. ____
 72
    65
 73
     6
 40
22.5
 49
12.0
 74
     0
 49
-1.5
 74
     0
 49
3.0
 74
     0
 49
-1.5
 74
     0
 49
3.0
 74
     0
 49
-1.5
 74
     0
  0
LTYPE
  5
4E
330
5
100
AcDbSymbolTableRecord
100
AcDbLinetypeTableRecord
  2
AMCONSTR
 70
     0
  3
_______________________
 72
    65
 73
     2
 40
9999.0
 49
9999.0
 74
     0
 49
0.0
 74
     0
  0
LTYPE
  5
4F
330
5
100
AcDbSymbolTableRecord
100
AcDbLinetypeTableRecord
  2
AM_ISO02W050X2
 70
     0
  3
 _ _ _ _ _ _ _ _ _ _ _ _
 72
    65
 73
     2
 40
3.75
 49
3.0
 74
     0
 49
-0.75
 74
     0
  0
LTYPE
  5
50
330
5
100
AcDbSymbolTableRecord
100
AcDbLinetypeTableRecord
  2
AM_ISO08W050X2
 70
     0
  3
__ . __ . __ . __ . __ . __
 72
    65
 73
     4
 40
9.0
 49
6.0
 74
     0
 49
-0.75
 74
     0
 49
1.5
 74
     0
 49
-0.75
 74
     0
  0
LTYPE
  5
53
330
5
100
AcDbSymbolTableRecord
100
AcDbLinetypeTableRecord
  2
AMZIGZAG
 70
     0
  3
/\/-/\/-/\/-/\/-/\/-/\/
 72
    65
 73
     2
 40
11.00009999999999
 49
0.0001
 74
     4
 75
   135
340
52
 46
0.04
 50
0.0
 44
0.0
 45
0.0
 49
-11.0
 74
     0
  0
LTYPE
  5
166
330
5
100
AcDbSymbolTableRecord
100
AcDbLinetypeTableRecord
  2
ACJISTGL
 70
     0
  3
_ _ _ _ _
 72
    65
 73
     2
 40
3.0
 49
2.0
 74
     0
 49
-1.0
 74
     0
  0
LTYPE
  5
26A
330
5
100
AcDbSymbolTableRecord
100
AcDbLinetypeTableRecord
  2
ACJISTGB
 70
     0
  3
__ . . __ . .
 72
    65
 73
     6
 40
9.0
 49
4.0
 74
     0
 49
-1.0
 74
     0
 49
1.0
 74
     0
 49
-1.0
 74
     0
 49
1.0
 74
     0
 49
-1.0
 74
     0
  0
ENDTAB
  0
TABLE
  2
LAYER
  5
2
330
0
100
AcDbSymbolTable
 70
     7
  0
LAYER
  5
10
330
2
100
AcDbSymbolTableRecord
100
AcDbLayerTableRecord
  2
0
 70
     0
 62
     7
  6
CONTINUOUS
  0
LAYER
  5
3F9
330
2
100
AcDbSymbolTableRecord
100
AcDbLayerTableRecord
  2
AM_0
 70
     0
 62
     7
  6
CONTINUOUS
  0
LAYER
  5
BD6
330
2
100
AcDbSymbolTableRecord
100
AcDbLayerTableRecord
  2
AM_11
 70
     0
 62
     3
  6
AM_ISO09W050
  0
LAYER
  5
BD7
330
2
100
AcDbSymbolTableRecord
100
AcDbLayerTableRecord
  2
AM_7
 70
     0
 62
     4
  6
AM_ISO08W050
  0
LAYER
  5
BD8
330
2
100
AcDbSymbolTableRecord
100
AcDbLayerTableRecord
  2
AM_5
 70
     0
 62
     3
  6
CONTINUOUS
  0
LAYER
  5
BD9
330
2
100
AcDbSymbolTableRecord
100
AcDbLayerTableRecord
  2
DEFPOINTS
 70
     0
 62
     7
  6
CONTINUOUS
  0
LAYER
  5
BDA
330
2
100
AcDbSymbolTableRecord
100
AcDbLayerTableRecord
  2
AM_6
 70
     0
 62
     2
  6
CONTINUOUS
  0
ENDTAB
  0
TABLE
  2
STYLE
  5
3
330
0
100
AcDbSymbolTable
 70
     5
  0
STYLE
  5
11
330
3
100
AcDbSymbolTableRecord
100
AcDbTextStyleTableRecord
  2
STANDARD
 70
     0
 40
0.0
 41
1.0
 50
0.0
 71
     0
 42
2.5
  3
simplex.shx
  4
EXTFONT.SHX
  0
STYLE
  5
52
330
3
100
AcDbSymbolTableRecord
100
AcDbTextStyleTableRecord
  2

 70
     1
 40
0.0
 41
1.0
 50
0.0
 71
     0
 42
2.5
  3
ltypeshp.shx
  4

  0
STYLE
  5
6B
330
3
100
AcDbSymbolTableRecord
100
AcDbTextStyleTableRecord
  2
ASAMI
 70
     0
 40
0.0
 41
1.0
 50
0.0
 71
     0
 42
2.5
  3
simplex.shx
  4
EXTFONT.SHX
  0
STYLE
  5
262
330
3
100
AcDbSymbolTableRecord
100
AcDbTextStyleTableRecord
  2
ACJISTS
 70
     0
 40
1.0
 41
1.0
 50
0.0
 71
     0
 42
2.5
  3
simplex.shx
  4
bigfont.shx
  0
STYLE
  5
269
330
3
100
AcDbSymbolTableRecord
100
AcDbTextStyleTableRecord
  2
ACJISGDT
 70
     0
 40
0.0
 41
1.0
 50
0.0
 71
     0
 42
2.5
  3
amgdtans.shx
  4

  0
ENDTAB
  0
TABLE
  2
VIEW
  5
6
330
0
100
AcDbSymbolTable
 70
     0
  0
ENDTAB
  0
TABLE
  2
UCS
  5
7
330
0
100
AcDbSymbolTable
 70
     0
  0
ENDTAB
  0
TABLE
  2
APPID
  5
9
330
0
100
AcDbSymbolTable
 70
    13
  0
APPID
  5
12
330
9
100
AcDbSymbolTableRecord
100
AcDbRegAppTableRecord
  2
ACAD
 70
     0
  0
APPID
  5
30
330
9
100
AcDbSymbolTableRecord
100
AcDbRegAppTableRecord
  2
MCAD_NO_VIS
 70
     0
  0
APPID
  5
31
330
9
100
AcDbSymbolTableRecord
100
AcDbRegAppTableRecord
  2
ACAD_TEMP_GRAPHIC
 70
     0
  0
APPID
  5
2C2
330
9
100
AcDbSymbolTableRecord
100
AcDbRegAppTableRecord
  2
GENIUS_GENDTOL_13
 70
     0
  0
APPID
  5
339
330
9
100
AcDbSymbolTableRecord
100
AcDbRegAppTableRecord
  2
GENIUS_GENODEF_13
 70
     0
  0
APPID
  5
33A
330
9
100
AcDbSymbolTableRecord
100
AcDbRegAppTableRecord
  2
GENIUS_GENOBJ-N-RSBK_13
 70
     0
  0
APPID
  5
33B
330
9
100
AcDbSymbolTableRecord
100
AcDbRegAppTableRecord
  2
GENIUS_GENOBJ-N-LIB_13
 70
     0
  0
APPID
  5
33C
330
9
100
AcDbSymbolTableRecord
100
AcDbRegAppTableRecord
  2
GENIUS_GENSCALE_13
 70
     0
  0
APPID
  5
378
330
9
100
AcDbSymbolTableRecord
100
AcDbRegAppTableRecord
  2
GENIUS_GENDIMSH_14
 70
     0
  0
APPID
  5
BDB
330
9
100
AcDbSymbolTableRecord
100
AcDbRegAppTableRecord
  2
GENIUS_GENOBJ-N-CEN_13
 70
     0
  0
APPID
  5
BDC
330
9
100
AcDbSymbolTableRecord
100
AcDbRegAppTableRecord
  2
GENIUS_GENFIL_13
 70
     0
  0
APPID
  5
BDD
330
9
100
AcDbSymbolTableRecord
100
AcDbRegAppTableRecord
  2
GENIUS_GENOBJ-N-FIL_13
 70
     0
  0
APPID
  5
12AD
330
9
100
AcDbSymbolTableRecord
100
AcDbRegAppTableRecord
  2
GENIUS_GENOREF_13
 70
     0
  0
ENDTAB
  0
TABLE
  2
DIMSTYLE
  5
A
330
0
100
AcDbSymbolTable
 70
     8
  0
DIMSTYLE
105
58
102
{ACAD_REACTORS
330
1F96
330
1FFA
330
200A
330
20E4
102
}
330
A
100
AcDbSymbolTableRecord
100
AcDbDimStyleTableRecord
  2
AM_JIS
 70
     0
  3

  4
"
  5
OPEN30
  6

  7

 40
0.5
 41
2.5
 42
1.0
 43
12.0
 44
1.0
 45
0.0
 46
0.0
 47
0.1
 48
0.1
140
3.2
141
0.0
142
0.0
143
0.0393701
144
1.0
145
0.0
146
0.71
147
1.5
 71
     0
 72
     0
 73
     0
 74
     0
 75
     0
 76
     0
 77
     3
 78
     8
170
     0
171
     2
172
     1
173
     0
174
     0
175
     0
176
   256
177
   256
178
     2
270
     2
271
     3
272
     3
273
     2
274
     2
340
6B
275
     0
280
     0
281
     0
282
     0
283
     0
284
     0
285
     0
286
     0
287
     3
288
     0
  0
DIMSTYLE
105
5F
330
A
100
AcDbSymbolTableRecord
100
AcDbDimStyleTableRecord
  2
AM_JIS$3
 70
     0
  3

  4
"
  5
OPEN30
  6

  7

 40
0.5
 41
2.5
 42
1.0
 43
10.0
 44
1.0
 45
0.0
 46
0.0
 47
0.1
 48
0.1
140
3.2
141
0.0
142
0.0
143
0.0393701
144
1.0
145
0.0
146
0.71
147
1.5
 71
     0
 72
     0
 73
     0
 74
     1
 75
     0
 76
     0
 77
     3
 78
     8
170
     0
171
     2
172
     0
173
     0
174
     0
175
     0
176
   256
177
   256
178
     2
270
     2
271
     2
272
     3
273
     2
274
     2
340
6B
275
     0
280
     0
281
     0
282
     0
283
     0
284
     0
285
     0
286
     0
287
     0
288
     1
  0
DIMSTYLE
105
60
102
{ACAD_REACTORS
330
21FE
102
}
330
A
100
AcDbSymbolTableRecord
100
AcDbDimStyleTableRecord
  2
AM_JIS$4
 70
     0
  3

  4
"
  5
OPEN30
  6

  7

 40
0.5
 41
2.5
 42
1.0
 43
10.0
 44
1.0
 45
0.0
 46
0.0
 47
0.1
 48
0.1
140
3.2
141
0.0
142
0.0
143
0.0393701
144
1.0
145
0.0
146
0.71
147
1.5
 71
     0
 72
     0
 73
     0
 74
     1
 75
     0
 76
     0
 77
     3
 78
     8
170
     0
171
     2
172
     0
173
     0
174
     0
175
     0
176
   256
177
   256
178
     2
270
     2
271
     2
272
     3
273
     2
274
     2
340
6B
275
     0
280
     0
281
     0
282
     0
283
     0
284
     0
285
     0
286
     0
287
     0
288
     1
  0
DIMSTYLE
105
61
330
A
100
AcDbSymbolTableRecord
100
AcDbDimStyleTableRecord
  2
AM_JIS$6
 70
     0
  3

  4
"
  5
OPEN30
  6

  7

 40
0.5
 41
2.5
 42
1.0
 43
10.0
 44
1.0
 45
0.0
 46
0.0
 47
0.1
 48
0.1
140
3.2
141
0.0
142
0.0
143
0.0393701
144
1.0
145
0.0
146
0.71
147
1.5
 71
     0
 72
     0
 73
     0
 74
     0
 75
     0
 76
     0
 77
     0
 78
     8
170
     0
171
     2
172
     1
173
     0
174
     0
175
     0
176
   256
177
   256
178
     2
270
     2
271
     2
272
     2
273
     2
274
     2
340
6B
275
     0
280
     0
281
     0
282
     0
283
     0
284
     0
285
     0
286
     0
287
     3
288
     0
  0
DIMSTYLE
105
62
330
A
100
AcDbSymbolTableRecord
100
AcDbDimStyleTableRecord
  2
AM_JIS$7
 70
     0
  3

  4
"
  5
OPEN30
  6

  7

 40
0.5
 41
2.5
 42
1.0
 43
10.0
 44
1.0
 45
0.0
 46
0.0
 47
0.1
 48
0.1
140
3.2
141
0.0
142
0.0
143
0.0393701
144
1.0
145
0.0
146
0.71
147
1.5
 71
     0
 72
     0
 73
     0
 74
     0
 75
     0
 76
     0
 77
     3
 78
     8
170
     0
171
     2
172
     1
173
     0
174
     0
175
     0
176
   256
177
   256
178
     2
270
     2
271
     2
272
     3
273
     2
274
     2
340
6B
275
     0
280
     0
281
     0
282
     0
283
     0
284
     0
285
     0
286
     0
287
     3
288
     0
  0
DIMSTYLE
105
63
330
A
100
AcDbSymbolTableRecord
100
AcDbDimStyleTableRecord
  2
AM_JIS$SF
 70
     0
  3

  4
"
  5
OPEN30
  6

  7

 40
0.5
 41
2.5
 42
1.0
 43
10.0
 44
1.0
 45
0.0
 46
0.0
 47
0.1
 48
0.1
140
3.2
141
0.0
142
0.0
143
0.0393701
144
1.0
145
0.0
146
0.71
147
1.5
 71
     0
 72
     0
 73
     0
 74
     0
 75
     1
 76
     1
 77
     3
 78
     8
170
     0
171
     2
172
     1
173
     0
174
     0
175
     0
176
   256
177
   256
178
     2
270
     2
271
     2
272
     2
273
     2
274
     2
340
6B
275
     0
280
     0
281
     0
282
     0
283
     0
284
     0
285
     0
286
     0
287
     3
288
     0
  0
DIMSTYLE
105
68
330
A
100
AcDbSymbolTableRecord
100
AcDbDimStyleTableRecord
  2
AM_JIS$SH
 70
     0
  3

  4
"
  5

  6
GENAXEH
  7
OPEN30
 40
0.5
 41
2.5
 42
1.0
 43
10.0
 44
1.0
 45
0.0
 46
0.0
 47
0.1
 48
0.1
140
3.2
141
0.0
142
0.0
143
0.0393701
144
2.0
145
0.0
146
0.71
147
1.5
 71
     0
 72
     0
 73
     0
 74
     0
 75
     1
 76
     1
 77
     3
 78
     8
170
     0
171
     2
172
     1
173
     1
174
     0
175
     0
176
   256
177
   256
178
     2
270
     2
271
     2
272
     2
273
     2
274
     2
340
6B
275
     0
280
     0
281
     0
282
     0
283
     0
284
     0
285
     0
286
     0
287
     3
288
     0
  0
DIMSTYLE
105
B34
330
A
100
AcDbSymbolTableRecord
100
AcDbDimStyleTableRecord
  2
AM_JIS$2
 70
     0
  3

  4
"
  5
OPEN30
  6

  7

 40
0.5
 41
2.5
 42
1.0
 43
12.0
 44
1.0
 45
0.0
 46
0.0
 47
0.1
 48
0.1
140
3.2
141
0.0
142
0.0
143
0.0393701
144
1.0
145
0.0
146
0.71
147
1.5
 71
     0
 72
     0
 73
     0
 74
     0
 75
     0
 76
     0
 77
     3
 78
     8
170
     0
171
     2
172
     1
173
     0
174
     0
175
     0
176
   256
177
   256
178
     2
270
     2
271
     3
272
     3
273
     2
274
     2
340
6B
275
     0
280
     0
281
     0
282
     0
283
     0
284
     0
285
     0
286
     0
287
     3
288
     0
  0
ENDTAB
  0
TABLE
  2
BLOCK_RECORD
  5
1
330
0
100
AcDbSymbolTable
 70
    10
  0
BLOCK_RECORD
  5
1F
102
{ACAD_XDICTIONARY
360
74
102
}
330
1
100
AcDbSymbolTableRecord
100
AcDbBlockTableRecord
  2
*MODEL_SPACE
  0
BLOCK_RECORD
  5
101
102
{ACAD_XDICTIONARY
360
22C8
102
}
330
1
100
AcDbSymbolTableRecord
100
AcDbBlockTableRecord
  2
*PAPER_SPACE
  0
BLOCK_RECORD
  5
59
330
1
100
AcDbSymbolTableRecord
100
AcDbBlockTableRecord
  2
_OPEN30
  0
BLOCK_RECORD
  5
64
330
1
100
AcDbSymbolTableRecord
100
AcDbBlockTableRecord
  2
GENAXEH
  0
BLOCK_RECORD
  5
1F97
330
1
100
AcDbSymbolTableRecord
100
AcDbBlockTableRecord
  2
*D5
  0
BLOCK_RECORD
  5
1FFB
330
1
100
AcDbSymbolTableRecord
100
AcDbBlockTableRecord
  2
*D6
  0
BLOCK_RECORD
  5
200B
330
1
100
AcDbSymbolTableRecord
100
AcDbBlockTableRecord
  2
*D7
  0
BLOCK_RECORD
  5
20E5
330
1
100
AcDbSymbolTableRecord
100
AcDbBlockTableRecord
  2
*D8
  0
BLOCK_RECORD
  5
21FF
330
1
100
AcDbSymbolTableRecord
100
AcDbBlockTableRecord
  2
*D9
  0
ENDTAB
  0
ENDSEC
  0
SECTION
  2
BLOCKS
  0
BLOCK
  5
20
330
1F
100
AcDbEntity
  8
0
100
AcDbBlockBegin
  2
*MODEL_SPACE
 70
     0
 10
0.0
 20
0.0
 30
0.0
  3
*MODEL_SPACE
  1

  0
ENDBLK
  5
21
330
1F
100
AcDbEntity
  8
0
100
AcDbBlockEnd
  0
BLOCK
  5
103
330
101
100
AcDbEntity
 67
     1
  8
0
100
AcDbBlockBegin
  2
*PAPER_SPACE
 70
     0
 10
0.0
 20
0.0
 30
0.0
  3
*PAPER_SPACE
  1

  0
ENDBLK
  5
104
330
101
100
AcDbEntity
 67
     1
  8
0
100
AcDbBlockEnd
  0
BLOCK
  5
5D
330
59
100
AcDbEntity
  8
0
100
AcDbBlockBegin
  2
_OPEN30
 70
     0
 10
0.0
 20
0.0
 30
0.0
  3
_OPEN30
  1

  0
LINE
  5
5A
330
59
100
AcDbEntity
  8
0
 62
     0
100
AcDbLine
 10
-1.0
 20
0.26794919
 30
0.0
 11
0.0
 21
0.0
 31
0.0
  0
LINE
  5
5B
330
59
100
AcDbEntity
  8
0
 62
     0
100
AcDbLine
 10
0.0
 20
0.0
 30
0.0
 11
-1.0
 21
-0.26794919
 31
0.0
  0
LINE
  5
5C
330
59
100
AcDbEntity
  8
0
 62
     0
100
AcDbLine
 10
0.0
 20
0.0
 30
0.0
 11
-1.0
 21
0.0
 31
0.0
  0
ENDBLK
  5
5E
330
59
100
AcDbEntity
  8
0
100
AcDbBlockEnd
  0
BLOCK
  5
66
330
64
100
AcDbEntity
  8
0
100
AcDbBlockBegin
  2
GENAXEH
 70
     0
 10
0.0
 20
0.0
 30
0.0
  3
GENAXEH
  1

  0
LINE
  5
65
330
64
100
AcDbEntity
  8
0
100
AcDbLine
 10
-1.0
 20
0.0
 30
0.0
 11
1.0
 21
0.0
 31
0.0
  0
ENDBLK
  5
67
330
64
100
AcDbEntity
  8
0
100
AcDbBlockEnd
  0
BLOCK
  5
1FA1
330
1F97
100
AcDbEntity
  8
0
100
AcDbBlockBegin
  2
*D5
 70
     1
 10
0.0
 20
0.0
 30
0.0
  3
*D5
  1

  0
LINE
  5
21A1
330
1F97
100
AcDbEntity
  8
AM_5
100
AcDbLine
 10
0.4999999999999432
 20
4.999999999999996
 30
0.0
 11
10.5926458981446
 21
4.999999999999992
 31
0.0
  0
LINE
  5
21A2
330
1F97
100
AcDbEntity
  8
AM_5
100
AcDbLine
 10
0.4999999999997414
 20
-5.000000000012461
 30
0.0
 11
10.5926458981446
 21
-5.000000000012464
 31
0.0
  0
LINE
  5
21A3
330
1F97
100
AcDbEntity
  8
AM_5
100
AcDbLine
 10
10.0926458981446
 20
3.749999999999993
 30
0.0
 11
10.0926458981446
 21
-3.750000000012464
 31
0.0
  0
INSERT
  5
21A4
330
1F97
100
AcDbEntity
  8
AM_5
100
AcDbBlockReference
  2
_OPEN30
 10
10.0926458981446
 20
4.999999999999992
 30
0.0
 41
1.25
 42
1.25
 43
1.25
 50
90.0
  0
INSERT
  5
21A5
330
1F97
100
AcDbEntity
  8
AM_5
100
AcDbBlockReference
  2
_OPEN30
 10
10.0926458981446
 20
-5.000000000012464
 30
0.0
 41
1.25
 42
1.25
 43
1.25
 50
270.0
  0
MTEXT
  5
21A6
330
1F97
100
AcDbEntity
  8
AM_5
 62
     2
100
AcDbMText
 10
8.542645898144604
 20
-0.0000000000062337
 30
0.0
 40
1.6
 41
0.0
 71
     5
 72
     1
  1
%%c10
  7
ASAMI
 11
0.0000000000000001
 21
1.0
 31
0.0
1001
ACAD
1000
MTEXTBEGIN
1070
    73
1070
     1
1070
    44
1040
1.0
1070
    74
1070
     0
1000
MTEXTEND
  0
POINT
  5
21A7
330
1F97
100
AcDbEntity
  8
DEFPOINTS
 62
     0
100
AcDbPoint
 10
-0.0000000000000568
 20
4.999999999999996
 30
0.0
  0
POINT
  5
21A8
330
1F97
100
AcDbEntity
  8
DEFPOINTS
 62
     0
100
AcDbPoint
 10
-0.0000000000002586
 20
-5.000000000012461
 30
0.0
  0
POINT
  5
21A9
330
1F97
100
AcDbEntity
  8
DEFPOINTS
 62
     0
100
AcDbPoint
 10
10.0926458981446
 20
-5.000000000012464
 30
0.0
  0
ENDBLK
  5
1FA2
330
1F97
100
AcDbEntity
  8
0
100
AcDbBlockEnd
  0
BLOCK
  5
2005
330
1FFB
100
AcDbEntity
  8
0
100
AcDbBlockBegin
  2
*D6
 70
     1
 10
0.0
 20
0.0
 30
0.0
  3
*D6
  1

  0
LINE
  5
218F
330
1FFB
100
AcDbEntity
  8
AM_5
100
AcDbLine
 10
-70.79000000000006
 20
-5.000000000000001
 30
0.0
 11
-82.12488136096778
 21
-4.999999999999998
 31
0.0
  0
LINE
  5
2190
330
1FFB
100
AcDbEntity
  8
AM_5
100
AcDbLine
 10
-70.79000000000006
 20
4.999999999999997
 30
0.0
 11
-82.12488136096778
 21
5.0
 31
0.0
  0
LINE
  5
2191
330
1FFB
100
AcDbEntity
  8
AM_5
100
AcDbLine
 10
-81.62488136096778
 20
-3.749999999999998
 30
0.0
 11
-81.62488136096778
 21
3.75
 31
0.0
  0
INSERT
  5
2192
330
1FFB
100
AcDbEntity
  8
AM_5
100
AcDbBlockReference
  2
_OPEN30
 10
-81.62488136096778
 20
-4.999999999999999
 30
0.0
 41
1.25
 42
1.25
 43
1.25
 50
270.0
  0
INSERT
  5
2193
330
1FFB
100
AcDbEntity
  8
AM_5
100
AcDbBlockReference
  2
_OPEN30
 10
-81.62488136096778
 20
5.0
 30
0.0
 41
1.25
 42
1.25
 43
1.25
 50
90.0
  0
MTEXT
  5
2194
330
1FFB
100
AcDbEntity
  8
AM_5
 62
     2
100
AcDbMText
 10
-83.17488136096777
 20
-0.0000000000000131
 30
0.0
 40
1.6
 41
0.0
 71
     5
 72
     1
  1
%%c10
  7
ASAMI
 11
0.0000000000000001
 21
1.0
 31
0.0
1001
ACAD
1000
MTEXTBEGIN
1070
    73
1070
     1
1070
    44
1040
1.0
1070
    74
1070
     0
1000
MTEXTEND
  0
POINT
  5
2195
330
1FFB
100
AcDbEntity
  8
DEFPOINTS
 62
     0
100
AcDbPoint
 10
-70.29000000000007
 20
-5.000000000000001
 30
0.0
  0
POINT
  5
2196
330
1FFB
100
AcDbEntity
  8
DEFPOINTS
 62
     0
100
AcDbPoint
 10
-70.29000000000007
 20
4.999999999999997
 30
0.0
  0
POINT
  5
2197
330
1FFB
100
AcDbEntity
  8
DEFPOINTS
 62
     0
100
AcDbPoint
 10
-81.62488136096778
 20
5.0
 30
0.0
  0
ENDBLK
  5
2006
330
1FFB
100
AcDbEntity
  8
0
100
AcDbBlockEnd
  0
BLOCK
  5
2015
330
200B
100
AcDbEntity
  8
0
100
AcDbBlockBegin
  2
*D7
 70
     1
 10
0.0
 20
0.0
 30
0.0
  3
*D7
  1

  0
LINE
  5
2186
330
200B
100
AcDbEntity
  8
AM_5
100
AcDbLine
 10
-71.00000000000005
 20
-4.249999999999997
 30
0.0
 11
-71.00000000000005
 21
-18.50000101001248
 31
0.0
  0
LINE
  5
2187
330
200B
100
AcDbEntity
  8
AM_5
100
AcDbLine
 10
-0.000000000000057
 20
-5.500000000013184
 30
0.0
 11
-0.0000000000000578
 21
-18.50000101001248
 31
0.0
  0
LINE
  5
2188
330
200B
100
AcDbEntity
  8
AM_5
100
AcDbLine
 10
-69.75000000000005
 20
-18.00000101001248
 30
0.0
 11
-1.250000000000057
 21
-18.00000101001248
 31
0.0
  0
INSERT
  5
2189
330
200B
100
AcDbEntity
  8
AM_5
100
AcDbBlockReference
  2
_OPEN30
 10
-71.00000000000005
 20
-18.00000101001248
 30
0.0
 41
1.25
 42
1.25
 43
1.25
 50
180.0
  0
INSERT
  5
218A
330
200B
100
AcDbEntity
  8
AM_5
100
AcDbBlockReference
  2
_OPEN30
 10
-0.0000000000000577
 20
-18.00000101001248
 30
0.0
 41
1.25
 42
1.25
 43
1.25
  0
MTEXT
  5
218B
330
200B
100
AcDbEntity
  8
AM_5
 62
     2
100
AcDbMText
 10
-35.50000000000006
 20
-16.45000101001248
 30
0.0
 40
1.6
 41
0.0
 71
     5
 72
     1
  1
71
  7
ASAMI
1001
ACAD
1000
MTEXTBEGIN
1070
    73
1070
     1
1070
    44
1040
1.0
1070
    74
1070
     0
1000
MTEXTEND
  0
POINT
  5
218C
330
200B
100
AcDbEntity
  8
DEFPOINTS
 62
     0
100
AcDbPoint
 10
-71.00000000000005
 20
-3.749999999999997
 30
0.0
  0
POINT
  5
218D
330
200B
100
AcDbEntity
  8
DEFPOINTS
 62
     0
100
AcDbPoint
 10
-0.0000000000000569
 20
-5.000000000013184
 30
0.0
  0
POINT
  5
218E
330
200B
100
AcDbEntity
  8
DEFPOINTS
 62
     0
100
AcDbPoint
 10
-0.0000000000000577
 20
-18.00000101001248
 30
0.0
  0
ENDBLK
  5
2016
330
200B
100
AcDbEntity
  8
0
100
AcDbBlockEnd
  0
BLOCK
  5
20EF
330
20E5
100
AcDbEntity
  8
0
100
AcDbBlockBegin
  2
*D8
 70
     1
 10
0.0
 20
0.0
 30
0.0
  3
*D8
  1

  0
LINE
  5
2198
330
20E5
100
AcDbEntity
  8
AM_5
100
AcDbLine
 10
-20.00035211887539
 20
-5.500000000000003
 30
0.0
 11
-20.00035211887539
 21
-12.50000101001282
 31
0.0
  0
LINE
  5
2199
330
20E5
100
AcDbEntity
  8
AM_5
100
AcDbLine
 10
-0.000000000000057
 20
-5.500000000013184
 30
0.0
 11
-0.0000000000000574
 21
-12.50000101001282
 31
0.0
  0
LINE
  5
219A
330
20E5
100
AcDbEntity
  8
AM_5
100
AcDbLine
 10
-18.75035211887539
 20
-12.00000101001281
 30
0.0
 11
-1.250000000000057
 21
-12.00000101001281
 31
0.0
  0
INSERT
  5
219B
330
20E5
100
AcDbEntity
  8
AM_5
100
AcDbBlockReference
  2
_OPEN30
 10
-20.00035211887539
 20
-12.00000101001281
 30
0.0
 41
1.25
 42
1.25
 43
1.25
 50
180.0
  0
INSERT
  5
219C
330
20E5
100
AcDbEntity
  8
AM_5
100
AcDbBlockReference
  2
_OPEN30
 10
-0.0000000000000574
 20
-12.00000101001281
 30
0.0
 41
1.25
 42
1.25
 43
1.25
  0
MTEXT
  5
219D
330
20E5
100
AcDbEntity
  8
AM_5
 62
     2
100
AcDbMText
 10
-10.00017605943772
 20
-10.45000101001281
 30
0.0
 40
1.6
 41
0.0
 71
     5
 72
     1
  1
20
  7
ASAMI
1001
ACAD
1000
MTEXTBEGIN
1070
    73
1070
     1
1070
    44
1040
1.0
1070
    74
1070
     0
1000
MTEXTEND
  0
POINT
  5
219E
330
20E5
100
AcDbEntity
  8
DEFPOINTS
 62
     0
100
AcDbPoint
 10
-20.00035211887539
 20
-5.000000000000003
 30
0.0
  0
POINT
  5
219F
330
20E5
100
AcDbEntity
  8
DEFPOINTS
 62
     0
100
AcDbPoint
 10
-0.0000000000000569
 20
-5.000000000013184
 30
0.0
  0
POINT
  5
21A0
330
20E5
100
AcDbEntity
  8
DEFPOINTS
 62
     0
100
AcDbPoint
 10
-0.0000000000000574
 20
-12.00000101001281
 30
0.0
  0
ENDBLK
  5
20F0
330
20E5
100
AcDbEntity
  8
0
100
AcDbBlockEnd
  0
BLOCK
  5
2205
330
21FF
100
AcDbEntity
  8
0
100
AcDbBlockBegin
  2
*D9
 70
     1
 10
0.0
 20
0.0
 30
0.0
  3
*D9
  1

  0
LINE
  5
2252
330
21FF
100
AcDbEntity
  8
AM_5
100
AcDbLine
 10
0.7353164935593881
 20
-5.715517241640323
 30
0.0
 11
7.071469660972863
 21
-12.07340333423285
 31
0.0
  0
INSERT
  5
2253
330
21FF
100
AcDbEntity
  8
AM_5
100
AcDbBlockReference
  2
_OPEN30
 10
-0.147052430411799
 20
-4.830121803426456
 30
0.0
 41
1.25
 42
1.25
 43
1.25
 50
134.9019064265434
  0
MTEXT
  5
2254
330
21FF
100
AcDbEntity
  8
AM_5
 62
     2
100
AcDbMText
 10
5.892007829156233
 20
-8.694102404166116
 30
0.0
 40
1.6
 41
0.0
 71
     5
 72
     1
  1
R0.5
  7
ASAMI
 11
0.7058951391769499
 21
-0.7083163505710952
 31
0.0
1001
ACAD
1000
MTEXTBEGIN
1070
    73
1070
     1
1070
    44
1040
1.0
1070
    74
1070
     0
1000
MTEXTEND
  0
POINT
  5
2255
330
21FF
100
AcDbEntity
  8
DEFPOINTS
 62
     0
100
AcDbPoint
 10
-0.147052430411799
 20
-4.830121803426456
 30
0.0
  0
POINT
  5
2256
330
21FF
100
AcDbEntity
  8
DEFPOINTS
 62
     0
100
AcDbPoint
 10
-0.500000000000274
 20
-4.475963628140908
 30
0.0
  0
ENDBLK
  5
2206
330
21FF
100
AcDbEntity
  8
0
100
AcDbBlockEnd
  0
ENDSEC
  0
SECTION
  2
ENTITIES
  0
TEXT
  5
C58
330
1F
100
AcDbEntity
  8
AM_6
100
AcDbText
 10
-51.27380952380957
 20
-29.25000101001254
 30
0.0
 40
2.5
  1
HHM6100ZX-R05
 50
0.0000000000002036
 72
     4
 11
-35.50000000000006
 21
-28.00000101001248
 31
0.0
100
AcDbText
  0
DIMENSION
  5
1F96
330
1F
100
AcDbEntity
  8
AM_5
100
AcDbDimension
  2
*D5
 10
10.0926458981446
 20
-5.000000000012464
 30
0.0
 11
8.542645898144604
 21
-0.0000000000062337
 31
0.0
 70
    32
  1
%%c<>
  3
AM_JIS
100
AcDbAlignedDimension
 13
-0.0000000000000568
 23
4.999999999999996
 33
0.0
 14
-0.0000000000002586
 24
-5.000000000012461
 34
0.0
 50
90.0
100
AcDbRotatedDimension
1001
GENIUS_GENDTOL_13
1000

1000
h7
1000

1040
0.0
  0
LINE
  5
1FF4
330
1F
100
AcDbEntity
  8
AM_0
100
AcDbLine
 10
-58.28896746198831
 20
4.999999999999943
 30
0.0
 11
-59.77108056926938
 21
4.999999999999943
 31
0.0
  0
LINE
  5
1FF5
330
1F
100
AcDbEntity
  8
AM_0
100
AcDbLine
 10
-57.75611793847398
 20
-5.000000000000115
 30
0.0
 11
-59.77108056926938
 21
-5.000000000000115
 31
0.0
  0
LINE
  5
1FF6
330
1F
100
AcDbEntity
  8
AM_0
100
AcDbLine
 10
-71.00000000000005
 20
3.750000000000001
 30
0.0
 11
-70.29000000000007
 21
4.999999999999996
 31
0.0
1001
GENIUS_GENFIL_13
1070
     0
1040
0.5
1040
0.5
1040
0.4999999999999716
1040
45.0
1002
{
1002
}
  0
LINE
  5
1FF7
330
1F
100
AcDbEntity
  8
AM_0
100
AcDbLine
 10
-71.00000000000005
 20
-3.749999999999997
 30
0.0
 11
-70.29000000000007
 21
-4.999999999999997
 31
0.0
1001
GENIUS_GENFIL_13
1070
     0
1040
0.5
1040
0.5
1040
0.4999999999999716
1040
45.00000000000036
1002
{
1002
}
  0
LINE
  5
1FF8
330
1F
100
AcDbEntity
  8
0
100
AcDbLine
 10
-70.29000000000007
 20
-4.999999999999997
 30
0.0
 11
-70.29000000000007
 21
4.999999999999996
 31
0.0
  0
LINE
  5
1FF9
330
1F
100
AcDbEntity
  8
AM_0
100
AcDbLine
 10
-71.00000000000005
 20
-3.749999999999997
 30
0.0
 11
-71.00000000000005
 21
3.750000000000001
 31
0.0
  0
DIMENSION
  5
1FFA
330
1F
100
AcDbEntity
  8
AM_5
100
AcDbDimension
  2
*D6
 10
-81.62488136096778
 20
5.0
 30
0.0
 11
-81.62488136096778
 21
-0.0000000000000133
 31
0.0
 70
   160
  1
%%c<>
  3
AM_JIS
100
AcDbAlignedDimension
 13
-70.29000000000007
 23
-5.000000000000001
 33
0.0
 14
-70.29000000000007
 24
4.999999999999997
 34
0.0
 50
270.0
100
AcDbRotatedDimension
1001
ACAD
1000
DSTYLE
1002
{
1070
    48
1040
0.1
1070
    47
1040
0.1
1070
   274
1070
     2
1070
   272
1070
     3
1002
}
1001
GENIUS_GENDTOL_13
1000

1000
h6
1000

1040
0.0
  0
LINE
  5
2007
330
1F
100
AcDbEntity
  8
AM_0
100
AcDbLine
 10
-70.29000000000007
 20
4.999999999999996
 30
0.0
 11
-25.07549339034004
 21
4.999999999999996
 31
0.0
1001
GENIUS_GENODEF_13
1002
{
1000
HIER
1070
     0
1002
}
1002
{
1000
MANEDIT
1070
     0
1002
}
1002
{
1000
NOSEL
1070
     0
1002
}
1002
{
1000
BEHIND
1070
     0
1002
}
1002
{
1000
REACTOR
1002
}
1001
GENIUS_GENOBJ-N-CEN_13
1002
{
1000
OWNER
1000
GEN
1002
}
  0
LINE
  5
2008
330
1F
100
AcDbEntity
  8
AM_0
100
AcDbLine
 10
-70.29000000000007
 20
-4.999999999999997
 30
0.0
 11
-17.8352000000003
 21
-4.999999999999997
 31
0.0
1001
GENIUS_GENODEF_13
1002
{
1000
HIER
1070
     0
1002
}
1002
{
1000
MANEDIT
1070
     0
1002
}
1002
{
1000
NOSEL
1070
     0
1002
}
1002
{
1000
BEHIND
1070
     0
1002
}
1002
{
1000
REACTOR
1002
}
1001
GENIUS_GENOBJ-N-CEN_13
1002
{
1000
OWNER
1000
GEN
1002
}
  0
LINE
  5
2009
330
1F
100
AcDbEntity
  8
AM_7
100
AcDbLine
 10
-74.62488036096779
 20
-0.0000000000000036
 30
0.0
 11
3.092644898144622
 21
-0.0000000000000036
 31
0.0
1001
GENIUS_GENODEF_13
1002
{
1000
HIER
1070
     0
1002
}
1002
{
1000
MANEDIT
1070
     0
1002
}
1002
{
1000
NOSEL
1070
     0
1002
}
1002
{
1000
BEHIND
1070
     0
1002
}
1002
{
1000
REACTOR
1002
}
1001
GENIUS_GENOBJ-N-CEN_13
1002
{
1000
OWNER
1000
GEN
1002
}
  0
DIMENSION
  5
200A
330
1F
100
AcDbEntity
  8
AM_5
100
AcDbDimension
  2
*D7
 10
-0.0000000000000577
 20
-18.00000101001248
 30
0.0
 11
-35.50000000000006
 21
-16.45000101001248
 31
0.0
 70
    32
  1
<>
  3
AM_JIS
100
AcDbAlignedDimension
 13
-71.00000000000005
 23
-3.749999999999997
 33
0.0
 14
-0.0000000000000569
 24
-5.000000000013184
 34
0.0
 50
0.0000000000002389
100
AcDbRotatedDimension
1001
GENIUS_GENDTOL_13
1000

1000
H7
1000

1040
0.0
  0
LINE
  5
20AC
330
1F
100
AcDbEntity
  8
AM_0
100
AcDbLine
 10
-0.180003169069989
 20
3.669761470759112
 30
0.0
 11
-0.0000000000009569
 21
2.600049992198475
 31
0.0
  0
LINE
  5
20AD
330
1F
100
AcDbEntity
  8
AM_0
100
AcDbLine
 10
-0.2845347789921051
 20
0.4499999999995901
 30
0.0
 11
-0.4218737714074018
 21
-0.0000000000000006
 31
0.0
  0
LINE
  5
20AE
330
1F
100
AcDbEntity
  8
AM_0
100
AcDbLine
 10
-0.2703392379989126
 20
0.4749391006751012
 30
0.0
 11
-0.0000000000002937
 21
0.9498782013501998
 31
0.0
  0
LINE
  5
20AF
330
1F
100
AcDbEntity
  8
AM_0
100
AcDbLine
 10
-0.4218737714074018
 20
-0.0000000000000006
 30
0.0
 11
-0.0000000000002937
 21
0.9498782013501998
 31
0.0
  0
LINE
  5
20B0
330
1F
100
AcDbEntity
  8
AM_0
100
AcDbLine
 10
-0.0000000000002937
 20
-2.600049992197796
 30
0.0
 11
-0.0000000000002937
 21
-0.8999999999997502
 31
0.0
  0
ELLIPSE
  5
20B1
330
1F
100
AcDbEntity
  8
AM_0
100
AcDbEllipse
 10
6.612786875792006
 20
-2.919733165838017
 30
0.0
 11
-6.932287699393276
 21
0.0000000083864253
 31
0.0
210
0.0
220
0.0
230
1.0
 40
0.9999823943662523
 41
0.2009514468647722
 42
0.2658385684954478
  0
LINE
  5
20B2
330
1F
100
AcDbEntity
  8
AM_0
100
AcDbLine
 10
-0.180003169069989
 20
-4.303405358993357
 30
0.0
 11
-0.0540934523611953
 21
-2.552308080056151
 31
0.0
  0
LINE
  5
20B3
330
1F
100
AcDbEntity
  8
AM_0
100
AcDbLine
 10
-0.0000000000002937
 20
-4.475963628140908
 30
0.0
 11
-0.0000000000002937
 21
-0.8999999999997502
 31
0.0
  0
LINE
  5
20B4
330
1F
100
AcDbEntity
  8
AM_0
100
AcDbLine
 10
-0.4218737714074018
 20
-0.0000000000000006
 30
0.0
 11
-0.0000000000002937
 21
-0.8999999999997502
 31
0.0
  0
LINE
  5
20B5
330
1F
100
AcDbEntity
  8
AM_0
100
AcDbLine
 10
-0.0000000000002937
 20
-0.8999999999997502
 30
0.0
 11
-0.180003169069989
 21
-0.6336438882342474
 31
0.0
  0
ELLIPSE
  5
20B6
330
1F
100
AcDbEntity
  8
AM_0
100
AcDbEllipse
 10
5.334512847195291
 20
-1.235237326709129
 30
0.0
 11
-5.54723483392162
 21
0.0000000001424208
 31
0.0
210
0.0
220
0.0
230
1.0
 40
0.9999823943661906
 41
-0.1086648832254013
 42
0.2778309424801713
  0
LINE
  5
20B7
330
1F
100
AcDbEntity
  8
AM_0
100
AcDbLine
 10
-0.0000000000002937
 20
0.9498782013501998
 30
0.0
 11
-0.0000000000002938
 21
4.475963628140901
 31
0.0
  0
LINE
  5
20B8
330
1F
100
AcDbEntity
  8
AM_11
100
AcDbLine
 10
-0.0000000000000568
 20
-5.000000000000003
 30
0.0
 11
-0.0000000000000568
 21
4.999999999999996
 31
0.0
  0
LINE
  5
20B9
330
1F
100
AcDbEntity
  8
AM_0
100
AcDbLine
 10
-1.345524589924832
 20
2.12089127245383
 30
0.0
 11
-1.345524589924832
 21
1.413974872314383
 31
0.0
  0
SPLINE
  5
20BA
330
1F
100
AcDbEntity
  8
AM_0
100
AcDbSpline
210
0.0
220
0.0
230
1.0
 70
     8
 71
     3
 72
     8
 73
     4
 74
     0
 42
0.0000000001
 43
0.0000000001
 40
0.0
 40
0.0
 40
0.0
 40
0.0
 40
5.548090765444942
 40
5.548090765444942
 40
5.548090765444942
 40
5.548090765444942
 10
-9.375216977022644
 20
4.886833541266183
 30
0.0
 10
-6.292890063234326
 20
4.886833541266182
 30
0.0
 10
-3.908984416799242
 20
2.44341677063309
 30
0.0
 10
-1.525078770364157
 20
-0.0000000000000006
 30
0.0
  0
LINE
  5
20BB
330
1F
100
AcDbEntity
  8
AM_0
100
AcDbLine
 10
-1.345524589924832
 20
-2.426283414154116
 30
0.0
 11
-1.345524589924832
 21
-2.763974872314009
 31
0.0
  0
SPLINE
  5
20BC
330
1F
100
AcDbEntity
  8
AM_0
100
AcDbSpline
210
0.0
220
0.0
230
1.0
 70
     8
 71
     3
 72
     8
 73
     4
 74
     0
 42
0.0000000001
 43
0.0000000001
 40
0.0
 40
0.0
 40
0.0
 40
0.0
 40
1.168827779863518
 40
1.168827779863518
 40
1.168827779863518
 40
1.168827779863518
 10
-5.233425471106244
 20
-4.999999999999777
 30
0.0
 10
-4.843809351712721
 20
-4.999999999999777
 30
0.0
 10
-4.46568385551065
 20
-4.960571491847192
 30
0.0
 10
-4.09760594123037
 20
-4.886666075074683
 30
0.0
  0
SPLINE
  5
20BD
330
1F
100
AcDbEntity
  8
AM_0
100
AcDbSpline
210
0.0
220
0.0
230
1.0
 70
     8
 71
     3
 72
     8
 73
     4
 74
     0
 42
0.0000000001
 43
0.0000000001
 40
0.0
 40
0.0
 40
0.0
 40
0.0
 40
2.01589001736573
 40
2.01589001736573
 40
2.01589001736573
 40
2.01589001736573
 10
-4.141791505917145
 20
-4.886833541266021
 30
0.0
 10
-3.469816336246452
 20
-4.886833541266021
 30
0.0
 10
-2.831035695505123
 20
-4.770702958664576
 30
0.0
 10
-2.218212875896001
 20
-4.563759311729542
 30
0.0
  0
SPLINE
  5
20BE
330
1F
100
AcDbEntity
  8
AM_0
100
AcDbSpline
210
0.0
220
0.0
230
1.0
 70
     8
 71
     3
 72
     8
 73
     4
 74
     0
 42
0.0000000001
 43
0.0000000001
 40
0.0
 40
0.0
 40
0.0
 40
0.0
 40
1.168827779863518
 40
1.168827779863518
 40
1.168827779863518
 40
1.168827779863518
 10
-10.46685094221174
 20
-4.999999999999777
 30
0.0
 10
-10.07723482281864
 20
-4.999999999999777
 30
0.0
 10
-9.699109326616149
 20
-4.960571491847192
 30
0.0
 10
-9.331031412336296
 20
-4.886666075074683
 30
0.0
  0
SPLINE
  5
20BF
330
1F
100
AcDbEntity
  8
AM_0
100
AcDbSpline
210
0.0
220
0.0
230
1.0
 70
     8
 71
     3
 72
     8
 73
     4
 74
     0
 42
0.0000000001
 43
0.0000000001
 40
0.0
 40
0.0
 40
0.0
 40
0.0
 40
2.01589001736573
 40
2.01589001736573
 40
2.01589001736573
 40
2.01589001736573
 10
-9.375216977022834
 20
-4.886833541266021
 30
0.0
 10
-8.703241807352142
 20
-4.886833541266021
 30
0.0
 10
-8.064461166610623
 20
-4.770702958664576
 30
0.0
 10
-7.451638347001738
 20
-4.563759311729542
 30
0.0
  0
SPLINE
  5
20C0
330
1F
100
AcDbEntity
  8
AM_0
100
AcDbSpline
210
0.0
220
0.0
230
1.0
 70
     8
 71
     3
 72
     8
 73
     4
 74
     0
 42
0.0000000001
 43
0.0000000001
 40
0.0
 40
0.0
 40
0.0
 40
0.0
 40
5.548090765444954
 40
5.548090765444954
 40
5.548090765444954
 40
5.548090765444954
 10
-19.84206791923409
 20
4.886833541266183
 30
0.0
 10
-16.75974100544577
 20
4.886833541266182
 30
0.0
 10
-14.37583535901067
 20
2.44341677063309
 30
0.0
 10
-11.99192971257558
 20
-0.0000000000000006
 30
0.0
  0
SPLINE
  5
20C1
330
1F
100
AcDbEntity
  8
AM_0
100
AcDbSpline
210
0.0
220
0.0
230
1.0
 70
     8
 71
     3
 72
     8
 73
     4
 74
     0
 42
0.0000000001
 43
0.0000000001
 40
0.0
 40
0.0
 40
0.0
 40
0.0
 40
1.168827779863518
 40
1.168827779863518
 40
1.168827779863518
 40
1.168827779863518
 10
-15.70027641331769
 20
-4.999999999999772
 30
0.0
 10
-15.31066029392414
 20
-4.999999999999825
 30
0.0
 10
-14.93253479772209
 20
-4.960571491847186
 30
0.0
 10
-14.5644568834418
 20
-4.886666075074796
 30
0.0
  0
SPLINE
  5
20C2
330
1F
100
AcDbEntity
  8
AM_0
100
AcDbSpline
210
0.0
220
0.0
230
1.0
 70
     8
 71
     3
 72
     8
 73
     4
 74
     0
 42
0.0000000001
 43
0.0000000001
 40
0.0
 40
0.0
 40
0.0
 40
0.0
 40
2.01589001736573
 40
2.01589001736573
 40
2.01589001736573
 40
2.01589001736573
 10
-14.60864244812859
 20
-4.886833541266068
 30
0.0
 10
-13.9366672784579
 20
-4.886833541266128
 30
0.0
 10
-13.29788663771657
 20
-4.770702958664635
 30
0.0
 10
-12.68506381810745
 20
-4.563759311729661
 30
0.0
  0
SPLINE
  5
20C3
330
1F
100
AcDbEntity
  8
AM_0
100
AcDbSpline
210
0.0
220
0.0
230
1.0
 70
     8
 71
     3
 72
     8
 73
     4
 74
     0
 42
0.0000000001
 43
0.0000000001
 40
0.0
 40
0.0
 40
0.0
 40
0.0
 40
1.168827779863518
 40
1.168827779863518
 40
1.168827779863518
 40
1.168827779863518
 10
-20.93370188442319
 20
-4.999999999999772
 30
0.0
 10
-20.54408576503012
 20
-4.999999999999825
 30
0.0
 10
-20.16596026882781
 20
-4.960571491847186
 30
0.0
 10
-19.79788235454776
 20
-4.886666075074796
 30
0.0
  0
SPLINE
  5
20C4
330
1F
100
AcDbEntity
  8
AM_0
100
AcDbSpline
210
0.0
220
0.0
230
1.0
 70
     8
 71
     3
 72
     8
 73
     4
 74
     0
 42
0.0000000001
 43
0.0000000001
 40
0.0
 40
0.0
 40
0.0
 40
0.0
 40
1.096583167168162
 40
1.096583167168162
 40
1.096583167168162
 40
1.096583167168162
 10
-19.84206791923454
 20
-4.886833541266246
 30
0.0
 10
-20.20760207708436
 20
-4.886833541266246
 30
0.0
 10
-20.5633138716762
 20
-4.852470144511078
 30
0.0
 10
-20.91036814028429
 20
-4.787818517472368
 30
0.0
  0
SPLINE
  5
20C5
330
1F
100
AcDbEntity
  8
AM_0
100
AcDbSpline
210
0.0
220
0.0
230
1.0
 70
     8
 71
     3
 72
     8
 73
     4
 74
     0
 42
0.0000000001
 43
0.0000000001
 40
0.0
 40
0.0
 40
0.0
 40
0.0
 40
2.01589001736573
 40
2.01589001736573
 40
2.01589001736573
 40
2.01589001736573
 10
-19.84206791923454
 20
-4.886833541266068
 30
0.0
 10
-19.17009274956361
 20
-4.886833541266128
 30
0.0
 10
-18.53131210882228
 20
-4.770702958664623
 30
0.0
 10
-17.91848928921319
 20
-4.563759311729649
 30
0.0
  0
SPLINE
  5
20C6
330
1F
100
AcDbEntity
  8
AM_0
100
AcDbSpline
210
0.0
220
0.0
230
1.0
 70
     8
 71
     3
 72
     8
 73
     4
 74
     0
 42
0.0000000001
 43
0.0000000001
 40
0.0
 40
0.0
 40
0.0
 40
0.0
 40
5.903434572215495
 40
5.903434572215495
 40
5.903434572215495
 40
5.903434572215495
 10
-15.70027641331769
 20
-5.000000000000056
 30
0.0
 10
-17.66812258256846
 20
-5.000000000000056
 30
0.0
 10
-19.34284430416409
 20
-3.994183389176446
 30
0.0
 10
-20.91036814028429
 20
-2.620531837531752
 30
0.0
  0
SPLINE
  5
20C7
330
1F
100
AcDbEntity
  8
AM_0
100
AcDbSpline
210
0.0
220
0.0
230
1.0
 70
     8
 71
     3
 72
     8
 73
     4
 74
     0
 42
0.0000000001
 43
0.0000000001
 40
0.0
 40
0.0
 40
0.0
 40
0.0
 40
5.584272557818042
 40
5.584272557818042
 40
5.584272557818042
 40
5.584272557818042
 10
-5.233425471105983
 20
-4.999999999999997
 30
0.0
 10
-8.335853734554133
 20
-4.999999999999996
 30
0.0
 10
-10.70970870615931
 20
-2.499999999999998
 30
0.0
 10
-13.08356367776449
 20
-0.0000000000000006
 30
0.0
  0
SPLINE
  5
20C8
330
1F
100
AcDbEntity
  8
AM_0
100
AcDbSpline
210
0.0
220
0.0
230
1.0
 70
     8
 71
     3
 72
     8
 73
     4
 74
     0
 42
0.0000000001
 43
0.0000000001
 40
0.0
 40
0.0
 40
0.0
 40
0.0
 40
5.548090765444937
 40
5.548090765444937
 40
5.548090765444937
 40
5.548090765444937
 10
-4.141791505917145
 20
-4.886833541266246
 30
0.0
 10
-7.224118419705459
 20
-4.886833541266245
 30
0.0
 10
-9.608024066140522
 20
-2.443416770633123
 30
0.0
 10
-11.99192971257558
 20
-0.0000000000000006
 30
0.0
  0
SPLINE
  5
20C9
330
1F
100
AcDbEntity
  8
AM_0
100
AcDbSpline
210
0.0
220
0.0
230
1.0
 70
     8
 71
     3
 72
     8
 73
     4
 74
     0
 42
0.0000000001
 43
0.0000000001
 40
0.0
 40
0.0
 40
0.0
 40
0.0
 40
5.548090765444954
 40
5.548090765444954
 40
5.548090765444954
 40
5.548090765444954
 10
-14.60864244812859
 20
4.886833541266183
 30
0.0
 10
-11.52631553434027
 20
4.886833541266182
 30
0.0
 10
-9.142409887905177
 20
2.44341677063309
 30
0.0
 10
-6.758504241470083
 20
-0.0000000000000006
 30
0.0
  0
SPLINE
  5
20CA
330
1F
100
AcDbEntity
  8
AM_0
100
AcDbSpline
210
0.0
220
0.0
230
1.0
 70
     8
 71
     3
 72
     8
 73
     4
 74
     0
 42
0.0000000001
 43
0.0000000001
 40
0.0
 40
0.0
 40
0.0
 40
0.0
 40
5.548090765445064
 40
5.548090765445064
 40
5.548090765445064
 40
5.548090765445064
 10
-9.375216977022834
 20
-4.886833541266246
 30
0.0
 10
-12.45754389081121
 20
-4.886833541266245
 30
0.0
 10
-14.84144953724639
 20
-2.443416770633151
 30
0.0
 10
-17.22535518368155
 20
-0.0000000000000568
 30
0.0
  0
SPLINE
  5
20CB
330
1F
100
AcDbEntity
  8
AM_0
100
AcDbSpline
210
0.0
220
0.0
230
1.0
 70
     8
 71
     3
 72
     8
 73
     4
 74
     0
 42
0.0000000001
 43
0.0000000001
 40
0.0
 40
0.0
 40
0.0
 40
0.0
 40
5.584272557818021
 40
5.584272557818021
 40
5.584272557818021
 40
5.584272557818021
 10
-10.46685094221174
 20
-5.000000000000062
 30
0.0
 10
-13.56927920565988
 20
-5.000000000000061
 30
0.0
 10
-15.94313417726504
 20
-2.500000000000059
 30
0.0
 10
-18.3169891488702
 20
-0.0000000000000568
 30
0.0
  0
SPLINE
  5
20CC
330
1F
100
AcDbEntity
  8
AM_0
100
AcDbSpline
210
0.0
220
0.0
230
1.0
 70
     8
 71
     3
 72
     8
 73
     4
 74
     0
 42
0.0000000001
 43
0.0000000001
 40
0.0
 40
0.0
 40
0.0
 40
0.0
 40
2.345304910305074
 40
2.345304910305074
 40
2.345304910305074
 40
2.345304910305074
 10
-5.233425471105793
 20
4.999999999999996
 30
0.0
 10
-6.015207538309573
 20
4.999999999999996
 30
0.0
 10
-6.750725820756778
 20
4.841252124958883
 30
0.0
 10
-7.451638347001738
 20
4.563759311729654
 30
0.0
  0
SPLINE
  5
20CD
330
1F
100
AcDbEntity
  8
AM_0
100
AcDbSpline
210
0.0
220
0.0
230
1.0
 70
     8
 71
     3
 72
     8
 73
     4
 74
     0
 42
0.0000000001
 43
0.0000000001
 40
0.0
 40
0.0
 40
0.0
 40
0.0
 40
2.345304910305074
 40
2.345304910305074
 40
2.345304910305074
 40
2.345304910305074
 10
-10.46685094221148
 20
4.999999999999943
 30
0.0
 10
-11.2486330094153
 20
4.999999999999996
 30
0.0
 10
-11.98415129186227
 20
4.841252124958824
 30
0.0
 10
-12.68506381810721
 20
4.563759311729595
 30
0.0
  0
SPLINE
  5
20CE
330
1F
100
AcDbEntity
  8
AM_0
100
AcDbSpline
210
0.0
220
0.0
230
1.0
 70
     8
 71
     3
 72
     8
 73
     4
 74
     0
 42
0.0000000001
 43
0.0000000001
 40
0.0
 40
0.0
 40
0.0
 40
0.0
 40
5.584272557818042
 40
5.584272557818042
 40
5.584272557818042
 40
5.584272557818042
 10
-10.46685094221174
 20
4.999999999999996
 30
0.0
 10
-7.364422678763592
 20
4.999999999999995
 30
0.0
 10
-4.990567707158413
 20
2.499999999999997
 30
0.0
 10
-2.616712735553233
 20
-0.0000000000000006
 30
0.0
  0
SPLINE
  5
20CF
330
1F
100
AcDbEntity
  8
AM_0
100
AcDbSpline
210
0.0
220
0.0
230
1.0
 70
     8
 71
     3
 72
     8
 73
     4
 74
     0
 42
0.0000000001
 43
0.0000000001
 40
0.0
 40
0.0
 40
0.0
 40
0.0
 40
2.345304910305074
 40
2.345304910305074
 40
2.345304910305074
 40
2.345304910305074
 10
-15.70027641331724
 20
4.999999999999943
 30
0.0
 10
-16.482058480521
 20
4.999999999999996
 30
0.0
 10
-17.21757676296823
 20
4.841252124958824
 30
0.0
 10
-17.91848928921319
 20
4.563759311729595
 30
0.0
  0
LINE
  5
20D0
330
1F
100
AcDbEntity
  8
AM_11
100
AcDbLine
 10
-20.00035211887539
 20
-5.000000000000003
 30
0.0
 11
-20.00035211887539
 21
4.999999999999998
 31
0.0
  0
SPLINE
  5
20D1
330
1F
100
AcDbEntity
  8
AM_0
100
AcDbSpline
210
0.0
220
0.0
230
1.0
 70
     8
 71
     3
 72
     8
 73
     4
 74
     0
 42
0.0000000001
 43
0.0000000001
 40
0.0
 40
0.0
 40
0.0
 40
0.0
 40
5.58427255781815
 40
5.58427255781815
 40
5.58427255781815
 40
5.58427255781815
 10
-15.70027641331745
 20
4.999999999999996
 30
0.0
 10
-12.59784814986924
 20
4.999999999999995
 30
0.0
 10
-10.22399317826398
 20
2.499999999999996
 30
0.0
 10
-7.850138206658733
 20
-0.0000000000000006
 30
0.0
  0
SPLINE
  5
20D2
330
1F
100
AcDbEntity
  8
AM_0
100
AcDbSpline
210
0.0
220
0.0
230
1.0
 70
     8
 71
     3
 72
     8
 73
     4
 74
     0
 42
0.0000000001
 43
0.0000000001
 40
0.0
 40
0.0
 40
0.0
 40
0.0
 40
5.584272557818032
 40
5.584272557818032
 40
5.584272557818032
 40
5.584272557818032
 10
-20.93370188442319
 20
5.000000000000001
 30
0.0
 10
-17.83127362097505
 20
5.0
 30
0.0
 10
-15.45741864936987
 20
2.5
 30
0.0
 10
-13.0835636777647
 20
-0.0000000000000006
 30
0.0
  0
LINE
  5
20D3
330
1F
100
AcDbEntity
  8
AM_0
100
AcDbLine
 10
-0.180003169069989
 20
3.669761470759112
 30
0.0
 11
-1.345524589924832
 21
4.249999999999997
 31
0.0
  0
SPLINE
  5
20D4
330
1F
100
AcDbEntity
  8
AM_0
100
AcDbSpline
210
0.0
220
0.0
230
1.0
 70
     8
 71
     3
 72
     8
 73
     4
 74
     0
 42
0.0000000001
 43
0.0000000001
 40
0.080420367068205
 40
0.080420367068205
 40
0.080420367068205
 40
0.080420367068205
 40
0.8315775647388605
 40
0.8315775647388605
 40
0.8315775647388605
 40
0.8315775647388605
 10
-0.1935948217067683
 20
4.871078632543976
 30
0.0
 10
-0.2955748165373955
 20
4.48544144229187
 30
0.0
 10
-0.9282076885348118
 20
4.249999999999973
 30
0.0
 10
-1.345524589924832
 20
4.249999999999997
 30
0.0
  0
LINE
  5
20D5
330
1F
100
AcDbEntity
  8
AM_0
100
AcDbLine
 10
-1.345524589924832
 20
1.413974872314383
 30
0.0
 11
-0.180003169069989
 21
-0.6336438882342474
 31
0.0
  0
LINE
  5
20D6
330
1F
100
AcDbEntity
  8
AM_0
100
AcDbLine
 10
-0.2703392379989126
 20
0.4749391006751012
 30
0.0
 11
-1.345524589924832
 21
2.12089127245383
 31
0.0
  0
LINE
  5
20D7
330
1F
100
AcDbEntity
  8
AM_0
100
AcDbLine
 10
-1.345524589924832
 20
1.413974872314383
 30
0.0
 11
-0.4218737714074018
 21
-0.0000000000000006
 31
0.0
  0
SPLINE
  5
20D8
330
1F
100
AcDbEntity
  8
AM_0
100
AcDbSpline
210
0.0
220
0.0
230
1.0
 70
     8
 71
     3
 72
     8
 73
     4
 74
     0
 42
0.0000000001
 43
0.0000000001
 40
0.0
 40
0.0
 40
0.0
 40
0.0
 40
0.7964627256794639
 40
0.7964627256794639
 40
0.7964627256794639
 40
0.7964627256794639
 10
-0.1800031690700127
 20
2.756264363243246
 30
0.0
 10
-0.2134406654232787
 20
2.315050246182499
 30
0.0
 10
-0.9030375076151525
 20
2.12089127245383
 30
0.0
 10
-1.345524589924832
 20
2.12089127245383
 30
0.0
  0
LINE
  5
20D9
330
1F
100
AcDbEntity
  8
AM_0
100
AcDbLine
 10
-0.1949938143033186
 20
-2.426283414154116
 30
0.0
 11
-1.345524589924832
 21
-2.426283414154116
 31
0.0
  0
LINE
  5
20DA
330
1F
100
AcDbEntity
  8
AM_0
100
AcDbLine
 10
-1.345524589924832
 20
-2.763974872314009
 30
0.0
 11
-0.180003169069989
 21
-4.303405358993357
 31
0.0
  0
SPLINE
  5
20DB
330
1F
100
AcDbEntity
  8
AM_0
100
AcDbSpline
210
0.0
220
0.0
230
1.0
 70
     8
 71
     3
 72
     8
 73
     4
 74
     0
 42
0.0000000001
 43
0.0000000001
 40
0.0
 40
0.0
 40
0.0
 40
0.0
 40
4.387916526981712
 40
4.387916526981712
 40
4.387916526981712
 40
4.387916526981712
 10
-4.141791505916907
 20
4.886833541266183
 30
0.0
 10
-2.679126912452319
 20
4.886833541266183
 30
0.0
 10
-1.373733647655865
 20
4.336622057209977
 30
0.0
 10
-0.1509813395894599
 20
3.497292373215824
 30
0.0
  0
SPLINE
  5
20DC
330
1F
100
AcDbEntity
  8
AM_0
100
AcDbSpline
210
0.0
220
0.0
230
1.0
 70
     8
 71
     3
 72
     8
 73
     4
 74
     0
 42
0.0000000001
 43
0.0000000001
 40
0.0
 40
0.0
 40
0.0
 40
0.0
 40
5.932736810651199
 40
5.932736810651199
 40
5.932736810651199
 40
5.932736810651199
 10
-5.233425471105793
 20
4.999999999999996
 30
0.0
 10
-3.255811717078525
 20
4.999999999999996
 30
0.0
 10
-1.574239532594726
 20
3.984173682805928
 30
0.0
 10
-0.0000000000009806
 20
2.600049992198475
 30
0.0
  0
LINE
  5
20DD
330
1F
100
AcDbEntity
  8
AM_11
100
AcDbLine
 10
-20.00035211887541
 20
-4.999999999999997
 30
0.0
 11
-0.0000000000002937
 21
-5.000000000000003
 31
0.0
  0
SPLINE
  5
20DE
330
1F
100
AcDbEntity
  8
AM_0
100
AcDbSpline
210
0.0
220
0.0
230
1.0
 70
     8
 71
     3
 72
     8
 73
     4
 74
     0
 42
0.0000000001
 43
0.0000000001
 40
1.218502399730208
 40
1.218502399730208
 40
1.218502399730208
 40
1.218502399730208
 40
9.246817942408316
 40
9.246817942408316
 40
9.246817942408316
 40
9.246817942408316
 10
-0.0921043444031842
 20
-4.765136818713308
 30
0.0
 10
-2.618972810710976
 20
-4.242869484203352
 30
0.0
 10
-4.688738526090283
 20
-2.121434742101727
 30
0.0
 10
-6.758504241470083
 20
-0.0000000000000006
 30
0.0
  0
SPLINE
  5
20E0
330
1F
100
AcDbEntity
  8
AM_0
100
AcDbSpline
210
0.0
220
0.0
230
1.0
 70
     8
 71
     3
 72
     8
 73
     4
 74
     0
 42
0.0000000001
 43
0.0000000001
 40
5.932736810651414
 40
5.932736810651414
 40
5.932736810651414
 40
5.932736810651414
 40
9.307120929696782
 40
9.307120929696782
 40
9.307120929696782
 40
9.307120929696782
 10
0.0000000000003932
 20
-2.600049992198364
 30
0.0
 10
-0.8953858982618132
 20
-1.812796967254657
 30
0.0
 10
-1.756049316907523
 20
-0.9063984836272979
 30
0.0
 10
-2.616712735553043
 20
-0.0000000000000006
 30
0.0
  0
SPLINE
  5
20E1
330
1F
100
AcDbEntity
  8
AM_0
100
AcDbSpline
210
0.0
220
0.0
230
1.0
 70
     8
 71
     3
 72
     8
 73
     4
 74
     0
 42
0.0000000001
 43
0.0000000001
 40
7.554568944210345
 40
7.554568944210345
 40
7.554568944210345
 40
7.554568944210345
 40
9.246817942408316
 40
9.246817942408316
 40
9.246817942408316
 40
9.246817942408316
 10
-0.2119707969154522
 20
-1.326523661141718
 30
0.0
 10
-0.6525273765541052
 20
-0.8943335119253106
 30
0.0
 10
-1.088803073459249
 20
-0.4471667559626008
 30
0.0
 10
-1.525078770364157
 20
-0.0000000000000006
 30
0.0
  0
LINE
  5
20E2
330
1F
100
AcDbEntity
  8
AM_11
100
AcDbLine
 10
-0.0000000000011937
 20
4.999999999999998
 30
0.0
 11
-20.00035211887541
 21
5.000000000000001
 31
0.0
  0
DIMENSION
  5
20E4
330
1F
100
AcDbEntity
  8
AM_5
100
AcDbDimension
  2
*D8
 10
-0.0000000000000574
 20
-12.00000101001281
 30
0.0
 11
-10.00017605943772
 21
-10.45000101001281
 31
0.0
 70
    32
  1
<>
  3
AM_JIS
100
AcDbAlignedDimension
 13
-20.00035211887539
 23
-5.000000000000003
 33
0.0
 14
-0.0000000000000569
 24
-5.000000000013184
 34
0.0
 50
359.9999999999992
100
AcDbRotatedDimension
1001
GENIUS_GENDTOL_13
1000

1000
H7
1000

1040
0.0
  0
SPLINE
  5
20F1
330
1F
100
AcDbEntity
  8
AM_0
100
AcDbSpline
210
0.0
220
0.0
230
1.0
 70
     8
 71
     3
 72
     8
 73
     4
 74
     0
 42
0.0000000001
 43
0.0000000001
 40
9.040119728417035
 40
9.040119728417035
 40
9.040119728417035
 40
9.040119728417035
 40
9.307120929696868
 40
9.307120929696868
 40
9.307120929696868
 40
9.307120929696868
 10
-22.66310017510288
 20
0.215099779508364
 30
0.0
 10
-22.59498220065097
 20
0.1434392027870229
 30
0.0
 10
-22.52688142771921
 20
0.0717196013934534
 30
0.0
 10
-22.45878065478705
 20
-0.0000000000001101
 30
0.0
  0
POLYLINE
  5
20F2
330
1F
100
AcDbEntity
  8
AM_0
100
AcDb2dPolyline
 66
     1
 10
0.0
 20
0.0
 30
0.0
 70
     2
  0
VERTEX
  5
20F3
330
20F2
100
AcDbEntity
  8
AM_0
100
AcDbVertex
100
AcDb2dVertex
 10
-22.6631001750972
 20
0.2150997795134799
 30
0.0
 42
-0.0118474845559968
  0
VERTEX
  5
20F4
330
20F2
100
AcDbEntity
  8
AM_0
100
AcDbVertex
100
AcDb2dVertex
 10
-23.25865413738187
 20
0.8728105295109553
 30
0.0
 42
-0.0229587367005704
 70
     1
  0
VERTEX
  5
20F5
330
20F2
100
AcDbEntity
  8
AM_0
100
AcDbVertex
100
AcDb2dVertex
 10
-23.54174064411959
 20
1.23290215522752
 30
0.0
 42
-0.0074393672839035
  0
VERTEX
  5
20F6
330
20F2
100
AcDbEntity
  8
AM_0
100
AcDbVertex
100
AcDb2dVertex
 10
-24.31930501037562
 20
2.356274985491038
 30
0.0
 42
-0.0137723123631775
 70
     1
  0
VERTEX
  5
20F7
330
20F2
100
AcDbEntity
  8
AM_0
100
AcDbVertex
100
AcDb2dVertex
 10
-24.71326126948264
 20
2.980435320287481
 30
0.0
 42
-0.0384719672123456
  0
VERTEX
  5
20F8
330
20F2
100
AcDbEntity
  8
AM_0
100
AcDbVertex
100
AcDb2dVertex
 10
-24.96372524833279
 20
3.487774926823361
 30
0.0
 42
-0.0969044761549296
 70
     1
  0
VERTEX
  5
20F9
330
20F2
100
AcDbEntity
  8
AM_0
100
AcDbVertex
100
AcDb2dVertex
 10
-25.00614142582352
 20
3.710166109633405
 30
0.0
 42
-0.1871793730324737
  0
VERTEX
  5
20FA
330
20F2
100
AcDbEntity
  8
AM_0
100
AcDbVertex
100
AcDb2dVertex
 10
-24.95027464457127
 20
3.852166544035639
 30
0.0
 42
-0.0943844175758712
 70
     1
  0
VERTEX
  5
20FB
330
20F2
100
AcDbEntity
  8
AM_0
100
AcDbVertex
100
AcDb2dVertex
 10
-24.71326126948264
 20
4.027779878753619
 30
0.0
 42
-0.0915329679940561
  0
VERTEX
  5
20FC
330
20F2
100
AcDbEntity
  8
AM_0
100
AcDbVertex
100
AcDb2dVertex
 10
-24.3745592639969
 20
4.120394312324547
 30
0.0
 42
-0.038326924455418
 70
     1
  0
VERTEX
  5
20FD
330
20F2
100
AcDbEntity
  8
AM_0
100
AcDbVertex
100
AcDb2dVertex
 10
-23.54174064411959
 20
4.126844962910921
 30
0.0
 42
-0.0437581705911492
  0
VERTEX
  5
20FE
330
20F2
100
AcDbEntity
  8
AM_0
100
AcDbVertex
100
AcDb2dVertex
 10
-23.13875942628762
 20
4.063329198555035
 30
0.0
 42
-0.0356593958927609
 70
     1
  0
VERTEX
  5
20FF
330
20F2
100
AcDbEntity
  8
AM_0
100
AcDbVertex
100
AcDb2dVertex
 10
-22.6631001750972
 20
3.908296277947954
 30
0.0
  0
SEQEND
  5
2100
330
20F2
100
AcDbEntity
  8
AM_0
  0
SPLINE
  5
2101
330
1F
100
AcDbEntity
  8
AM_0
100
AcDbSpline
210
0.0
220
0.0
230
1.0
 70
     8
 71
     3
 72
     8
 73
     4
 74
     0
 42
0.0000000001
 43
0.0000000001
 40
0.0
 40
0.0
 40
0.0
 40
0.0
 40
2.181562449810529
 40
2.181562449810529
 40
2.181562449810529
 40
2.181562449810529
 10
-20.93370188442319
 20
4.999999999999948
 30
0.0
 10
-21.66090217051509
 20
5.000000000000001
 30
0.0
 10
-22.34807317164221
 20
4.862644961689404
 30
0.0
 10
-23.00459763738117
 20
4.620130512065433
 30
0.0
  0
SPLINE
  5
2102
330
1F
100
AcDbEntity
  8
AM_0
100
AcDbSpline
210
0.0
220
0.0
230
1.0
 70
     8
 71
     3
 72
     8
 73
     4
 74
     0
 42
0.0000000001
 43
0.0000000001
 40
0.0
 40
0.0
 40
0.0
 40
0.0
 40
5.584272557818067
 40
5.584272557818067
 40
5.584272557818067
 40
5.584272557818067
 10
-25.07549339034004
 20
5.000000000000001
 30
0.0
 10
-21.97306512689188
 20
5.0
 30
0.0
 10
-19.59921015528671
 20
2.499999999999945
 30
0.0
 10
-17.22535518368155
 20
-0.0000000000001101
 30
0.0
  0
SPLINE
  5
2103
330
1F
100
AcDbEntity
  8
AM_0
100
AcDbSpline
210
0.0
220
0.0
230
1.0
 70
     8
 71
     3
 72
     8
 73
     4
 74
     0
 42
0.0000000001
 43
0.0000000001
 40
3.822114358298356
 40
3.822114358298356
 40
3.822114358298356
 40
3.822114358298356
 40
9.307120929696807
 40
9.307120929696807
 40
9.307120929696807
 40
9.307120929696807
 10
-22.6631001750972
 20
3.908296277947675
 30
0.0
 10
-21.11497796134089
 20
2.946672022868489
 30
0.0
 10
-19.71598355510554
 20
1.473336011434179
 30
0.0
 10
-18.3169891488702
 20
-0.0000000000001101
 30
0.0
  0
POLYLINE
  5
2104
330
1F
100
AcDbEntity
  8
AM_0
100
AcDb2dPolyline
 66
     1
 10
0.0
 20
0.0
 30
0.0
 70
     2
  0
VERTEX
  5
2105
330
2104
100
AcDbEntity
  8
AM_0
100
AcDbVertex
100
AcDb2dVertex
 10
-20.91036814028429
 20
-4.787818517472374
 30
0.0
 42
-0.0185434125079168
  0
VERTEX
  5
2106
330
2104
100
AcDbEntity
  8
AM_0
100
AcDbVertex
100
AcDb2dVertex
 10
-21.90975904527419
 20
-4.139660080356237
 30
0.0
 42
-0.0322429997831346
 70
     1
  0
VERTEX
  5
2107
330
2104
100
AcDbEntity
  8
AM_0
100
AcDbVertex
100
AcDb2dVertex
 10
-22.44414514340037
 20
-3.710252806910263
 30
0.0
 42
-0.0154837447810757
  0
VERTEX
  5
2108
330
2104
100
AcDbEntity
  8
AM_0
100
AcDbVertex
100
AcDb2dVertex
 10
-23.75178065331343
 20
-2.436350488761834
 30
0.0
 42
-0.0252025959969089
 70
     1
  0
VERTEX
  5
2109
330
2104
100
AcDbEntity
  8
AM_0
100
AcDbVertex
100
AcDb2dVertex
 10
-24.48918114755546
 20
-1.59066766358609
 30
0.0
 42
-0.0526924355685501
  0
VERTEX
  5
210A
330
2104
100
AcDbEntity
  8
AM_0
100
AcDbVertex
100
AcDb2dVertex
 10
-24.96405528559896
 20
-0.8356196346229562
 30
0.0
 42
-0.1665203413769803
 70
     1
  0
VERTEX
  5
210B
330
2104
100
AcDbEntity
  8
AM_0
100
AcDbVertex
100
AcDb2dVertex
 10
-25.00044014859422
 20
-0.5486482308240284
 30
0.0
 42
-0.2307572350833865
  0
VERTEX
  5
210C
330
2104
100
AcDbEntity
  8
AM_0
100
AcDbVertex
100
AcDb2dVertex
 10
-24.86965347857188
 20
-0.3792525792596848
 30
0.0
 42
-0.122151321937318
 70
     1
  0
VERTEX
  5
210D
330
2104
100
AcDbEntity
  8
AM_0
100
AcDbVertex
100
AcDb2dVertex
 10
-24.48918114755546
 20
-0.2955105347315925
 30
0.0
 42
-0.1110641781431695
  0
VERTEX
  5
210E
330
2104
100
AcDbEntity
  8
AM_0
100
AcDbVertex
100
AcDb2dVertex
 10
-24.04127290231194
 20
-0.4087674998686458
 30
0.0
 42
-0.0275008346235786
 70
     1
  0
VERTEX
  5
210F
330
2104
100
AcDbEntity
  8
AM_0
100
AcDbVertex
100
AcDb2dVertex
 10
-22.44414514340037
 20
-1.331452338086025
 30
0.0
 42
-0.030026725591371
  0
VERTEX
  5
2110
330
2104
100
AcDbEntity
  8
AM_0
100
AcDbVertex
100
AcDb2dVertex
 10
-21.68403447249381
 20
-1.896083330020248
 30
0.0
 42
-0.0268199095458923
 70
     1
  0
VERTEX
  5
2111
330
2104
100
AcDbEntity
  8
AM_0
100
AcDbVertex
100
AcDb2dVertex
 10
-20.91036814028429
 20
-2.620531837532895
 30
0.0
  0
SEQEND
  5
2112
330
2104
100
AcDbEntity
  8
AM_0
  0
SPLINE
  5
2113
330
1F
100
AcDbEntity
  8
AM_0
100
AcDbSpline
210
0.0
220
0.0
230
1.0
 70
     8
 71
     3
 72
     8
 73
     4
 74
     0
 42
0.0000000001
 43
0.0000000001
 40
0.0
 40
0.0
 40
0.0
 40
0.0
 40
5.548090765445053
 40
5.548090765445053
 40
5.548090765445053
 40
5.548090765445053
 10
-14.60864244812859
 20
-4.886833541266246
 30
0.0
 10
-17.69096936191697
 20
-4.886833541266245
 30
0.0
 10
-20.07487500835213
 20
-2.44341677063315
 30
0.0
 10
-22.45878065478729
 20
-0.0000000000000568
 30
0.0
  0
ARC
  5
21D7
330
1F
100
AcDbEntity
  8
AM_0
100
AcDbCircle
 10
-0.500000000000274
 20
-4.475963628140908
 30
0.0
 40
0.5
100
AcDbArc
 50
260.5007755400047
 51
0.0
  0
SPLINE
  5
21D8
330
1F
100
AcDbEntity
  8
AM_0
100
AcDbSpline
210
0.0
220
0.0
230
1.0
 70
     8
 71
     3
 72
     8
 73
     4
 74
     0
 42
0.0000000001
 43
0.0000000001
 40
0.3266617790910128
 40
0.3266617790910128
 40
0.3266617790910128
 40
0.3266617790910128
 40
5.584272557818006
 40
5.584272557818006
 40
5.584272557818006
 40
5.584272557818006
 10
-0.53711247304147
 20
-4.974836399986091
 30
0.0
 10
-3.380153850908498
 20
-4.707516264912886
 30
0.0
 10
-5.615146028783616
 20
-2.353758132456443
 30
0.0
 10
-7.850138206658733
 20
-0.0000000000000006
 30
0.0
  0
ARC
  5
21D9
330
1F
100
AcDbEntity
  8
AM_0
100
AcDbCircle
 10
-0.500000000000274
 20
4.475963628140901
 30
0.0
 40
0.5
100
AcDbArc
 50
0.0
 51
99.49922445999524
  0
SPLINE
  5
21DA
330
1F
100
AcDbEntity
  8
AM_0
100
AcDbSpline
210
0.0
220
0.0
230
1.0
 70
     8
 71
     3
 72
     8
 73
     4
 74
     0
 42
0.0000000001
 43
0.0000000001
 40
0.5912703275227529
 40
0.5912703275227529
 40
0.5912703275227529
 40
0.5912703275227529
 40
2.345304910305074
 40
2.345304910305074
 40
2.345304910305074
 40
2.345304910305074
 10
-0.5826461727207631
 20
4.970371667576791
 30
0.0
 10
-1.150442787719224
 20
4.912409506244504
 30
0.0
 10
-1.6940060637508
 20
4.771293943469418
 30
0.0
 10
-2.21821287589574
 20
4.563759311729654
 30
0.0
  0
DIMENSION
  5
21FE
330
1F
100
AcDbEntity
  8
AM_5
100
AcDbDimension
  2
*D9
 10
-0.500000000000274
 20
-4.475963628140908
 30
0.0
 11
4.794117485771035
 21
-9.788239869890389
 31
0.0
 70
   164
  1
<>
  3
AM_JIS$4
100
AcDbRadialDimension
 15
-0.147052430411799
 25
-4.830121803426456
 35
0.0
 40
0.0
1001
ACAD
1000
DSTYLE
1002
{
1070
   271
1070
     3
1070
   288
1070
     1
1070
   289
1070
     0
1070
    74
1070
     0
1002
}
1001
GENIUS_GENDTOL_13
1000

1000
h7
1000

1040
0.0
  0
VIEWPORT
  5
110
330
101
100
AcDbEntity
 67
     1
  8
0
100
AcDbViewport
 10
420.5
 20
297.0
 30
0.0
 40
948.9782706766916
 41
628.452
 68
     1
 69
     1
1001
ACAD
1000
MVIEW
1002
{
1070
    16
1010
0.0
1020
0.0
1030
0.0
1010
0.0
1020
0.0
1030
1.0
1040
0.0
1040
628.452
1040
420.5
1040
297.0
1040
50.0
1040
0.0
1040
0.0
1070
     0
1070
   100
1070
     1
1070
     1
1070
     0
1070
     0
1070
     0
1070
     0
1040
0.0
1040
0.0
1040
0.0
1040
10.0
1040
10.0
1040
10.0
1040
10.0
1070
     0
1002
{
1002
}
1002
}
  0
ENDSEC
  0
SECTION
  2
OBJECTS
  0
DICTIONARY
  5
C
330
0
100
AcDbDictionary
  3
ACAD_GROUP
350
D
  3
ACAD_LAYOUT
350
1A
  3
ACAD_MLINESTYLE
350
17
  3
ACAD_PLOTSETTINGS
350
19
  3
ACAD_PLOTSTYLENAME
350
E
  3
ACDBVARIABLEDICTIONARY
350
34
  3
ACMDICTIONARY
350
43
  3
AMG
350
2B
  3
AMGSNAPSETTINGS
350
6E
  3
DWGPROPS
350
2294
  3
ACDBHEADERROUNDTRIPXREC
350
22A0
  0
DICTIONARY
  5
74
330
1F
100
AcDbDictionary
280
     1
  3
ACAD_INDEX
360
2296
  3
ACAD_LAYOUTSELFREF
360
22C3
  0
DICTIONARY
  5
22C8
330
101
100
AcDbDictionary
280
     1
  3
ACAD_LAYOUTSELFREF
360
22C9
  0
DICTIONARY
  5
D
102
{ACAD_REACTORS
330
C
102
}
330
C
100
AcDbDictionary
  0
DICTIONARY
  5
1A
102
{ACAD_REACTORS
330
C
102
}
330
C
100
AcDbDictionary
  0
DICTIONARY
  5
17
102
{ACAD_REACTORS
330
C
102
}
330
C
100
AcDbDictionary
  3
STANDARD
350
18
  0
DICTIONARY
  5
19
102
{ACAD_REACTORS
330
C
102
}
330
C
100
AcDbDictionary
  0
ACDBDICTIONARYWDFLT
  5
E
102
{ACAD_REACTORS
330
C
102
}
330
C
100
AcDbDictionary
281
     1
  3
Normal
350
F
100
AcDbDictionaryWithDefault
340
F
  0
DICTIONARY
  5
34
102
{ACAD_REACTORS
330
C
102
}
330
C
100
AcDbDictionary
  3
INDEXCTL
350
35
  3
SORTENTS
350
B5E
  0
DICTIONARY
  5
43
102
{ACAD_REACTORS
330
C
102
}
330
C
100
AcDbDictionary
  3
ACMSTDDICTIONARY
350
260
  0
DICTIONARY
  5
2B
102
{ACAD_REACTORS
330
C
102
}
330
C
100
AcDbDictionary
  3
ACMGSETTINGS
350
2C
  0
DICTIONARY
  5
6E
102
{ACAD_REACTORS
330
C
102
}
330
C
100
AcDbDictionary
  0
XRECORD
  5
2294
102
{ACAD_REACTORS
330
C
102
}
330
C
100
AcDbXrecord
  1
DWGPROPS COOKIE
  2

  3

  4

  6

  7

  8

  9

300
AmdtFileType=82
301
=
302
=
303
=
304
=
305
=
306
=
307
=
308
=
309
=
 40
0.1183322106481482
 41
2452838.620506898
 42
2452846.393747824
  1

 90
        1
  0
DICTIONARY
  5
22A0
102
{ACAD_REACTORS
330
C
102
}
330
C
100
AcDbDictionary
  3
TSTACKALIGN
350
22A1
  3
TSTACKSIZE
350
22A2
  3
HYPERLINKBASE
350
22A3
  3
STYLESHEET
350
22A4
  3
LAYOUTDICT
350
22A5
  3
PLOTSETDICT
350
22A6
  3
PLOTSTYLNAMDICT
350
22A7
  3
LWETCUNION
350
22A8
  3
INSUNITS
350
22A9
  3
CEPSNTYPE
350
22AA
  3
FINGERPRINTGUID
350
22AB
  3
VERSIONGUID
350
22AC
  3
PSVPSCALE
350
22AD
  3
DIMSTYLEDATA
350
22AE
  3
PUCSORTHOREF
350
22AF
  3
PUCSORTHOVIEW
350
22B0
  3
PUCSBASE
350
22B1
  3
PUCSORGTOP
350
22B2
  3
PUCSORGBOTTOM
350
22B3
  3
PUCSORGLEFT
350
22B4
  3
PUCSORGRIGHT
350
22B5
  3
PUCSORGFRONT
350
22B6
  3
PUCSORGBACK
350
22B7
  3
UCSORTHOREF
350
22B8
  3
UCSORTHOVIEW
350
22B9
  3
UCSBASE
350
22BA
  3
UCSORGTOP
350
22BB
  3
UCSORGBOTTOM
350
22BC
  3
UCSORGLEFT
350
22BD
  3
UCSORGRIGHT
350
22BE
  3
UCSORGFRONT
350
22BF
  3
UCSORGBACK
350
22C0
  0
DICTIONARY
  5
2296
102
{ACAD_REACTORS
330
74
102
}
330
74
100
AcDbDictionary
  3
*A1
350
2297
  0
XRECORD
  5
22C3
102
{ACAD_REACTORS
330
74
102
}
330
74
100
AcDbXrecord
340
1F
  0
XRECORD
  5
22C9
102
{ACAD_REACTORS
330
22C8
102
}
330
22C8
100
AcDbXrecord
340
101
  0
MLINESTYLE
  5
18
102
{ACAD_REACTORS
330
17
102
}
330
17
100
AcDbMlineStyle
  2
STANDARD
 70
     0
  3

 62
   256
 51
90.0
 52
90.0
 71
     2
 49
0.5
 62
   256
  6
BYLAYER
 49
-0.5
 62
   256
  6
BYLAYER
  0
ACDBPLACEHOLDER
  5
F
102
{ACAD_REACTORS
330
E
102
}
330
E
100
AcDbPlaceHolder
280
     0
  0
DICTIONARYVAR
  5
35
102
{ACAD_REACTORS
330
34
102
}
330
34
100
DictionaryVariables
280
     0
  1
1
  0
DICTIONARYVAR
  5
B5E
102
{ACAD_REACTORS
330
34
102
}
330
34
100
DictionaryVariables
280
     0
  1
96
  0
DICTIONARY
  5
260
102
{ACAD_REACTORS
330
43
102
}
330
43
100
AcDbDictionary
  0
DICTIONARY
  5
2C
102
{ACAD_REACTORS
330
2B
102
}
330
2B
100
AcDbDictionary
  3
DWGSETTINGS
350
2D
  0
XRECORD
  5
22A1
102
{ACAD_REACTORS
330
22A0
102
}
330
22A0
100
AcDbXrecord
 90
        1
  0
XRECORD
  5
22A2
102
{ACAD_REACTORS
330
22A0
102
}
330
22A0
100
AcDbXrecord
 90
       70
  0
XRECORD
  5
22A3
102
{ACAD_REACTORS
330
22A0
102
}
330
22A0
100
AcDbXrecord
  1

  0
XRECORD
  5
22A4
102
{ACAD_REACTORS
330
22A0
102
}
330
22A0
100
AcDbXrecord
  1
ACAD_M_9400.ctb
  0
XRECORD
  5
22A5
102
{ACAD_REACTORS
330
22A0
102
}
330
22A0
100
AcDbXrecord
340
1A
  0
XRECORD
  5
22A6
102
{ACAD_REACTORS
330
22A0
102
}
330
22A0
100
AcDbXrecord
340
19
  0
XRECORD
  5
22A7
102
{ACAD_REACTORS
330
22A0
102
}
330
22A0
100
AcDbXrecord
340
E
  0
XRECORD
  5
22A8
102
{ACAD_REACTORS
330
22A0
102
}
330
22A0
100
AcDbXrecord
 90
    10781
  0
XRECORD
  5
22A9
102
{ACAD_REACTORS
330
22A0
102
}
330
22A0
100
AcDbXrecord
 90
        4
  0
XRECORD
  5
22AA
102
{ACAD_REACTORS
330
22A0
102
}
330
22A0
100
AcDbXrecord
 90
        0
  0
XRECORD
  5
22AB
102
{ACAD_REACTORS
330
22A0
102
}
330
22A0
100
AcDbXrecord
  1
{AFB28963-8C59-40AE-9337-C84526B81ACE}
  0
XRECORD
  5
22AC
102
{ACAD_REACTORS
330
22A0
102
}
330
22A0
100
AcDbXrecord
  1
{21BB04B4-1B8A-41D8-9341-E98C66EBCB56}
  0
XRECORD
  5
22AD
102
{ACAD_REACTORS
330
22A0
102
}
330
22A0
100
AcDbXrecord
 40
0.0
  0
XRECORD
  5
22AE
102
{ACAD_REACTORS
330
22A0
102
}
330
22A0
100
AcDbXrecord
1000
DSTYLE
1002
{
1070
    79
 70
     2
1070
   341
340
59
1070
   342
340
59
1070
   371
 70
    -1
1070
   372
 70
    -1
1002
}
  0
XRECORD
  5
22AF
102
{ACAD_REACTORS
330
22A0
102
}
330
22A0
100
AcDbXrecord
340
0
  0
XRECORD
  5
22B0
102
{ACAD_REACTORS
330
22A0
102
}
330
22A0
100
AcDbXrecord
 70
     0
  0
XRECORD
  5
22B1
102
{ACAD_REACTORS
330
22A0
102
}
330
22A0
100
AcDbXrecord
340
0
  0
XRECORD
  5
22B2
102
{ACAD_REACTORS
330
22A0
102
}
330
22A0
100
AcDbXrecord
 10
0.0
 20
0.0
 30
0.0
  0
XRECORD
  5
22B3
102
{ACAD_REACTORS
330
22A0
102
}
330
22A0
100
AcDbXrecord
 10
0.0
 20
0.0
 30
0.0
  0
XRECORD
  5
22B4
102
{ACAD_REACTORS
330
22A0
102
}
330
22A0
100
AcDbXrecord
 10
0.0
 20
0.0
 30
0.0
  0
XRECORD
  5
22B5
102
{ACAD_REACTORS
330
22A0
102
}
330
22A0
100
AcDbXrecord
 10
0.0
 20
0.0
 30
0.0
  0
XRECORD
  5
22B6
102
{ACAD_REACTORS
330
22A0
102
}
330
22A0
100
AcDbXrecord
 10
0.0
 20
0.0
 30
0.0
  0
XRECORD
  5
22B7
102
{ACAD_REACTORS
330
22A0
102
}
330
22A0
100
AcDbXrecord
 10
0.0
 20
0.0
 30
0.0
  0
XRECORD
  5
22B8
102
{ACAD_REACTORS
330
22A0
102
}
330
22A0
100
AcDbXrecord
340
0
  0
XRECORD
  5
22B9
102
{ACAD_REACTORS
330
22A0
102
}
330
22A0
100
AcDbXrecord
 70
     0
  0
XRECORD
  5
22BA
102
{ACAD_REACTORS
330
22A0
102
}
330
22A0
100
AcDbXrecord
340
0
  0
XRECORD
  5
22BB
102
{ACAD_REACTORS
330
22A0
102
}
330
22A0
100
AcDbXrecord
 10
0.0
 20
0.0
 30
0.0
  0
XRECORD
  5
22BC
102
{ACAD_REACTORS
330
22A0
102
}
330
22A0
100
AcDbXrecord
 10
0.0
 20
0.0
 30
0.0
  0
XRECORD
  5
22BD
102
{ACAD_REACTORS
330
22A0
102
}
330
22A0
100
AcDbXrecord
 10
0.0
 20
0.0
 30
0.0
  0
XRECORD
  5
22BE
102
{ACAD_REACTORS
330
22A0
102
}
330
22A0
100
AcDbXrecord
 10
0.0
 20
0.0
 30
0.0
  0
XRECORD
  5
22BF
102
{ACAD_REACTORS
330
22A0
102
}
330
22A0
100
AcDbXrecord
 10
0.0
 20
0.0
 30
0.0
  0
XRECORD
  5
22C0
102
{ACAD_REACTORS
330
22A0
102
}
330
22A0
100
AcDbXrecord
 10
0.0
 20
0.0
 30
0.0
  0
LAYER_INDEX
  5
2297
102
{ACAD_REACTORS
330
2296
102
}
330
2296
100
AcDbIndex
 40
2453152.479462639
100
AcDbLayerIndex
  8
0
360
2298
 90
        1
  8
AM_0
360
2299
 90
       68
  8
AM_11
360
229A
 90
        4
  8
AM_7
360
229B
 90
        1
  8
AM_5
360
229C
 90
        5
  8
Defpoints
360
229D
 90
        0
  8
AM_6
360
229E
 90
        1
  0
XRECORD
  5
2D
102
{ACAD_REACTORS
330
2C
102
}
330
2C
100
AcDbXrecord
  1
VERSION
140
15.0
  1
PRODUCT
  2
AutoCAD Mechanical 2000
  0
IDBUFFER
  5
2298
330
0
100
AcDbIdBuffer
330
1FF8
  0
IDBUFFER
  5
2299
330
0
100
AcDbIdBuffer
330
20D7
330
20D8
330
20D9
330
20DA
330
20DB
330
20DC
330
20DE
330
20E0
330
20E1
330
20F1
330
20F2
330
2101
330
2102
330
2103
330
2104
330
2113
330
21D7
330
21D8
330
21D9
330
21DA
330
1FF4
330
1FF5
330
1FF6
330
1FF7
330
1FF9
330
2007
330
2008
330
20AC
330
20AD
330
20AE
330
20AF
330
20B0
330
20B1
330
20B2
330
20B3
330
20B4
330
20B5
330
20B6
330
20B7
330
20B9
330
20BA
330
20BB
330
20BC
330
20BD
330
20BE
330
20BF
330
20C0
330
20C1
330
20C2
330
20C3
330
20C4
330
20C5
330
20C6
330
20C7
330
20C8
330
20C9
330
20CA
330
20CB
330
20CC
330
20CD
330
20CE
330
20CF
330
20D1
330
20D2
330
20D3
330
20D4
330
20D5
330
20D6
  0
IDBUFFER
  5
229A
330
0
100
AcDbIdBuffer
330
20B8
330
20D0
330
20DD
330
20E2
  0
IDBUFFER
  5
229B
330
0
100
AcDbIdBuffer
330
2009
  0
IDBUFFER
  5
229C
330
0
100
AcDbIdBuffer
330
1F96
330
1FFA
330
200A
330
20E4
330
21FE
  0
IDBUFFER
  5
229D
330
0
100
AcDbIdBuffer
  0
IDBUFFER
  5
229E
330
0
100
AcDbIdBuffer
330
C58
  0
ENDSEC
  0
EOF
