  0
SECTION
  2
HEADER
  9
$ACADVER
  1
AC1014
  9
$ACADMAINTVER
 70
     9
  9
$DWGCODEPAGE
  3
ANSI_932
  9
$INSBASE
 10
0.0
 20
0.0
 30
0.0
  9
$EXTMIN
 10
-88.17909997285335
 20
-30.2500010100137
 30
-0.00000001
  9
$EXTMAX
 10
10.76687941353313
 20
7.208005983660313
 30
0.00000001
  9
$LIMMIN
 10
-100.6161294986213
 20
-45.92440863029973
  9
$LIMMAX
 10
23.71667507654751
 20
25.23187193568256
  9
$ORTHOMODE
 70
     0
  9
$REGENMODE
 70
     1
  9
$FILLMODE
 70
     1
  9
$QTEXTMODE
 70
     0
  9
$MIRRTEXT
 70
     0
  9
$DRAGMODE
 70
     2
  9
$LTSCALE
 40
0.3
  9
$OSMODE
 70
    55
  9
$ATTMODE
 70
     1
  9
$TEXTSIZE
 40
2.5
  9
$TRACEWID
 40
1.0
  9
$TEXTSTYLE
  7
STANDARD
  9
$CLAYER
  8
AM_0
  9
$CELTYPE
  6
BYLAYER
  9
$CECOLOR
 62
   256
  9
$CELTSCALE
 40
1.0
  9
$DELOBJ
 70
     1
  9
$DISPSILH
 70
     0
  9
$DIMSCALE
 40
0.5
  9
$DIMASZ
 40
2.5
  9
$DIMEXO
 40
1.0
  9
$DIMDLI
 40
12.0
  9
$DIMRND
 40
0.0
  9
$DIMDLE
 40
0.0
  9
$DIMEXE
 40
1.0
  9
$DIMTP
 40
0.1
  9
$DIMTM
 40
0.1
  9
$DIMTXT
 40
3.2
  9
$DIMCEN
 40
0.0
  9
$DIMTSZ
 40
0.0
  9
$DIMTOL
 70
     0
  9
$DIMLIM
 70
     0
  9
$DIMTIH
 70
     0
  9
$DIMTOH
 70
     0
  9
$DIMSE1
 70
     0
  9
$DIMSE2
 70
     0
  9
$DIMTAD
 70
     3
  9
$DIMZIN
 70
     8
  9
$DIMBLK
  1
OPEN30
  9
$DIMASO
 70
     1
  9
$DIMSHO
 70
     1
  9
$DIMPOST
  1

  9
$DIMAPOST
  1
"
  9
$DIMALT
 70
     0
  9
$DIMALTD
 70
     2
  9
$DIMALTF
 40
0.0393701
  9
$DIMLFAC
 40
1.0
  9
$DIMTOFL
 70
     1
  9
$DIMTVP
 40
0.0
  9
$DIMTIX
 70
     0
  9
$DIMSOXD
 70
     0
  9
$DIMSAH
 70
     0
  9
$DIMBLK1
  1

  9
$DIMBLK2
  1

  9
$DIMSTYLE
  2
AM_JIS
  9
$DIMCLRD
 70
   256
  9
$DIMCLRE
 70
   256
  9
$DIMCLRT
 70
     2
  9
$DIMTFAC
 40
0.71
  9
$DIMGAP
 40
1.5
  9
$DIMJUST
 70
     0
  9
$DIMSD1
 70
     0
  9
$DIMSD2
 70
     0
  9
$DIMTOLJ
 70
     0
  9
$DIMTZIN
 70
     0
  9
$DIMALTZ
 70
     0
  9
$DIMALTTZ
 70
     0
  9
$DIMFIT
 70
     3
  9
$DIMUPT
 70
     0
  9
$DIMUNIT
 70
     2
  9
$DIMDEC
 70
     3
  9
$DIMTDEC
 70
     3
  9
$DIMALTU
 70
     2
  9
$DIMALTTD
 70
     2
  9
$DIMTXSTY
  7
ASAMI
  9
$DIMAUNIT
 70
     0
  9
$LUNITS
 70
     2
  9
$LUPREC
 70
     2
  9
$SKETCHINC
 40
1.0
  9
$FILLETRAD
 40
2.5
  9
$AUNITS
 70
     0
  9
$AUPREC
 70
     0
  9
$MENU
  1
.
  9
$ELEVATION
 40
0.0
  9
$PELEVATION
 40
0.0
  9
$THICKNESS
 40
0.0
  9
$LIMCHECK
 70
     0
  9
$BLIPMODE
 70
     0
  9
$CHAMFERA
 40
2.5
  9
$CHAMFERB
 40
2.5
  9
$CHAMFERC
 40
20.0
  9
$CHAMFERD
 40
0.0
  9
$SKPOLY
 70
     0
  9
$TDCREATE
 40
2452838.620506898
  9
$TDUPDATE
 40
2453152.481428113
  9
$TDINDWG
 40
0.1150431944
  9
$TDUSRTIMER
 40
0.1150431944
  9
$USRTIMER
 70
     1
  9
$ANGBASE
 50
0.0
  9
$ANGDIR
 70
     0
  9
$PDMODE
 70
     0
  9
$PDSIZE
 40
0.0
  9
$PLINEWID
 40
0.0
  9
$COORDS
 70
     1
  9
$SPLFRAME
 70
     0
  9
$SPLINETYPE
 70
     6
  9
$SPLINESEGS
 70
     8
  9
$ATTDIA
 70
     1
  9
$ATTREQ
 70
     1
  9
$HANDLING
 70
 12289
  9
$HANDSEED
  5
24AF
  9
$SURFTAB1
 70
     6
  9
$SURFTAB2
 70
     6
  9
$SURFTYPE
 70
     6
  9
$SURFU
 70
     6
  9
$SURFV
 70
     6
  9
$UCSNAME
  2

  9
$UCSORG
 10
-0.0000000000000568
 20
-0.0000000000000036
 30
0.0
  9
$UCSXDIR
 10
1.0
 20
0.0
 30
0.0
  9
$UCSYDIR
 10
0.0
 20
1.0
 30
0.0
  9
$PUCSNAME
  2

  9
$PUCSORG
 10
0.0
 20
0.0
 30
0.0
  9
$PUCSXDIR
 10
1.0
 20
0.0
 30
0.0
  9
$PUCSYDIR
 10
0.0
 20
1.0
 30
0.0
  9
$USERI1
 70
     0
  9
$USERI2
 70
     0
  9
$USERI3
 70
     0
  9
$USERI4
 70
     0
  9
$USERI5
 70
     0
  9
$USERR1
 40
0.0
  9
$USERR2
 40
0.0
  9
$USERR3
 40
0.0
  9
$USERR4
 40
0.0
  9
$USERR5
 40
0.0
  9
$WORLDVIEW
 70
     1
  9
$SHADEDGE
 70
     3
  9
$SHADEDIF
 70
    70
  9
$TILEMODE
 70
     1
  9
$MAXACTVP
 70
    64
  9
$PINSBASE
 10
0.0
 20
0.0
 30
0.0
  9
$PLIMCHECK
 70
     0
  9
$PEXTMIN
 10
1.000000000000000E+20
 20
1.000000000000000E+20
 30
1.000000000000000E+20
  9
$PEXTMAX
 10
-1.000000000000000E+20
 20
-1.000000000000000E+20
 30
-1.000000000000000E+20
  9
$PLIMMIN
 10
0.0
 20
0.0
  9
$PLIMMAX
 10
841.0
 20
594.0
  9
$UNITMODE
 70
     0
  9
$VISRETAIN
 70
     1
  9
$PLINEGEN
 70
     0
  9
$PSLTSCALE
 70
     0
  9
$TREEDEPTH
 70
  3020
  9
$PICKSTYLE
 70
     0
  9
$CMLSTYLE
  2
STANDARD
  9
$CMLJUST
 70
     0
  9
$CMLSCALE
 40
20.0
  9
$PROXYGRAPHICS
 70
     1
  9
$MEASUREMENT
 70
     1
  0
ENDSEC
  0
SECTION
  2
CLASSES
  0
CLASS
  1
ACDBDICTIONARYWDFLT
  2
AcDbDictionaryWithDefault
  3
AutoCAD 2000
 90
        0
280
     0
281
     0
  0
CLASS
  1
ACDBPLACEHOLDER
  2
AcDbPlaceHolder
  3
AutoCAD 2000
 90
        0
280
     0
281
     0
  0
CLASS
  1
LAYOUT
  2
AcDbLayout
  3
AutoCAD 2000
 90
        0
280
     0
281
     0
  0
CLASS
  1
AMGSETTINGSOBJ
  2
AmgSettingsObj
  3
"AcadM|Product Description: AutoCAD Mechanical 2000|Company: Autodesk"
 90
        0
280
     0
281
     0
  0
CLASS
  1
ACME_DOCUMENT
  2
AcMeDbDoc
  3
AcMeServices
 90
        0
280
     0
281
     0
  0
CLASS
  1
ACMESCOPE
  2
AcMeScope
  3
AcMeServices
 90
        0
280
     0
281
     0
  0
CLASS
  1
ACMECOMMANDHISTORY
  2
AcMeCommandHistory
  3
AcMeServices
 90
        0
280
     0
281
     0
  0
CLASS
  1
DICTIONARYVAR
  2
AcDbDictionaryVar
  3
AutoCAD 2000
 90
        0
280
     0
281
     0
  0
CLASS
  1
ACIMSYSVARMAN
  2
AcImSysVarManager
  3
AcMeServices
 90
        0
280
     0
281
     0
  0
CLASS
  1
ACIMREALSYSVAR
  2
AcImRealSysVar
  3
AcMeServices
 90
        0
280
     0
281
     0
  0
CLASS
  1
ACIMINTSYSVAR
  2
AcImIntSysVar
  3
AcMeServices
 90
        0
280
     0
281
     0
  0
CLASS
  1
ACMEDRAWINGMAN
  2
AcMeDrawingMan
  3
AcMeServices
 90
        0
280
     0
281
     0
  0
CLASS
  1
ACMEVIEW
  2
AcMeView
  3
AcMeServices
 90
        0
280
     0
281
     0
  0
CLASS
  1
ACDBENTITYCACHE
  2
AcMeEntityCache
  3
AcMeServices
 90
        0
280
     0
281
     0
  0
CLASS
  1
GSMANAGER
  2
AcMeGSManager
  3
AcMeServices
 90
        0
280
     0
281
     0
  0
CLASS
  1
AmdtInternalReactor
  2
AmdtInternalReactor
  3
AcMeServices
 90
        0
280
     0
281
     0
  0
CLASS
  1
ACMESTATEMGR
  2
AcMeStateMgr
  3
AcMeServices
 90
        0
280
     0
281
     0
  0
CLASS
  1
ACME_DATABASE
  2
AcMeDbDatabase
  3
AcMeServices
 90
        0
280
     0
281
     0
  0
CLASS
  1
ACRFINSADJUSTERMGR
  2
AcRfInsAdjusterMgr
  3
AcMeServices
 90
        0
280
     0
281
     0
  0
CLASS
  1
ACMDATADICTIONARY
  2
AcmDataDictionary
  3
"AcmSymBB|Product Description: AutoCAD Mechanical 2000|Company: Autodesk"
 90
        0
280
     0
281
     0
  0
CLASS
  1
ACMDATAENTRYBLOCK
  2
AcmDataEntryBlock
  3
"AcmSymBB|Product Description: AutoCAD Mechanical 2000|Company: Autodesk"
 90
        0
280
     0
281
     0
  0
CLASS
  1
AMGOBJPROPCFG
  2
AmgObjPropCfg
  3
"AmgLay|Product Description: AutoCAD Mechanical 2000|Company: Autodesk"
 90
        1
280
     0
281
     0
  0
CLASS
  1
ACAMGFILTERDAT
  2
AcAmgFilterDat
  3
"AcadM|Product Description: AutoCAD Mechanical 2000|Company: Autodesk"
 90
        0
280
     0
281
     0
  0
CLASS
  1
LAYER_INDEX
  2
AcDbLayerIndex
  3
AutoCAD 2000
 90
        0
280
     0
281
     0
  0
CLASS
  1
IDBUFFER
  2
AcDbIdBuffer
  3
AutoCAD 2000
 90
        0
280
     0
281
     0
  0
CLASS
  1
ACIMSTRSYSVAR
  2
AcImStrSysVar
  3
AcMeServices
 90
        0
280
     0
281
     0
  0
CLASS
  1
ACMSTANDARDJIS
  2
AcmStandardJIS
  3
"AcmSymBB|Product Description: AutoCAD Mechanical 2000|Company: Autodesk"
 90
        0
280
     0
281
     0
  0
CLASS
  1
ACMSURFSTANDARDJIS
  2
AcmSurfTextStdJIS
  3
"AcmSymBB|Product Description: AutoCAD Mechanical 2000|Company: Autodesk"
 90
        0
280
     0
281
     0
  0
CLASS
  1
ACMFCFSTANDARDJIS
  2
AcmFCFStdJIS
  3
"AcmSymBB|Product Description: AutoCAD Mechanical 2000|Company: Autodesk"
 90
        0
280
     0
281
     0
  0
CLASS
  1
ACMWELDSTANDARDJIS
  2
AcmWeldingStdJIS
  3
"AcmSymBB|Product Description: AutoCAD Mechanical 2000|Company: Autodesk"
 90
        0
280
     0
281
     0
  0
CLASS
  1
ACMIDSTANDARDJIS
  2
AcmIdStdJIS
  3
"AcmSymBB|Product Description: AutoCAD Mechanical 2000|Company: Autodesk"
 90
        0
280
     0
281
     0
  0
CLASS
  1
ACMDATUMSTANDARDJIS
  2
AcmDatumStdJIS
  3
"AcmSymBB|Product Description: AutoCAD Mechanical 2000|Company: Autodesk"
 90
        0
280
     0
281
     0
  0
CLASS
  1
ACMBOMSTANDARDJIS
  2
AcmBOMStdJIS
  3
"AcmSymBB|Product Description: AutoCAD Mechanical 2000|Company: Autodesk"
 90
        0
280
     0
281
     0
  0
CLASS
  1
ACMSTANDARDANSI
  2
AcmStandardANSI
  3
"AcmSymBB|Product Description: AutoCAD Mechanical 2000|Company: Autodesk"
 90
        0
280
     0
281
     0
  0
CLASS
  1
ACMSURFSTANDARDANSI
  2
AcmSurfTextStdANSI
  3
"AcmSymBB|Product Description: AutoCAD Mechanical 2000|Company: Autodesk"
 90
        0
280
     0
281
     0
  0
CLASS
  1
ACMFCFSTANDARDANSI
  2
AcmFCFStdANSI
  3
"AcmSymBB|Product Description: AutoCAD Mechanical 2000|Company: Autodesk"
 90
        0
280
     0
281
     0
  0
CLASS
  1
ACMWELDSTANDARDANSI
  2
AcmWeldingStdANSI
  3
"AcmSymBB|Product Description: AutoCAD Mechanical 2000|Company: Autodesk"
 90
        0
280
     0
281
     0
  0
CLASS
  1
ACMIDSTANDARDANSI
  2
AcmIdStdANSI
  3
"AcmSymBB|Product Description: AutoCAD Mechanical 2000|Company: Autodesk"
 90
        0
280
     0
281
     0
  0
CLASS
  1
ACMDATUMSTANDARDANSI
  2
AcmDatumStdANSI
  3
"AcmSymBB|Product Description: AutoCAD Mechanical 2000|Company: Autodesk"
 90
        0
280
     0
281
     0
  0
CLASS
  1
ACMBOMSTANDARDANSI
  2
AcmBOMStdANSI
  3
"AcmSymBB|Product Description: AutoCAD Mechanical 2000|Company: Autodesk"
 90
        0
280
     0
281
     0
  0
CLASS
  1
ACMSTANDARDBSI
  2
AcmStandardBSI
  3
"AcmSymBB|Product Description: AutoCAD Mechanical 2000|Company: Autodesk"
 90
        0
280
     0
281
     0
  0
CLASS
  1
ACMSURFSTANDARDBSI
  2
AcmSurfTextStdBSI
  3
"AcmSymBB|Product Description: AutoCAD Mechanical 2000|Company: Autodesk"
 90
        0
280
     0
281
     0
  0
CLASS
  1
ACMFCFSTANDARDBSI
  2
AcmFCFStdBSI
  3
"AcmSymBB|Product Description: AutoCAD Mechanical 2000|Company: Autodesk"
 90
        0
280
     0
281
     0
  0
CLASS
  1
ACMWELDSTANDARDBSI
  2
AcmWeldingStdBSI
  3
"AcmSymBB|Product Description: AutoCAD Mechanical 2000|Company: Autodesk"
 90
        0
280
     0
281
     0
  0
CLASS
  1
ACMIDSTANDARDBSI
  2
AcmIdStdBSI
  3
"AcmSymBB|Product Description: AutoCAD Mechanical 2000|Company: Autodesk"
 90
        0
280
     0
281
     0
  0
CLASS
  1
ACMDATUMSTANDARDBSI
  2
AcmDatumStdBSI
  3
"AcmSymBB|Product Description: AutoCAD Mechanical 2000|Company: Autodesk"
 90
        0
280
     0
281
     0
  0
CLASS
  1
ACMBOMSTANDARDBSI
  2
AcmBOMStdBSI
  3
"AcmSymBB|Product Description: AutoCAD Mechanical 2000|Company: Autodesk"
 90
        0
280
     0
281
     0
  0
CLASS
  1
LONG_TRANSACTION
  2
AcDbLongTransaction
  3
AutoCAD 2000
 90
        0
280
     0
281
     0
  0
CLASS
  1
LWPOLYLINE
  2
AcDbPolyline
  3
AutoCAD 2000
 90
        0
280
     0
281
     1
  0
CLASS
  1
HATCH
  2
AcDbHatch
  3
AutoCAD 2000
 90
        0
280
     0
281
     1
  0
CLASS
  1
XRECORD
  2
AcDbXrecord
  3
AutoCAD 2000
 90
        0
280
     0
281
     0
  0
ENDSEC
  0
SECTION
  2
TABLES
  0
TABLE
  2
VPORT
  5
8
330
0
100
AcDbSymbolTable
 70
     3
  0
VPORT
  5
2484
330
8
100
AcDbSymbolTableRecord
100
AcDbViewportTableRecord
  2
*ACTIVE
 70
     0
 10
0.0
 20
0.0
 11
1.0
 21
1.0
 12
-37.23971583741523
 22
-2.655185679976703
 13
0.0
 23
0.0
 14
2.5
 24
2.5
 15
10.0
 25
10.0
 16
0.0
 26
0.0
 36
1.0
 17
0.0
 27
0.0
 37
0.0
 40
110.7804035006003
 41
1.56570841889117
 42
50.0
 43
0.0
 44
0.0
 50
0.0
 51
0.0
 71
     0
 72
   100
 73
     1
 74
     3
 75
     0
 76
     0
 77
     0
 78
     0
  0
ENDTAB
  0
TABLE
  2
LTYPE
  5
5
330
0
100
AcDbSymbolTable
 70
    10
  0
LTYPE
  5
14
330
5
100
AcDbSymbolTableRecord
100
AcDbLinetypeTableRecord
  2
BYBLOCK
 70
     0
  3

 72
    65
 73
     0
 40
0.0
  0
LTYPE
  5
15
330
5
100
AcDbSymbolTableRecord
100
AcDbLinetypeTableRecord
  2
BYLAYER
 70
     0
  3

 72
    65
 73
     0
 40
0.0
  0
LTYPE
  5
16
330
5
100
AcDbSymbolTableRecord
100
AcDbLinetypeTableRecord
  2
CONTINUOUS
 70
     0
  3
Solid line
 72
    65
 73
     0
 40
0.0
  0
LTYPE
  5
4B
330
5
100
AcDbSymbolTableRecord
100
AcDbLinetypeTableRecord
  2
AM_ISO02W050
 70
     0
  3
__ __ __ __ __ __ __ __ __ __ __ __ __ __ __
 72
    65
 73
     2
 40
7.5
 49
6.0
 74
     0
 49
-1.5
 74
     0
  0
LTYPE
  5
4C
330
5
100
AcDbSymbolTableRecord
100
AcDbLinetypeTableRecord
  2
AM_ISO08W050
 70
     0
  3
____ . ____ . ____ . ____ . ____ . ____ . ____
 72
    65
 73
     4
 40
18.0
 49
12.0
 74
     0
 49
-1.5
 74
     0
 49
3.0
 74
     0
 49
-1.5
 74
     0
  0
LTYPE
  5
4D
330
5
100
AcDbSymbolTableRecord
100
AcDbLinetypeTableRecord
  2
AM_ISO09W050
 70
     0
  3
_____ . . _____ . . _____ . . ____ .. ____
 72
    65
 73
     6
 40
22.5
 49
12.0
 74
     0
 49
-1.5
 74
     0
 49
3.0
 74
     0
 49
-1.5
 74
     0
 49
3.0
 74
     0
 49
-1.5
 74
     0
  0
LTYPE
  5
4E
330
5
100
AcDbSymbolTableRecord
100
AcDbLinetypeTableRecord
  2
AMCONSTR
 70
     0
  3
_______________________
 72
    65
 73
     2
 40
9999.0
 49
9999.0
 74
     0
 49
0.0
 74
     0
  0
LTYPE
  5
4F
330
5
100
AcDbSymbolTableRecord
100
AcDbLinetypeTableRecord
  2
AM_ISO02W050X2
 70
     0
  3
 _ _ _ _ _ _ _ _ _ _ _ _
 72
    65
 73
     2
 40
3.75
 49
3.0
 74
     0
 49
-0.75
 74
     0
  0
LTYPE
  5
50
330
5
100
AcDbSymbolTableRecord
100
AcDbLinetypeTableRecord
  2
AM_ISO08W050X2
 70
     0
  3
__ . __ . __ . __ . __ . __
 72
    65
 73
     4
 40
9.0
 49
6.0
 74
     0
 49
-0.75
 74
     0
 49
1.5
 74
     0
 49
-0.75
 74
     0
  0
LTYPE
  5
53
330
5
100
AcDbSymbolTableRecord
100
AcDbLinetypeTableRecord
  2
AMZIGZAG
 70
     0
  3
/\/-/\/-/\/-/\/-/\/-/\/
 72
    65
 73
     2
 40
11.00009999999999
 49
0.0001
 74
     4
 75
   135
340
52
 46
0.04
 50
0.0
 44
0.0
 45
0.0
 49
-11.0
 74
     0
  0
LTYPE
  5
166
330
5
100
AcDbSymbolTableRecord
100
AcDbLinetypeTableRecord
  2
ACJISTGL
 70
     0
  3
_ _ _ _ _
 72
    65
 73
     2
 40
3.0
 49
2.0
 74
     0
 49
-1.0
 74
     0
  0
LTYPE
  5
26A
330
5
100
AcDbSymbolTableRecord
100
AcDbLinetypeTableRecord
  2
ACJISTGB
 70
     0
  3
__ . . __ . .
 72
    65
 73
     6
 40
9.0
 49
4.0
 74
     0
 49
-1.0
 74
     0
 49
1.0
 74
     0
 49
-1.0
 74
     0
 49
1.0
 74
     0
 49
-1.0
 74
     0
  0
ENDTAB
  0
TABLE
  2
LAYER
  5
2
330
0
100
AcDbSymbolTable
 70
     9
  0
LAYER
  5
10
330
2
100
AcDbSymbolTableRecord
100
AcDbLayerTableRecord
  2
0
 70
     0
 62
     7
  6
CONTINUOUS
  0
LAYER
  5
3F9
330
2
100
AcDbSymbolTableRecord
100
AcDbLayerTableRecord
  2
AM_0
 70
     0
 62
     7
  6
CONTINUOUS
  0
LAYER
  5
BD6
330
2
100
AcDbSymbolTableRecord
100
AcDbLayerTableRecord
  2
AM_11
 70
     0
 62
     3
  6
AM_ISO09W050
  0
LAYER
  5
BD7
330
2
100
AcDbSymbolTableRecord
100
AcDbLayerTableRecord
  2
AM_7
 70
     0
 62
     4
  6
AM_ISO08W050
  0
LAYER
  5
BD8
330
2
100
AcDbSymbolTableRecord
100
AcDbLayerTableRecord
  2
AM_5
 70
     0
 62
     3
  6
CONTINUOUS
  0
LAYER
  5
BD9
330
2
100
AcDbSymbolTableRecord
100
AcDbLayerTableRecord
  2
DEFPOINTS
 70
     0
 62
     7
  6
CONTINUOUS
  0
LAYER
  5
BDA
330
2
100
AcDbSymbolTableRecord
100
AcDbLayerTableRecord
  2
AM_6
 70
     0
 62
     2
  6
CONTINUOUS
  0
LAYER
  5
196C
330
2
100
AcDbSymbolTableRecord
100
AcDbLayerTableRecord
  2
AM_4
 70
     0
 62
     3
  6
CONTINUOUS
  0
LAYER
  5
19A2
330
2
100
AcDbSymbolTableRecord
100
AcDbLayerTableRecord
  2
AM_CL
 70
     0
 62
     1
  6
AMCONSTR
  0
ENDTAB
  0
TABLE
  2
STYLE
  5
3
330
0
100
AcDbSymbolTable
 70
     5
  0
STYLE
  5
11
330
3
100
AcDbSymbolTableRecord
100
AcDbTextStyleTableRecord
  2
STANDARD
 70
     0
 40
0.0
 41
1.0
 50
0.0
 71
     0
 42
2.5
  3
simplex.shx
  4
EXTFONT.SHX
  0
STYLE
  5
52
330
3
100
AcDbSymbolTableRecord
100
AcDbTextStyleTableRecord
  2

 70
     1
 40
0.0
 41
1.0
 50
0.0
 71
     0
 42
2.5
  3
ltypeshp.shx
  4

  0
STYLE
  5
6B
330
3
100
AcDbSymbolTableRecord
100
AcDbTextStyleTableRecord
  2
ASAMI
 70
     0
 40
0.0
 41
1.0
 50
0.0
 71
     0
 42
2.5
  3
simplex.shx
  4
EXTFONT.SHX
  0
STYLE
  5
262
330
3
100
AcDbSymbolTableRecord
100
AcDbTextStyleTableRecord
  2
ACJISTS
 70
     0
 40
1.0
 41
1.0
 50
0.0
 71
     0
 42
2.5
  3
simplex.shx
  4
bigfont.shx
  0
STYLE
  5
269
330
3
100
AcDbSymbolTableRecord
100
AcDbTextStyleTableRecord
  2
ACJISGDT
 70
     0
 40
0.0
 41
1.0
 50
0.0
 71
     0
 42
2.5
  3
amgdtans.shx
  4

  0
ENDTAB
  0
TABLE
  2
VIEW
  5
6
330
0
100
AcDbSymbolTable
 70
     0
  0
ENDTAB
  0
TABLE
  2
UCS
  5
7
330
0
100
AcDbSymbolTable
 70
     0
  0
ENDTAB
  0
TABLE
  2
APPID
  5
9
330
0
100
AcDbSymbolTable
 70
    13
  0
APPID
  5
12
330
9
100
AcDbSymbolTableRecord
100
AcDbRegAppTableRecord
  2
ACAD
 70
     0
  0
APPID
  5
30
330
9
100
AcDbSymbolTableRecord
100
AcDbRegAppTableRecord
  2
MCAD_NO_VIS
 70
     0
  0
APPID
  5
31
330
9
100
AcDbSymbolTableRecord
100
AcDbRegAppTableRecord
  2
ACAD_TEMP_GRAPHIC
 70
     0
  0
APPID
  5
2C2
330
9
100
AcDbSymbolTableRecord
100
AcDbRegAppTableRecord
  2
GENIUS_GENDTOL_13
 70
     0
  0
APPID
  5
339
330
9
100
AcDbSymbolTableRecord
100
AcDbRegAppTableRecord
  2
GENIUS_GENODEF_13
 70
     0
  0
APPID
  5
33A
330
9
100
AcDbSymbolTableRecord
100
AcDbRegAppTableRecord
  2
GENIUS_GENOBJ-N-RSBK_13
 70
     0
  0
APPID
  5
33B
330
9
100
AcDbSymbolTableRecord
100
AcDbRegAppTableRecord
  2
GENIUS_GENOBJ-N-LIB_13
 70
     0
  0
APPID
  5
33C
330
9
100
AcDbSymbolTableRecord
100
AcDbRegAppTableRecord
  2
GENIUS_GENSCALE_13
 70
     0
  0
APPID
  5
378
330
9
100
AcDbSymbolTableRecord
100
AcDbRegAppTableRecord
  2
GENIUS_GENDIMSH_14
 70
     0
  0
APPID
  5
BDB
330
9
100
AcDbSymbolTableRecord
100
AcDbRegAppTableRecord
  2
GENIUS_GENOBJ-N-CEN_13
 70
     0
  0
APPID
  5
BDC
330
9
100
AcDbSymbolTableRecord
100
AcDbRegAppTableRecord
  2
GENIUS_GENFIL_13
 70
     0
  0
APPID
  5
BDD
330
9
100
AcDbSymbolTableRecord
100
AcDbRegAppTableRecord
  2
GENIUS_GENOBJ-N-FIL_13
 70
     0
  0
APPID
  5
12AD
330
9
100
AcDbSymbolTableRecord
100
AcDbRegAppTableRecord
  2
GENIUS_GENOREF_13
 70
     0
  0
ENDTAB
  0
TABLE
  2
DIMSTYLE
  5
A
330
0
100
AcDbSymbolTable
 70
     8
  0
DIMSTYLE
105
58
102
{ACAD_REACTORS
330
21F7
330
2260
330
2270
330
2368
102
}
330
A
100
AcDbSymbolTableRecord
100
AcDbDimStyleTableRecord
  2
AM_JIS
 70
     0
  3

  4
"
  5
OPEN30
  6

  7

 40
0.5
 41
2.5
 42
1.0
 43
12.0
 44
1.0
 45
0.0
 46
0.0
 47
0.1
 48
0.1
140
3.2
141
0.0
142
0.0
143
0.0393701
144
1.0
145
0.0
146
0.71
147
1.5
 71
     0
 72
     0
 73
     0
 74
     0
 75
     0
 76
     0
 77
     3
 78
     8
170
     0
171
     2
172
     1
173
     0
174
     0
175
     0
176
   256
177
   256
178
     2
270
     2
271
     3
272
     3
273
     2
274
     2
340
6B
275
     0
280
     0
281
     0
282
     0
283
     0
284
     0
285
     0
286
     0
287
     3
288
     0
  0
DIMSTYLE
105
5F
330
A
100
AcDbSymbolTableRecord
100
AcDbDimStyleTableRecord
  2
AM_JIS$3
 70
     0
  3

  4
"
  5
OPEN30
  6

  7

 40
0.5
 41
2.5
 42
1.0
 43
10.0
 44
1.0
 45
0.0
 46
0.0
 47
0.1
 48
0.1
140
3.2
141
0.0
142
0.0
143
0.0393701
144
1.0
145
0.0
146
0.71
147
1.5
 71
     0
 72
     0
 73
     0
 74
     1
 75
     0
 76
     0
 77
     3
 78
     8
170
     0
171
     2
172
     0
173
     0
174
     0
175
     0
176
   256
177
   256
178
     2
270
     2
271
     2
272
     3
273
     2
274
     2
340
6B
275
     0
280
     0
281
     0
282
     0
283
     0
284
     0
285
     0
286
     0
287
     0
288
     1
  0
DIMSTYLE
105
60
330
A
100
AcDbSymbolTableRecord
100
AcDbDimStyleTableRecord
  2
AM_JIS$4
 70
     0
  3

  4
"
  5
OPEN30
  6

  7

 40
0.5
 41
2.5
 42
1.0
 43
10.0
 44
1.0
 45
0.0
 46
0.0
 47
0.1
 48
0.1
140
3.2
141
0.0
142
0.0
143
0.0393701
144
1.0
145
0.0
146
0.71
147
1.5
 71
     0
 72
     0
 73
     0
 74
     1
 75
     0
 76
     0
 77
     3
 78
     8
170
     0
171
     2
172
     0
173
     0
174
     0
175
     0
176
   256
177
   256
178
     2
270
     2
271
     2
272
     3
273
     2
274
     2
340
6B
275
     0
280
     0
281
     0
282
     0
283
     0
284
     0
285
     0
286
     0
287
     0
288
     1
  0
DIMSTYLE
105
61
330
A
100
AcDbSymbolTableRecord
100
AcDbDimStyleTableRecord
  2
AM_JIS$6
 70
     0
  3

  4
"
  5
OPEN30
  6

  7

 40
0.5
 41
2.5
 42
1.0
 43
10.0
 44
1.0
 45
0.0
 46
0.0
 47
0.1
 48
0.1
140
3.2
141
0.0
142
0.0
143
0.0393701
144
1.0
145
0.0
146
0.71
147
1.5
 71
     0
 72
     0
 73
     0
 74
     0
 75
     0
 76
     0
 77
     0
 78
     8
170
     0
171
     2
172
     1
173
     0
174
     0
175
     0
176
   256
177
   256
178
     2
270
     2
271
     2
272
     2
273
     2
274
     2
340
6B
275
     0
280
     0
281
     0
282
     0
283
     0
284
     0
285
     0
286
     0
287
     3
288
     0
  0
DIMSTYLE
105
62
330
A
100
AcDbSymbolTableRecord
100
AcDbDimStyleTableRecord
  2
AM_JIS$7
 70
     0
  3

  4
"
  5
OPEN30
  6

  7

 40
0.5
 41
2.5
 42
1.0
 43
10.0
 44
1.0
 45
0.0
 46
0.0
 47
0.1
 48
0.1
140
3.2
141
0.0
142
0.0
143
0.0393701
144
1.0
145
0.0
146
0.71
147
1.5
 71
     0
 72
     0
 73
     0
 74
     0
 75
     0
 76
     0
 77
     3
 78
     8
170
     0
171
     2
172
     1
173
     0
174
     0
175
     0
176
   256
177
   256
178
     2
270
     2
271
     2
272
     3
273
     2
274
     2
340
6B
275
     0
280
     0
281
     0
282
     0
283
     0
284
     0
285
     0
286
     0
287
     3
288
     0
  0
DIMSTYLE
105
63
330
A
100
AcDbSymbolTableRecord
100
AcDbDimStyleTableRecord
  2
AM_JIS$SF
 70
     0
  3

  4
"
  5
OPEN30
  6

  7

 40
0.5
 41
2.5
 42
1.0
 43
10.0
 44
1.0
 45
0.0
 46
0.0
 47
0.1
 48
0.1
140
3.2
141
0.0
142
0.0
143
0.0393701
144
1.0
145
0.0
146
0.71
147
1.5
 71
     0
 72
     0
 73
     0
 74
     0
 75
     1
 76
     1
 77
     3
 78
     8
170
     0
171
     2
172
     1
173
     0
174
     0
175
     0
176
   256
177
   256
178
     2
270
     2
271
     2
272
     2
273
     2
274
     2
340
6B
275
     0
280
     0
281
     0
282
     0
283
     0
284
     0
285
     0
286
     0
287
     3
288
     0
  0
DIMSTYLE
105
68
330
A
100
AcDbSymbolTableRecord
100
AcDbDimStyleTableRecord
  2
AM_JIS$SH
 70
     0
  3

  4
"
  5

  6
GENAXEH
  7
OPEN30
 40
0.5
 41
2.5
 42
1.0
 43
10.0
 44
1.0
 45
0.0
 46
0.0
 47
0.1
 48
0.1
140
3.2
141
0.0
142
0.0
143
0.0393701
144
2.0
145
0.0
146
0.71
147
1.5
 71
     0
 72
     0
 73
     0
 74
     0
 75
     1
 76
     1
 77
     3
 78
     8
170
     0
171
     2
172
     1
173
     1
174
     0
175
     0
176
   256
177
   256
178
     2
270
     2
271
     2
272
     2
273
     2
274
     2
340
6B
275
     0
280
     0
281
     0
282
     0
283
     0
284
     0
285
     0
286
     0
287
     3
288
     0
  0
DIMSTYLE
105
B34
330
A
100
AcDbSymbolTableRecord
100
AcDbDimStyleTableRecord
  2
AM_JIS$2
 70
     0
  3

  4
"
  5
OPEN30
  6

  7

 40
0.5
 41
2.5
 42
1.0
 43
12.0
 44
1.0
 45
0.0
 46
0.0
 47
0.1
 48
0.1
140
3.2
141
0.0
142
0.0
143
0.0393701
144
1.0
145
0.0
146
0.71
147
1.5
 71
     0
 72
     0
 73
     0
 74
     0
 75
     0
 76
     0
 77
     3
 78
     8
170
     0
171
     2
172
     1
173
     0
174
     0
175
     0
176
   256
177
   256
178
     2
270
     2
271
     3
272
     3
273
     2
274
     2
340
6B
275
     0
280
     0
281
     0
282
     0
283
     0
284
     0
285
     0
286
     0
287
     3
288
     0
  0
ENDTAB
  0
TABLE
  2
BLOCK_RECORD
  5
1
330
0
100
AcDbSymbolTable
 70
    24
  0
BLOCK_RECORD
  5
1F
102
{ACAD_XDICTIONARY
360
74
102
}
330
1
100
AcDbSymbolTableRecord
100
AcDbBlockTableRecord
  2
*MODEL_SPACE
  0
BLOCK_RECORD
  5
101
102
{ACAD_XDICTIONARY
360
24AD
102
}
330
1
100
AcDbSymbolTableRecord
100
AcDbBlockTableRecord
  2
*PAPER_SPACE
  0
BLOCK_RECORD
  5
59
330
1
100
AcDbSymbolTableRecord
100
AcDbBlockTableRecord
  2
_OPEN30
  0
BLOCK_RECORD
  5
64
330
1
100
AcDbSymbolTableRecord
100
AcDbBlockTableRecord
  2
GENAXEH
  0
BLOCK_RECORD
  5
21F8
330
1
100
AcDbSymbolTableRecord
100
AcDbBlockTableRecord
  2
*D19
  0
BLOCK_RECORD
  5
2261
330
1
100
AcDbSymbolTableRecord
100
AcDbBlockTableRecord
  2
*D21
  0
BLOCK_RECORD
  5
2271
330
1
100
AcDbSymbolTableRecord
100
AcDbBlockTableRecord
  2
*D22
  0
BLOCK_RECORD
  5
2369
330
1
100
AcDbSymbolTableRecord
100
AcDbBlockTableRecord
  2
*D23
  0
ENDTAB
  0
ENDSEC
  0
SECTION
  2
BLOCKS
  0
BLOCK
  5
20
330
1F
100
AcDbEntity
  8
0
100
AcDbBlockBegin
  2
*MODEL_SPACE
 70
     0
 10
0.0
 20
0.0
 30
0.0
  3
*MODEL_SPACE
  1

  0
ENDBLK
  5
21
330
1F
100
AcDbEntity
  8
0
100
AcDbBlockEnd
  0
BLOCK
  5
103
330
101
100
AcDbEntity
 67
     1
  8
0
100
AcDbBlockBegin
  2
*PAPER_SPACE
 70
     0
 10
0.0
 20
0.0
 30
0.0
  3
*PAPER_SPACE
  1

  0
ENDBLK
  5
104
330
101
100
AcDbEntity
 67
     1
  8
0
100
AcDbBlockEnd
  0
BLOCK
  5
5D
330
59
100
AcDbEntity
  8
0
100
AcDbBlockBegin
  2
_OPEN30
 70
     0
 10
0.0
 20
0.0
 30
0.0
  3
_OPEN30
  1

  0
LINE
  5
5A
330
59
100
AcDbEntity
  8
0
 62
     0
100
AcDbLine
 10
-1.0
 20
0.26794919
 30
0.0
 11
0.0
 21
0.0
 31
0.0
  0
LINE
  5
5B
330
59
100
AcDbEntity
  8
0
 62
     0
100
AcDbLine
 10
0.0
 20
0.0
 30
0.0
 11
-1.0
 21
-0.26794919
 31
0.0
  0
LINE
  5
5C
330
59
100
AcDbEntity
  8
0
 62
     0
100
AcDbLine
 10
0.0
 20
0.0
 30
0.0
 11
-1.0
 21
0.0
 31
0.0
  0
ENDBLK
  5
5E
330
59
100
AcDbEntity
  8
0
100
AcDbBlockEnd
  0
BLOCK
  5
66
330
64
100
AcDbEntity
  8
0
100
AcDbBlockBegin
  2
GENAXEH
 70
     0
 10
0.0
 20
0.0
 30
0.0
  3
GENAXEH
  1

  0
LINE
  5
65
330
64
100
AcDbEntity
  8
0
100
AcDbLine
 10
-1.0
 20
0.0
 30
0.0
 11
1.0
 21
0.0
 31
0.0
  0
ENDBLK
  5
67
330
64
100
AcDbEntity
  8
0
100
AcDbBlockEnd
  0
BLOCK
  5
2202
330
21F8
100
AcDbEntity
  8
0
100
AcDbBlockBegin
  2
*D19
 70
     1
 10
0.0
 20
0.0
 30
0.0
  3
*D19
  1

  0
LINE
  5
2443
330
21F8
100
AcDbEntity
  8
AM_5
100
AcDbLine
 10
0.4999999999999432
 20
5.999999999999996
 30
0.0
 11
10.76687941353313
 21
5.999999999999992
 31
0.0
  0
LINE
  5
2444
330
21F8
100
AcDbEntity
  8
AM_5
100
AcDbLine
 10
0.49999999999973
 20
-6.000000000014952
 30
0.0
 11
10.76687941353313
 21
-6.000000000014956
 31
0.0
  0
LINE
  5
2445
330
21F8
100
AcDbEntity
  8
AM_5
100
AcDbLine
 10
10.26687941353313
 20
4.749999999999992
 30
0.0
 11
10.26687941353313
 21
-4.750000000014956
 31
0.0
  0
INSERT
  5
2446
330
21F8
100
AcDbEntity
  8
AM_5
100
AcDbBlockReference
  2
_OPEN30
 10
10.26687941353313
 20
5.999999999999992
 30
0.0
 41
1.25
 42
1.25
 43
1.25
 50
90.0
  0
INSERT
  5
2447
330
21F8
100
AcDbEntity
  8
AM_5
100
AcDbBlockReference
  2
_OPEN30
 10
10.26687941353313
 20
-6.000000000014956
 30
0.0
 41
1.25
 42
1.25
 43
1.25
 50
270.0
  0
MTEXT
  5
2448
330
21F8
100
AcDbEntity
  8
AM_5
 62
     2
100
AcDbMText
 10
8.716879413533133
 20
-0.0000000000074793
 30
0.0
 40
1.6
 41
0.0
 71
     5
 72
     1
  1
%%c12
  7
ASAMI
 11
0.0000000000000001
 21
1.0
 31
0.0
1001
ACAD
1000
MTEXTBEGIN
1070
    73
1070
     1
1070
    44
1040
1.0
1070
    74
1070
     0
1000
MTEXTEND
  0
POINT
  5
2449
330
21F8
100
AcDbEntity
  8
DEFPOINTS
 62
     0
100
AcDbPoint
 10
-0.0000000000000568
 20
5.999999999999996
 30
0.0
  0
POINT
  5
244A
330
21F8
100
AcDbEntity
  8
DEFPOINTS
 62
     0
100
AcDbPoint
 10
-0.00000000000027
 20
-6.000000000014952
 30
0.0
  0
POINT
  5
244B
330
21F8
100
AcDbEntity
  8
DEFPOINTS
 62
     0
100
AcDbPoint
 10
10.26687941353313
 20
-6.000000000014956
 30
0.0
  0
ENDBLK
  5
2203
330
21F8
100
AcDbEntity
  8
0
100
AcDbBlockEnd
  0
BLOCK
  5
226B
330
2261
100
AcDbEntity
  8
0
100
AcDbBlockBegin
  2
*D21
 70
     1
 10
0.0
 20
0.0
 30
0.0
  3
*D21
  1

  0
LINE
  5
243A
330
2261
100
AcDbEntity
  8
AM_5
100
AcDbLine
 10
-74.75000000000005
 20
-6.0
 30
0.0
 11
-86.32909997285336
 21
-5.999999999999997
 31
0.0
  0
LINE
  5
243B
330
2261
100
AcDbEntity
  8
AM_5
100
AcDbLine
 10
-74.75000000000005
 20
5.999999999999997
 30
0.0
 11
-86.32909997285336
 21
6.0
 31
0.0
  0
LINE
  5
243C
330
2261
100
AcDbEntity
  8
AM_5
100
AcDbLine
 10
-85.82909997285335
 20
-4.749999999999998
 30
0.0
 11
-85.82909997285335
 21
4.75
 31
0.0
  0
INSERT
  5
243D
330
2261
100
AcDbEntity
  8
AM_5
100
AcDbBlockReference
  2
_OPEN30
 10
-85.82909997285335
 20
-5.999999999999998
 30
0.0
 41
1.25
 42
1.25
 43
1.25
 50
270.0
  0
INSERT
  5
243E
330
2261
100
AcDbEntity
  8
AM_5
100
AcDbBlockReference
  2
_OPEN30
 10
-85.82909997285335
 20
6.0
 30
0.0
 41
1.25
 42
1.25
 43
1.25
 50
90.0
  0
MTEXT
  5
243F
330
2261
100
AcDbEntity
  8
AM_5
 62
     2
100
AcDbMText
 10
-87.37909997285335
 20
-0.000000000000015
 30
0.0
 40
1.6
 41
0.0
 71
     5
 72
     1
  1
%%c12
  7
ASAMI
 11
0.0000000000000001
 21
1.0
 31
0.0
1001
ACAD
1000
MTEXTBEGIN
1070
    73
1070
     1
1070
    44
1040
1.0
1070
    74
1070
     0
1000
MTEXTEND
  0
POINT
  5
2440
330
2261
100
AcDbEntity
  8
DEFPOINTS
 62
     0
100
AcDbPoint
 10
-74.25000000000006
 20
-6.0
 30
0.0
  0
POINT
  5
2441
330
2261
100
AcDbEntity
  8
DEFPOINTS
 62
     0
100
AcDbPoint
 10
-74.25000000000006
 20
5.999999999999997
 30
0.0
  0
POINT
  5
2442
330
2261
100
AcDbEntity
  8
DEFPOINTS
 62
     0
100
AcDbPoint
 10
-85.82909997285335
 20
6.0
 30
0.0
  0
ENDBLK
  5
226C
330
2261
100
AcDbEntity
  8
0
100
AcDbBlockEnd
  0
BLOCK
  5
227B
330
2271
100
AcDbEntity
  8
0
100
AcDbBlockBegin
  2
*D22
 70
     1
 10
0.0
 20
0.0
 30
0.0
  3
*D22
  1

  0
LINE
  5
2431
330
2271
100
AcDbEntity
  8
AM_5
100
AcDbLine
 10
-75.00000000000006
 20
-4.999999999999995
 30
0.0
 11
-75.00000000000006
 21
-19.50000101001366
 31
0.0
  0
LINE
  5
2432
330
2271
100
AcDbEntity
  8
AM_5
100
AcDbLine
 10
-0.000000000000057
 20
-6.50000000001582
 30
0.0
 11
-0.0000000000000578
 21
-19.50000101001366
 31
0.0
  0
LINE
  5
2433
330
2271
100
AcDbEntity
  8
AM_5
100
AcDbLine
 10
-73.75000000000006
 20
-19.00000101001366
 30
0.0
 11
-1.250000000000057
 21
-19.00000101001366
 31
0.0
  0
INSERT
  5
2434
330
2271
100
AcDbEntity
  8
AM_5
100
AcDbBlockReference
  2
_OPEN30
 10
-75.00000000000006
 20
-19.00000101001366
 30
0.0
 41
1.25
 42
1.25
 43
1.25
 50
180.0
  0
INSERT
  5
2435
330
2271
100
AcDbEntity
  8
AM_5
100
AcDbBlockReference
  2
_OPEN30
 10
-0.0000000000000577
 20
-19.00000101001366
 30
0.0
 41
1.25
 42
1.25
 43
1.25
  0
MTEXT
  5
2436
330
2271
100
AcDbEntity
  8
AM_5
 62
     2
100
AcDbMText
 10
-37.50000000000005
 20
-17.45000101001366
 30
0.0
 40
1.6
 41
0.0
 71
     5
 72
     1
  1
75
  7
ASAMI
1001
ACAD
1000
MTEXTBEGIN
1070
    73
1070
     1
1070
    44
1040
1.0
1070
    74
1070
     0
1000
MTEXTEND
  0
POINT
  5
2437
330
2271
100
AcDbEntity
  8
DEFPOINTS
 62
     0
100
AcDbPoint
 10
-75.00000000000006
 20
-4.499999999999995
 30
0.0
  0
POINT
  5
2438
330
2271
100
AcDbEntity
  8
DEFPOINTS
 62
     0
100
AcDbPoint
 10
-0.0000000000000569
 20
-6.00000000001582
 30
0.0
  0
POINT
  5
2439
330
2271
100
AcDbEntity
  8
DEFPOINTS
 62
     0
100
AcDbPoint
 10
-0.0000000000000577
 20
-19.00000101001366
 30
0.0
  0
ENDBLK
  5
227C
330
2271
100
AcDbEntity
  8
0
100
AcDbBlockEnd
  0
BLOCK
  5
2373
330
2369
100
AcDbEntity
  8
0
100
AcDbBlockBegin
  2
*D23
 70
     1
 10
0.0
 20
0.0
 30
0.0
  3
*D23
  1

  0
LINE
  5
2428
330
2369
100
AcDbEntity
  8
AM_5
100
AcDbLine
 10
-24.00015054094432
 20
-6.500000000000003
 30
0.0
 11
-24.00015054094432
 21
-13.50000101001497
 31
0.0
  0
LINE
  5
2429
330
2369
100
AcDbEntity
  8
AM_5
100
AcDbLine
 10
-0.000000000000057
 20
-6.50000000001582
 30
0.0
 11
-0.0000000000000574
 21
-13.50000101001497
 31
0.0
  0
LINE
  5
242A
330
2369
100
AcDbEntity
  8
AM_5
100
AcDbLine
 10
-22.75015054094432
 20
-13.00000101001497
 30
0.0
 11
-1.250000000000057
 21
-13.00000101001497
 31
0.0
  0
INSERT
  5
242B
330
2369
100
AcDbEntity
  8
AM_5
100
AcDbBlockReference
  2
_OPEN30
 10
-24.00015054094432
 20
-13.00000101001497
 30
0.0
 41
1.25
 42
1.25
 43
1.25
 50
180.0
  0
INSERT
  5
242C
330
2369
100
AcDbEntity
  8
AM_5
100
AcDbBlockReference
  2
_OPEN30
 10
-0.0000000000000574
 20
-13.00000101001497
 30
0.0
 41
1.25
 42
1.25
 43
1.25
  0
MTEXT
  5
242D
330
2369
100
AcDbEntity
  8
AM_5
 62
     2
100
AcDbMText
 10
-12.00007527047219
 20
-11.45000101001497
 30
0.0
 40
1.6
 41
0.0
 71
     5
 72
     1
  1
24
  7
ASAMI
1001
ACAD
1000
MTEXTBEGIN
1070
    73
1070
     1
1070
    44
1040
1.0
1070
    74
1070
     0
1000
MTEXTEND
  0
POINT
  5
242E
330
2369
100
AcDbEntity
  8
DEFPOINTS
 62
     0
100
AcDbPoint
 10
-24.00015054094432
 20
-6.000000000000003
 30
0.0
  0
POINT
  5
242F
330
2369
100
AcDbEntity
  8
DEFPOINTS
 62
     0
100
AcDbPoint
 10
-0.000000000000057
 20
-6.00000000001582
 30
0.0
  0
POINT
  5
2430
330
2369
100
AcDbEntity
  8
DEFPOINTS
 62
     0
100
AcDbPoint
 10
-0.0000000000000574
 20
-13.00000101001497
 30
0.0
  0
ENDBLK
  5
2374
330
2369
100
AcDbEntity
  8
0
100
AcDbBlockEnd
  0
ENDSEC
  0
SECTION
  2
ENTITIES
  0
TEXT
  5
C58
330
1F
100
AcDbEntity
  8
AM_6
100
AcDbText
 10
-48.09523809523814
 20
-30.2500010100137
 30
0.0
 40
2.5
  1
HHM6120ZX
 50
0.0000000000002036
 72
     4
 11
-37.50000000000005
 21
-29.00000101001366
 31
0.0
100
AcDbText
  0
DIMENSION
  5
21F7
330
1F
100
AcDbEntity
  8
AM_5
100
AcDbDimension
  2
*D19
 10
10.26687941353313
 20
-6.000000000014956
 30
0.0
 11
8.716879413533133
 21
-0.0000000000074793
 31
0.0
 70
    32
  1
%%c<>
  3
AM_JIS
100
AcDbAlignedDimension
 13
-0.0000000000000568
 23
5.999999999999996
 33
0.0
 14
-0.00000000000027
 24
-6.000000000014952
 34
0.0
 50
90.0
100
AcDbRotatedDimension
1001
GENIUS_GENDTOL_13
1000

1000
h7
1000

1040
0.0
  0
LINE
  5
225A
330
1F
100
AcDbEntity
  8
AM_0
100
AcDbLine
 10
-61.57285295280455
 20
5.999999999999932
 30
0.0
 11
-63.13846539007328
 21
5.999999999999932
 31
0.0
  0
LINE
  5
225B
330
1F
100
AcDbEntity
  8
AM_0
100
AcDbLine
 10
-61.00998373782462
 20
-6.000000000000137
 30
0.0
 11
-63.13846539007328
 21
-6.000000000000137
 31
0.0
  0
LINE
  5
225C
330
1F
100
AcDbEntity
  8
AM_0
100
AcDbLine
 10
-75.00000000000006
 20
-4.499999999999995
 30
0.0
 11
-74.25000000000006
 21
-5.999999999999995
 31
0.0
1001
GENIUS_GENFIL_13
1070
     0
1040
0.5
1040
0.5
1040
0.4999999999999716
1040
45.00000000000036
1002
{
1002
}
  0
LINE
  5
225D
330
1F
100
AcDbEntity
  8
AM_0
100
AcDbLine
 10
-75.00000000000006
 20
-4.499999999999995
 30
0.0
 11
-75.00000000000006
 21
4.500000000000002
 31
0.0
  0
LINE
  5
225E
330
1F
100
AcDbEntity
  8
AM_0
100
AcDbLine
 10
-75.00000000000006
 20
4.500000000000002
 30
0.0
 11
-74.25000000000006
 21
5.999999999999996
 31
0.0
1001
GENIUS_GENFIL_13
1070
     0
1040
0.5
1040
0.5
1040
0.4999999999999716
1040
45.0
1002
{
1002
}
  0
LINE
  5
225F
330
1F
100
AcDbEntity
  8
0
100
AcDbLine
 10
-74.25000000000006
 20
-5.999999999999995
 30
0.0
 11
-74.25000000000006
 21
5.999999999999996
 31
0.0
  0
DIMENSION
  5
2260
330
1F
100
AcDbEntity
  8
AM_5
100
AcDbDimension
  2
*D21
 10
-85.82909997285335
 20
6.0
 30
0.0
 11
-85.82909997285335
 21
-0.0000000000000152
 31
0.0
 70
   160
  1
%%c<>
  3
AM_JIS
100
AcDbAlignedDimension
 13
-74.25000000000006
 23
-6.0
 33
0.0
 14
-74.25000000000006
 24
5.999999999999997
 34
0.0
 50
270.0
100
AcDbRotatedDimension
1001
ACAD
1000
DSTYLE
1002
{
1070
    48
1040
0.1
1070
    47
1040
0.1
1070
   274
1070
     2
1070
   272
1070
     3
1002
}
1001
GENIUS_GENDTOL_13
1000

1000
h6
1000

1040
0.0
  0
LINE
  5
226D
330
1F
100
AcDbEntity
  8
AM_0
100
AcDbLine
 10
-74.25000000000006
 20
5.999999999999996
 30
0.0
 11
-30.09025104556286
 21
5.999999999999996
 31
0.0
1001
GENIUS_GENODEF_13
1002
{
1000
HIER
1070
     0
1002
}
1002
{
1000
MANEDIT
1070
     0
1002
}
1002
{
1000
NOSEL
1070
     0
1002
}
1002
{
1000
BEHIND
1070
     0
1002
}
1002
{
1000
REACTOR
1002
}
1001
GENIUS_GENOBJ-N-CEN_13
1002
{
1000
OWNER
1000
GEN
1002
}
  0
LINE
  5
226E
330
1F
100
AcDbEntity
  8
AM_0
100
AcDbLine
 10
-74.25000000000006
 20
-5.999999999999995
 30
0.0
 11
-25.12015756618873
 21
-5.999999999999995
 31
0.0
1001
GENIUS_GENODEF_13
1002
{
1000
HIER
1070
     0
1002
}
1002
{
1000
MANEDIT
1070
     0
1002
}
1002
{
1000
NOSEL
1070
     0
1002
}
1002
{
1000
BEHIND
1070
     0
1002
}
1002
{
1000
REACTOR
1002
}
1001
GENIUS_GENOBJ-N-CEN_13
1002
{
1000
OWNER
1000
GEN
1002
}
  0
LINE
  5
226F
330
1F
100
AcDbEntity
  8
AM_7
100
AcDbLine
 10
-78.82909897285329
 20
-0.0000000000000036
 30
0.0
 11
3.266878413533055
 21
-0.0000000000000036
 31
0.0
1001
GENIUS_GENODEF_13
1002
{
1000
HIER
1070
     0
1002
}
1002
{
1000
MANEDIT
1070
     0
1002
}
1002
{
1000
NOSEL
1070
     0
1002
}
1002
{
1000
BEHIND
1070
     0
1002
}
1002
{
1000
REACTOR
1002
}
1001
GENIUS_GENOBJ-N-CEN_13
1002
{
1000
OWNER
1000
GEN
1002
}
  0
DIMENSION
  5
2270
330
1F
100
AcDbEntity
  8
AM_5
100
AcDbDimension
  2
*D22
 10
-0.0000000000000577
 20
-19.00000101001366
 30
0.0
 11
-37.50000000000005
 21
-17.45000101001366
 31
0.0
 70
    32
  1
<>
  3
AM_JIS
100
AcDbAlignedDimension
 13
-75.00000000000006
 23
-4.499999999999995
 33
0.0
 14
-0.0000000000000569
 24
-6.00000000001582
 34
0.0
 50
0.0000000000002714
100
AcDbRotatedDimension
1001
GENIUS_GENDTOL_13
1000

1000
H7
1000

1040
0.0
  0
LINE
  5
2312
330
1F
100
AcDbEntity
  8
AM_0
100
AcDbLine
 10
-0.2160013548686203
 20
4.403713764910936
 30
0.0
 11
-0.0000000000011369
 21
3.120059990638171
 31
0.0
  0
LINE
  5
2313
330
1F
100
AcDbEntity
  8
AM_0
100
AcDbLine
 10
-0.3414378651613763
 20
0.5399999999995088
 30
0.0
 11
-0.5062427882706037
 21
0.0
 31
0.0
  0
LINE
  5
2314
330
1F
100
AcDbEntity
  8
AM_0
100
AcDbLine
 10
-0.3244034090267148
 20
0.5699269208101221
 30
0.0
 11
-0.0000000000003411
 21
1.13985384162024
 31
0.0
  0
LINE
  5
2315
330
1F
100
AcDbEntity
  8
AM_0
100
AcDbLine
 10
-0.5062427882706037
 20
0.0
 30
0.0
 11
-0.0000000000003411
 21
1.13985384162024
 31
0.0
  0
LINE
  5
2316
330
1F
100
AcDbEntity
  8
AM_0
100
AcDbLine
 10
-0.0000000000003411
 20
-3.120059990637354
 30
0.0
 11
-0.0000000000003411
 21
-1.079999999999699
 31
0.0
  0
ELLIPSE
  5
2317
330
1F
100
AcDbEntity
  8
AM_0
100
AcDbEllipse
 10
7.935254318068147
 20
-3.50367979900562
 30
0.0
 11
-8.318650961227696
 21
0.0000000233170595
 31
0.0
210
0.0
220
0.0
230
1.0
 40
0.9999937275000403
 41
0.2009514484579937
 42
0.3047859821244279
  0
LINE
  5
2318
330
1F
100
AcDbEntity
  8
AM_0
100
AcDbLine
 10
-0.2160013548686203
 20
-5.164086430792028
 30
0.0
 11
-0.0649114071708084
 21
-3.06276969606738
 31
0.0
  0
LINE
  5
2319
330
1F
100
AcDbEntity
  8
AM_0
100
AcDbLine
 10
-0.0000000000003411
 20
-6.000000000000003
 30
0.0
 11
-0.0000000000003411
 21
-1.079999999999699
 31
0.0
  0
LINE
  5
231A
330
1F
100
AcDbEntity
  8
AM_0
100
AcDbLine
 10
-0.5062427882706037
 20
0.0
 30
0.0
 11
-0.0000000000003411
 21
-1.079999999999699
 31
0.0
  0
LINE
  5
231B
330
1F
100
AcDbEntity
  8
AM_0
100
AcDbLine
 10
-0.0000000000003411
 20
-1.079999999999699
 30
0.0
 11
-0.2160013548686203
 21
-0.7603726658810963
 31
0.0
  0
ELLIPSE
  5
231C
330
1F
100
AcDbEntity
  8
AM_0
100
AcDbEllipse
 10
6.401342868081856
 20
-1.482284792050954
 30
0.0
 11
-6.656606359167209
 21
0.0000000007477143
 31
0.0
210
0.0
220
0.0
230
1.0
 40
0.9999937274999933
 41
-0.1086648831387491
 42
0.2778309425668233
  0
LINE
  5
231D
330
1F
100
AcDbEntity
  8
AM_0
100
AcDbLine
 10
-0.0000000000003411
 20
1.13985384162024
 30
0.0
 11
-0.0000000000003411
 21
5.999999999999998
 31
0.0
  0
LINE
  5
231E
330
1F
100
AcDbEntity
  8
AM_11
100
AcDbLine
 10
-0.0000000000000568
 20
-6.000000000000003
 30
0.0
 11
-0.0000000000000568
 21
5.999999999999998
 31
0.0
  0
SPLINE
  5
231F
330
1F
100
AcDbEntity
  8
AM_0
100
AcDbSpline
210
0.0
220
0.0
230
1.0
 70
     8
 71
     3
 72
     8
 73
     4
 74
     0
 42
0.0000000001
 43
0.0000000001
 40
0.0
 40
0.0
 40
0.0
 40
0.0
 40
2.345304910305074
 40
2.345304910305074
 40
2.345304910305074
 40
2.345304910305074
 10
-6.280039391547171
 20
5.999999999999996
 30
0.0
 10
-7.218167240076089
 20
5.999999999999996
 30
0.0
 10
-8.100779176077459
 20
5.80950254995066
 30
0.0
 10
-8.941864675269087
 20
5.476511174075586
 30
0.0
  0
SPLINE
  5
2320
330
1F
100
AcDbEntity
  8
AM_0
100
AcDbSpline
210
0.0
220
0.0
230
1.0
 70
     8
 71
     3
 72
     8
 73
     4
 74
     0
 42
0.0000000001
 43
0.0000000001
 40
0.0
 40
0.0
 40
0.0
 40
0.0
 40
2.345304910305074
 40
2.345304910305074
 40
2.345304910305074
 40
2.345304910305074
 10
-12.56007878309422
 20
5.999999999999932
 30
0.0
 10
-13.4982066316232
 20
5.999999999999996
 30
0.0
 10
-14.38081856762428
 20
5.80950254995059
 30
0.0
 10
-15.22190406681588
 20
5.476511174075514
 30
0.0
  0
SPLINE
  5
2321
330
1F
100
AcDbEntity
  8
AM_0
100
AcDbSpline
210
0.0
220
0.0
230
1.0
 70
     8
 71
     3
 72
     8
 73
     4
 74
     0
 42
0.0000000001
 43
0.0000000001
 40
0.0
 40
0.0
 40
0.0
 40
0.0
 40
2.345304910305074
 40
2.345304910305074
 40
2.345304910305074
 40
2.345304910305074
 10
-18.84011817464136
 20
5.999999999999932
 30
0.0
 10
-19.77824602317026
 20
5.999999999999996
 30
0.0
 10
-20.66085795917165
 20
5.80950254995059
 30
0.0
 10
-21.50194345836328
 20
5.476511174075514
 30
0.0
  0
LINE
  5
2322
330
1F
100
AcDbEntity
  8
AM_0
100
AcDbLine
 10
-1.614611208982752
 20
2.545069526944597
 30
0.0
 11
-1.614611208982752
 21
1.696769846777261
 31
0.0
  0
LINE
  5
2323
330
1F
100
AcDbEntity
  8
AM_0
100
AcDbLine
 10
-1.614611208982752
 20
-2.911540096984939
 30
0.0
 11
-1.614611208982752
 21
-3.31676984677681
 31
0.0
  0
SPLINE
  5
2324
330
1F
100
AcDbEntity
  8
AM_0
100
AcDbSpline
210
0.0
220
0.0
230
1.0
 70
     8
 71
     3
 72
     8
 73
     4
 74
     0
 42
0.0000000001
 43
0.0000000001
 40
0.0
 40
0.0
 40
0.0
 40
0.0
 40
1.168827779863518
 40
1.168827779863518
 40
1.168827779863518
 40
1.168827779863518
 10
-6.28003939154771
 20
-5.999999999999732
 30
0.0
 10
-5.812505346994655
 20
-5.999999999999732
 30
0.0
 10
-5.358759894000637
 20
-5.952685790216629
 30
0.0
 10
-4.917071402667203
 20
-5.863999290089618
 30
0.0
  0
SPLINE
  5
2325
330
1F
100
AcDbEntity
  8
AM_0
100
AcDbSpline
210
0.0
220
0.0
230
1.0
 70
     8
 71
     3
 72
     8
 73
     4
 74
     0
 42
0.0000000001
 43
0.0000000001
 40
0.0
 40
0.0
 40
0.0
 40
0.0
 40
2.01589001736573
 40
2.01589001736573
 40
2.01589001736573
 40
2.01589001736573
 10
-4.970093479374463
 20
-5.864200249519225
 30
0.0
 10
-4.163732414528366
 20
-5.864200249519225
 30
0.0
 10
-3.397204332957029
 20
-5.72484355039749
 30
0.0
 10
-2.661825283721974
 20
-5.47651117407545
 30
0.0
  0
SPLINE
  5
2326
330
1F
100
AcDbEntity
  8
AM_0
100
AcDbSpline
210
0.0
220
0.0
230
1.0
 70
     8
 71
     3
 72
     8
 73
     4
 74
     0
 42
0.0000000001
 43
0.0000000001
 40
0.0
 40
0.0
 40
0.0
 40
0.0
 40
2.01589001736573
 40
2.01589001736573
 40
2.01589001736573
 40
2.01589001736573
 10
-11.25013287092152
 20
-5.864200249519225
 30
0.0
 10
-10.44377180607542
 20
-5.864200249519225
 30
0.0
 10
-9.67724372450386
 20
-5.72484355039749
 30
0.0
 10
-8.941864675269087
 20
-5.47651117407545
 30
0.0
  0
SPLINE
  5
2327
330
1F
100
AcDbEntity
  8
AM_0
100
AcDbSpline
210
0.0
220
0.0
230
1.0
 70
     8
 71
     3
 72
     8
 73
     4
 74
     0
 42
0.0000000001
 43
0.0000000001
 40
0.0
 40
0.0
 40
0.0
 40
0.0
 40
2.01589001736573
 40
2.01589001736573
 40
2.01589001736573
 40
2.01589001736573
 10
-17.53017226246866
 20
-5.864200249519281
 30
0.0
 10
-16.72381119762256
 20
-5.864200249519353
 30
0.0
 10
-15.95728311605122
 20
-5.724843550397562
 30
0.0
 10
-15.22190406681617
 20
-5.476511174075593
 30
0.0
  0
SPLINE
  5
2328
330
1F
100
AcDbEntity
  8
AM_0
100
AcDbSpline
210
0.0
220
0.0
230
1.0
 70
     8
 71
     3
 72
     8
 73
     4
 74
     0
 42
0.0000000001
 43
0.0000000001
 40
0.0
 40
0.0
 40
0.0
 40
0.0
 40
1.168827779863518
 40
1.168827779863518
 40
1.168827779863518
 40
1.168827779863518
 10
-18.8401181746419
 20
-5.999999999999726
 30
0.0
 10
-18.37258413008882
 20
-5.99999999999979
 30
0.0
 10
-17.91883867709483
 20
-5.952685790216623
 30
0.0
 10
-17.47715018576137
 20
-5.863999290089754
 30
0.0
  0
SPLINE
  5
2329
330
1F
100
AcDbEntity
  8
AM_0
100
AcDbSpline
210
0.0
220
0.0
230
1.0
 70
     8
 71
     3
 72
     8
 73
     4
 74
     0
 42
0.0000000001
 43
0.0000000001
 40
0.0
 40
0.0
 40
0.0
 40
0.0
 40
5.584272557818021
 40
5.584272557818021
 40
5.584272557818021
 40
5.584272557818021
 10
-12.56007878309453
 20
-6.000000000000073
 30
0.0
 10
-16.2829505066861
 20
-6.000000000000072
 30
0.0
 10
-19.13154418855056
 20
-3.00000000000007
 30
0.0
 10
-21.98013787041503
 20
-0.0000000000000675
 30
0.0
  0
SPLINE
  5
232A
330
1F
100
AcDbEntity
  8
AM_0
100
AcDbSpline
210
0.0
220
0.0
230
1.0
 70
     8
 71
     3
 72
     8
 73
     4
 74
     0
 42
0.0000000001
 43
0.0000000001
 40
0.0
 40
0.0
 40
0.0
 40
0.0
 40
1.168827779863518
 40
1.168827779863518
 40
1.168827779863518
 40
1.168827779863518
 10
-12.56007878309453
 20
-5.999999999999732
 30
0.0
 10
-12.09254473854199
 20
-5.999999999999732
 30
0.0
 10
-11.63879928554746
 20
-5.952685790216629
 30
0.0
 10
-11.19711079421454
 20
-5.863999290089618
 30
0.0
  0
SPLINE
  5
232B
330
1F
100
AcDbEntity
  8
AM_0
100
AcDbSpline
210
0.0
220
0.0
230
1.0
 70
     8
 71
     3
 72
     8
 73
     4
 74
     0
 42
0.0000000001
 43
0.0000000001
 40
0.0
 40
0.0
 40
0.0
 40
0.0
 40
5.584272557818042
 40
5.584272557818042
 40
5.584272557818042
 40
5.584272557818042
 10
-6.280039391547397
 20
-5.999999999999995
 30
0.0
 10
-10.00291111513897
 20
-5.999999999999994
 30
0.0
 10
-12.85150479700346
 20
-2.999999999999997
 30
0.0
 10
-15.70009847886795
 20
0.0
 30
0.0
  0
SPLINE
  5
232C
330
1F
100
AcDbEntity
  8
AM_0
100
AcDbSpline
210
0.0
220
0.0
230
1.0
 70
     8
 71
     3
 72
     8
 73
     4
 74
     0
 42
0.0000000001
 43
0.0000000001
 40
0.0
 40
0.0
 40
0.0
 40
0.0
 40
5.548090765444937
 40
5.548090765444937
 40
5.548090765444937
 40
5.548090765444937
 10
-4.970093479374463
 20
-5.864200249519494
 30
0.0
 10
-8.668843856749496
 20
-5.864200249519493
 30
0.0
 10
-11.52949821172221
 20
-2.932100124759747
 30
0.0
 10
-14.39015256669493
 20
0.0
 30
0.0
  0
SPLINE
  5
232D
330
1F
100
AcDbEntity
  8
AM_0
100
AcDbSpline
210
0.0
220
0.0
230
1.0
 70
     8
 71
     3
 72
     8
 73
     4
 74
     0
 42
0.0000000001
 43
0.0000000001
 40
0.0
 40
0.0
 40
0.0
 40
0.0
 40
5.548090765445064
 40
5.548090765445064
 40
5.548090765445064
 40
5.548090765445064
 10
-11.25013287092152
 20
-5.864200249519494
 30
0.0
 10
-14.94888324829663
 20
-5.864200249519493
 30
0.0
 10
-17.80953760326948
 20
-2.93210012475978
 30
0.0
 10
-20.67019195824232
 20
-0.0000000000000675
 30
0.0
  0
SPLINE
  5
232E
330
1F
100
AcDbEntity
  8
AM_0
100
AcDbSpline
210
0.0
220
0.0
230
1.0
 70
     8
 71
     3
 72
     8
 73
     4
 74
     0
 42
0.0000000001
 43
0.0000000001
 40
0.0
 40
0.0
 40
0.0
 40
0.0
 40
5.548090765444942
 40
5.548090765444942
 40
5.548090765444942
 40
5.548090765444942
 10
-11.25013287092129
 20
5.86420024951942
 30
0.0
 10
-7.551382493546253
 20
5.864200249519419
 30
0.0
 10
-4.69072813857351
 20
2.932100124759709
 30
0.0
 10
-1.830073783600763
 20
0.0
 30
0.0
  0
SPLINE
  5
232F
330
1F
100
AcDbEntity
  8
AM_0
100
AcDbSpline
210
0.0
220
0.0
230
1.0
 70
     8
 71
     3
 72
     8
 73
     4
 74
     0
 42
0.0000000001
 43
0.0000000001
 40
0.0
 40
0.0
 40
0.0
 40
0.0
 40
5.548090765444954
 40
5.548090765444954
 40
5.548090765444954
 40
5.548090765444954
 10
-17.53017226246866
 20
5.86420024951942
 30
0.0
 10
-13.83142188509361
 20
5.864200249519419
 30
0.0
 10
-10.97076753012085
 20
2.932100124759709
 30
0.0
 10
-8.110113175148104
 20
0.0
 30
0.0
  0
SPLINE
  5
2330
330
1F
100
AcDbEntity
  8
AM_0
100
AcDbSpline
210
0.0
220
0.0
230
1.0
 70
     8
 71
     3
 72
     8
 73
     4
 74
     0
 42
0.0000000001
 43
0.0000000001
 40
0.0
 40
0.0
 40
0.0
 40
0.0
 40
5.584272557818042
 40
5.584272557818042
 40
5.584272557818042
 40
5.584272557818042
 10
-12.56007878309453
 20
5.999999999999996
 30
0.0
 10
-8.837207059502958
 20
5.999999999999995
 30
0.0
 10
-5.98861337763847
 20
2.999999999999997
 30
0.0
 10
-3.140019695773982
 20
0.0
 30
0.0
  0
SPLINE
  5
2331
330
1F
100
AcDbEntity
  8
AM_0
100
AcDbSpline
210
0.0
220
0.0
230
1.0
 70
     8
 71
     3
 72
     8
 73
     4
 74
     0
 42
0.0000000001
 43
0.0000000001
 40
0.0
 40
0.0
 40
0.0
 40
0.0
 40
5.58427255781815
 40
5.58427255781815
 40
5.58427255781815
 40
5.58427255781815
 10
-18.84011817464162
 20
5.999999999999996
 30
0.0
 10
-15.11724645104997
 20
5.999999999999995
 30
0.0
 10
-12.26865276918538
 20
2.999999999999996
 30
0.0
 10
-9.420059087320812
 20
0.0
 30
0.0
  0
LINE
  5
2332
330
1F
100
AcDbEntity
  8
AM_0
100
AcDbLine
 10
-0.2160013548686203
 20
4.403713764910936
 30
0.0
 11
-1.614611208982752
 21
5.099999999999996
 31
0.0
  0
SPLINE
  5
2333
330
1F
100
AcDbEntity
  8
AM_0
100
AcDbSpline
210
0.0
220
0.0
230
1.0
 70
     8
 71
     3
 72
     8
 73
     4
 74
     0
 42
0.0000000001
 43
0.0000000001
 40
0.0
 40
0.0
 40
0.0
 40
0.0
 40
0.8315775647388605
 40
0.8315775647388605
 40
0.8315775647388605
 40
0.8315775647388605
 10
-0.2160013548686487
 20
5.999999999999996
 30
0.0
 10
-0.1891718183877088
 20
5.446264538718117
 30
0.0
 10
-1.060222688421517
 20
5.099999999999965
 30
0.0
 10
-1.614611208982752
 20
5.099999999999996
 30
0.0
  0
LINE
  5
2334
330
1F
100
AcDbEntity
  8
AM_0
100
AcDbLine
 10
-1.614611208982752
 20
1.696769846777261
 30
0.0
 11
-0.2160013548686203
 21
-0.7603726658810963
 31
0.0
  0
LINE
  5
2335
330
1F
100
AcDbEntity
  8
AM_0
100
AcDbLine
 10
-0.3244034090267148
 20
0.5699269208101221
 30
0.0
 11
-1.614611208982752
 21
2.545069526944597
 31
0.0
  0
LINE
  5
2336
330
1F
100
AcDbEntity
  8
AM_0
100
AcDbLine
 10
-1.614611208982752
 20
1.696769846777261
 30
0.0
 11
-0.5062427882706037
 21
0.0
 31
0.0
  0
SPLINE
  5
2337
330
1F
100
AcDbEntity
  8
AM_0
100
AcDbSpline
210
0.0
220
0.0
230
1.0
 70
     8
 71
     3
 72
     8
 73
     4
 74
     0
 42
0.0000000001
 43
0.0000000001
 40
0.0
 40
0.0
 40
0.0
 40
0.0
 40
0.7964627256794639
 40
0.7964627256794639
 40
0.7964627256794639
 40
0.7964627256794639
 10
-0.2160013548686487
 20
3.307517235891896
 30
0.0
 10
-0.2561258957477713
 20
2.778060295418999
 30
0.0
 10
-1.083632727967254
 20
2.545069526944597
 30
0.0
 10
-1.614611208982752
 20
2.545069526944597
 30
0.0
  0
LINE
  5
2338
330
1F
100
AcDbEntity
  8
AM_0
100
AcDbLine
 10
-0.2339899252781512
 20
-2.911540096984939
 30
0.0
 11
-1.614611208982752
 21
-2.911540096984939
 31
0.0
  0
LINE
  5
2339
330
1F
100
AcDbEntity
  8
AM_0
100
AcDbLine
 10
-1.614611208982752
 20
-3.31676984677681
 30
0.0
 11
-0.2160013548686203
 21
-5.164086430792028
 31
0.0
  0
SPLINE
  5
233A
330
1F
100
AcDbEntity
  8
AM_0
100
AcDbSpline
210
0.0
220
0.0
230
1.0
 70
     8
 71
     3
 72
     8
 73
     4
 74
     0
 42
0.0000000001
 43
0.0000000001
 40
0.0
 40
0.0
 40
0.0
 40
0.0
 40
4.387916526981712
 40
4.387916526981712
 40
4.387916526981712
 40
4.387916526981712
 10
-4.970093479374177
 20
5.86420024951942
 30
0.0
 10
-3.2149158592297
 20
5.86420024951942
 30
0.0
 10
-1.648461694621154
 20
5.203946468651973
 30
0.0
 10
-0.1811755541843931
 20
4.196750847858989
 30
0.0
  0
SPLINE
  5
233B
330
1F
100
AcDbEntity
  8
AM_0
100
AcDbSpline
210
0.0
220
0.0
230
1.0
 70
     8
 71
     3
 72
     8
 73
     4
 74
     0
 42
0.0000000001
 43
0.0000000001
 40
0.0
 40
0.0
 40
0.0
 40
0.0
 40
5.932736810651199
 40
5.932736810651199
 40
5.932736810651199
 40
5.932736810651199
 10
-6.280039391547171
 20
5.999999999999996
 30
0.0
 10
-3.906929781956689
 20
5.999999999999996
 30
0.0
 10
-1.889066029698657
 20
4.781008419367114
 30
0.0
 10
-0.0000000000011653
 20
3.120059990638171
 30
0.0
  0
SPLINE
  5
233C
330
1F
100
AcDbEntity
  8
AM_0
100
AcDbSpline
210
0.0
220
0.0
230
1.0
 70
     8
 71
     3
 72
     8
 73
     4
 74
     0
 42
0.0000000001
 43
0.0000000001
 40
1.192975873175178
 40
1.192975873175178
 40
1.192975873175178
 40
1.192975873175178
 40
9.246817942408316
 40
9.246817942408316
 40
9.246817942408316
 40
9.246817942408316
 10
-0.081584029650961
 20
-5.724084012520374
 30
0.0
 10
-3.126937658314177
 20
-5.107631940646437
 30
0.0
 10
-5.618525416730842
 20
-2.553815970323281
 30
0.0
 10
-8.110113175148104
 20
0.0
 30
0.0
  0
SPLINE
  5
233D
330
1F
100
AcDbEntity
  8
AM_0
100
AcDbSpline
210
0.0
220
0.0
230
1.0
 70
     8
 71
     3
 72
     8
 73
     4
 74
     0
 42
0.0000000001
 43
0.0000000001
 40
0.0
 40
0.0
 40
0.0
 40
0.0
 40
5.584272557818006
 40
5.584272557818006
 40
5.584272557818006
 40
5.584272557818006
 10
-0.0000000000003411
 20
-5.999999999999995
 30
0.0
 10
-3.722871723591898
 20
-5.999999999999994
 30
0.0
 10
-6.571465405456356
 20
-2.999999999999998
 30
0.0
 10
-9.420059087320812
 20
0.0
 30
0.0
  0
SPLINE
  5
233E
330
1F
100
AcDbEntity
  8
AM_0
100
AcDbSpline
210
0.0
220
0.0
230
1.0
 70
     8
 71
     3
 72
     8
 73
     4
 74
     0
 42
0.0000000001
 43
0.0000000001
 40
5.932736810651414
 40
5.932736810651414
 40
5.932736810651414
 40
5.932736810651414
 40
9.307120929696782
 40
9.307120929696782
 40
9.307120929696782
 40
9.307120929696782
 10
0.0000000000004832
 20
-3.120059990638036
 30
0.0
 10
-1.074450900803955
 20
-2.175356360705588
 30
0.0
 10
-2.107235298288969
 20
-1.087678180352756
 30
0.0
 10
-3.140019695773756
 20
0.0
 30
0.0
  0
SPLINE
  5
233F
330
1F
100
AcDbEntity
  8
AM_0
100
AcDbSpline
210
0.0
220
0.0
230
1.0
 70
     8
 71
     3
 72
     8
 73
     4
 74
     0
 42
0.0000000001
 43
0.0000000001
 40
7.554568944210345
 40
7.554568944210345
 40
7.554568944210345
 40
7.554568944210345
 40
9.246817942408316
 40
9.246817942408316
 40
9.246817942408316
 40
9.246817942408316
 10
-0.2543620735283646
 20
-1.59182839337006
 30
0.0
 10
-0.7830239775931687
 20
-1.073200214310372
 30
0.0
 10
-1.306548880597108
 20
-0.5366001071551202
 30
0.0
 10
-1.830073783600763
 20
0.0
 30
0.0
  0
SPLINE
  5
2340
330
1F
100
AcDbEntity
  8
AM_0
100
AcDbSpline
210
0.0
220
0.0
230
1.0
 70
     8
 71
     3
 72
     8
 73
     4
 74
     0
 42
0.0000000001
 43
0.0000000001
 40
0.0
 40
0.0
 40
0.0
 40
0.0
 40
2.345304910305074
 40
2.345304910305074
 40
2.345304910305074
 40
2.345304910305074
 10
-0.0000000000000568
 20
5.999999999999996
 30
0.0
 10
-0.9381278485290051
 20
5.999999999999996
 30
0.0
 10
-1.820739784530091
 20
5.80950254995066
 30
0.0
 10
-2.661825283721662
 20
5.476511174075586
 30
0.0
  0
SPLINE
  5
2341
330
1F
100
AcDbEntity
  8
AM_0
100
AcDbSpline
210
0.0
220
0.0
230
1.0
 70
     8
 71
     3
 72
     8
 73
     4
 74
     0
 42
0.0000000001
 43
0.0000000001
 40
0.0
 40
0.0
 40
0.0
 40
0.0
 40
2.181562449810529
 40
2.181562449810529
 40
2.181562449810529
 40
2.181562449810529
 10
-25.12015756618873
 20
5.999999999999938
 30
0.0
 10
-25.99278801968721
 20
6.000000000000002
 30
0.0
 10
-26.81738387562006
 20
5.835173954027286
 30
0.0
 10
-27.60520430587526
 20
5.54415661447852
 30
0.0
  0
SPLINE
  5
2342
330
1F
100
AcDbEntity
  8
AM_0
100
AcDbSpline
210
0.0
220
0.0
230
1.0
 70
     8
 71
     3
 72
     8
 73
     4
 74
     0
 42
0.0000000001
 43
0.0000000001
 40
9.040119728417035
 40
9.040119728417035
 40
9.040119728417035
 40
9.040119728417035
 40
9.307120929696868
 40
9.307120929696868
 40
9.307120929696868
 40
9.307120929696868
 10
-27.19541199545417
 20
0.2581197354100375
 30
0.0
 10
-27.11367135250582
 20
0.1721270433444282
 30
0.0
 10
-27.03195135114773
 20
0.0860635216721448
 30
0.0
 10
-26.95023134978915
 20
-0.0000000000001315
 30
0.0
  0
SPLINE
  5
2343
330
1F
100
AcDbEntity
  8
AM_0
100
AcDbSpline
210
0.0
220
0.0
230
1.0
 70
     8
 71
     3
 72
     8
 73
     4
 74
     0
 42
0.0000000001
 43
0.0000000001
 40
0.0
 40
0.0
 40
0.0
 40
0.0
 40
1.168827779863518
 40
1.168827779863518
 40
1.168827779863518
 40
1.168827779863518
 10
-25.12015756618873
 20
-5.999999999999726
 30
0.0
 10
-24.65262352163622
 20
-5.99999999999979
 30
0.0
 10
-24.19887806864192
 20
-5.952685790216623
 30
0.0
 10
-23.75718957730876
 20
-5.863999290089754
 30
0.0
  0
SPLINE
  5
2344
330
1F
100
AcDbEntity
  8
AM_0
100
AcDbSpline
210
0.0
220
0.0
230
1.0
 70
     8
 71
     3
 72
     8
 73
     4
 74
     0
 42
0.0000000001
 43
0.0000000001
 40
0.0
 40
0.0
 40
0.0
 40
0.0
 40
1.096583167168162
 40
1.096583167168162
 40
1.096583167168162
 40
1.096583167168162
 10
-23.81021165401603
 20
-5.864200249519494
 30
0.0
 10
-24.24884767222761
 20
-5.864200249519494
 30
0.0
 10
-24.67569698811223
 20
-5.822964173413292
 30
0.0
 10
-25.09215739055738
 20
-5.745382220966841
 30
0.0
  0
POLYLINE
  5
2345
330
1F
100
AcDbEntity
  8
AM_0
100
AcDb2dPolyline
 66
     1
 10
0.0
 20
0.0
 30
0.0
 70
     2
  0
VERTEX
  5
2346
330
2345
100
AcDbEntity
  8
AM_0
100
AcDbVertex
100
AcDb2dVertex
 10
-25.09215739055738
 20
-5.745382220966848
 30
0.0
 42
-0.0185434125079168
  0
VERTEX
  5
2347
330
2345
100
AcDbEntity
  8
AM_0
100
AcDbVertex
100
AcDb2dVertex
 10
-26.291412884983
 20
-4.967592096427483
 30
0.0
 42
-0.0322429997831346
 70
     1
  0
VERTEX
  5
2348
330
2345
100
AcDbEntity
  8
AM_0
100
AcDbVertex
100
AcDb2dVertex
 10
-26.93266893516584
 20
-4.452303368292315
 30
0.0
 42
-0.0154837447810757
  0
VERTEX
  5
2349
330
2345
100
AcDbEntity
  8
AM_0
100
AcDbVertex
100
AcDb2dVertex
 10
-28.50181376342012
 20
-2.9236205865142
 30
0.0
 42
-0.0252025959969089
 70
     1
  0
VERTEX
  5
234A
330
2345
100
AcDbEntity
  8
AM_0
100
AcDbVertex
100
AcDb2dVertex
 10
-29.38668432797749
 20
-1.908801196303308
 30
0.0
 42
-0.0526924355685501
  0
VERTEX
  5
234B
330
2345
100
AcDbEntity
  8
AM_0
100
AcDbVertex
100
AcDb2dVertex
 10
-29.95652683541461
 20
-1.002743561547546
 30
0.0
 42
-0.1665203413769803
 70
     1
  0
VERTEX
  5
234C
330
2345
100
AcDbEntity
  8
AM_0
100
AcDbVertex
100
AcDb2dVertex
 10
-30.00018817618039
 20
-0.6583778769888334
 30
0.0
 42
-0.2307572350833865
  0
VERTEX
  5
234D
330
2345
100
AcDbEntity
  8
AM_0
100
AcDbVertex
100
AcDb2dVertex
 10
-29.84324595083213
 20
-0.4551030951116211
 30
0.0
 42
-0.122151321937318
 70
     1
  0
VERTEX
  5
234E
330
2345
100
AcDbEntity
  8
AM_0
100
AcDbVertex
100
AcDb2dVertex
 10
-29.38668432797749
 20
-0.3546126416779103
 30
0.0
 42
-0.1110641781431695
  0
VERTEX
  5
234F
330
2345
100
AcDbEntity
  8
AM_0
100
AcDbVertex
100
AcDb2dVertex
 10
-28.84920052516837
 20
-0.4905209998423742
 30
0.0
 42
-0.0275008346235786
 70
     1
  0
VERTEX
  5
2350
330
2345
100
AcDbEntity
  8
AM_0
100
AcDbVertex
100
AcDb2dVertex
 10
-26.93266893516584
 20
-1.59774280570323
 30
0.0
 42
-0.030026725591371
  0
VERTEX
  5
2351
330
2345
100
AcDbEntity
  8
AM_0
100
AcDbVertex
100
AcDb2dVertex
 10
-26.02054646746593
 20
-2.275299996024297
 30
0.0
 42
-0.0268199095458923
 70
     1
  0
VERTEX
  5
2352
330
2345
100
AcDbEntity
  8
AM_0
100
AcDbVertex
100
AcDb2dVertex
 10
-25.09215739055738
 20
-3.144638205039473
 30
0.0
  0
SEQEND
  5
2353
330
2345
100
AcDbEntity
  8
AM_0
  0
LINE
  5
2354
330
1F
100
AcDbEntity
  8
AM_11
100
AcDbLine
 10
-24.00015054094432
 20
-6.000000000000003
 30
0.0
 11
-24.00015054094432
 21
5.999999999999998
 31
0.0
  0
POLYLINE
  5
2355
330
1F
100
AcDbEntity
  8
AM_0
100
AcDb2dPolyline
 66
     1
 10
0.0
 20
0.0
 30
0.0
 70
     2
  0
VERTEX
  5
2356
330
2355
100
AcDbEntity
  8
AM_0
100
AcDbVertex
100
AcDb2dVertex
 10
-27.19541199544735
 20
0.2581197354161766
 30
0.0
 42
-0.0118474845559968
  0
VERTEX
  5
2357
330
2355
100
AcDbEntity
  8
AM_0
100
AcDbVertex
100
AcDb2dVertex
 10
-27.91006865074686
 20
1.047372635413147
 30
0.0
 42
-0.0229587367005704
 70
     1
  0
VERTEX
  5
2358
330
2355
100
AcDbEntity
  8
AM_0
100
AcDbVertex
100
AcDb2dVertex
 10
-28.24976860889926
 20
1.479482586273025
 30
0.0
 42
-0.0074393672839035
  0
VERTEX
  5
2359
330
2355
100
AcDbEntity
  8
AM_0
100
AcDbVertex
100
AcDb2dVertex
 10
-29.18283527365096
 20
2.827529982589247
 30
0.0
 42
-0.0137723123631775
 70
     1
  0
VERTEX
  5
235A
330
2355
100
AcDbEntity
  8
AM_0
100
AcDbVertex
100
AcDb2dVertex
 10
-29.65557742683499
 20
3.576522384344978
 30
0.0
 42
-0.0384719672123456
  0
VERTEX
  5
235B
330
2355
100
AcDbEntity
  8
AM_0
100
AcDbVertex
100
AcDb2dVertex
 10
-29.95613079518366
 20
4.185329912188033
 30
0.0
 42
-0.0969044761549296
 70
     1
  0
VERTEX
  5
235C
330
2355
100
AcDbEntity
  8
AM_0
100
AcDbVertex
100
AcDb2dVertex
 10
-30.00702963131906
 20
4.452199331560087
 30
0.0
 42
-0.1871793730324737
  0
VERTEX
  5
235D
330
2355
100
AcDbEntity
  8
AM_0
100
AcDbVertex
100
AcDb2dVertex
 10
-29.93999025359597
 20
4.622599852842767
 30
0.0
 42
-0.0943844175758712
 70
     1
  0
VERTEX
  5
235E
330
2355
100
AcDbEntity
  8
AM_0
100
AcDbVertex
100
AcDb2dVertex
 10
-29.65557742683499
 20
4.833335854504344
 30
0.0
 42
-0.0915329679940561
  0
VERTEX
  5
235F
330
2355
100
AcDbEntity
  8
AM_0
100
AcDbVertex
100
AcDb2dVertex
 10
-29.24913962654716
 20
4.944473174789457
 30
0.0
 42
-0.038326924455418
 70
     1
  0
VERTEX
  5
2360
330
2355
100
AcDbEntity
  8
AM_0
100
AcDbVertex
100
AcDb2dVertex
 10
-28.24976860889926
 20
4.952213955493106
 30
0.0
 42
-0.0437581705911492
  0
VERTEX
  5
2361
330
2355
100
AcDbEntity
  8
AM_0
100
AcDbVertex
100
AcDb2dVertex
 10
-27.76619662798335
 20
4.875995038266043
 30
0.0
 42
-0.0356593958927609
 70
     1
  0
VERTEX
  5
2362
330
2355
100
AcDbEntity
  8
AM_0
100
AcDbVertex
100
AcDb2dVertex
 10
-27.19541199544735
 20
4.689955533537546
 30
0.0
  0
SEQEND
  5
2363
330
2355
100
AcDbEntity
  8
AM_0
  0
SPLINE
  5
2364
330
1F
100
AcDbEntity
  8
AM_0
100
AcDbSpline
210
0.0
220
0.0
230
1.0
 70
     8
 71
     3
 72
     8
 73
     4
 74
     0
 42
0.0000000001
 43
0.0000000001
 40
0.0
 40
0.0
 40
0.0
 40
0.0
 40
5.548090765444954
 40
5.548090765444954
 40
5.548090765444954
 40
5.548090765444954
 10
-23.81021165401548
 20
5.86420024951942
 30
0.0
 10
-20.11146127664044
 20
5.864200249519419
 30
0.0
 10
-17.25080692166768
 20
2.932100124759709
 30
0.0
 10
-14.39015256669493
 20
0.0
 30
0.0
  0
SPLINE
  5
2365
330
1F
100
AcDbEntity
  8
AM_0
100
AcDbSpline
210
0.0
220
0.0
230
1.0
 70
     8
 71
     3
 72
     8
 73
     4
 74
     0
 42
0.0000000001
 43
0.0000000001
 40
0.0
 40
0.0
 40
0.0
 40
0.0
 40
2.01589001736573
 40
2.01589001736573
 40
2.01589001736573
 40
2.01589001736573
 10
-23.81021165401603
 20
-5.864200249519281
 30
0.0
 10
-23.00385058916964
 20
-5.864200249519353
 30
0.0
 10
-22.23732250759831
 20
-5.724843550397546
 30
0.0
 10
-21.50194345836328
 20
-5.476511174075578
 30
0.0
  0
LINE
  5
2366
330
1F
100
AcDbEntity
  8
AM_11
100
AcDbLine
 10
-24.00015054094435
 20
-5.999999999999995
 30
0.0
 11
-0.0000000000003411
 21
-6.000000000000003
 31
0.0
  0
LINE
  5
2367
330
1F
100
AcDbEntity
  8
AM_11
100
AcDbLine
 10
-0.0000000000014211
 20
5.999999999999998
 30
0.0
 11
-24.00015054094435
 21
6.000000000000002
 31
0.0
  0
DIMENSION
  5
2368
330
1F
100
AcDbEntity
  8
AM_5
100
AcDbDimension
  2
*D23
 10
-0.0000000000000574
 20
-13.00000101001497
 30
0.0
 11
-12.00007527047219
 21
-11.45000101001497
 31
0.0
 70
    32
  1
<>
  3
AM_JIS
100
AcDbAlignedDimension
 13
-24.00015054094432
 23
-6.000000000000003
 33
0.0
 14
-0.000000000000057
 24
-6.00000000001582
 34
0.0
 50
359.9999999999992
100
AcDbRotatedDimension
1001
GENIUS_GENDTOL_13
1000

1000
H7
1000

1040
0.0
  0
SPLINE
  5
2375
330
1F
100
AcDbEntity
  8
AM_0
100
AcDbSpline
210
0.0
220
0.0
230
1.0
 70
     8
 71
     3
 72
     8
 73
     4
 74
     0
 42
0.0000000001
 43
0.0000000001
 40
0.0
 40
0.0
 40
0.0
 40
0.0
 40
5.903434572215495
 40
5.903434572215495
 40
5.903434572215495
 40
5.903434572215495
 10
-18.8401181746419
 20
-6.000000000000067
 30
0.0
 10
-21.20150681533824
 20
-6.000000000000067
 30
0.0
 10
-23.21115010529571
 20
-4.793020067011734
 30
0.0
 10
-25.09215739055738
 20
-3.144638205038101
 30
0.0
  0
SPLINE
  5
2376
330
1F
100
AcDbEntity
  8
AM_0
100
AcDbSpline
210
0.0
220
0.0
230
1.0
 70
     8
 71
     3
 72
     8
 73
     4
 74
     0
 42
0.0000000001
 43
0.0000000001
 40
0.0
 40
0.0
 40
0.0
 40
0.0
 40
5.584272557818032
 40
5.584272557818032
 40
5.584272557818032
 40
5.584272557818032
 10
-25.12015756618873
 20
6.000000000000002
 30
0.0
 10
-21.39728584259716
 20
6.000000000000001
 30
0.0
 10
-18.54869216073268
 20
3.0
 30
0.0
 10
-15.7000984788682
 20
0.0
 30
0.0
  0
SPLINE
  5
2377
330
1F
100
AcDbEntity
  8
AM_0
100
AcDbSpline
210
0.0
220
0.0
230
1.0
 70
     8
 71
     3
 72
     8
 73
     4
 74
     0
 42
0.0000000001
 43
0.0000000001
 40
0.0
 40
0.0
 40
0.0
 40
0.0
 40
5.584272557818067
 40
5.584272557818067
 40
5.584272557818067
 40
5.584272557818067
 10
-30.09025104556286
 20
6.000000000000002
 30
0.0
 10
-26.36737932197126
 20
6.000000000000001
 30
0.0
 10
-23.51878564010679
 20
2.999999999999935
 30
0.0
 10
-20.67019195824232
 20
-0.0000000000001315
 30
0.0
  0
SPLINE
  5
2378
330
1F
100
AcDbEntity
  8
AM_0
100
AcDbSpline
210
0.0
220
0.0
230
1.0
 70
     8
 71
     3
 72
     8
 73
     4
 74
     0
 42
0.0000000001
 43
0.0000000001
 40
3.822114358298356
 40
3.822114358298356
 40
3.822114358298356
 40
3.822114358298356
 40
9.307120929696807
 40
9.307120929696807
 40
9.307120929696807
 40
9.307120929696807
 10
-27.19541199544735
 20
4.689955533537211
 30
0.0
 10
-25.33768639316327
 20
3.536006427442188
 30
0.0
 10
-23.65891213178915
 20
1.768003213721016
 30
0.0
 10
-21.98013787041503
 20
-0.0000000000001315
 30
0.0
  0
SPLINE
  5
2379
330
1F
100
AcDbEntity
  8
AM_0
100
AcDbSpline
210
0.0
220
0.0
230
1.0
 70
     8
 71
     3
 72
     8
 73
     4
 74
     0
 42
0.0000000001
 43
0.0000000001
 40
0.0
 40
0.0
 40
0.0
 40
0.0
 40
5.548090765445053
 40
5.548090765445053
 40
5.548090765445053
 40
5.548090765445053
 10
-17.53017226246866
 20
-5.864200249519494
 30
0.0
 10
-21.22892263984377
 20
-5.864200249519493
 30
0.0
 10
-24.08957699481661
 20
-2.932100124759779
 30
0.0
 10
-26.95023134978944
 20
-0.0000000000000675
 30
0.0
  0
VIEWPORT
  5
110
330
101
100
AcDbEntity
 67
     1
  8
0
100
AcDbViewport
 10
420.5
 20
297.0
 30
0.0
 40
948.9782706766916
 41
628.452
 68
     1
 69
     1
1001
ACAD
1000
MVIEW
1002
{
1070
    16
1010
0.0
1020
0.0
1030
0.0
1010
0.0
1020
0.0
1030
1.0
1040
0.0
1040
628.452
1040
420.5
1040
297.0
1040
50.0
1040
0.0
1040
0.0
1070
     0
1070
   100
1070
     1
1070
     1
1070
     0
1070
     0
1070
     0
1070
     0
1040
0.0
1040
0.0
1040
0.0
1040
10.0
1040
10.0
1040
10.0
1040
10.0
1070
     0
1002
{
1002
}
1002
}
  0
ENDSEC
  0
SECTION
  2
OBJECTS
  0
DICTIONARY
  5
C
330
0
100
AcDbDictionary
  3
ACAD_GROUP
350
D
  3
ACAD_LAYOUT
350
1A
  3
ACAD_MLINESTYLE
350
17
  3
ACAD_PLOTSETTINGS
350
19
  3
ACAD_PLOTSTYLENAME
350
E
  3
ACDBVARIABLEDICTIONARY
350
34
  3
ACMDICTIONARY
350
43
  3
AMG
350
2B
  3
AMGSNAPSETTINGS
350
6E
  3
DWGPROPS
350
2477
  3
ACDBHEADERROUNDTRIPXREC
350
2485
  0
DICTIONARY
  5
74
330
1F
100
AcDbDictionary
280
     1
  3
ACAD_INDEX
360
2479
  3
ACAD_LAYOUTSELFREF
360
24A8
  0
DICTIONARY
  5
24AD
330
101
100
AcDbDictionary
280
     1
  3
ACAD_LAYOUTSELFREF
360
24AE
  0
DICTIONARY
  5
D
102
{ACAD_REACTORS
330
C
102
}
330
C
100
AcDbDictionary
  0
DICTIONARY
  5
1A
102
{ACAD_REACTORS
330
C
102
}
330
C
100
AcDbDictionary
  0
DICTIONARY
  5
17
102
{ACAD_REACTORS
330
C
102
}
330
C
100
AcDbDictionary
  3
STANDARD
350
18
  0
DICTIONARY
  5
19
102
{ACAD_REACTORS
330
C
102
}
330
C
100
AcDbDictionary
  0
ACDBDICTIONARYWDFLT
  5
E
102
{ACAD_REACTORS
330
C
102
}
330
C
100
AcDbDictionary
281
     1
  3
Normal
350
F
100
AcDbDictionaryWithDefault
340
F
  0
DICTIONARY
  5
34
102
{ACAD_REACTORS
330
C
102
}
330
C
100
AcDbDictionary
  3
INDEXCTL
350
35
  3
SORTENTS
350
B5E
  0
DICTIONARY
  5
43
102
{ACAD_REACTORS
330
C
102
}
330
C
100
AcDbDictionary
  3
ACMSTDDICTIONARY
350
260
  0
DICTIONARY
  5
2B
102
{ACAD_REACTORS
330
C
102
}
330
C
100
AcDbDictionary
  3
ACMGSETTINGS
350
2C
  0
DICTIONARY
  5
6E
102
{ACAD_REACTORS
330
C
102
}
330
C
100
AcDbDictionary
  0
XRECORD
  5
2477
102
{ACAD_REACTORS
330
C
102
}
330
C
100
AcDbXrecord
  1
DWGPROPS COOKIE
  2

  3

  4

  6

  7

  8

  9

300
AmdtFileType=82
301
=
302
=
303
=
304
=
305
=
306
=
307
=
308
=
309
=
 40
0.1148985185185185
 41
2452838.620506898
 42
2452839.693910891
  1

 90
        1
  0
DICTIONARY
  5
2485
102
{ACAD_REACTORS
330
C
102
}
330
C
100
AcDbDictionary
  3
TSTACKALIGN
350
2486
  3
TSTACKSIZE
350
2487
  3
HYPERLINKBASE
350
2488
  3
STYLESHEET
350
2489
  3
LAYOUTDICT
350
248A
  3
PLOTSETDICT
350
248B
  3
PLOTSTYLNAMDICT
350
248C
  3
LWETCUNION
350
248D
  3
INSUNITS
350
248E
  3
CEPSNTYPE
350
248F
  3
FINGERPRINTGUID
350
2490
  3
VERSIONGUID
350
2491
  3
PSVPSCALE
350
2492
  3
DIMSTYLEDATA
350
2493
  3
PUCSORTHOREF
350
2494
  3
PUCSORTHOVIEW
350
2495
  3
PUCSBASE
350
2496
  3
PUCSORGTOP
350
2497
  3
PUCSORGBOTTOM
350
2498
  3
PUCSORGLEFT
350
2499
  3
PUCSORGRIGHT
350
249A
  3
PUCSORGFRONT
350
249B
  3
PUCSORGBACK
350
249C
  3
UCSORTHOREF
350
249D
  3
UCSORTHOVIEW
350
249E
  3
UCSBASE
350
249F
  3
UCSORGTOP
350
24A0
  3
UCSORGBOTTOM
350
24A1
  3
UCSORGLEFT
350
24A2
  3
UCSORGRIGHT
350
24A3
  3
UCSORGFRONT
350
24A4
  3
UCSORGBACK
350
24A5
  0
DICTIONARY
  5
2479
102
{ACAD_REACTORS
330
74
102
}
330
74
100
AcDbDictionary
  3
*A1
350
247A
  0
XRECORD
  5
24A8
102
{ACAD_REACTORS
330
74
102
}
330
74
100
AcDbXrecord
340
1F
  0
XRECORD
  5
24AE
102
{ACAD_REACTORS
330
24AD
102
}
330
24AD
100
AcDbXrecord
340
101
  0
MLINESTYLE
  5
18
102
{ACAD_REACTORS
330
17
102
}
330
17
100
AcDbMlineStyle
  2
STANDARD
 70
     0
  3

 62
   256
 51
90.0
 52
90.0
 71
     2
 49
0.5
 62
   256
  6
BYLAYER
 49
-0.5
 62
   256
  6
BYLAYER
  0
ACDBPLACEHOLDER
  5
F
102
{ACAD_REACTORS
330
E
102
}
330
E
100
AcDbPlaceHolder
280
     0
  0
DICTIONARYVAR
  5
35
102
{ACAD_REACTORS
330
34
102
}
330
34
100
DictionaryVariables
280
     0
  1
1
  0
DICTIONARYVAR
  5
B5E
102
{ACAD_REACTORS
330
34
102
}
330
34
100
DictionaryVariables
280
     0
  1
96
  0
DICTIONARY
  5
260
102
{ACAD_REACTORS
330
43
102
}
330
43
100
AcDbDictionary
  0
DICTIONARY
  5
2C
102
{ACAD_REACTORS
330
2B
102
}
330
2B
100
AcDbDictionary
  3
DWGSETTINGS
350
2D
  0
XRECORD
  5
2486
102
{ACAD_REACTORS
330
2485
102
}
330
2485
100
AcDbXrecord
 90
        1
  0
XRECORD
  5
2487
102
{ACAD_REACTORS
330
2485
102
}
330
2485
100
AcDbXrecord
 90
       70
  0
XRECORD
  5
2488
102
{ACAD_REACTORS
330
2485
102
}
330
2485
100
AcDbXrecord
  1

  0
XRECORD
  5
2489
102
{ACAD_REACTORS
330
2485
102
}
330
2485
100
AcDbXrecord
  1
ACAD_M_9400.ctb
  0
XRECORD
  5
248A
102
{ACAD_REACTORS
330
2485
102
}
330
2485
100
AcDbXrecord
340
1A
  0
XRECORD
  5
248B
102
{ACAD_REACTORS
330
2485
102
}
330
2485
100
AcDbXrecord
340
19
  0
XRECORD
  5
248C
102
{ACAD_REACTORS
330
2485
102
}
330
2485
100
AcDbXrecord
340
E
  0
XRECORD
  5
248D
102
{ACAD_REACTORS
330
2485
102
}
330
2485
100
AcDbXrecord
 90
    10781
  0
XRECORD
  5
248E
102
{ACAD_REACTORS
330
2485
102
}
330
2485
100
AcDbXrecord
 90
        4
  0
XRECORD
  5
248F
102
{ACAD_REACTORS
330
2485
102
}
330
2485
100
AcDbXrecord
 90
        0
  0
XRECORD
  5
2490
102
{ACAD_REACTORS
330
2485
102
}
330
2485
100
AcDbXrecord
  1
{AFB28963-8C59-40AE-9337-C84526B81ACE}
  0
XRECORD
  5
2491
102
{ACAD_REACTORS
330
2485
102
}
330
2485
100
AcDbXrecord
  1
{7713D400-4DEA-44CE-93CB-F36A7E73327F}
  0
XRECORD
  5
2492
102
{ACAD_REACTORS
330
2485
102
}
330
2485
100
AcDbXrecord
 40
0.0
  0
XRECORD
  5
2493
102
{ACAD_REACTORS
330
2485
102
}
330
2485
100
AcDbXrecord
1000
DSTYLE
1002
{
1070
    79
 70
     2
1070
   341
340
59
1070
   342
340
59
1070
   371
 70
    -1
1070
   372
 70
    -1
1002
}
  0
XRECORD
  5
2494
102
{ACAD_REACTORS
330
2485
102
}
330
2485
100
AcDbXrecord
340
0
  0
XRECORD
  5
2495
102
{ACAD_REACTORS
330
2485
102
}
330
2485
100
AcDbXrecord
 70
     0
  0
XRECORD
  5
2496
102
{ACAD_REACTORS
330
2485
102
}
330
2485
100
AcDbXrecord
340
0
  0
XRECORD
  5
2497
102
{ACAD_REACTORS
330
2485
102
}
330
2485
100
AcDbXrecord
 10
0.0
 20
0.0
 30
0.0
  0
XRECORD
  5
2498
102
{ACAD_REACTORS
330
2485
102
}
330
2485
100
AcDbXrecord
 10
0.0
 20
0.0
 30
0.0
  0
XRECORD
  5
2499
102
{ACAD_REACTORS
330
2485
102
}
330
2485
100
AcDbXrecord
 10
0.0
 20
0.0
 30
0.0
  0
XRECORD
  5
249A
102
{ACAD_REACTORS
330
2485
102
}
330
2485
100
AcDbXrecord
 10
0.0
 20
0.0
 30
0.0
  0
XRECORD
  5
249B
102
{ACAD_REACTORS
330
2485
102
}
330
2485
100
AcDbXrecord
 10
0.0
 20
0.0
 30
0.0
  0
XRECORD
  5
249C
102
{ACAD_REACTORS
330
2485
102
}
330
2485
100
AcDbXrecord
 10
0.0
 20
0.0
 30
0.0
  0
XRECORD
  5
249D
102
{ACAD_REACTORS
330
2485
102
}
330
2485
100
AcDbXrecord
340
0
  0
XRECORD
  5
249E
102
{ACAD_REACTORS
330
2485
102
}
330
2485
100
AcDbXrecord
 70
     0
  0
XRECORD
  5
249F
102
{ACAD_REACTORS
330
2485
102
}
330
2485
100
AcDbXrecord
340
0
  0
XRECORD
  5
24A0
102
{ACAD_REACTORS
330
2485
102
}
330
2485
100
AcDbXrecord
 10
0.0
 20
0.0
 30
0.0
  0
XRECORD
  5
24A1
102
{ACAD_REACTORS
330
2485
102
}
330
2485
100
AcDbXrecord
 10
0.0
 20
0.0
 30
0.0
  0
XRECORD
  5
24A2
102
{ACAD_REACTORS
330
2485
102
}
330
2485
100
AcDbXrecord
 10
0.0
 20
0.0
 30
0.0
  0
XRECORD
  5
24A3
102
{ACAD_REACTORS
330
2485
102
}
330
2485
100
AcDbXrecord
 10
0.0
 20
0.0
 30
0.0
  0
XRECORD
  5
24A4
102
{ACAD_REACTORS
330
2485
102
}
330
2485
100
AcDbXrecord
 10
0.0
 20
0.0
 30
0.0
  0
XRECORD
  5
24A5
102
{ACAD_REACTORS
330
2485
102
}
330
2485
100
AcDbXrecord
 10
0.0
 20
0.0
 30
0.0
  0
LAYER_INDEX
  5
247A
102
{ACAD_REACTORS
330
2479
102
}
330
2479
100
AcDbIndex
 40
2453152.481428113
100
AcDbLayerIndex
  8
0
360
247B
 90
        1
  8
AM_0
360
247C
 90
       66
  8
AM_11
360
247D
 90
        4
  8
AM_7
360
247E
 90
        1
  8
AM_5
360
247F
 90
        4
  8
Defpoints
360
2480
 90
        0
  8
AM_6
360
2481
 90
        1
  8
AM_4
360
2482
 90
        0
  8
AM_CL
360
2483
 90
        0
  0
XRECORD
  5
2D
102
{ACAD_REACTORS
330
2C
102
}
330
2C
100
AcDbXrecord
  1
VERSION
140
15.0
  1
PRODUCT
  2
AutoCAD Mechanical 2000
  0
IDBUFFER
  5
247B
330
0
100
AcDbIdBuffer
330
225F
  0
IDBUFFER
  5
247C
330
0
100
AcDbIdBuffer
330
233C
330
233D
330
233E
330
233F
330
2340
330
2341
330
2342
330
2343
330
2344
330
2345
330
2355
330
2364
330
2365
330
2375
330
2376
330
2377
330
2378
330
2379
330
225A
330
225B
330
225C
330
225D
330
225E
330
226D
330
226E
330
2312
330
2313
330
2314
330
2315
330
2316
330
2317
330
2318
330
2319
330
231A
330
231B
330
231C
330
231D
330
231F
330
2320
330
2321
330
2322
330
2323
330
2324
330
2325
330
2326
330
2327
330
2328
330
2329
330
232A
330
232B
330
232C
330
232D
330
232E
330
232F
330
2330
330
2331
330
2332
330
2333
330
2334
330
2335
330
2336
330
2337
330
2338
330
2339
330
233A
330
233B
  0
IDBUFFER
  5
247D
330
0
100
AcDbIdBuffer
330
231E
330
2354
330
2366
330
2367
  0
IDBUFFER
  5
247E
330
0
100
AcDbIdBuffer
330
226F
  0
IDBUFFER
  5
247F
330
0
100
AcDbIdBuffer
330
21F7
330
2260
330
2270
330
2368
  0
IDBUFFER
  5
2480
330
0
100
AcDbIdBuffer
  0
IDBUFFER
  5
2481
330
0
100
AcDbIdBuffer
330
C58
  0
IDBUFFER
  5
2482
330
0
100
AcDbIdBuffer
  0
IDBUFFER
  5
2483
330
0
100
AcDbIdBuffer
  0
ENDSEC
  0
EOF
