  0
SECTION
  2
HEADER
  9
$ACADVER
  1
AC1014
  9
$ACADMAINTVER
 70
     9
  9
$DWGCODEPAGE
  3
ANSI_932
  9
$INSBASE
 10
0.0
 20
0.0
 30
0.0
  9
$EXTMIN
 10
-155.3370197483415
 20
-64.50595116334127
 30
-0.00000001
  9
$EXTMAX
 10
20.66267638806162
 20
19.14351882427904
 30
0.00000001
  9
$LIMMIN
 10
-172.3993596335785
 20
-87.58424417536602
  9
$LIMMAX
 10
46.34551392547291
 20
38.29441105930078
  9
$ORTHOMODE
 70
     0
  9
$REGENMODE
 70
     1
  9
$FILLMODE
 70
     1
  9
$QTEXTMODE
 70
     0
  9
$MIRRTEXT
 70
     0
  9
$DRAGMODE
 70
     2
  9
$LTSCALE
 40
1.0
  9
$OSMODE
 70
    55
  9
$ATTMODE
 70
     1
  9
$TEXTSIZE
 40
2.5
  9
$TRACEWID
 40
1.0
  9
$TEXTSTYLE
  7
STANDARD
  9
$CLAYER
  8
AM_0
  9
$CELTYPE
  6
BYLAYER
  9
$CECOLOR
 62
   256
  9
$CELTSCALE
 40
1.0
  9
$DELOBJ
 70
     1
  9
$DISPSILH
 70
     0
  9
$DIMSCALE
 40
1.0
  9
$DIMASZ
 40
2.5
  9
$DIMEXO
 40
1.0
  9
$DIMDLI
 40
12.0
  9
$DIMRND
 40
0.0
  9
$DIMDLE
 40
0.0
  9
$DIMEXE
 40
1.0
  9
$DIMTP
 40
0.1
  9
$DIMTM
 40
0.1
  9
$DIMTXT
 40
3.2
  9
$DIMCEN
 40
0.0
  9
$DIMTSZ
 40
0.0
  9
$DIMTOL
 70
     0
  9
$DIMLIM
 70
     0
  9
$DIMTIH
 70
     0
  9
$DIMTOH
 70
     0
  9
$DIMSE1
 70
     0
  9
$DIMSE2
 70
     0
  9
$DIMTAD
 70
     3
  9
$DIMZIN
 70
     8
  9
$DIMBLK
  1
OPEN30
  9
$DIMASO
 70
     1
  9
$DIMSHO
 70
     1
  9
$DIMPOST
  1

  9
$DIMAPOST
  1
"
  9
$DIMALT
 70
     0
  9
$DIMALTD
 70
     2
  9
$DIMALTF
 40
0.0393701
  9
$DIMLFAC
 40
1.0
  9
$DIMTOFL
 70
     1
  9
$DIMTVP
 40
0.0
  9
$DIMTIX
 70
     0
  9
$DIMSOXD
 70
     0
  9
$DIMSAH
 70
     0
  9
$DIMBLK1
  1

  9
$DIMBLK2
  1

  9
$DIMSTYLE
  2
AM_JIS
  9
$DIMCLRD
 70
   256
  9
$DIMCLRE
 70
   256
  9
$DIMCLRT
 70
     2
  9
$DIMTFAC
 40
0.71
  9
$DIMGAP
 40
1.5
  9
$DIMJUST
 70
     0
  9
$DIMSD1
 70
     0
  9
$DIMSD2
 70
     0
  9
$DIMTOLJ
 70
     0
  9
$DIMTZIN
 70
     0
  9
$DIMALTZ
 70
     0
  9
$DIMALTTZ
 70
     0
  9
$DIMFIT
 70
     3
  9
$DIMUPT
 70
     0
  9
$DIMUNIT
 70
     2
  9
$DIMDEC
 70
     3
  9
$DIMTDEC
 70
     3
  9
$DIMALTU
 70
     2
  9
$DIMALTTD
 70
     2
  9
$DIMTXSTY
  7
ASAMI
  9
$DIMAUNIT
 70
     0
  9
$LUNITS
 70
     2
  9
$LUPREC
 70
     2
  9
$SKETCHINC
 40
1.0
  9
$FILLETRAD
 40
2.5
  9
$AUNITS
 70
     0
  9
$AUPREC
 70
     0
  9
$MENU
  1
.
  9
$ELEVATION
 40
0.0
  9
$PELEVATION
 40
0.0
  9
$THICKNESS
 40
0.0
  9
$LIMCHECK
 70
     0
  9
$BLIPMODE
 70
     0
  9
$CHAMFERA
 40
2.5
  9
$CHAMFERB
 40
2.5
  9
$CHAMFERC
 40
20.0
  9
$CHAMFERD
 40
0.0
  9
$SKPOLY
 70
     0
  9
$TDCREATE
 40
2452838.620506898
  9
$TDUPDATE
 40
2453152.478222743
  9
$TDINDWG
 40
0.2597324306
  9
$TDUSRTIMER
 40
0.2597324306
  9
$USRTIMER
 70
     1
  9
$ANGBASE
 50
0.0
  9
$ANGDIR
 70
     0
  9
$PDMODE
 70
     0
  9
$PDSIZE
 40
0.0
  9
$PLINEWID
 40
0.0
  9
$COORDS
 70
     1
  9
$SPLFRAME
 70
     0
  9
$SPLINETYPE
 70
     6
  9
$SPLINESEGS
 70
     8
  9
$ATTDIA
 70
     1
  9
$ATTREQ
 70
     1
  9
$HANDLING
 70
 12289
  9
$HANDSEED
  5
3930
  9
$SURFTAB1
 70
     6
  9
$SURFTAB2
 70
     6
  9
$SURFTYPE
 70
     6
  9
$SURFU
 70
     6
  9
$SURFV
 70
     6
  9
$UCSNAME
  2

  9
$UCSORG
 10
-0.0000000000000711
 20
-0.0000000000000036
 30
0.0
  9
$UCSXDIR
 10
1.0
 20
0.0
 30
0.0
  9
$UCSYDIR
 10
0.0
 20
1.0
 30
0.0
  9
$PUCSNAME
  2

  9
$PUCSORG
 10
0.0
 20
0.0
 30
0.0
  9
$PUCSXDIR
 10
1.0
 20
0.0
 30
0.0
  9
$PUCSYDIR
 10
0.0
 20
1.0
 30
0.0
  9
$USERI1
 70
     0
  9
$USERI2
 70
     0
  9
$USERI3
 70
     0
  9
$USERI4
 70
     0
  9
$USERI5
 70
     0
  9
$USERR1
 40
0.0
  9
$USERR2
 40
0.0
  9
$USERR3
 40
0.0
  9
$USERR4
 40
0.0
  9
$USERR5
 40
0.0
  9
$WORLDVIEW
 70
     1
  9
$SHADEDGE
 70
     3
  9
$SHADEDIF
 70
    70
  9
$TILEMODE
 70
     1
  9
$MAXACTVP
 70
    64
  9
$PINSBASE
 10
0.0
 20
0.0
 30
0.0
  9
$PLIMCHECK
 70
     0
  9
$PEXTMIN
 10
1.000000000000000E+20
 20
1.000000000000000E+20
 30
1.000000000000000E+20
  9
$PEXTMAX
 10
-1.000000000000000E+20
 20
-1.000000000000000E+20
 30
-1.000000000000000E+20
  9
$PLIMMIN
 10
0.0
 20
0.0
  9
$PLIMMAX
 10
841.0
 20
594.0
  9
$UNITMODE
 70
     0
  9
$VISRETAIN
 70
     1
  9
$PLINEGEN
 70
     0
  9
$PSLTSCALE
 70
     0
  9
$TREEDEPTH
 70
  3020
  9
$PICKSTYLE
 70
     0
  9
$CMLSTYLE
  2
STANDARD
  9
$CMLJUST
 70
     0
  9
$CMLSCALE
 40
20.0
  9
$PROXYGRAPHICS
 70
     1
  9
$MEASUREMENT
 70
     1
  0
ENDSEC
  0
SECTION
  2
CLASSES
  0
CLASS
  1
ACDBDICTIONARYWDFLT
  2
AcDbDictionaryWithDefault
  3
AutoCAD 2000
 90
        0
280
     0
281
     0
  0
CLASS
  1
ACDBPLACEHOLDER
  2
AcDbPlaceHolder
  3
AutoCAD 2000
 90
        0
280
     0
281
     0
  0
CLASS
  1
LAYOUT
  2
AcDbLayout
  3
AutoCAD 2000
 90
        0
280
     0
281
     0
  0
CLASS
  1
AMGSETTINGSOBJ
  2
AmgSettingsObj
  3
"AcadM|Product Description: AutoCAD Mechanical 2000|Company: Autodesk"
 90
        0
280
     0
281
     0
  0
CLASS
  1
ACME_DOCUMENT
  2
AcMeDbDoc
  3
AcMeServices
 90
        0
280
     0
281
     0
  0
CLASS
  1
ACMESCOPE
  2
AcMeScope
  3
AcMeServices
 90
        0
280
     0
281
     0
  0
CLASS
  1
ACMECOMMANDHISTORY
  2
AcMeCommandHistory
  3
AcMeServices
 90
        0
280
     0
281
     0
  0
CLASS
  1
DICTIONARYVAR
  2
AcDbDictionaryVar
  3
AutoCAD 2000
 90
        0
280
     0
281
     0
  0
CLASS
  1
ACIMSYSVARMAN
  2
AcImSysVarManager
  3
AcMeServices
 90
        0
280
     0
281
     0
  0
CLASS
  1
ACIMREALSYSVAR
  2
AcImRealSysVar
  3
AcMeServices
 90
        0
280
     0
281
     0
  0
CLASS
  1
ACIMINTSYSVAR
  2
AcImIntSysVar
  3
AcMeServices
 90
        0
280
     0
281
     0
  0
CLASS
  1
ACMEDRAWINGMAN
  2
AcMeDrawingMan
  3
AcMeServices
 90
        0
280
     0
281
     0
  0
CLASS
  1
ACMEVIEW
  2
AcMeView
  3
AcMeServices
 90
        0
280
     0
281
     0
  0
CLASS
  1
ACDBENTITYCACHE
  2
AcMeEntityCache
  3
AcMeServices
 90
        0
280
     0
281
     0
  0
CLASS
  1
GSMANAGER
  2
AcMeGSManager
  3
AcMeServices
 90
        0
280
     0
281
     0
  0
CLASS
  1
AmdtInternalReactor
  2
AmdtInternalReactor
  3
AcMeServices
 90
        0
280
     0
281
     0
  0
CLASS
  1
ACMESTATEMGR
  2
AcMeStateMgr
  3
AcMeServices
 90
        0
280
     0
281
     0
  0
CLASS
  1
ACME_DATABASE
  2
AcMeDbDatabase
  3
AcMeServices
 90
        0
280
     0
281
     0
  0
CLASS
  1
ACRFINSADJUSTERMGR
  2
AcRfInsAdjusterMgr
  3
AcMeServices
 90
        0
280
     0
281
     0
  0
CLASS
  1
ACMDATADICTIONARY
  2
AcmDataDictionary
  3
"AcmSymBB|Product Description: AutoCAD Mechanical 2000|Company: Autodesk"
 90
        0
280
     0
281
     0
  0
CLASS
  1
ACMDATAENTRYBLOCK
  2
AcmDataEntryBlock
  3
"AcmSymBB|Product Description: AutoCAD Mechanical 2000|Company: Autodesk"
 90
        0
280
     0
281
     0
  0
CLASS
  1
AMGOBJPROPCFG
  2
AmgObjPropCfg
  3
"AmgLay|Product Description: AutoCAD Mechanical 2000|Company: Autodesk"
 90
        1
280
     0
281
     0
  0
CLASS
  1
ACAMGFILTERDAT
  2
AcAmgFilterDat
  3
"AcadM|Product Description: AutoCAD Mechanical 2000|Company: Autodesk"
 90
        0
280
     0
281
     0
  0
CLASS
  1
LAYER_INDEX
  2
AcDbLayerIndex
  3
AutoCAD 2000
 90
        0
280
     0
281
     0
  0
CLASS
  1
IDBUFFER
  2
AcDbIdBuffer
  3
AutoCAD 2000
 90
        0
280
     0
281
     0
  0
CLASS
  1
ACIMSTRSYSVAR
  2
AcImStrSysVar
  3
AcMeServices
 90
        0
280
     0
281
     0
  0
CLASS
  1
ACMSTANDARDJIS
  2
AcmStandardJIS
  3
"AcmSymBB|Product Description: AutoCAD Mechanical 2000|Company: Autodesk"
 90
        0
280
     0
281
     0
  0
CLASS
  1
ACMSURFSTANDARDJIS
  2
AcmSurfTextStdJIS
  3
"AcmSymBB|Product Description: AutoCAD Mechanical 2000|Company: Autodesk"
 90
        0
280
     0
281
     0
  0
CLASS
  1
ACMFCFSTANDARDJIS
  2
AcmFCFStdJIS
  3
"AcmSymBB|Product Description: AutoCAD Mechanical 2000|Company: Autodesk"
 90
        0
280
     0
281
     0
  0
CLASS
  1
ACMWELDSTANDARDJIS
  2
AcmWeldingStdJIS
  3
"AcmSymBB|Product Description: AutoCAD Mechanical 2000|Company: Autodesk"
 90
        0
280
     0
281
     0
  0
CLASS
  1
ACMIDSTANDARDJIS
  2
AcmIdStdJIS
  3
"AcmSymBB|Product Description: AutoCAD Mechanical 2000|Company: Autodesk"
 90
        0
280
     0
281
     0
  0
CLASS
  1
ACMDATUMSTANDARDJIS
  2
AcmDatumStdJIS
  3
"AcmSymBB|Product Description: AutoCAD Mechanical 2000|Company: Autodesk"
 90
        0
280
     0
281
     0
  0
CLASS
  1
ACMBOMSTANDARDJIS
  2
AcmBOMStdJIS
  3
"AcmSymBB|Product Description: AutoCAD Mechanical 2000|Company: Autodesk"
 90
        0
280
     0
281
     0
  0
CLASS
  1
ACMSTANDARDANSI
  2
AcmStandardANSI
  3
"AcmSymBB|Product Description: AutoCAD Mechanical 2000|Company: Autodesk"
 90
        0
280
     0
281
     0
  0
CLASS
  1
ACMSURFSTANDARDANSI
  2
AcmSurfTextStdANSI
  3
"AcmSymBB|Product Description: AutoCAD Mechanical 2000|Company: Autodesk"
 90
        0
280
     0
281
     0
  0
CLASS
  1
ACMFCFSTANDARDANSI
  2
AcmFCFStdANSI
  3
"AcmSymBB|Product Description: AutoCAD Mechanical 2000|Company: Autodesk"
 90
        0
280
     0
281
     0
  0
CLASS
  1
ACMWELDSTANDARDANSI
  2
AcmWeldingStdANSI
  3
"AcmSymBB|Product Description: AutoCAD Mechanical 2000|Company: Autodesk"
 90
        0
280
     0
281
     0
  0
CLASS
  1
ACMIDSTANDARDANSI
  2
AcmIdStdANSI
  3
"AcmSymBB|Product Description: AutoCAD Mechanical 2000|Company: Autodesk"
 90
        0
280
     0
281
     0
  0
CLASS
  1
ACMDATUMSTANDARDANSI
  2
AcmDatumStdANSI
  3
"AcmSymBB|Product Description: AutoCAD Mechanical 2000|Company: Autodesk"
 90
        0
280
     0
281
     0
  0
CLASS
  1
ACMBOMSTANDARDANSI
  2
AcmBOMStdANSI
  3
"AcmSymBB|Product Description: AutoCAD Mechanical 2000|Company: Autodesk"
 90
        0
280
     0
281
     0
  0
CLASS
  1
ACMSTANDARDBSI
  2
AcmStandardBSI
  3
"AcmSymBB|Product Description: AutoCAD Mechanical 2000|Company: Autodesk"
 90
        0
280
     0
281
     0
  0
CLASS
  1
ACMSURFSTANDARDBSI
  2
AcmSurfTextStdBSI
  3
"AcmSymBB|Product Description: AutoCAD Mechanical 2000|Company: Autodesk"
 90
        0
280
     0
281
     0
  0
CLASS
  1
ACMFCFSTANDARDBSI
  2
AcmFCFStdBSI
  3
"AcmSymBB|Product Description: AutoCAD Mechanical 2000|Company: Autodesk"
 90
        0
280
     0
281
     0
  0
CLASS
  1
ACMWELDSTANDARDBSI
  2
AcmWeldingStdBSI
  3
"AcmSymBB|Product Description: AutoCAD Mechanical 2000|Company: Autodesk"
 90
        0
280
     0
281
     0
  0
CLASS
  1
ACMIDSTANDARDBSI
  2
AcmIdStdBSI
  3
"AcmSymBB|Product Description: AutoCAD Mechanical 2000|Company: Autodesk"
 90
        0
280
     0
281
     0
  0
CLASS
  1
ACMDATUMSTANDARDBSI
  2
AcmDatumStdBSI
  3
"AcmSymBB|Product Description: AutoCAD Mechanical 2000|Company: Autodesk"
 90
        0
280
     0
281
     0
  0
CLASS
  1
ACMBOMSTANDARDBSI
  2
AcmBOMStdBSI
  3
"AcmSymBB|Product Description: AutoCAD Mechanical 2000|Company: Autodesk"
 90
        0
280
     0
281
     0
  0
CLASS
  1
LONG_TRANSACTION
  2
AcDbLongTransaction
  3
AutoCAD 2000
 90
        0
280
     0
281
     0
  0
CLASS
  1
LWPOLYLINE
  2
AcDbPolyline
  3
AutoCAD 2000
 90
        0
280
     0
281
     1
  0
CLASS
  1
HATCH
  2
AcDbHatch
  3
AutoCAD 2000
 90
        0
280
     0
281
     1
  0
CLASS
  1
XRECORD
  2
AcDbXrecord
  3
AutoCAD 2000
 90
        0
280
     0
281
     0
  0
ENDSEC
  0
SECTION
  2
TABLES
  0
TABLE
  2
VPORT
  5
8
330
0
100
AcDbSymbolTable
 70
     3
  0
VPORT
  5
3905
330
8
100
AcDbSymbolTableRecord
100
AcDbViewportTableRecord
  2
*ACTIVE
 70
     0
 10
0.0
 20
0.0
 11
1.0
 21
1.0
 12
-39.89790938070356
 22
20.88993483916703
 13
0.0
 23
0.0
 14
2.5
 24
2.5
 15
10.0
 25
10.0
 16
0.0
 26
0.0
 36
1.0
 17
0.0
 27
0.0
 37
0.0
 40
302.3780193041524
 41
1.56570841889117
 42
50.0
 43
0.0
 44
0.0
 50
0.0
 51
0.0
 71
     0
 72
   100
 73
     1
 74
     3
 75
     0
 76
     0
 77
     0
 78
     0
  0
ENDTAB
  0
TABLE
  2
LTYPE
  5
5
330
0
100
AcDbSymbolTable
 70
    10
  0
LTYPE
  5
14
330
5
100
AcDbSymbolTableRecord
100
AcDbLinetypeTableRecord
  2
BYBLOCK
 70
     0
  3

 72
    65
 73
     0
 40
0.0
  0
LTYPE
  5
15
330
5
100
AcDbSymbolTableRecord
100
AcDbLinetypeTableRecord
  2
BYLAYER
 70
     0
  3

 72
    65
 73
     0
 40
0.0
  0
LTYPE
  5
16
330
5
100
AcDbSymbolTableRecord
100
AcDbLinetypeTableRecord
  2
CONTINUOUS
 70
     0
  3
Solid line
 72
    65
 73
     0
 40
0.0
  0
LTYPE
  5
4B
330
5
100
AcDbSymbolTableRecord
100
AcDbLinetypeTableRecord
  2
AM_ISO02W050
 70
     0
  3
__ __ __ __ __ __ __ __ __ __ __ __ __ __ __
 72
    65
 73
     2
 40
7.5
 49
6.0
 74
     0
 49
-1.5
 74
     0
  0
LTYPE
  5
4C
330
5
100
AcDbSymbolTableRecord
100
AcDbLinetypeTableRecord
  2
AM_ISO08W050
 70
     0
  3
____ . ____ . ____ . ____ . ____ . ____ . ____
 72
    65
 73
     4
 40
18.0
 49
12.0
 74
     0
 49
-1.5
 74
     0
 49
3.0
 74
     0
 49
-1.5
 74
     0
  0
LTYPE
  5
4D
330
5
100
AcDbSymbolTableRecord
100
AcDbLinetypeTableRecord
  2
AM_ISO09W050
 70
     0
  3
_____ . . _____ . . _____ . . ____ .. ____
 72
    65
 73
     6
 40
22.5
 49
12.0
 74
     0
 49
-1.5
 74
     0
 49
3.0
 74
     0
 49
-1.5
 74
     0
 49
3.0
 74
     0
 49
-1.5
 74
     0
  0
LTYPE
  5
4E
330
5
100
AcDbSymbolTableRecord
100
AcDbLinetypeTableRecord
  2
AMCONSTR
 70
     0
  3
_______________________
 72
    65
 73
     2
 40
9999.0
 49
9999.0
 74
     0
 49
0.0
 74
     0
  0
LTYPE
  5
4F
330
5
100
AcDbSymbolTableRecord
100
AcDbLinetypeTableRecord
  2
AM_ISO02W050X2
 70
     0
  3
 _ _ _ _ _ _ _ _ _ _ _ _
 72
    65
 73
     2
 40
3.75
 49
3.0
 74
     0
 49
-0.75
 74
     0
  0
LTYPE
  5
50
330
5
100
AcDbSymbolTableRecord
100
AcDbLinetypeTableRecord
  2
AM_ISO08W050X2
 70
     0
  3
__ . __ . __ . __ . __ . __
 72
    65
 73
     4
 40
9.0
 49
6.0
 74
     0
 49
-0.75
 74
     0
 49
1.5
 74
     0
 49
-0.75
 74
     0
  0
LTYPE
  5
53
330
5
100
AcDbSymbolTableRecord
100
AcDbLinetypeTableRecord
  2
AMZIGZAG
 70
     0
  3
/\/-/\/-/\/-/\/-/\/-/\/
 72
    65
 73
     2
 40
11.00009999999999
 49
0.0001
 74
     4
 75
   135
340
52
 46
0.04
 50
0.0
 44
0.0
 45
0.0
 49
-11.0
 74
     0
  0
LTYPE
  5
166
330
5
100
AcDbSymbolTableRecord
100
AcDbLinetypeTableRecord
  2
ACJISTGL
 70
     0
  3
_ _ _ _ _
 72
    65
 73
     2
 40
3.0
 49
2.0
 74
     0
 49
-1.0
 74
     0
  0
LTYPE
  5
26A
330
5
100
AcDbSymbolTableRecord
100
AcDbLinetypeTableRecord
  2
ACJISTGB
 70
     0
  3
__ . . __ . .
 72
    65
 73
     6
 40
9.0
 49
4.0
 74
     0
 49
-1.0
 74
     0
 49
1.0
 74
     0
 49
-1.0
 74
     0
 49
1.0
 74
     0
 49
-1.0
 74
     0
  0
ENDTAB
  0
TABLE
  2
LAYER
  5
2
330
0
100
AcDbSymbolTable
 70
     7
  0
LAYER
  5
10
330
2
100
AcDbSymbolTableRecord
100
AcDbLayerTableRecord
  2
0
 70
     0
 62
     7
  6
CONTINUOUS
  0
LAYER
  5
3F9
330
2
100
AcDbSymbolTableRecord
100
AcDbLayerTableRecord
  2
AM_0
 70
     0
 62
     7
  6
CONTINUOUS
  0
LAYER
  5
BD6
330
2
100
AcDbSymbolTableRecord
100
AcDbLayerTableRecord
  2
AM_11
 70
     0
 62
     3
  6
AM_ISO09W050
  0
LAYER
  5
BD7
330
2
100
AcDbSymbolTableRecord
100
AcDbLayerTableRecord
  2
AM_7
 70
     0
 62
     4
  6
AM_ISO08W050
  0
LAYER
  5
BD8
330
2
100
AcDbSymbolTableRecord
100
AcDbLayerTableRecord
  2
AM_5
 70
     0
 62
     3
  6
CONTINUOUS
  0
LAYER
  5
BD9
330
2
100
AcDbSymbolTableRecord
100
AcDbLayerTableRecord
  2
DEFPOINTS
 70
     0
 62
     7
  6
CONTINUOUS
  0
LAYER
  5
BDA
330
2
100
AcDbSymbolTableRecord
100
AcDbLayerTableRecord
  2
AM_6
 70
     0
 62
     2
  6
CONTINUOUS
  0
ENDTAB
  0
TABLE
  2
STYLE
  5
3
330
0
100
AcDbSymbolTable
 70
     5
  0
STYLE
  5
11
330
3
100
AcDbSymbolTableRecord
100
AcDbTextStyleTableRecord
  2
STANDARD
 70
     0
 40
0.0
 41
1.0
 50
0.0
 71
     0
 42
2.5
  3
simplex.shx
  4
EXTFONT.SHX
  0
STYLE
  5
52
330
3
100
AcDbSymbolTableRecord
100
AcDbTextStyleTableRecord
  2

 70
     1
 40
0.0
 41
1.0
 50
0.0
 71
     0
 42
2.5
  3
ltypeshp.shx
  4

  0
STYLE
  5
6B
330
3
100
AcDbSymbolTableRecord
100
AcDbTextStyleTableRecord
  2
ASAMI
 70
     0
 40
0.0
 41
1.0
 50
0.0
 71
     0
 42
2.5
  3
simplex.shx
  4
EXTFONT.SHX
  0
STYLE
  5
262
330
3
100
AcDbSymbolTableRecord
100
AcDbTextStyleTableRecord
  2
ACJISTS
 70
     0
 40
1.0
 41
1.0
 50
0.0
 71
     0
 42
2.5
  3
simplex.shx
  4
bigfont.shx
  0
STYLE
  5
269
330
3
100
AcDbSymbolTableRecord
100
AcDbTextStyleTableRecord
  2
ACJISGDT
 70
     0
 40
0.0
 41
1.0
 50
0.0
 71
     0
 42
2.5
  3
amgdtans.shx
  4

  0
ENDTAB
  0
TABLE
  2
VIEW
  5
6
330
0
100
AcDbSymbolTable
 70
     0
  0
ENDTAB
  0
TABLE
  2
UCS
  5
7
330
0
100
AcDbSymbolTable
 70
     0
  0
ENDTAB
  0
TABLE
  2
APPID
  5
9
330
0
100
AcDbSymbolTable
 70
    13
  0
APPID
  5
12
330
9
100
AcDbSymbolTableRecord
100
AcDbRegAppTableRecord
  2
ACAD
 70
     0
  0
APPID
  5
30
330
9
100
AcDbSymbolTableRecord
100
AcDbRegAppTableRecord
  2
MCAD_NO_VIS
 70
     0
  0
APPID
  5
31
330
9
100
AcDbSymbolTableRecord
100
AcDbRegAppTableRecord
  2
ACAD_TEMP_GRAPHIC
 70
     0
  0
APPID
  5
2C2
330
9
100
AcDbSymbolTableRecord
100
AcDbRegAppTableRecord
  2
GENIUS_GENDTOL_13
 70
     0
  0
APPID
  5
339
330
9
100
AcDbSymbolTableRecord
100
AcDbRegAppTableRecord
  2
GENIUS_GENODEF_13
 70
     0
  0
APPID
  5
33A
330
9
100
AcDbSymbolTableRecord
100
AcDbRegAppTableRecord
  2
GENIUS_GENOBJ-N-RSBK_13
 70
     0
  0
APPID
  5
33B
330
9
100
AcDbSymbolTableRecord
100
AcDbRegAppTableRecord
  2
GENIUS_GENOBJ-N-LIB_13
 70
     0
  0
APPID
  5
33C
330
9
100
AcDbSymbolTableRecord
100
AcDbRegAppTableRecord
  2
GENIUS_GENSCALE_13
 70
     0
  0
APPID
  5
378
330
9
100
AcDbSymbolTableRecord
100
AcDbRegAppTableRecord
  2
GENIUS_GENDIMSH_14
 70
     0
  0
APPID
  5
BDB
330
9
100
AcDbSymbolTableRecord
100
AcDbRegAppTableRecord
  2
GENIUS_GENOBJ-N-CEN_13
 70
     0
  0
APPID
  5
BDC
330
9
100
AcDbSymbolTableRecord
100
AcDbRegAppTableRecord
  2
GENIUS_GENFIL_13
 70
     0
  0
APPID
  5
BDD
330
9
100
AcDbSymbolTableRecord
100
AcDbRegAppTableRecord
  2
GENIUS_GENOBJ-N-FIL_13
 70
     0
  0
APPID
  5
12AD
330
9
100
AcDbSymbolTableRecord
100
AcDbRegAppTableRecord
  2
GENIUS_GENOREF_13
 70
     0
  0
ENDTAB
  0
TABLE
  2
DIMSTYLE
  5
A
330
0
100
AcDbSymbolTable
 70
     8
  0
DIMSTYLE
105
58
102
{ACAD_REACTORS
330
2EA2
330
2F15
330
2F72
330
3080
102
}
330
A
100
AcDbSymbolTableRecord
100
AcDbDimStyleTableRecord
  2
AM_JIS
 70
     0
  3

  4
"
  5
OPEN30
  6

  7

 40
1.0
 41
2.5
 42
1.0
 43
12.0
 44
1.0
 45
0.0
 46
0.0
 47
0.1
 48
0.1
140
3.2
141
0.0
142
0.0
143
0.0393701
144
1.0
145
0.0
146
0.71
147
1.5
 71
     0
 72
     0
 73
     0
 74
     0
 75
     0
 76
     0
 77
     3
 78
     8
170
     0
171
     2
172
     1
173
     0
174
     0
175
     0
176
   256
177
   256
178
     2
270
     2
271
     3
272
     3
273
     2
274
     2
340
6B
275
     0
280
     0
281
     0
282
     0
283
     0
284
     0
285
     0
286
     0
287
     3
288
     0
  0
DIMSTYLE
105
5F
330
A
100
AcDbSymbolTableRecord
100
AcDbDimStyleTableRecord
  2
AM_JIS$3
 70
     0
  3

  4
"
  5
OPEN30
  6

  7

 40
1.0
 41
2.5
 42
1.0
 43
10.0
 44
1.0
 45
0.0
 46
0.0
 47
0.1
 48
0.1
140
3.2
141
0.0
142
0.0
143
0.0393701
144
1.0
145
0.0
146
0.71
147
1.5
 71
     0
 72
     0
 73
     0
 74
     1
 75
     0
 76
     0
 77
     3
 78
     8
170
     0
171
     2
172
     0
173
     0
174
     0
175
     0
176
   256
177
   256
178
     2
270
     2
271
     2
272
     3
273
     2
274
     2
340
6B
275
     0
280
     0
281
     0
282
     0
283
     0
284
     0
285
     0
286
     0
287
     0
288
     1
  0
DIMSTYLE
105
60
330
A
100
AcDbSymbolTableRecord
100
AcDbDimStyleTableRecord
  2
AM_JIS$4
 70
     0
  3

  4
"
  5
OPEN30
  6

  7

 40
1.0
 41
2.5
 42
1.0
 43
10.0
 44
1.0
 45
0.0
 46
0.0
 47
0.1
 48
0.1
140
3.2
141
0.0
142
0.0
143
0.0393701
144
1.0
145
0.0
146
0.71
147
1.5
 71
     0
 72
     0
 73
     0
 74
     1
 75
     0
 76
     0
 77
     3
 78
     8
170
     0
171
     2
172
     0
173
     0
174
     0
175
     0
176
   256
177
   256
178
     2
270
     2
271
     2
272
     3
273
     2
274
     2
340
6B
275
     0
280
     0
281
     0
282
     0
283
     0
284
     0
285
     0
286
     0
287
     0
288
     1
  0
DIMSTYLE
105
61
330
A
100
AcDbSymbolTableRecord
100
AcDbDimStyleTableRecord
  2
AM_JIS$6
 70
     0
  3

  4
"
  5
OPEN30
  6

  7

 40
1.0
 41
2.5
 42
1.0
 43
10.0
 44
1.0
 45
0.0
 46
0.0
 47
0.1
 48
0.1
140
3.2
141
0.0
142
0.0
143
0.0393701
144
1.0
145
0.0
146
0.71
147
1.5
 71
     0
 72
     0
 73
     0
 74
     0
 75
     0
 76
     0
 77
     0
 78
     8
170
     0
171
     2
172
     1
173
     0
174
     0
175
     0
176
   256
177
   256
178
     2
270
     2
271
     2
272
     2
273
     2
274
     2
340
6B
275
     0
280
     0
281
     0
282
     0
283
     0
284
     0
285
     0
286
     0
287
     3
288
     0
  0
DIMSTYLE
105
62
330
A
100
AcDbSymbolTableRecord
100
AcDbDimStyleTableRecord
  2
AM_JIS$7
 70
     0
  3

  4
"
  5
OPEN30
  6

  7

 40
1.0
 41
2.5
 42
1.0
 43
10.0
 44
1.0
 45
0.0
 46
0.0
 47
0.1
 48
0.1
140
3.2
141
0.0
142
0.0
143
0.0393701
144
1.0
145
0.0
146
0.71
147
1.5
 71
     0
 72
     0
 73
     0
 74
     0
 75
     0
 76
     0
 77
     3
 78
     8
170
     0
171
     2
172
     1
173
     0
174
     0
175
     0
176
   256
177
   256
178
     2
270
     2
271
     2
272
     3
273
     2
274
     2
340
6B
275
     0
280
     0
281
     0
282
     0
283
     0
284
     0
285
     0
286
     0
287
     3
288
     0
  0
DIMSTYLE
105
63
330
A
100
AcDbSymbolTableRecord
100
AcDbDimStyleTableRecord
  2
AM_JIS$SF
 70
     0
  3

  4
"
  5
OPEN30
  6

  7

 40
1.0
 41
2.5
 42
1.0
 43
10.0
 44
1.0
 45
0.0
 46
0.0
 47
0.1
 48
0.1
140
3.2
141
0.0
142
0.0
143
0.0393701
144
1.0
145
0.0
146
0.71
147
1.5
 71
     0
 72
     0
 73
     0
 74
     0
 75
     1
 76
     1
 77
     3
 78
     8
170
     0
171
     2
172
     1
173
     0
174
     0
175
     0
176
   256
177
   256
178
     2
270
     2
271
     2
272
     2
273
     2
274
     2
340
6B
275
     0
280
     0
281
     0
282
     0
283
     0
284
     0
285
     0
286
     0
287
     3
288
     0
  0
DIMSTYLE
105
68
330
A
100
AcDbSymbolTableRecord
100
AcDbDimStyleTableRecord
  2
AM_JIS$SH
 70
     0
  3

  4
"
  5

  6
GENAXEH
  7
OPEN30
 40
1.0
 41
2.5
 42
1.0
 43
10.0
 44
1.0
 45
0.0
 46
0.0
 47
0.1
 48
0.1
140
3.2
141
0.0
142
0.0
143
0.0393701
144
2.0
145
0.0
146
0.71
147
1.5
 71
     0
 72
     0
 73
     0
 74
     0
 75
     1
 76
     1
 77
     3
 78
     8
170
     0
171
     2
172
     1
173
     1
174
     0
175
     0
176
   256
177
   256
178
     2
270
     2
271
     2
272
     2
273
     2
274
     2
340
6B
275
     0
280
     0
281
     0
282
     0
283
     0
284
     0
285
     0
286
     0
287
     3
288
     0
  0
DIMSTYLE
105
B34
330
A
100
AcDbSymbolTableRecord
100
AcDbDimStyleTableRecord
  2
AM_JIS$2
 70
     0
  3

  4
"
  5
OPEN30
  6

  7

 40
1.0
 41
2.5
 42
1.0
 43
12.0
 44
1.0
 45
0.0
 46
0.0
 47
0.1
 48
0.1
140
3.2
141
0.0
142
0.0
143
0.0393701
144
1.0
145
0.0
146
0.71
147
1.5
 71
     0
 72
     0
 73
     0
 74
     0
 75
     0
 76
     0
 77
     3
 78
     8
170
     0
171
     2
172
     1
173
     0
174
     0
175
     0
176
   256
177
   256
178
     2
270
     2
271
     3
272
     3
273
     2
274
     2
340
6B
275
     0
280
     0
281
     0
282
     0
283
     0
284
     0
285
     0
286
     0
287
     3
288
     0
  0
ENDTAB
  0
TABLE
  2
BLOCK_RECORD
  5
1
330
0
100
AcDbSymbolTable
 70
     9
  0
BLOCK_RECORD
  5
1F
102
{ACAD_XDICTIONARY
360
74
102
}
330
1
100
AcDbSymbolTableRecord
100
AcDbBlockTableRecord
  2
*MODEL_SPACE
  0
BLOCK_RECORD
  5
101
102
{ACAD_XDICTIONARY
360
392E
102
}
330
1
100
AcDbSymbolTableRecord
100
AcDbBlockTableRecord
  2
*PAPER_SPACE
  0
BLOCK_RECORD
  5
59
330
1
100
AcDbSymbolTableRecord
100
AcDbBlockTableRecord
  2
_OPEN30
  0
BLOCK_RECORD
  5
64
330
1
100
AcDbSymbolTableRecord
100
AcDbBlockTableRecord
  2
GENAXEH
  0
BLOCK_RECORD
  5
2EA3
330
1
100
AcDbSymbolTableRecord
100
AcDbBlockTableRecord
  2
*D5
  0
BLOCK_RECORD
  5
2F16
330
1
100
AcDbSymbolTableRecord
100
AcDbBlockTableRecord
  2
*D6
  0
BLOCK_RECORD
  5
2F73
330
1
100
AcDbSymbolTableRecord
100
AcDbBlockTableRecord
  2
*D7
  0
BLOCK_RECORD
  5
3081
330
1
100
AcDbSymbolTableRecord
100
AcDbBlockTableRecord
  2
*D8
  0
ENDTAB
  0
ENDSEC
  0
SECTION
  2
BLOCKS
  0
BLOCK
  5
20
330
1F
100
AcDbEntity
  8
0
100
AcDbBlockBegin
  2
*MODEL_SPACE
 70
     0
 10
0.0
 20
0.0
 30
0.0
  3
*MODEL_SPACE
  1

  0
ENDBLK
  5
21
330
1F
100
AcDbEntity
  8
0
100
AcDbBlockEnd
  0
BLOCK
  5
103
330
101
100
AcDbEntity
 67
     1
  8
0
100
AcDbBlockBegin
  2
*PAPER_SPACE
 70
     0
 10
0.0
 20
0.0
 30
0.0
  3
*PAPER_SPACE
  1

  0
ENDBLK
  5
104
330
101
100
AcDbEntity
 67
     1
  8
0
100
AcDbBlockEnd
  0
BLOCK
  5
5D
330
59
100
AcDbEntity
  8
0
100
AcDbBlockBegin
  2
_OPEN30
 70
     0
 10
0.0
 20
0.0
 30
0.0
  3
_OPEN30
  1

  0
LINE
  5
5A
330
59
100
AcDbEntity
  8
0
 62
     0
100
AcDbLine
 10
-1.0
 20
0.26794919
 30
0.0
 11
0.0
 21
0.0
 31
0.0
  0
LINE
  5
5B
330
59
100
AcDbEntity
  8
0
 62
     0
100
AcDbLine
 10
0.0
 20
0.0
 30
0.0
 11
-1.0
 21
-0.26794919
 31
0.0
  0
LINE
  5
5C
330
59
100
AcDbEntity
  8
0
 62
     0
100
AcDbLine
 10
0.0
 20
0.0
 30
0.0
 11
-1.0
 21
0.0
 31
0.0
  0
ENDBLK
  5
5E
330
59
100
AcDbEntity
  8
0
100
AcDbBlockEnd
  0
BLOCK
  5
66
330
64
100
AcDbEntity
  8
0
100
AcDbBlockBegin
  2
GENAXEH
 70
     0
 10
0.0
 20
0.0
 30
0.0
  3
GENAXEH
  1

  0
LINE
  5
65
330
64
100
AcDbEntity
  8
0
100
AcDbLine
 10
-1.0
 20
0.0
 30
0.0
 11
1.0
 21
0.0
 31
0.0
  0
ENDBLK
  5
67
330
64
100
AcDbEntity
  8
0
100
AcDbBlockEnd
  0
BLOCK
  5
2EAD
330
2EA3
100
AcDbEntity
  8
0
100
AcDbBlockBegin
  2
*D5
 70
     1
 10
0.0
 20
0.0
 30
0.0
  3
*D5
  1

  0
LINE
  5
372A
330
2EA3
100
AcDbEntity
  8
AM_5
100
AcDbLine
 10
1.000117243304066
 20
15.99404883670098
 30
0.0
 11
20.66267638806162
 21
15.99404883670097
 31
0.0
  0
LINE
  5
372B
330
2EA3
100
AcDbEntity
  8
AM_5
100
AcDbLine
 10
1.000117243303672
 20
-16.00595116333889
 30
0.0
 11
20.66267638806161
 21
-16.00595116333889
 31
0.0
  0
LINE
  5
372C
330
2EA3
100
AcDbEntity
  8
AM_5
100
AcDbLine
 10
19.66267638806162
 20
13.49404883670097
 30
0.0
 11
19.66267638806161
 21
-13.50595116333889
 31
0.0
  0
INSERT
  5
372D
330
2EA3
100
AcDbEntity
  8
AM_5
100
AcDbBlockReference
  2
_OPEN30
 10
19.66267638806162
 20
15.99404883670097
 30
0.0
 41
2.5
 42
2.5
 43
2.5
 50
90.0
  0
INSERT
  5
372E
330
2EA3
100
AcDbEntity
  8
AM_5
100
AcDbBlockReference
  2
_OPEN30
 10
19.66267638806161
 20
-16.00595116333889
 30
0.0
 41
2.5
 42
2.5
 43
2.5
 50
270.0
  0
MTEXT
  5
372F
330
2EA3
100
AcDbEntity
  8
AM_5
 62
     2
100
AcDbMText
 10
16.56267638806161
 20
-0.0059511633189561
 30
0.0
 40
3.2
 41
0.0
 71
     5
 72
     1
  1
%%c32
  7
ASAMI
 11
0.0000000000000001
 21
1.0
 31
0.0
1001
ACAD
1000
MTEXTBEGIN
1070
    73
1070
     1
1070
    44
1040
1.0
1070
    74
1070
     0
1000
MTEXTEND
  0
POINT
  5
3730
330
2EA3
100
AcDbEntity
  8
DEFPOINTS
 62
     0
100
AcDbPoint
 10
0.0001172433040669
 20
15.99404883670098
 30
0.0
  0
POINT
  5
3731
330
2EA3
100
AcDbEntity
  8
DEFPOINTS
 62
     0
100
AcDbPoint
 10
0.0001172433036728
 20
-16.00595116333889
 30
0.0
  0
POINT
  5
3732
330
2EA3
100
AcDbEntity
  8
DEFPOINTS
 62
     0
100
AcDbPoint
 10
19.66267638806161
 20
-16.00595116333889
 30
0.0
  0
ENDBLK
  5
2EAE
330
2EA3
100
AcDbEntity
  8
0
100
AcDbBlockEnd
  0
BLOCK
  5
2F20
330
2F16
100
AcDbEntity
  8
0
100
AcDbBlockBegin
  2
*D6
 70
     1
 10
0.0
 20
0.0
 30
0.0
  3
*D6
  1

  0
LINE
  5
3718
330
2F16
100
AcDbEntity
  8
AM_5
100
AcDbLine
 10
-129.9999138620623
 20
-13.24999999999998
 30
0.0
 11
-129.9999138620623
 21
-43.00595116334121
 31
0.0
  0
LINE
  5
3719
330
2F16
100
AcDbEntity
  8
AM_5
100
AcDbLine
 10
-0.0003804425583067
 20
-17.0059511633412
 30
0.0
 11
-0.0003804425583083
 21
-43.00595116334121
 31
0.0
  0
LINE
  5
371A
330
2F16
100
AcDbEntity
  8
AM_5
100
AcDbLine
 10
-127.4999138620623
 20
-42.0059511633412
 30
0.0
 11
-2.500380442558308
 21
-42.0059511633412
 31
0.0
  0
INSERT
  5
371B
330
2F16
100
AcDbEntity
  8
AM_5
100
AcDbBlockReference
  2
_OPEN30
 10
-129.9999138620623
 20
-42.0059511633412
 30
0.0
 41
2.5
 42
2.5
 43
2.5
 50
180.0
  0
INSERT
  5
371C
330
2F16
100
AcDbEntity
  8
AM_5
100
AcDbBlockReference
  2
_OPEN30
 10
-0.0003804425583083
 20
-42.0059511633412
 30
0.0
 41
2.5
 42
2.5
 43
2.5
  0
MTEXT
  5
371D
330
2F16
100
AcDbEntity
  8
AM_5
 62
     2
100
AcDbMText
 10
-65.00014715231031
 20
-38.9059511633412
 30
0.0
 40
3.2
 41
0.0
 71
     5
 72
     1
  1
130
  7
ASAMI
1001
ACAD
1000
MTEXTBEGIN
1070
    73
1070
     1
1070
    44
1040
1.0
1070
    74
1070
     0
1000
MTEXTEND
  0
POINT
  5
371E
330
2F16
100
AcDbEntity
  8
DEFPOINTS
 62
     0
100
AcDbPoint
 10
-129.9999138620623
 20
-12.24999999999998
 30
0.0
  0
POINT
  5
371F
330
2F16
100
AcDbEntity
  8
DEFPOINTS
 62
     0
100
AcDbPoint
 10
-0.0003804425583067
 20
-16.00595116334121
 30
0.0
  0
POINT
  5
3720
330
2F16
100
AcDbEntity
  8
DEFPOINTS
 62
     0
100
AcDbPoint
 10
-0.0003804425583083
 20
-42.0059511633412
 30
0.0
  0
ENDBLK
  5
2F21
330
2F16
100
AcDbEntity
  8
0
100
AcDbBlockEnd
  0
BLOCK
  5
2F7D
330
2F73
100
AcDbEntity
  8
0
100
AcDbBlockBegin
  2
*D7
 70
     1
 10
0.0
 20
0.0
 30
0.0
  3
*D7
  1

  0
LINE
  5
32FA
330
2F73
100
AcDbEntity
  8
AM_5
100
AcDbLine
 10
-129.6999138620623
 20
-16.0
 30
0.0
 11
-151.6370197483415
 21
-15.99999999999999
 31
0.0
  0
LINE
  5
32FB
330
2F73
100
AcDbEntity
  8
AM_5
100
AcDbLine
 10
-129.6999138620623
 20
15.99999999999999
 30
0.0
 11
-151.6370197483415
 21
16.0
 31
0.0
  0
LINE
  5
32FC
330
2F73
100
AcDbEntity
  8
AM_5
100
AcDbLine
 10
-150.6370197483415
 20
-13.49999999999999
 30
0.0
 11
-150.6370197483415
 21
13.5
 31
0.0
  0
INSERT
  5
32FD
330
2F73
100
AcDbEntity
  8
AM_5
100
AcDbBlockReference
  2
_OPEN30
 10
-150.6370197483415
 20
-15.99999999999999
 30
0.0
 41
2.5
 42
2.5
 43
2.5
 50
270.0
  0
INSERT
  5
32FE
330
2F73
100
AcDbEntity
  8
AM_5
100
AcDbBlockReference
  2
_OPEN30
 10
-150.6370197483415
 20
16.0
 30
0.0
 41
2.5
 42
2.5
 43
2.5
 50
90.0
  0
MTEXT
  5
32FF
330
2F73
100
AcDbEntity
  8
AM_5
 62
     2
100
AcDbMText
 10
-153.7370197483415
 20
-0.0000000000000277
 30
0.0
 40
3.2
 41
0.0
 71
     5
 72
     1
  1
%%c32
  7
ASAMI
 11
0.0000000000000001
 21
1.0
 31
0.0
1001
ACAD
1000
MTEXTBEGIN
1070
    73
1070
     1
1070
    44
1040
1.0
1070
    74
1070
     0
1000
MTEXTEND
  0
POINT
  5
3300
330
2F73
100
AcDbEntity
  8
DEFPOINTS
 62
     0
100
AcDbPoint
 10
-128.6999138620623
 20
-16.0
 30
0.0
  0
POINT
  5
3301
330
2F73
100
AcDbEntity
  8
DEFPOINTS
 62
     0
100
AcDbPoint
 10
-128.6999138620623
 20
15.99999999999999
 30
0.0
  0
POINT
  5
3302
330
2F73
100
AcDbEntity
  8
DEFPOINTS
 62
     0
100
AcDbPoint
 10
-150.6370197483415
 20
16.0
 30
0.0
  0
ENDBLK
  5
2F7E
330
2F73
100
AcDbEntity
  8
0
100
AcDbBlockEnd
  0
BLOCK
  5
308B
330
3081
100
AcDbEntity
  8
0
100
AcDbBlockBegin
  2
*D8
 70
     1
 10
0.0
 20
0.0
 30
0.0
  3
*D8
  1

  0
LINE
  5
3721
330
3081
100
AcDbEntity
  8
AM_5
100
AcDbLine
 10
-64.00057812104184
 20
-17.00595116329903
 30
0.0
 11
-64.00057812104184
 21
-31.00595116334257
 31
0.0
  0
LINE
  5
3722
330
3081
100
AcDbEntity
  8
AM_5
100
AcDbLine
 10
-0.0003804425583067
 20
-17.0059511633412
 30
0.0
 11
-0.0003804425583076
 21
-31.00595116334257
 31
0.0
  0
LINE
  5
3723
330
3081
100
AcDbEntity
  8
AM_5
100
AcDbLine
 10
-61.50057812104184
 20
-30.00595116334257
 30
0.0
 11
-2.500380442558307
 21
-30.00595116334257
 31
0.0
  0
INSERT
  5
3724
330
3081
100
AcDbEntity
  8
AM_5
100
AcDbBlockReference
  2
_OPEN30
 10
-64.00057812104184
 20
-30.00595116334257
 30
0.0
 41
2.5
 42
2.5
 43
2.5
 50
180.0
  0
INSERT
  5
3725
330
3081
100
AcDbEntity
  8
AM_5
100
AcDbBlockReference
  2
_OPEN30
 10
-0.0003804425583075
 20
-30.00595116334257
 30
0.0
 41
2.5
 42
2.5
 43
2.5
  0
MTEXT
  5
3726
330
3081
100
AcDbEntity
  8
AM_5
 62
     2
100
AcDbMText
 10
-32.00047928180007
 20
-26.90595116334256
 30
0.0
 40
3.2
 41
0.0
 71
     5
 72
     1
  1
64
  7
ASAMI
1001
ACAD
1000
MTEXTBEGIN
1070
    73
1070
     1
1070
    44
1040
1.0
1070
    74
1070
     0
1000
MTEXTEND
  0
POINT
  5
3727
330
3081
100
AcDbEntity
  8
DEFPOINTS
 62
     0
100
AcDbPoint
 10
-64.00057812104184
 20
-16.00595116329903
 30
0.0
  0
POINT
  5
3728
330
3081
100
AcDbEntity
  8
DEFPOINTS
 62
     0
100
AcDbPoint
 10
-0.0003804425583067
 20
-16.00595116334121
 30
0.0
  0
POINT
  5
3729
330
3081
100
AcDbEntity
  8
DEFPOINTS
 62
     0
100
AcDbPoint
 10
-0.0003804425583075
 20
-30.00595116334257
 30
0.0
  0
ENDBLK
  5
308C
330
3081
100
AcDbEntity
  8
0
100
AcDbBlockEnd
  0
ENDSEC
  0
SECTION
  2
ENTITIES
  0
TEXT
  5
C58
330
1F
100
AcDbEntity
  8
AM_6
100
AcDbText
 10
-86.66681381897696
 20
-64.50595116334127
 30
0.0
 40
5.0
  1
HHM8320ZX
 50
0.0000000000002036
 72
     4
 11
-65.00014715231031
 21
-62.0059511633412
 31
0.0
100
AcDbText
  0
DIMENSION
  5
2EA2
330
1F
100
AcDbEntity
  8
AM_5
100
AcDbDimension
  2
*D5
 10
19.66267638806161
 20
-16.00595116333889
 30
0.0
 11
16.56267638806161
 21
-0.0059511633189561
 31
0.0
 70
    32
  1
%%c<>
  3
AM_JIS
100
AcDbAlignedDimension
 13
0.0001172433040669
 23
15.99404883670098
 33
0.0
 14
0.0001172433036728
 24
-16.00595116333889
 34
0.0
 50
90.0
100
AcDbRotatedDimension
1001
GENIUS_GENDTOL_13
1000

1000
h7
1000

1040
0.0
  0
LINE
  5
2F09
330
1F
100
AcDbEntity
  8
AM_7
100
AcDbLine
 10
-136.6370187483412
 20
-0.0000000000000036
 30
0.0
 11
5.662675388061727
 21
-0.0000000000000036
 31
0.0
1001
GENIUS_GENODEF_13
1002
{
1000
HIER
1070
     0
1002
}
1002
{
1000
MANEDIT
1070
     0
1002
}
1002
{
1000
NOSEL
1070
     0
1002
}
1002
{
1000
BEHIND
1070
     0
1002
}
1002
{
1000
REACTOR
1002
}
1001
GENIUS_GENOBJ-N-CEN_13
1002
{
1000
OWNER
1000
GEN
1002
}
  0
DIMENSION
  5
2F15
330
1F
100
AcDbEntity
  8
AM_5
100
AcDbDimension
  2
*D6
 10
-0.0003804425583083
 20
-42.0059511633412
 30
0.0
 11
-65.00014715231031
 21
-38.9059511633412
 31
0.0
 70
    32
  1
<>
  3
AM_JIS
100
AcDbAlignedDimension
 13
-129.9999138620623
 23
-12.24999999999998
 33
0.0
 14
-0.0003804425583067
 24
-16.00595116334121
 34
0.0
 50
0.0000000000003915
100
AcDbRotatedDimension
1001
GENIUS_GENDTOL_13
1000

1000
H7
1000

1040
0.0
  0
LINE
  5
2F6A
330
1F
100
AcDbEntity
  8
AM_0
100
AcDbLine
 10
-128.6999138620623
 20
15.99999999999999
 30
0.0
 11
-67.68828593280044
 21
15.99999999999999
 31
0.0
1001
GENIUS_GENODEF_13
1002
{
1000
HIER
1070
     0
1002
}
1002
{
1000
MANEDIT
1070
     0
1002
}
1002
{
1000
NOSEL
1070
     0
1002
}
1002
{
1000
BEHIND
1070
     0
1002
}
1002
{
1000
REACTOR
1002
}
1001
GENIUS_GENOBJ-N-CEN_13
1002
{
1000
OWNER
1000
GEN
1002
}
  0
LINE
  5
2F6B
330
1F
100
AcDbEntity
  8
AM_0
100
AcDbLine
 10
-128.6999138620623
 20
-15.99999999999998
 30
0.0
 11
-67.68828593279895
 21
-15.99999999999998
 31
0.0
1001
GENIUS_GENODEF_13
1002
{
1000
HIER
1070
     0
1002
}
1002
{
1000
MANEDIT
1070
     0
1002
}
1002
{
1000
NOSEL
1070
     0
1002
}
1002
{
1000
BEHIND
1070
     0
1002
}
1002
{
1000
REACTOR
1002
}
1001
GENIUS_GENOBJ-N-CEN_13
1002
{
1000
OWNER
1000
GEN
1002
}
  0
LINE
  5
2F6C
330
1F
100
AcDbEntity
  8
AM_0
100
AcDbLine
 10
-106.7261923135901
 20
15.99999999999982
 30
0.0
 11
-109.4399205381892
 21
15.99999999999982
 31
0.0
  0
LINE
  5
2F6D
330
1F
100
AcDbEntity
  8
AM_0
100
AcDbLine
 10
-129.9999138620623
 20
12.00000000000001
 30
0.0
 11
-128.6999138620623
 21
15.99999999999999
 31
0.0
1001
GENIUS_GENFIL_13
1070
     0
1040
0.5
1040
0.5
1040
0.4999999999999716
1040
45.0
1002
{
1002
}
  0
LINE
  5
2F6E
330
1F
100
AcDbEntity
  8
AM_0
100
AcDbLine
 10
-105.7505523409582
 20
-16.00000000000036
 30
0.0
 11
-109.4399205381892
 21
-16.00000000000036
 31
0.0
  0
LINE
  5
2F6F
330
1F
100
AcDbEntity
  8
AM_0
100
AcDbLine
 10
-129.9999138620623
 20
-11.99999999999998
 30
0.0
 11
-128.6999138620623
 21
-15.99999999999998
 31
0.0
1001
GENIUS_GENFIL_13
1070
     0
1040
0.5
1040
0.5
1040
0.4999999999999716
1040
45.00000000000036
1002
{
1002
}
  0
LINE
  5
2F70
330
1F
100
AcDbEntity
  8
AM_0
100
AcDbLine
 10
-129.9999138620623
 20
-11.99999999999998
 30
0.0
 11
-129.9999138620623
 21
12.00000000000001
 31
0.0
  0
LINE
  5
2F71
330
1F
100
AcDbEntity
  8
0
100
AcDbLine
 10
-128.6999138620623
 20
-15.99999999999998
 30
0.0
 11
-128.6999138620623
 21
15.99999999999999
 31
0.0
  0
DIMENSION
  5
2F72
330
1F
100
AcDbEntity
  8
AM_5
100
AcDbDimension
  2
*D7
 10
-150.6370197483415
 20
16.0
 30
0.0
 11
-150.6370197483415
 21
-0.0000000000000281
 31
0.0
 70
   160
  1
%%c<>
  3
AM_JIS
100
AcDbAlignedDimension
 13
-128.6999138620623
 23
-15.99999999999999
 33
0.0
 14
-128.6999138620623
 24
15.99999999999999
 34
0.0
 50
270.0
100
AcDbRotatedDimension
1001
ACAD
1000
DSTYLE
1002
{
1070
    48
1040
0.1
1070
    47
1040
0.1
1070
   274
1070
     2
1070
   272
1070
     3
1002
}
1001
GENIUS_GENDTOL_13
1000

1000
h6
1000

1040
0.0
  0
LINE
  5
3031
330
1F
100
AcDbEntity
  8
AM_11
100
AcDbLine
 10
-0.0003804425583518
 20
16.00463049874504
 30
0.0
 11
-0.0003804425583064
 21
-15.99536950125497
 31
0.0
  0
LINE
  5
3074
330
1F
100
AcDbEntity
  8
AM_11
100
AcDbLine
 10
-64.00057812104188
 20
16.00463049874504
 30
0.0
 11
-64.00057812104183
 21
-15.99536950125497
 31
0.0
  0
DIMENSION
  5
3080
330
1F
100
AcDbEntity
  8
AM_5
100
AcDbDimension
  2
*D8
 10
-0.0003804425583075
 20
-30.00595116334257
 30
0.0
 11
-32.00047928180007
 21
-26.90595116334256
 31
0.0
 70
    32
  1
<>
  3
AM_JIS
100
AcDbAlignedDimension
 13
-64.00057812104184
 23
-16.00595116329903
 33
0.0
 14
-0.0003804425583067
 24
-16.00595116334121
 34
0.0
 50
359.9999999999992
100
AcDbRotatedDimension
1001
GENIUS_GENDTOL_13
1000

1000
H7
1000

1040
0.0
  0
LINE
  5
36AA
330
1F
100
AcDbEntity
  8
AM_0
100
AcDbLine
 10
-1.01952080125658
 20
16.00463049874775
 30
0.0
 11
-0.0003804425583702
 21
15.83535659726745
 31
0.0
  0
SPLINE
  5
36AB
330
1F
100
AcDbEntity
  8
AM_0
100
AcDbSpline
210
0.0
220
0.0
230
1.0
 70
     8
 71
     3
 72
     8
 73
     4
 74
     0
 42
0.0000000001
 43
0.0000000001
 40
0.0
 40
0.0
 40
0.0
 40
0.0
 40
1.707928658540872
 40
1.707928658540872
 40
1.707928658540872
 40
1.707928658540872
 10
-1.019520801241222
 20
16.00463049874503
 30
0.0
 10
-2.953541940904915
 20
16.00463049874503
 30
0.0
 10
-4.804216634812433
 20
15.73522979544828
 30
0.0
 10
-6.586839600241169
 20
15.24586550106884
 30
0.0
  0
SPLINE
  5
36AC
330
1F
100
AcDbEntity
  8
AM_0
100
AcDbSpline
210
0.0
220
0.0
230
1.0
 70
     8
 71
     3
 72
     8
 73
     4
 74
     0
 42
0.0000000001
 43
0.0000000001
 40
0.0
 40
0.0
 40
0.0
 40
0.0
 40
1.707928658540872
 40
1.707928658540872
 40
1.707928658540872
 40
1.707928658540872
 10
-27.68702685385127
 20
16.00463049874503
 30
0.0
 10
-29.62104799351502
 20
16.00463049874503
 30
0.0
 10
-31.47172268742254
 20
15.73522979544829
 30
0.0
 10
-33.25434565285128
 20
15.24586550106884
 30
0.0
  0
SPLINE
  5
36AD
330
1F
100
AcDbEntity
  8
AM_0
100
AcDbSpline
210
0.0
220
0.0
230
1.0
 70
     8
 71
     3
 72
     8
 73
     4
 74
     0
 42
0.0000000001
 43
0.0000000001
 40
0.0
 40
0.0
 40
0.0
 40
0.0
 40
1.707928658540872
 40
1.707928658540872
 40
1.707928658540872
 40
1.707928658540872
 10
-14.35327382754624
 20
16.00463049874503
 30
0.0
 10
-16.28729496721
 20
16.00463049874503
 30
0.0
 10
-18.13796966111752
 20
15.73522979544829
 30
0.0
 10
-19.92059262654619
 20
15.24586550106884
 30
0.0
  0
LINE
  5
36AE
330
1F
100
AcDbEntity
  8
AM_0
100
AcDbLine
 10
-0.0003804425583702
 20
11.62724662490942
 30
0.0
 11
-0.5021323037161527
 21
13.14453682878316
 31
0.0
  0
SPLINE
  5
36AF
330
1F
100
AcDbEntity
  8
AM_0
100
AcDbSpline
210
0.0
220
0.0
230
1.0
 70
     8
 71
     3
 72
     8
 73
     4
 74
     0
 42
0.0000000001
 43
0.0000000001
 40
0.0
 40
0.0
 40
0.0
 40
0.0
 40
3.623362202668243
 40
3.623362202668243
 40
3.623362202668243
 40
3.623362202668243
 10
-1.01952080125667
 20
11.62724662490942
 30
0.0
 10
-1.352185089137742
 20
10.46081789515348
 30
0.0
 10
-3.145340345403497
 20
9.947046687222391
 30
0.0
 10
-4.427532933918848
 20
9.947046687222391
 30
0.0
  0
LINE
  5
36B0
330
1F
100
AcDbEntity
  8
AM_0
100
AcDbLine
 10
-1.01952080125658
 20
11.62724662490942
 30
0.0
 11
-0.0003804425583702
 21
11.62724662490942
 31
0.0
  0
LINE
  5
36B1
330
1F
100
AcDbEntity
  8
AM_0
100
AcDbLine
 10
-4.427532933918818
 20
9.947046687222394
 30
0.0
 11
-1.647551060156833
 21
5.404048309229766
 31
0.0
  0
LINE
  5
36B2
330
1F
100
AcDbEntity
  8
AM_0
100
AcDbLine
 10
-4.427532933918818
 20
8.215709577293241
 30
0.0
 11
-4.427532933918818
 21
9.947046687222394
 31
0.0
  0
LINE
  5
36B3
330
1F
100
AcDbEntity
  8
AM_0
100
AcDbLine
 10
-0.0003804425583702
 20
3.755641049612462
 30
0.0
 11
-0.2942138143383243
 21
2.722675354005298
 31
0.0
  0
LINE
  5
36B4
330
1F
100
AcDbEntity
  8
AM_0
100
AcDbLine
 10
-0.0003804425583702
 20
0.0892674494850905
 30
0.0
 11
-0.4593047284820663
 21
4.202261269098164
 31
0.0
  0
LINE
  5
36B5
330
1F
100
AcDbEntity
  8
AM_0
100
AcDbLine
 10
-0.0003804425583702
 20
0.0046304987450299
 30
0.0
 11
-4.576220462954112
 21
0.0046304987450299
 31
0.0
  0
LINE
  5
36B6
330
1F
100
AcDbEntity
  8
AM_0
100
AcDbLine
 10
-0.0003804425583702
 20
-3.672324763426184
 30
0.0
 11
-1.056845458576079
 21
0.0416581430932297
 31
0.0
  0
LINE
  5
36B7
330
1F
100
AcDbEntity
  8
AM_0
100
AcDbLine
 10
-4.576220462954112
 20
-1.91536950125395
 30
0.0
 11
-4.576220462954112
 21
0.0046304987450299
 31
0.0
  0
LINE
  5
36B8
330
1F
100
AcDbEntity
  8
AM_0
100
AcDbLine
 10
-0.0003804425583702
 20
-0.0059511632988123
 30
0.0
 11
-0.2942138143383243
 21
-2.639359067818839
 31
0.0
  0
LINE
  5
36B9
330
1F
100
AcDbEntity
  8
AM_0
100
AcDbLine
 10
-0.4593047284820663
 20
4.202261269098164
 30
0.0
 11
-4.427532933918818
 21
8.215709577293241
 31
0.0
  0
LINE
  5
36BA
330
1F
100
AcDbEntity
  8
AM_0
100
AcDbLine
 10
-0.4593047284820663
 20
-14.19721773802233
 30
0.0
 11
-0.3278125922601875
 21
-11.61798562741863
 31
0.0
  0
LINE
  5
36BB
330
1F
100
AcDbEntity
  8
AM_0
100
AcDbLine
 10
-4.612079804929797
 20
-11.18007029150707
 30
0.0
 11
-4.612079804929797
 21
-10.47442632080477
 31
0.0
  0
LINE
  5
36BC
330
1F
100
AcDbEntity
  8
AM_0
100
AcDbLine
 10
-4.612079804929797
 20
-10.47442632080477
 30
0.0
 11
-2.550177726114487
 21
-10.47442632080477
 31
0.0
  0
LINE
  5
36BD
330
1F
100
AcDbEntity
  8
AM_0
100
AcDbLine
 10
-0.4882717340223379
 20
-14.17904869826765
 30
0.0
 11
-4.612079804929797
 21
-11.18007029150707
 31
0.0
  0
LINE
  5
36BE
330
1F
100
AcDbEntity
  8
AM_0
100
AcDbLine
 10
-1.019520801258119
 20
-11.61798562741863
 30
0.0
 11
-0.0003804425583702
 21
-11.61798562741863
 31
0.0
  0
ELLIPSE
  5
36BF
330
1F
100
AcDbEntity
  8
AM_0
100
AcDbEllipse
 10
20.25940148846708
 20
-7.50941708034683
 30
0.0
 11
-20.72397097337999
 21
0.0000000000002544
 31
0.0
210
0.0
220
0.0
230
1.0
 40
0.9419703496242465
 41
-0.0225411903576229
 42
0.2120508101854639
  0
LINE
  5
36C0
330
1F
100
AcDbEntity
  8
AM_0
100
AcDbLine
 10
-1.019520801241132
 20
-15.99536950125497
 30
0.0
 11
-0.0003804425583702
 21
-15.82609559977485
 31
0.0
  0
SPLINE
  5
36C1
330
1F
100
AcDbEntity
  8
AM_0
100
AcDbSpline
210
0.0
220
0.0
230
1.0
 70
     8
 71
     3
 72
     8
 73
     4
 74
     0
 42
0.0000000001
 43
0.0000000001
 40
0.0
 40
0.0
 40
0.0
 40
0.0
 40
1.229985673975173
 40
1.229985673975173
 40
1.229985673975173
 40
1.229985673975173
 10
-10.64491168062416
 20
-15.63323683330694
 30
0.0
 10
-9.252102746213282
 20
-15.63323683330694
 30
0.0
 10
-7.901273387729085
 20
-15.49489197565039
 30
0.0
 10
-6.586839600241169
 20
-15.23660450357896
 30
0.0
  0
SPLINE
  5
36C2
330
1F
100
AcDbEntity
  8
AM_0
100
AcDbSpline
210
0.0
220
0.0
230
1.0
 70
     8
 71
     3
 72
     8
 73
     4
 74
     0
 42
0.0000000001
 43
0.0000000001
 40
0.0
 40
0.0
 40
0.0
 40
0.0
 40
1.168827779827945
 40
1.168827779827945
 40
1.168827779827945
 40
1.168827779827945
 10
-14.35327382757792
 20
-15.99536950125497
 30
0.0
 10
-13.02971875780941
 20
-15.99536950125497
 30
0.0
 10
-11.74519819360104
 20
-15.86919827517434
 30
0.0
 10
-10.49481001593927
 20
-15.63270094151634
 30
0.0
  0
ELLIPSE
  5
36C3
330
1F
100
AcDbEntity
  8
AM_0
100
AcDbEllipse
 10
2.15993601225981
 20
-14.23663420420911
 30
0.0
 11
-2.654649448387133
 21
0.0000000000000096
 31
0.0
210
0.0
220
0.0
230
1.0
 40
0.9419703496242409
 41
-0.1635122756005807
 42
0.6201591718990449
  0
SPLINE
  5
36C4
330
1F
100
AcDbEntity
  8
AM_0
100
AcDbSpline
210
0.0
220
0.0
230
1.0
 70
     8
 71
     3
 72
     8
 73
     4
 74
     0
 42
0.0000000001
 43
0.0000000001
 40
0.0
 40
0.0
 40
0.0
 40
0.0
 40
1.168827779827945
 40
1.168827779827945
 40
1.168827779827945
 40
1.168827779827945
 10
-27.68702685388373
 20
-15.99536950125496
 30
0.0
 10
-26.36347178411522
 20
-15.99536950125496
 30
0.0
 10
-25.07895121990685
 20
-15.86919827517434
 30
0.0
 10
-23.82856304224435
 20
-15.63270094151633
 30
0.0
  0
SPLINE
  5
36C5
330
1F
100
AcDbEntity
  8
AM_0
100
AcDbSpline
210
0.0
220
0.0
230
1.0
 70
     8
 71
     3
 72
     8
 73
     4
 74
     0
 42
0.0000000001
 43
0.0000000001
 40
0.0
 40
0.0
 40
0.0
 40
0.0
 40
1.229985673975173
 40
1.229985673975173
 40
1.229985673975173
 40
1.229985673975173
 10
-23.97866470692918
 20
-15.63323683330694
 30
0.0
 10
-22.58585577251836
 20
-15.63323683330694
 30
0.0
 10
-21.23502641403495
 20
-15.49489197565038
 30
0.0
 10
-19.92059262654619
 20
-15.23660450357896
 30
0.0
  0
SPLINE
  5
36C6
330
1F
100
AcDbEntity
  8
AM_0
100
AcDbSpline
210
0.0
220
0.0
230
1.0
 70
     8
 71
     3
 72
     8
 73
     4
 74
     0
 42
0.0000000001
 43
0.0000000001
 40
0.0
 40
0.0
 40
0.0
 40
0.0
 40
1.229985673975173
 40
1.229985673975173
 40
1.229985673975173
 40
1.229985673975173
 10
-37.31241773323427
 20
-15.63323683330694
 30
0.0
 10
-35.91960879882345
 20
-15.63323683330694
 30
0.0
 10
-34.56877944033919
 20
-15.49489197565038
 30
0.0
 10
-33.25434565285128
 20
-15.23660450357896
 30
0.0
  0
SPLINE
  5
36C7
330
1F
100
AcDbEntity
  8
AM_0
100
AcDbSpline
210
0.0
220
0.0
230
1.0
 70
     8
 71
     3
 72
     8
 73
     4
 74
     0
 42
0.0000000001
 43
0.0000000001
 40
0.0
 40
0.0
 40
0.0
 40
0.0
 40
29.58981741570707
 40
29.58981741570707
 40
29.58981741570707
 40
29.58981741570707
 10
-10.64491168059248
 20
-15.63323683330694
 30
0.0
 10
-21.11580651909445
 20
-15.63323683330694
 30
0.0
 10
-29.21411212615742
 20
-7.814303167280954
 30
0.0
 10
-37.31241773322039
 20
0.0046304987450352
 30
0.0
  0
SPLINE
  5
36C8
330
1F
100
AcDbEntity
  8
AM_0
100
AcDbSpline
210
0.0
220
0.0
230
1.0
 70
     8
 71
     3
 72
     8
 73
     4
 74
     0
 42
0.0000000001
 43
0.0000000001
 40
0.8586800831860527
 40
0.8586800831860527
 40
0.8586800831860527
 40
0.8586800831860527
 40
9.246817942408316
 40
9.246817942408316
 40
9.246817942408316
 40
9.246817942408316
 10
-0.1687310476927764
 20
-15.43722092993433
 30
0.0
 10
-9.286106838631605
 20
-14.18106968724954
 30
0.0
 10
-16.63238577277306
 20
-7.088219594252255
 30
0.0
 10
-23.97866470691452
 20
0.0046304987450316
 30
0.0
  0
SPLINE
  5
36C9
330
1F
100
AcDbEntity
  8
AM_0
100
AcDbSpline
210
0.0
220
0.0
230
1.0
 70
     8
 71
     3
 72
     8
 73
     4
 74
     0
 42
0.0000000001
 43
0.0000000001
 40
0.0
 40
0.0
 40
0.0
 40
0.0
 40
29.78278697502944
 40
29.78278697502944
 40
29.78278697502944
 40
29.78278697502944
 10
-1.019520801241222
 20
-15.99536950125497
 30
0.0
 10
-11.55870142651604
 20
-15.99536950125497
 30
0.0
 10
-19.62286414019217
 20
-7.99536950125497
 30
0.0
 10
-27.68702685386829
 20
0.0046304987450316
 30
0.0
  0
LINE
  5
36CA
330
1F
100
AcDbEntity
  8
AM_0
100
AcDbLine
 10
-0.4593047284820663
 20
-7.069419512221644
 30
0.0
 11
-4.576220462954112
 21
-1.91536950125395
 31
0.0
  0
SPLINE
  5
36CB
330
1F
100
AcDbEntity
  8
AM_0
100
AcDbSpline
210
0.0
220
0.0
230
1.0
 70
     8
 71
     3
 72
     8
 73
     4
 74
     0
 42
0.0000000001
 43
0.0000000001
 40
5.407991289528681
 40
5.407991289528681
 40
5.407991289528681
 40
5.407991289528681
 40
9.246817942408341
 40
9.246817942408341
 40
9.246817942408341
 40
9.246817942408341
 10
-0.3890879487552002
 20
-9.17403004326319
 30
0.0
 10
-3.920870696742539
 20
-6.487447347100749
 30
0.0
 10
-7.282891188675598
 20
-3.24140842417786
 30
0.0
 10
-10.6449116806095
 20
0.0046304987450316
 30
0.0
  0
SPLINE
  5
36CC
330
1F
100
AcDbEntity
  8
AM_0
100
AcDbSpline
210
0.0
220
0.0
230
1.0
 70
     8
 71
     3
 72
     8
 73
     4
 74
     0
 42
0.0000000001
 43
0.0000000001
 40
4.323648603745047
 40
4.323648603745047
 40
4.323648603745047
 40
4.323648603745047
 40
9.307120929696758
 40
9.307120929696758
 40
9.307120929696758
 40
9.307120929696758
 10
-1.01952080125667
 20
-11.61798562741864
 30
0.0
 10
-5.717406297927867
 20
-8.562525533450607
 30
0.0
 10
-10.03534006274589
 20
-4.278947517352785
 30
0.0
 10
-14.3532738275632
 20
0.0046304987450316
 30
0.0
  0
LINE
  5
36CD
330
1F
100
AcDbEntity
  8
AM_0
100
AcDbLine
 10
-0.0003804425583702
 20
-15.68989527369907
 30
0.0
 11
-0.0003804425583702
 21
-3.672324763426184
 31
0.0
  0
LINE
  5
36CE
330
1F
100
AcDbEntity
  8
AM_0
100
AcDbLine
 10
-0.0003804425583702
 20
-3.672324763426184
 30
0.0
 11
-0.4593047284820663
 21
-7.069419512221644
 31
0.0
  0
SPLINE
  5
36CF
330
1F
100
AcDbEntity
  8
AM_0
100
AcDbSpline
210
0.0
220
0.0
230
1.0
 70
     8
 71
     3
 72
     8
 73
     4
 74
     0
 42
0.0000000001
 43
0.0000000001
 40
0.0
 40
0.0
 40
0.0
 40
0.0
 40
29.78278697502943
 40
29.78278697502943
 40
29.78278697502943
 40
29.78278697502943
 10
-27.68702685388373
 20
16.00463049874503
 30
0.0
 10
-17.14784622860891
 20
16.00463049874503
 30
0.0
 10
-9.083683514932793
 20
8.004630498745031
 30
0.0
 10
-1.01952080125667
 20
0.0046304987450299
 30
0.0
  0
SPLINE
  5
36D0
330
1F
100
AcDbEntity
  8
AM_0
100
AcDbSpline
210
0.0
220
0.0
230
1.0
 70
     8
 71
     3
 72
     8
 73
     4
 74
     0
 42
0.0000000001
 43
0.0000000001
 40
0.0
 40
0.0
 40
0.0
 40
0.0
 40
8.106327806688073
 40
8.106327806688073
 40
8.106327806688073
 40
8.106327806688073
 10
-23.97866470693075
 20
15.64249783079682
 30
0.0
 10
-14.79923600844085
 20
15.64249783079682
 30
0.0
 10
-7.443225423528768
 20
9.633372826528068
 30
0.0
 10
-0.3121127856496033
 20
2.883090395525288
 30
0.0
  0
SPLINE
  5
36D1
330
1F
100
AcDbEntity
  8
AM_0
100
AcDbSpline
210
0.0
220
0.0
230
1.0
 70
     8
 71
     3
 72
     8
 73
     4
 74
     0
 42
0.0000000001
 43
0.0000000001
 40
0.0
 40
0.0
 40
0.0
 40
0.0
 40
29.58981741570692
 40
29.58981741570692
 40
29.58981741570692
 40
29.58981741570692
 10
-37.31241773323656
 20
15.64249783079682
 30
0.0
 10
-26.84152289473464
 20
15.64249783079682
 30
0.0
 10
-18.74321728767167
 20
7.823564164770926
 30
0.0
 10
-10.64491168060871
 20
0.0046304987450316
 30
0.0
  0
LINE
  5
36D2
330
1F
100
AcDbEntity
  8
AM_0
100
AcDbLine
 10
-0.0003804425583702
 20
3.755641049612096
 30
0.0
 11
-0.0003804425583702
 21
15.83535659726745
 31
0.0
  0
SPLINE
  5
36D3
330
1F
100
AcDbEntity
  8
AM_0
100
AcDbSpline
210
0.0
220
0.0
230
1.0
 70
     8
 71
     3
 72
     8
 73
     4
 74
     0
 42
0.0000000001
 43
0.0000000001
 40
0.0
 40
0.0
 40
0.0
 40
0.0
 40
3.208811545131809
 40
3.208811545131809
 40
3.208811545131809
 40
3.208811545131809
 10
-10.64491168062416
 20
15.642497830797
 30
0.0
 10
-7.011323514953597
 20
15.642497830797
 30
0.0
 10
-3.663445956345446
 20
14.70093059501028
 30
0.0
 10
-0.5021323037161527
 20
13.14453682878316
 30
0.0
  0
SPLINE
  5
36D4
330
1F
100
AcDbEntity
  8
AM_0
100
AcDbSpline
210
0.0
220
0.0
230
1.0
 70
     8
 71
     3
 72
     8
 73
     4
 74
     0
 42
0.0000000001
 43
0.0000000001
 40
0.0
 40
0.0
 40
0.0
 40
0.0
 40
4.323648603744882
 40
4.323648603744882
 40
4.323648603744882
 40
4.323648603744882
 10
-14.35327382757792
 20
16.00463049874503
 30
0.0
 10
-9.457268506566963
 20
16.00463049874503
 30
0.0
 10
-5.095394958811203
 20
14.2781564534414
 30
0.0
 10
-1.01952080125667
 20
11.62724662490942
 30
0.0
  0
SPLINE
  5
36D5
330
1F
100
AcDbEntity
  8
AM_0
100
AcDbSpline
210
0.0
220
0.0
230
1.0
 70
     8
 71
     3
 72
     8
 73
     4
 74
     0
 42
0.0000000001
 43
0.0000000001
 40
0.0
 40
0.0
 40
0.0
 40
0.0
 40
0.5596836519003795
 40
0.5596836519003795
 40
0.5596836519003795
 40
0.5596836519003795
 10
-1.019520801241222
 20
16.00463049874503
 30
0.0
 10
-1.079616897506462
 20
15.41032455939982
 30
0.0
 10
-1.767160811896375
 20
14.62418034966809
 30
0.0
 10
-2.521957564560835
 20
14.0417249696298
 30
0.0
  0
SPLINE
  5
36D6
330
1F
100
AcDbEntity
  8
AM_0
100
AcDbSpline
210
0.0
220
0.0
230
1.0
 70
     8
 71
     3
 72
     8
 73
     4
 74
     0
 42
0.0000000001
 43
0.0000000001
 40
0.0
 40
0.0
 40
0.0
 40
0.0
 40
1.707928658540872
 40
1.707928658540872
 40
1.707928658540872
 40
1.707928658540872
 10
-41.02077988015635
 20
16.00463049874503
 30
0.0
 10
-42.9548010198201
 20
16.00463049874503
 30
0.0
 10
-44.80547571372762
 20
15.73522979544829
 30
0.0
 10
-46.58809867915636
 20
15.24586550106884
 30
0.0
  0
SPLINE
  5
36D7
330
1F
100
AcDbEntity
  8
AM_0
100
AcDbSpline
210
0.0
220
0.0
230
1.0
 70
     8
 71
     3
 72
     8
 73
     4
 74
     0
 42
0.0000000001
 43
0.0000000001
 40
0.0
 40
0.0
 40
0.0
 40
0.0
 40
1.707928658540872
 40
1.707928658540872
 40
1.707928658540872
 40
1.707928658540872
 10
-54.35453290646144
 20
16.00463049874503
 30
0.0
 10
-56.28855404612513
 20
16.00463049874503
 30
0.0
 10
-58.13922874003265
 20
15.73522979544829
 30
0.0
 10
-59.92185170546139
 20
15.24586550106884
 30
0.0
  0
SPLINE
  5
36DB
330
1F
100
AcDbEntity
  8
AM_0
100
AcDbSpline
210
0.0
220
0.0
230
1.0
 70
     8
 71
     3
 72
     8
 73
     4
 74
     0
 42
0.0000000001
 43
0.0000000001
 40
0.0
 40
0.0
 40
0.0
 40
0.0
 40
1.229985673975173
 40
1.229985673975173
 40
1.229985673975173
 40
1.229985673975173
 10
-50.64617075953936
 20
-15.63323683330694
 30
0.0
 10
-49.25336182512847
 20
-15.63323683330694
 30
0.0
 10
-47.90253246664428
 20
-15.49489197565038
 30
0.0
 10
-46.58809867915636
 20
-15.23660450357896
 30
0.0
  0
SPLINE
  5
36DC
330
1F
100
AcDbEntity
  8
AM_0
100
AcDbSpline
210
0.0
220
0.0
230
1.0
 70
     8
 71
     3
 72
     8
 73
     4
 74
     0
 42
0.0000000001
 43
0.0000000001
 40
0.0
 40
0.0
 40
0.0
 40
0.0
 40
1.168827779827945
 40
1.168827779827945
 40
1.168827779827945
 40
1.168827779827945
 10
-54.35453290649306
 20
-15.99536950125496
 30
0.0
 10
-53.03097783672455
 20
-15.99536950125496
 30
0.0
 10
-51.74645727251623
 20
-15.86919827517434
 30
0.0
 10
-50.49606909485446
 20
-15.63270094151633
 30
0.0
  0
SPLINE
  5
36DE
330
1F
100
AcDbEntity
  8
AM_0
100
AcDbSpline
210
0.0
220
0.0
230
1.0
 70
     8
 71
     3
 72
     8
 73
     4
 74
     0
 42
0.0000000001
 43
0.0000000001
 40
0.0
 40
0.0
 40
0.0
 40
0.0
 40
0.0225903540886851
 40
0.0225903540886851
 40
0.0225903540886851
 40
0.0225903540886851
 10
-63.97992378581197
 20
-15.63323683330693
 30
0.0
 10
-64.00550460977763
 20
-15.63323683330693
 30
0.0
 10
-64.03107127306626
 20
-15.63319016640277
 30
0.0
 10
-64.05662381027298
 20
-15.63309694660361
 30
0.0
  0
SPLINE
  5
36DF
330
1F
100
AcDbEntity
  8
AM_0
100
AcDbSpline
210
0.0
220
0.0
230
1.0
 70
     8
 71
     3
 72
     8
 73
     4
 74
     0
 42
0.0000000001
 43
0.0000000001
 40
0.0
 40
0.0
 40
0.0
 40
0.0
 40
1.229985673975173
 40
1.229985673975173
 40
1.229985673975173
 40
1.229985673975173
 10
-63.97992378584438
 20
-15.63323683330693
 30
0.0
 10
-62.58711485143356
 20
-15.63323683330693
 30
0.0
 10
-61.23628549295009
 20
-15.49489197565038
 30
0.0
 10
-59.92185170546139
 20
-15.23660450357895
 30
0.0
  0
SPLINE
  5
36E0
330
1F
100
AcDbEntity
  8
AM_0
100
AcDbSpline
210
0.0
220
0.0
230
1.0
 70
     8
 71
     3
 72
     8
 73
     4
 74
     0
 42
0.0000000001
 43
0.0000000001
 40
0.0
 40
0.0
 40
0.0
 40
0.0
 40
11.86688599668626
 40
11.86688599668626
 40
11.86688599668626
 40
11.86688599668626
 10
-54.35453290646144
 20
-15.99536950125496
 30
0.0
 10
-58.55384625760888
 20
-15.99536950125496
 30
0.0
 10
-62.36022415480068
 20
-14.72528429624948
 30
0.0
 10
-65.97776018235252
 20
-12.77459394350911
 30
0.0
  0
SPLINE
  5
36E1
330
1F
100
AcDbEntity
  8
AM_0
100
AcDbSpline
210
0.0
220
0.0
230
1.0
 70
     8
 71
     3
 72
     8
 73
     4
 74
     0
 42
0.0000000001
 43
0.0000000001
 40
0.0
 40
0.0
 40
0.0
 40
0.0
 40
14.39913190793193
 40
14.39913190793193
 40
14.39913190793193
 40
14.39913190793193
 10
-50.64617075950767
 20
-15.63323683330694
 30
0.0
 10
-55.74156536284307
 20
-15.63323683330694
 30
0.0
 10
-60.27512261918353
 20
-13.78168626187279
 30
0.0
 10
-64.52024638082481
 20
-10.97959510286923
 30
0.0
  0
SPLINE
  5
36E2
330
1F
100
AcDbEntity
  8
AM_0
100
AcDbSpline
210
0.0
220
0.0
230
1.0
 70
     8
 71
     3
 72
     8
 73
     4
 74
     0
 42
0.0000000001
 43
0.0000000001
 40
0.0
 40
0.0
 40
0.0
 40
0.0
 40
25.25365458115662
 40
25.25365458115662
 40
25.25365458115662
 40
25.25365458115662
 10
-41.02077988015635
 20
-15.99536950125496
 30
0.0
 10
-49.95724466776193
 20
-15.99536950125496
 30
0.0
 10
-57.11421701354478
 20
-10.24351636602394
 30
0.0
 10
-64.00057812104195
 20
-3.616966568542484
 30
0.0
  0
SPLINE
  5
36F3
330
1F
100
AcDbEntity
  8
AM_0
100
AcDbSpline
210
0.0
220
0.0
230
1.0
 70
     8
 71
     3
 72
     8
 73
     4
 74
     0
 42
0.0000000001
 43
0.0000000001
 40
0.0
 40
0.0
 40
0.0
 40
0.0
 40
29.78278697502944
 40
29.78278697502944
 40
29.78278697502944
 40
29.78278697502944
 10
-67.68828593280044
 20
16.00463049874503
 30
0.0
 10
-57.14910530752561
 20
16.00463049874503
 30
0.0
 10
-49.0849425938495
 20
8.004630498745035
 30
0.0
 10
-41.02077988017337
 20
0.0046304987450352
 30
0.0
  0
SPLINE
  5
36F4
330
1F
100
AcDbEntity
  8
AM_0
100
AcDbSpline
210
0.0
220
0.0
230
1.0
 70
     8
 71
     3
 72
     8
 73
     4
 74
     0
 42
0.0000000001
 43
0.0000000001
 40
8.414055231820121
 40
8.414055231820121
 40
8.414055231820121
 40
8.414055231820121
 40
29.58981741570692
 40
29.58981741570692
 40
29.58981741570692
 40
29.58981741570692
 10
-68.9022580742176
 20
13.92559213727914
 30
0.0
 10
-62.23717121879491
 20
11.19576949884318
 30
0.0
 10
-56.44167098915942
 20
5.600199998794108
 30
0.0
 10
-50.64617075952391
 20
0.0046304987450352
 30
0.0
  0
SPLINE
  5
36F6
330
1F
100
AcDbEntity
  8
AM_0
100
AcDbSpline
210
0.0
220
0.0
230
1.0
 70
     8
 71
     3
 72
     8
 73
     4
 74
     0
 42
0.0000000001
 43
0.0000000001
 40
27.60537947842802
 40
27.60537947842802
 40
27.60537947842802
 40
27.60537947842802
 40
29.78278697502949
 40
29.78278697502949
 40
29.78278697502949
 40
29.78278697502949
 10
-65.74959396523425
 20
1.756134607242038
 30
0.0
 10
-65.15905912741439
 20
1.174384020295347
 30
0.0
 10
-64.56949145662206
 20
0.5895072595201924
 30
0.0
 10
-63.97992378582972
 20
0.004630498745037
 30
0.0
  0
LINE
  5
3707
330
1F
100
AcDbEntity
  8
AM_11
100
AcDbLine
 10
-64.00057812104184
 20
-15.99536950125496
 30
0.0
 11
-0.0003804425583061
 21
-15.99536950125497
 31
0.0
  0
LINE
  5
3708
330
1F
100
AcDbEntity
  8
AM_11
100
AcDbLine
 10
-0.0003804425583544
 20
16.00463049874503
 30
0.0
 11
-64.00057812104197
 21
16.00463049874505
 31
0.0
  0
SPLINE
  5
3709
330
1F
100
AcDbEntity
  8
AM_0
100
AcDbSpline
210
0.0
220
0.0
230
1.0
 70
     8
 71
     3
 72
     8
 73
     4
 74
     0
 42
0.0000000001
 43
0.0000000001
 40
0.0
 40
0.0
 40
0.0
 40
0.0
 40
29.78278697502949
 40
29.78278697502949
 40
29.78278697502949
 40
29.78278697502949
 10
-41.02077988019033
 20
16.00463049874503
 30
0.0
 10
-30.48159925491549
 20
16.00463049874503
 30
0.0
 10
-22.41743654123934
 20
8.004630498745031
 30
0.0
 10
-14.3532738275632
 20
0.0046304987450316
 30
0.0
  0
SPLINE
  5
370A
330
1F
100
AcDbEntity
  8
AM_0
100
AcDbSpline
210
0.0
220
0.0
230
1.0
 70
     8
 71
     3
 72
     8
 73
     4
 74
     0
 42
0.0000000001
 43
0.0000000001
 40
0.0
 40
0.0
 40
0.0
 40
0.0
 40
29.78278697502949
 40
29.78278697502949
 40
29.78278697502949
 40
29.78278697502949
 10
-14.35327382754624
 20
-15.99536950125497
 30
0.0
 10
-24.89245445282108
 20
-15.99536950125497
 30
0.0
 10
-32.95661716649723
 20
-7.995369501254967
 30
0.0
 10
-41.02077988017337
 20
0.0046304987450352
 30
0.0
  0
SPLINE
  5
370B
330
1F
100
AcDbEntity
  8
AM_0
100
AcDbSpline
210
0.0
220
0.0
230
1.0
 70
     8
 71
     3
 72
     8
 73
     4
 74
     0
 42
0.0000000001
 43
0.0000000001
 40
0.0
 40
0.0
 40
0.0
 40
0.0
 40
29.78278697502948
 40
29.78278697502948
 40
29.78278697502948
 40
29.78278697502948
 10
-27.68702685385127
 20
-15.99536950125496
 30
0.0
 10
-38.22620747912612
 20
-15.99536950125496
 30
0.0
 10
-46.29037019280225
 20
-7.995369501254964
 30
0.0
 10
-54.35453290647839
 20
0.0046304987450352
 30
0.0
  0
SPLINE
  5
370C
330
1F
100
AcDbEntity
  8
AM_0
100
AcDbSpline
210
0.0
220
0.0
230
1.0
 70
     8
 71
     3
 72
     8
 73
     4
 74
     0
 42
0.0000000001
 43
0.0000000001
 40
0.0
 40
0.0
 40
0.0
 40
0.0
 40
29.58981741570702
 40
29.58981741570702
 40
29.58981741570702
 40
29.58981741570702
 10
-23.97866470689678
 20
-15.63323683330694
 30
0.0
 10
-34.44955954539874
 20
-15.63323683330694
 30
0.0
 10
-42.54786515246168
 20
-7.814303167280953
 30
0.0
 10
-50.64617075952464
 20
0.0046304987450352
 30
0.0
  0
SPLINE
  5
370D
330
1F
100
AcDbEntity
  8
AM_0
100
AcDbSpline
210
0.0
220
0.0
230
1.0
 70
     8
 71
     3
 72
     8
 73
     4
 74
     0
 42
0.0000000001
 43
0.0000000001
 40
0.0
 40
0.0
 40
0.0
 40
0.0
 40
29.58981741570707
 40
29.58981741570707
 40
29.58981741570707
 40
29.58981741570707
 10
-37.3124177332018
 20
-15.63323683330694
 30
0.0
 10
-47.78331257170377
 20
-15.63323683330694
 30
0.0
 10
-55.88161817876674
 20
-7.814303167280951
 30
0.0
 10
-63.97992378582972
 20
0.004630498745037
 30
0.0
  0
SPLINE
  5
370E
330
1F
100
AcDbEntity
  8
AM_0
100
AcDbSpline
210
0.0
220
0.0
230
1.0
 70
     8
 71
     3
 72
     8
 73
     4
 74
     0
 42
0.0000000001
 43
0.0000000001
 40
0.0
 40
0.0
 40
0.0
 40
0.0
 40
1.168827779827945
 40
1.168827779827945
 40
1.168827779827945
 40
1.168827779827945
 10
-41.02077988018804
 20
-15.99536950125496
 30
0.0
 10
-39.69722481041952
 20
-15.99536950125496
 30
0.0
 10
-38.41270424621114
 20
-15.86919827517434
 30
0.0
 10
-37.16231606854944
 20
-15.63270094151633
 30
0.0
  0
SPLINE
  5
370F
330
1F
100
AcDbEntity
  8
AM_0
100
AcDbSpline
210
0.0
220
0.0
230
1.0
 70
     8
 71
     3
 72
     8
 73
     4
 74
     0
 42
0.0000000001
 43
0.0000000001
 40
0.0
 40
0.0
 40
0.0
 40
0.0
 40
29.58981741570692
 40
29.58981741570692
 40
29.58981741570692
 40
29.58981741570692
 10
-63.97992378584746
 20
15.64249783079683
 30
0.0
 10
-53.50902894734554
 20
15.64249783079682
 30
0.0
 10
-45.41072334028257
 20
7.82356416477093
 30
0.0
 10
-37.31241773321961
 20
0.0046304987450352
 30
0.0
  0
SPLINE
  5
3710
330
1F
100
AcDbEntity
  8
AM_0
100
AcDbSpline
210
0.0
220
0.0
230
1.0
 70
     8
 71
     3
 72
     8
 73
     4
 74
     0
 42
0.0000000001
 43
0.0000000001
 40
0.0
 40
0.0
 40
0.0
 40
0.0
 40
29.78278697502949
 40
29.78278697502949
 40
29.78278697502949
 40
29.78278697502949
 10
-54.35453290649541
 20
16.00463049874503
 30
0.0
 10
-43.81535228122056
 20
16.00463049874503
 30
0.0
 10
-35.75118956754443
 20
8.004630498745031
 30
0.0
 10
-27.68702685386829
 20
0.0046304987450316
 30
0.0
  0
SPLINE
  5
3711
330
1F
100
AcDbEntity
  8
AM_0
100
AcDbSpline
210
0.0
220
0.0
230
1.0
 70
     8
 71
     3
 72
     8
 73
     4
 74
     0
 42
0.0000000001
 43
0.0000000001
 40
0.0
 40
0.0
 40
0.0
 40
0.0
 40
29.58981741570634
 40
29.58981741570634
 40
29.58981741570634
 40
29.58981741570634
 10
-50.64617075954165
 20
15.64249783079683
 30
0.0
 10
-40.17527592103993
 20
15.64249783079682
 30
0.0
 10
-32.07697031397723
 20
7.82356416477093
 30
0.0
 10
-23.97866470691452
 20
0.0046304987450316
 30
0.0
  0
SPLINE
  5
3887
330
1F
100
AcDbEntity
  8
AM_0
100
AcDbSpline
210
0.0
220
0.0
230
1.0
 70
     8
 71
     3
 72
     8
 73
     4
 74
     0
 42
0.0000000001
 43
0.0000000001
 40
0.0
 40
0.0
 40
0.0
 40
0.0
 40
1.168827779827945
 40
1.168827779827945
 40
1.168827779827945
 40
1.168827779827945
 10
-67.86938786803069
 20
-15.99536950125495
 30
0.0
 10
-66.5422838678962
 20
-15.99536950125495
 30
0.0
 10
-65.2543190389646
 20
-15.86919827517432
 30
0.0
 10
-64.00057811786561
 20
-15.63270094151631
 30
0.0
  0
POLYLINE
  5
3888
330
1F
100
AcDbEntity
  8
AM_0
100
AcDb2dPolyline
 66
     1
 10
0.0
 20
0.0
 30
0.0
  0
VERTEX
  5
3889
330
3888
100
AcDbEntity
  8
AM_0
100
AcDbVertex
100
AcDb2dVertex
 10
-64.00057812104193
 20
-15.64328260180941
 30
0.0
 42
-0.0221539577337636
  0
VERTEX
  5
388A
330
3888
100
AcDbEntity
  8
AM_0
100
AcDbVertex
100
AcDb2dVertex
 10
-65.47250992967601
 20
-15.31041057556991
 30
0.0
 42
-0.0340466909705598
  0
VERTEX
  5
388B
330
3888
100
AcDbEntity
  8
AM_0
100
AcDbVertex
100
AcDb2dVertex
 10
-66.40057812063201
 20
-14.98756656570439
 30
0.0
 42
-0.0203576778786898
  0
VERTEX
  5
388C
330
3888
100
AcDbEntity
  8
AM_0
100
AcDbVertex
100
AcDb2dVertex
 10
-68.56871903802256
 20
-13.95742978247153
 30
0.0
 42
-0.0400624909263087
  0
VERTEX
  5
388D
330
3888
100
AcDbEntity
  8
AM_0
100
AcDbVertex
100
AcDb2dVertex
 10
-69.60057812063201
 20
-13.3042480714517
 30
0.0
 42
-0.0663150629504314
  0
VERTEX
  5
388E
330
3888
100
AcDbEntity
  8
AM_0
100
AcDbVertex
100
AcDb2dVertex
 10
-70.31745544462869
 20
-12.59950883768164
 30
0.0
 42
-0.2076691274107043
  0
VERTEX
  5
388F
330
3888
100
AcDbEntity
  8
AM_0
100
AcDbVertex
100
AcDb2dVertex
 10
-70.40057812104193
 20
-12.27664561330404
 30
0.0
 42
-0.2374584988068722
  0
VERTEX
  5
3890
330
3888
100
AcDbEntity
  8
AM_0
100
AcDbVertex
100
AcDb2dVertex
 10
-70.23308893147863
 20
-12.04392011992424
 30
0.0
 42
-0.0987776704921028
  0
VERTEX
  5
3891
330
3888
100
AcDbEntity
  8
AM_0
100
AcDbVertex
100
AcDb2dVertex
 10
-69.60057812104193
 20
-11.85944558465244
 30
0.0
 42
-0.0800554842556619
  0
VERTEX
  5
3892
330
3888
100
AcDbEntity
  8
AM_0
100
AcDbVertex
100
AcDb2dVertex
 10
-68.81745203095764
 20
-11.91663999449926
 30
0.0
 42
-0.0248354955603466
  0
VERTEX
  5
3893
330
3888
100
AcDbEntity
  8
AM_0
100
AcDbVertex
100
AcDb2dVertex
 10
-66.40057812104193
 20
-12.61773680752148
 30
0.0
 42
-0.0116235723303201
  0
VERTEX
  5
3894
330
3888
100
AcDbEntity
  8
AM_0
100
AcDbVertex
100
AcDb2dVertex
 10
-65.97776018235252
 20
-12.77459394350911
 30
0.0
 42
-0.0249611087696398
  0
SEQEND
  5
3895
330
3888
100
AcDbEntity
  8
AM_0
  0
LINE
  5
3896
330
1F
100
AcDbEntity
  8
AM_11
100
AcDbLine
 10
-64.00057812104197
 20
15.99404883670098
 30
0.0
 11
-64.00057812104193
 21
-16.00595116329903
 31
0.0
  0
POLYLINE
  5
3898
330
1F
100
AcDbEntity
  8
AM_0
100
AcDb2dPolyline
 66
     1
 10
0.0
 20
0.0
 30
0.0
 70
     2
  0
VERTEX
  5
3899
330
3898
100
AcDbEntity
  8
AM_0
100
AcDbVertex
100
AcDb2dVertex
 10
-64.15108225944667
 20
-0.0059511632990166
 30
0.0
 42
-0.0127375777047685
  0
VERTEX
  5
389A
330
3898
100
AcDbEntity
  8
AM_0
100
AcDbVertex
100
AcDb2dVertex
 10
-65.73280716498977
 20
1.736624893423524
 30
0.0
 42
-0.0248093973610095
 70
     1
  0
VERTEX
  5
389B
330
3898
100
AcDbEntity
  8
AM_0
100
AcDbVertex
100
AcDb2dVertex
 10
-66.4758301902443
 20
2.690121202617831
 30
0.0
 42
-0.0083836245974647
  0
VERTEX
  5
389C
330
3898
100
AcDbEntity
  8
AM_0
100
AcDbVertex
100
AcDb2dVertex
 10
-68.49694317624735
 20
5.672501972956027
 30
0.0
 42
-0.0143113302193792
 70
     1
  0
VERTEX
  5
389D
330
3898
100
AcDbEntity
  8
AM_0
100
AcDbVertex
100
AcDb2dVertex
 10
-69.60057812104196
 20
7.471752556014209
 30
0.0
 42
-0.0388452244960751
  0
VERTEX
  5
389E
330
3898
100
AcDbEntity
  8
AM_0
100
AcDbVertex
100
AcDb2dVertex
 10
-70.28688102198914
 20
8.914799961029913
 30
0.0
 42
-0.0958601720223094
 70
     1
  0
VERTEX
  5
389F
330
3898
100
AcDbEntity
  8
AM_0
100
AcDbVertex
100
AcDb2dVertex
 10
-70.40057812104196
 20
9.557311543493739
 30
0.0
 42
-0.1958397271905712
  0
VERTEX
  5
38A0
330
3898
100
AcDbEntity
  8
AM_0
100
AcDbVertex
100
AcDb2dVertex
 10
-70.23096697023277
 20
9.955394597267286
 30
0.0
 42
-0.1110351864371754
 70
     1
  0
VERTEX
  5
38A1
330
3898
100
AcDbEntity
  8
AM_0
100
AcDbVertex
100
AcDb2dVertex
 10
-69.60057812104196
 20
10.3506791722891
 30
0.0
 42
-0.1149197439922528
  0
VERTEX
  5
38A2
330
3898
100
AcDbEntity
  8
AM_0
100
AcDbVertex
100
AcDb2dVertex
 10
-68.74486080485117
 20
10.44525122918021
 30
0.0
 42
-0.0408875130900929
 70
     1
  0
VERTEX
  5
38A3
330
3898
100
AcDbEntity
  8
AM_0
100
AcDbVertex
100
AcDb2dVertex
 10
-66.40057812104197
 20
9.968835921970693
 30
0.0
 42
-0.0433088016869432
  0
VERTEX
  5
38A4
330
3898
100
AcDbEntity
  8
AM_0
100
AcDbVertex
100
AcDb2dVertex
 10
-65.22946388434688
 20
9.516237393026926
 30
0.0
 42
-0.0381261598452643
 70
     1
  0
VERTEX
  5
38A5
330
3898
100
AcDbEntity
  8
AM_0
100
AcDbVertex
100
AcDb2dVertex
 10
-64.00057812104195
 20
8.793625042856959
 30
0.0
  0
SEQEND
  5
38A6
330
3898
100
AcDbEntity
  8
AM_0
  0
POLYLINE
  5
38A7
330
1F
100
AcDbEntity
  8
AM_0
100
AcDb2dPolyline
 66
     1
 10
0.0
 20
0.0
 30
0.0
 70
     2
  0
VERTEX
  5
38A8
330
38A7
100
AcDbEntity
  8
AM_0
100
AcDbVertex
100
AcDb2dVertex
 10
-64.00057812104193
 20
-11.43575160630305
 30
0.0
 42
-0.0178156365317552
  0
VERTEX
  5
38A9
330
38A7
100
AcDbEntity
  8
AM_0
100
AcDbVertex
100
AcDb2dVertex
 10
-65.6179490321924
 20
-9.944541065214053
 30
0.0
 42
-0.0331959452416026
 70
     1
  0
VERTEX
  5
38AA
330
38A7
100
AcDbEntity
  8
AM_0
100
AcDbVertex
100
AcDb2dVertex
 10
-66.40057812104193
 20
-9.059322437313085
 30
0.0
 42
-0.0146039106870926
  0
VERTEX
  5
38AB
330
38A7
100
AcDbEntity
  8
AM_0
100
AcDbVertex
100
AcDb2dVertex
 10
-68.4190528179884
 20
-6.281560493388155
 30
0.0
 42
-0.0223520491893001
 70
     1
  0
VERTEX
  5
38AC
330
38A7
100
AcDbEntity
  8
AM_0
100
AcDbVertex
100
AcDb2dVertex
 10
-69.60057812104195
 20
-4.373719769341477
 30
0.0
 42
-0.0441009200707103
  0
VERTEX
  5
38AD
330
38A7
100
AcDbEntity
  8
AM_0
100
AcDbVertex
100
AcDb2dVertex
 10
-70.28470085022465
 20
-2.84853634015765
 30
0.0
 42
-0.0936531610333872
 70
     1
  0
VERTEX
  5
38AE
330
38A7
100
AcDbEntity
  8
AM_0
100
AcDbVertex
100
AcDb2dVertex
 10
-70.40057812104194
 20
-2.064546270359869
 30
0.0
 42
-0.1702954566684844
  0
VERTEX
  5
38AF
330
38A7
100
AcDbEntity
  8
AM_0
100
AcDbVertex
100
AcDb2dVertex
 10
-70.19596572651725
 20
-1.548332032826735
 30
0.0
 42
-0.1297006245562602
 70
     1
  0
VERTEX
  5
38B0
330
38A7
100
AcDbEntity
  8
AM_0
100
AcDbVertex
100
AcDb2dVertex
 10
-69.60057812104195
 20
-1.142658382272983
 30
0.0
 42
-0.1520873745504847
  0
VERTEX
  5
38B1
330
38A7
100
AcDbEntity
  8
AM_0
100
AcDbVertex
100
AcDb2dVertex
 10
-68.79522463157575
 20
-1.111811365085983
 30
0.0
 42
-0.046970576622812
 70
     1
  0
VERTEX
  5
38B2
330
38A7
100
AcDbEntity
  8
AM_0
100
AcDbVertex
100
AcDb2dVertex
 10
-66.40057812104195
 20
-2.006198157880362
 30
0.0
 42
-0.0471052227454502
  0
VERTEX
  5
38B3
330
38A7
100
AcDbEntity
  8
AM_0
100
AcDbVertex
100
AcDb2dVertex
 10
-65.15159254239875
 20
-2.764182498897099
 30
0.0
 42
-0.0445950027858137
 70
     1
  0
VERTEX
  5
38B4
330
38A7
100
AcDbEntity
  8
AM_0
100
AcDbVertex
100
AcDb2dVertex
 10
-63.91334882725082
 20
-3.700843676131152
 30
0.0
  0
SEQEND
  5
38B5
330
38A7
100
AcDbEntity
  8
AM_0
  0
SPLINE
  5
38B7
330
1F
100
AcDbEntity
  8
AM_0
100
AcDbSpline
210
0.0
220
0.0
230
1.0
 70
     8
 71
     3
 72
     8
 73
     4
 74
     0
 42
0.0000000001
 43
0.0000000001
 40
9.242682348301711
 40
9.242682348301711
 40
9.242682348301711
 40
9.242682348301711
 40
9.307120929696704
 40
9.307120929696704
 40
9.307120929696704
 40
9.307120929696704
 10
-64.31903079567163
 20
0.1707937251360079
 30
0.0
 10
-64.2630474011754
 20
0.1154077530762123
 30
0.0
 10
-64.207064830311
 20
0.060019125910614
 30
0.0
 10
-64.15108225944658
 20
0.0046304987450441
 30
0.0
  0
POLYLINE
  5
38B8
330
1F
100
AcDbEntity
  8
AM_0
100
AcDb2dPolyline
 66
     1
 10
0.0
 20
0.0
 30
0.0
  0
VERTEX
  5
38B9
330
38B8
100
AcDbEntity
  8
AM_0
100
AcDbVertex
100
AcDb2dVertex
 10
-68.60840256281649
 20
13.71418327953974
 30
0.0
 42
-0.0145870599255934
  0
VERTEX
  5
38BA
330
38B8
100
AcDbEntity
  8
AM_0
100
AcDbVertex
100
AcDb2dVertex
 10
-69.60057812104196
 20
14.45957263945281
 30
0.0
 42
-0.0050435334132596
  0
VERTEX
  5
38BB
330
38B8
100
AcDbEntity
  8
AM_0
100
AcDbVertex
100
AcDb2dVertex
 10
-70.39380028896892
 20
15.105719173055
 30
0.0
 42
-0.2742987476584449
  0
VERTEX
  5
38BC
330
38B8
100
AcDbEntity
  8
AM_0
100
AcDbVertex
100
AcDb2dVertex
 10
-70.40057812104198
 20
15.12477611143313
 30
0.0
 42
-0.2776516060307496
  0
VERTEX
  5
38BD
330
38B8
100
AcDbEntity
  8
AM_0
100
AcDbVertex
100
AcDb2dVertex
 10
-70.323532753688
 20
15.20994216262374
 30
0.0
 42
-0.0400827094855082
  0
VERTEX
  5
38BE
330
38B8
100
AcDbEntity
  8
AM_0
100
AcDbVertex
100
AcDb2dVertex
 10
-69.6005781206278
 20
15.36678530672908
 30
0.0
 42
-0.0136313623974274
  0
VERTEX
  5
38BF
330
38B8
100
AcDbEntity
  8
AM_0
100
AcDbVertex
100
AcDb2dVertex
 10
-68.85986197534714
 20
15.44578631305872
 30
0.0
 42
-0.0041179133630786
  0
VERTEX
  5
38C0
330
38B8
100
AcDbEntity
  8
AM_0
100
AcDbVertex
100
AcDb2dVertex
 10
-66.4005781206278
 20
15.62008738934937
 30
0.0
 42
-0.0144548307118866
  0
VERTEX
  5
38C1
330
38B8
100
AcDbEntity
  8
AM_0
100
AcDbVertex
100
AcDb2dVertex
 10
-65.54953709573476
 20
15.64870419553817
 30
0.0
 42
-0.0079447181452264
  0
VERTEX
  5
38C2
330
38B8
100
AcDbEntity
  8
AM_0
100
AcDbVertex
100
AcDb2dVertex
 10
-64.00057812104197
 20
15.63138027756102
 30
0.0
  0
SEQEND
  5
38C3
330
38B8
100
AcDbEntity
  8
AM_0
  0
SPLINE
  5
38C7
330
1F
100
AcDbEntity
  8
AM_0
100
AcDbSpline
210
0.0
220
0.0
230
1.0
 70
     8
 71
     3
 72
     8
 73
     4
 74
     0
 42
0.0000000001
 43
0.0000000001
 40
18.20923864427424
 40
18.20923864427424
 40
18.20923864427424
 40
18.20923864427424
 40
29.78278697502949
 40
29.78278697502949
 40
29.78278697502949
 40
29.78278697502949
 10
-63.90093768131068
 20
8.861541530449995
 30
0.0
 10
-60.62197705077932
 20
6.222207565906012
 30
0.0
 10
-57.48825497862886
 20
3.113419032325524
 30
0.0
 10
-54.35453290647839
 20
0.0046304987450352
 30
0.0
  0
VIEWPORT
  5
110
330
101
100
AcDbEntity
 67
     1
  8
0
100
AcDbViewport
 10
420.5
 20
297.0
 30
0.0
 40
948.9782706766916
 41
628.452
 68
     1
 69
     1
1001
ACAD
1000
MVIEW
1002
{
1070
    16
1010
0.0
1020
0.0
1030
0.0
1010
0.0
1020
0.0
1030
1.0
1040
0.0
1040
628.452
1040
420.5
1040
297.0
1040
50.0
1040
0.0
1040
0.0
1070
     0
1070
   100
1070
     1
1070
     1
1070
     0
1070
     0
1070
     0
1070
     0
1040
0.0
1040
0.0
1040
0.0
1040
10.0
1040
10.0
1040
10.0
1040
10.0
1070
     0
1002
{
1002
}
1002
}
  0
ENDSEC
  0
SECTION
  2
OBJECTS
  0
DICTIONARY
  5
C
330
0
100
AcDbDictionary
  3
ACAD_GROUP
350
D
  3
ACAD_LAYOUT
350
1A
  3
ACAD_MLINESTYLE
350
17
  3
ACAD_PLOTSETTINGS
350
19
  3
ACAD_PLOTSTYLENAME
350
E
  3
ACDBVARIABLEDICTIONARY
350
34
  3
ACMDICTIONARY
350
43
  3
AMG
350
2B
  3
AMGSNAPSETTINGS
350
6E
  3
DWGPROPS
350
38FA
  3
ACDBHEADERROUNDTRIPXREC
350
3906
  0
DICTIONARY
  5
74
330
1F
100
AcDbDictionary
280
     1
  3
ACAD_INDEX
360
38FC
  3
ACAD_LAYOUTSELFREF
360
3929
  0
DICTIONARY
  5
392E
330
101
100
AcDbDictionary
280
     1
  3
ACAD_LAYOUTSELFREF
360
392F
  0
DICTIONARY
  5
D
102
{ACAD_REACTORS
330
C
102
}
330
C
100
AcDbDictionary
  0
DICTIONARY
  5
1A
102
{ACAD_REACTORS
330
C
102
}
330
C
100
AcDbDictionary
  0
DICTIONARY
  5
17
102
{ACAD_REACTORS
330
C
102
}
330
C
100
AcDbDictionary
  3
STANDARD
350
18
  0
DICTIONARY
  5
19
102
{ACAD_REACTORS
330
C
102
}
330
C
100
AcDbDictionary
  0
ACDBDICTIONARYWDFLT
  5
E
102
{ACAD_REACTORS
330
C
102
}
330
C
100
AcDbDictionary
281
     1
  3
Normal
350
F
100
AcDbDictionaryWithDefault
340
F
  0
DICTIONARY
  5
34
102
{ACAD_REACTORS
330
C
102
}
330
C
100
AcDbDictionary
  3
INDEXCTL
350
35
  3
SORTENTS
350
B5E
  0
DICTIONARY
  5
43
102
{ACAD_REACTORS
330
C
102
}
330
C
100
AcDbDictionary
  3
ACMSTDDICTIONARY
350
260
  0
DICTIONARY
  5
2B
102
{ACAD_REACTORS
330
C
102
}
330
C
100
AcDbDictionary
  3
ACMGSETTINGS
350
2C
  0
DICTIONARY
  5
6E
102
{ACAD_REACTORS
330
C
102
}
330
C
100
AcDbDictionary
  0
XRECORD
  5
38FA
102
{ACAD_REACTORS
330
C
102
}
330
C
100
AcDbXrecord
  1
DWGPROPS COOKIE
  2

  3

  4

  6

  7

  8

  9

300
AmdtFileType=82
301
=
302
=
303
=
304
=
305
=
306
=
307
=
308
=
309
=
 40
0.2595891898148148
 41
2452838.620506898
 42
2452846.406083032
  1

 90
        1
  0
DICTIONARY
  5
3906
102
{ACAD_REACTORS
330
C
102
}
330
C
100
AcDbDictionary
  3
TSTACKALIGN
350
3907
  3
TSTACKSIZE
350
3908
  3
HYPERLINKBASE
350
3909
  3
STYLESHEET
350
390A
  3
LAYOUTDICT
350
390B
  3
PLOTSETDICT
350
390C
  3
PLOTSTYLNAMDICT
350
390D
  3
LWETCUNION
350
390E
  3
INSUNITS
350
390F
  3
CEPSNTYPE
350
3910
  3
FINGERPRINTGUID
350
3911
  3
VERSIONGUID
350
3912
  3
PSVPSCALE
350
3913
  3
DIMSTYLEDATA
350
3914
  3
PUCSORTHOREF
350
3915
  3
PUCSORTHOVIEW
350
3916
  3
PUCSBASE
350
3917
  3
PUCSORGTOP
350
3918
  3
PUCSORGBOTTOM
350
3919
  3
PUCSORGLEFT
350
391A
  3
PUCSORGRIGHT
350
391B
  3
PUCSORGFRONT
350
391C
  3
PUCSORGBACK
350
391D
  3
UCSORTHOREF
350
391E
  3
UCSORTHOVIEW
350
391F
  3
UCSBASE
350
3920
  3
UCSORGTOP
350
3921
  3
UCSORGBOTTOM
350
3922
  3
UCSORGLEFT
350
3923
  3
UCSORGRIGHT
350
3924
  3
UCSORGFRONT
350
3925
  3
UCSORGBACK
350
3926
  0
DICTIONARY
  5
38FC
102
{ACAD_REACTORS
330
74
102
}
330
74
100
AcDbDictionary
  3
*A1
350
38FD
  0
XRECORD
  5
3929
102
{ACAD_REACTORS
330
74
102
}
330
74
100
AcDbXrecord
340
1F
  0
XRECORD
  5
392F
102
{ACAD_REACTORS
330
392E
102
}
330
392E
100
AcDbXrecord
340
101
  0
MLINESTYLE
  5
18
102
{ACAD_REACTORS
330
17
102
}
330
17
100
AcDbMlineStyle
  2
STANDARD
 70
     0
  3

 62
   256
 51
90.0
 52
90.0
 71
     2
 49
0.5
 62
   256
  6
BYLAYER
 49
-0.5
 62
   256
  6
BYLAYER
  0
ACDBPLACEHOLDER
  5
F
102
{ACAD_REACTORS
330
E
102
}
330
E
100
AcDbPlaceHolder
280
     0
  0
DICTIONARYVAR
  5
35
102
{ACAD_REACTORS
330
34
102
}
330
34
100
DictionaryVariables
280
     0
  1
1
  0
DICTIONARYVAR
  5
B5E
102
{ACAD_REACTORS
330
34
102
}
330
34
100
DictionaryVariables
280
     0
  1
96
  0
DICTIONARY
  5
260
102
{ACAD_REACTORS
330
43
102
}
330
43
100
AcDbDictionary
  0
DICTIONARY
  5
2C
102
{ACAD_REACTORS
330
2B
102
}
330
2B
100
AcDbDictionary
  3
DWGSETTINGS
350
2D
  0
XRECORD
  5
3907
102
{ACAD_REACTORS
330
3906
102
}
330
3906
100
AcDbXrecord
 90
        1
  0
XRECORD
  5
3908
102
{ACAD_REACTORS
330
3906
102
}
330
3906
100
AcDbXrecord
 90
       70
  0
XRECORD
  5
3909
102
{ACAD_REACTORS
330
3906
102
}
330
3906
100
AcDbXrecord
  1

  0
XRECORD
  5
390A
102
{ACAD_REACTORS
330
3906
102
}
330
3906
100
AcDbXrecord
  1
ACAD_M_9400.ctb
  0
XRECORD
  5
390B
102
{ACAD_REACTORS
330
3906
102
}
330
3906
100
AcDbXrecord
340
1A
  0
XRECORD
  5
390C
102
{ACAD_REACTORS
330
3906
102
}
330
3906
100
AcDbXrecord
340
19
  0
XRECORD
  5
390D
102
{ACAD_REACTORS
330
3906
102
}
330
3906
100
AcDbXrecord
340
E
  0
XRECORD
  5
390E
102
{ACAD_REACTORS
330
3906
102
}
330
3906
100
AcDbXrecord
 90
    10781
  0
XRECORD
  5
390F
102
{ACAD_REACTORS
330
3906
102
}
330
3906
100
AcDbXrecord
 90
        4
  0
XRECORD
  5
3910
102
{ACAD_REACTORS
330
3906
102
}
330
3906
100
AcDbXrecord
 90
        0
  0
XRECORD
  5
3911
102
{ACAD_REACTORS
330
3906
102
}
330
3906
100
AcDbXrecord
  1
{AFB28963-8C59-40AE-9337-C84526B81ACE}
  0
XRECORD
  5
3912
102
{ACAD_REACTORS
330
3906
102
}
330
3906
100
AcDbXrecord
  1
{15103F15-5C4D-4F5A-B5B4-2B15FD5FC3F2}
  0
XRECORD
  5
3913
102
{ACAD_REACTORS
330
3906
102
}
330
3906
100
AcDbXrecord
 40
0.0
  0
XRECORD
  5
3914
102
{ACAD_REACTORS
330
3906
102
}
330
3906
100
AcDbXrecord
1000
DSTYLE
1002
{
1070
    79
 70
     2
1070
   341
340
59
1070
   342
340
59
1070
   371
 70
    -1
1070
   372
 70
    -1
1002
}
  0
XRECORD
  5
3915
102
{ACAD_REACTORS
330
3906
102
}
330
3906
100
AcDbXrecord
340
0
  0
XRECORD
  5
3916
102
{ACAD_REACTORS
330
3906
102
}
330
3906
100
AcDbXrecord
 70
     0
  0
XRECORD
  5
3917
102
{ACAD_REACTORS
330
3906
102
}
330
3906
100
AcDbXrecord
340
0
  0
XRECORD
  5
3918
102
{ACAD_REACTORS
330
3906
102
}
330
3906
100
AcDbXrecord
 10
0.0
 20
0.0
 30
0.0
  0
XRECORD
  5
3919
102
{ACAD_REACTORS
330
3906
102
}
330
3906
100
AcDbXrecord
 10
0.0
 20
0.0
 30
0.0
  0
XRECORD
  5
391A
102
{ACAD_REACTORS
330
3906
102
}
330
3906
100
AcDbXrecord
 10
0.0
 20
0.0
 30
0.0
  0
XRECORD
  5
391B
102
{ACAD_REACTORS
330
3906
102
}
330
3906
100
AcDbXrecord
 10
0.0
 20
0.0
 30
0.0
  0
XRECORD
  5
391C
102
{ACAD_REACTORS
330
3906
102
}
330
3906
100
AcDbXrecord
 10
0.0
 20
0.0
 30
0.0
  0
XRECORD
  5
391D
102
{ACAD_REACTORS
330
3906
102
}
330
3906
100
AcDbXrecord
 10
0.0
 20
0.0
 30
0.0
  0
XRECORD
  5
391E
102
{ACAD_REACTORS
330
3906
102
}
330
3906
100
AcDbXrecord
340
0
  0
XRECORD
  5
391F
102
{ACAD_REACTORS
330
3906
102
}
330
3906
100
AcDbXrecord
 70
     0
  0
XRECORD
  5
3920
102
{ACAD_REACTORS
330
3906
102
}
330
3906
100
AcDbXrecord
340
0
  0
XRECORD
  5
3921
102
{ACAD_REACTORS
330
3906
102
}
330
3906
100
AcDbXrecord
 10
0.0
 20
0.0
 30
0.0
  0
XRECORD
  5
3922
102
{ACAD_REACTORS
330
3906
102
}
330
3906
100
AcDbXrecord
 10
0.0
 20
0.0
 30
0.0
  0
XRECORD
  5
3923
102
{ACAD_REACTORS
330
3906
102
}
330
3906
100
AcDbXrecord
 10
0.0
 20
0.0
 30
0.0
  0
XRECORD
  5
3924
102
{ACAD_REACTORS
330
3906
102
}
330
3906
100
AcDbXrecord
 10
0.0
 20
0.0
 30
0.0
  0
XRECORD
  5
3925
102
{ACAD_REACTORS
330
3906
102
}
330
3906
100
AcDbXrecord
 10
0.0
 20
0.0
 30
0.0
  0
XRECORD
  5
3926
102
{ACAD_REACTORS
330
3906
102
}
330
3906
100
AcDbXrecord
 10
0.0
 20
0.0
 30
0.0
  0
LAYER_INDEX
  5
38FD
102
{ACAD_REACTORS
330
38FC
102
}
330
38FC
100
AcDbIndex
 40
2453152.478222743
100
AcDbLayerIndex
  8
0
360
38FE
 90
        1
  8
AM_0
360
38FF
 90
       79
  8
AM_11
360
3900
 90
        5
  8
AM_7
360
3901
 90
        1
  8
AM_5
360
3902
 90
        4
  8
Defpoints
360
3903
 90
        0
  8
AM_6
360
3904
 90
        1
  0
XRECORD
  5
2D
102
{ACAD_REACTORS
330
2C
102
}
330
2C
100
AcDbXrecord
  1
VERSION
140
15.0
  1
PRODUCT
  2
AutoCAD Mechanical 2000
  0
IDBUFFER
  5
38FE
330
0
100
AcDbIdBuffer
330
2F71
  0
IDBUFFER
  5
38FF
330
0
100
AcDbIdBuffer
330
36D3
330
36D4
330
36D5
330
36D6
330
36D7
330
36DB
330
36DC
330
36DE
330
36DF
330
36E0
330
36E1
330
36E2
330
36F3
330
36F4
330
36F6
330
3709
330
370A
330
370B
330
370C
330
370D
330
370E
330
370F
330
3710
330
3711
330
3887
330
3888
330
3898
330
38A7
330
38B7
330
38B8
330
38C7
330
2F6A
330
2F6B
330
2F6C
330
2F6D
330
2F6E
330
2F6F
330
2F70
330
36AA
330
36AB
330
36AC
330
36AD
330
36AE
330
36AF
330
36B0
330
36B1
330
36B2
330
36B3
330
36B4
330
36B5
330
36B6
330
36B7
330
36B8
330
36B9
330
36BA
330
36BB
330
36BC
330
36BD
330
36BE
330
36BF
330
36C0
330
36C1
330
36C2
330
36C3
330
36C4
330
36C5
330
36C6
330
36C7
330
36C8
330
36C9
330
36CA
330
36CB
330
36CC
330
36CD
330
36CE
330
36CF
330
36D0
330
36D1
330
36D2
  0
IDBUFFER
  5
3900
330
0
100
AcDbIdBuffer
330
3031
330
3074
330
3707
330
3708
330
3896
  0
IDBUFFER
  5
3901
330
0
100
AcDbIdBuffer
330
2F09
  0
IDBUFFER
  5
3902
330
0
100
AcDbIdBuffer
330
2EA2
330
2F15
330
2F72
330
3080
  0
IDBUFFER
  5
3903
330
0
100
AcDbIdBuffer
  0
IDBUFFER
  5
3904
330
0
100
AcDbIdBuffer
330
C58
  0
ENDSEC
  0
EOF
