  0
SECTION
  2
HEADER
  9
$ACADVER
  1
AC1014
  9
$ACADMAINTVER
 70
     9
  9
$DWGCODEPAGE
  3
ANSI_932
  9
$INSBASE
 10
0.0
 20
0.0
 30
0.0
  9
$EXTMIN
 10
-103.2543021951481
 20
-28.75000101001125
 30
-0.00000001
  9
$EXTMAX
 10
10.89356115204064
 20
5.357118905522874
 30
0.00000001
  9
$LIMMIN
 10
-127.970265077527
 20
-54.8383585196688
  9
$LIMMAX
 10
30.1350502071087
 20
38.14340088174733
  9
$ORTHOMODE
 70
     0
  9
$REGENMODE
 70
     1
  9
$FILLMODE
 70
     1
  9
$QTEXTMODE
 70
     0
  9
$MIRRTEXT
 70
     0
  9
$DRAGMODE
 70
     2
  9
$LTSCALE
 40
1.0
  9
$OSMODE
 70
    55
  9
$ATTMODE
 70
     1
  9
$TEXTSIZE
 40
2.5
  9
$TRACEWID
 40
1.0
  9
$TEXTSTYLE
  7
STANDARD
  9
$CLAYER
  8
AM_0
  9
$CELTYPE
  6
BYLAYER
  9
$CECOLOR
 62
   256
  9
$CELTSCALE
 40
1.0
  9
$DELOBJ
 70
     1
  9
$DISPSILH
 70
     0
  9
$DIMSCALE
 40
0.5
  9
$DIMASZ
 40
2.5
  9
$DIMEXO
 40
1.0
  9
$DIMDLI
 40
12.0
  9
$DIMRND
 40
0.0
  9
$DIMDLE
 40
0.0
  9
$DIMEXE
 40
1.0
  9
$DIMTP
 40
0.1
  9
$DIMTM
 40
0.1
  9
$DIMTXT
 40
3.2
  9
$DIMCEN
 40
0.0
  9
$DIMTSZ
 40
0.0
  9
$DIMTOL
 70
     0
  9
$DIMLIM
 70
     0
  9
$DIMTIH
 70
     0
  9
$DIMTOH
 70
     0
  9
$DIMSE1
 70
     0
  9
$DIMSE2
 70
     0
  9
$DIMTAD
 70
     3
  9
$DIMZIN
 70
     8
  9
$DIMBLK
  1
OPEN30
  9
$DIMASO
 70
     1
  9
$DIMSHO
 70
     1
  9
$DIMPOST
  1

  9
$DIMAPOST
  1
"
  9
$DIMALT
 70
     0
  9
$DIMALTD
 70
     2
  9
$DIMALTF
 40
0.0393701
  9
$DIMLFAC
 40
1.0
  9
$DIMTOFL
 70
     1
  9
$DIMTVP
 40
0.0
  9
$DIMTIX
 70
     0
  9
$DIMSOXD
 70
     0
  9
$DIMSAH
 70
     0
  9
$DIMBLK1
  1

  9
$DIMBLK2
  1

  9
$DIMSTYLE
  2
AM_JIS
  9
$DIMCLRD
 70
   256
  9
$DIMCLRE
 70
   256
  9
$DIMCLRT
 70
     2
  9
$DIMTFAC
 40
0.71
  9
$DIMGAP
 40
1.5
  9
$DIMJUST
 70
     0
  9
$DIMSD1
 70
     0
  9
$DIMSD2
 70
     0
  9
$DIMTOLJ
 70
     0
  9
$DIMTZIN
 70
     0
  9
$DIMALTZ
 70
     0
  9
$DIMALTTZ
 70
     0
  9
$DIMFIT
 70
     3
  9
$DIMUPT
 70
     0
  9
$DIMUNIT
 70
     2
  9
$DIMDEC
 70
     3
  9
$DIMTDEC
 70
     3
  9
$DIMALTU
 70
     2
  9
$DIMALTTD
 70
     2
  9
$DIMTXSTY
  7
ASAMI
  9
$DIMAUNIT
 70
     0
  9
$LUNITS
 70
     2
  9
$LUPREC
 70
     2
  9
$SKETCHINC
 40
1.0
  9
$FILLETRAD
 40
2.5
  9
$AUNITS
 70
     0
  9
$AUPREC
 70
     0
  9
$MENU
  1
.
  9
$ELEVATION
 40
0.0
  9
$PELEVATION
 40
0.0
  9
$THICKNESS
 40
0.0
  9
$LIMCHECK
 70
     0
  9
$BLIPMODE
 70
     0
  9
$CHAMFERA
 40
2.5
  9
$CHAMFERB
 40
2.5
  9
$CHAMFERC
 40
20.0
  9
$CHAMFERD
 40
0.0
  9
$SKPOLY
 70
     0
  9
$TDCREATE
 40
2452838.620506898
  9
$TDUPDATE
 40
2453152.475050278
  9
$TDINDWG
 40
0.1323690972
  9
$TDUSRTIMER
 40
0.1323690972
  9
$USRTIMER
 70
     1
  9
$ANGBASE
 50
0.0
  9
$ANGDIR
 70
     0
  9
$PDMODE
 70
     0
  9
$PDSIZE
 40
0.0
  9
$PLINEWID
 40
0.0
  9
$COORDS
 70
     1
  9
$SPLFRAME
 70
     0
  9
$SPLINETYPE
 70
     6
  9
$SPLINESEGS
 70
     8
  9
$ATTDIA
 70
     1
  9
$ATTREQ
 70
     1
  9
$HANDLING
 70
 12289
  9
$HANDSEED
  5
21F6
  9
$SURFTAB1
 70
     6
  9
$SURFTAB2
 70
     6
  9
$SURFTYPE
 70
     6
  9
$SURFU
 70
     6
  9
$SURFV
 70
     6
  9
$UCSNAME
  2

  9
$UCSORG
 10
-0.0000000000000561
 20
-0.0000000000000036
 30
0.0
  9
$UCSXDIR
 10
1.0
 20
0.0
 30
0.0
  9
$UCSYDIR
 10
0.0
 20
1.0
 30
0.0
  9
$PUCSNAME
  2

  9
$PUCSORG
 10
0.0
 20
0.0
 30
0.0
  9
$PUCSXDIR
 10
1.0
 20
0.0
 30
0.0
  9
$PUCSYDIR
 10
0.0
 20
1.0
 30
0.0
  9
$USERI1
 70
     0
  9
$USERI2
 70
     0
  9
$USERI3
 70
     0
  9
$USERI4
 70
     0
  9
$USERI5
 70
     0
  9
$USERR1
 40
0.0
  9
$USERR2
 40
0.0
  9
$USERR3
 40
0.0
  9
$USERR4
 40
0.0
  9
$USERR5
 40
0.0
  9
$WORLDVIEW
 70
     1
  9
$SHADEDGE
 70
     3
  9
$SHADEDIF
 70
    70
  9
$TILEMODE
 70
     1
  9
$MAXACTVP
 70
    64
  9
$PINSBASE
 10
0.0
 20
0.0
 30
0.0
  9
$PLIMCHECK
 70
     0
  9
$PEXTMIN
 10
1.000000000000000E+20
 20
1.000000000000000E+20
 30
1.000000000000000E+20
  9
$PEXTMAX
 10
-1.000000000000000E+20
 20
-1.000000000000000E+20
 30
-1.000000000000000E+20
  9
$PLIMMIN
 10
0.0
 20
0.0
  9
$PLIMMAX
 10
841.0
 20
594.0
  9
$UNITMODE
 70
     0
  9
$VISRETAIN
 70
     1
  9
$PLINEGEN
 70
     0
  9
$PSLTSCALE
 70
     0
  9
$TREEDEPTH
 70
  3020
  9
$PICKSTYLE
 70
     0
  9
$CMLSTYLE
  2
STANDARD
  9
$CMLJUST
 70
     0
  9
$CMLSCALE
 40
20.0
  9
$PROXYGRAPHICS
 70
     1
  9
$MEASUREMENT
 70
     1
  0
ENDSEC
  0
SECTION
  2
CLASSES
  0
CLASS
  1
ACDBDICTIONARYWDFLT
  2
AcDbDictionaryWithDefault
  3
AutoCAD 2000
 90
        0
280
     0
281
     0
  0
CLASS
  1
ACDBPLACEHOLDER
  2
AcDbPlaceHolder
  3
AutoCAD 2000
 90
        0
280
     0
281
     0
  0
CLASS
  1
LAYOUT
  2
AcDbLayout
  3
AutoCAD 2000
 90
        0
280
     0
281
     0
  0
CLASS
  1
AMGSETTINGSOBJ
  2
AmgSettingsObj
  3
"AcadM|Product Description: AutoCAD Mechanical 2000|Company: Autodesk"
 90
        0
280
     0
281
     0
  0
CLASS
  1
ACME_DOCUMENT
  2
AcMeDbDoc
  3
AcMeServices
 90
        0
280
     0
281
     0
  0
CLASS
  1
ACMESCOPE
  2
AcMeScope
  3
AcMeServices
 90
        0
280
     0
281
     0
  0
CLASS
  1
ACMECOMMANDHISTORY
  2
AcMeCommandHistory
  3
AcMeServices
 90
        0
280
     0
281
     0
  0
CLASS
  1
DICTIONARYVAR
  2
AcDbDictionaryVar
  3
AutoCAD 2000
 90
        0
280
     0
281
     0
  0
CLASS
  1
ACIMSYSVARMAN
  2
AcImSysVarManager
  3
AcMeServices
 90
        0
280
     0
281
     0
  0
CLASS
  1
ACIMREALSYSVAR
  2
AcImRealSysVar
  3
AcMeServices
 90
        0
280
     0
281
     0
  0
CLASS
  1
ACIMINTSYSVAR
  2
AcImIntSysVar
  3
AcMeServices
 90
        0
280
     0
281
     0
  0
CLASS
  1
ACMEDRAWINGMAN
  2
AcMeDrawingMan
  3
AcMeServices
 90
        0
280
     0
281
     0
  0
CLASS
  1
ACMEVIEW
  2
AcMeView
  3
AcMeServices
 90
        0
280
     0
281
     0
  0
CLASS
  1
ACDBENTITYCACHE
  2
AcMeEntityCache
  3
AcMeServices
 90
        0
280
     0
281
     0
  0
CLASS
  1
GSMANAGER
  2
AcMeGSManager
  3
AcMeServices
 90
        0
280
     0
281
     0
  0
CLASS
  1
AmdtInternalReactor
  2
AmdtInternalReactor
  3
AcMeServices
 90
        0
280
     0
281
     0
  0
CLASS
  1
ACMESTATEMGR
  2
AcMeStateMgr
  3
AcMeServices
 90
        0
280
     0
281
     0
  0
CLASS
  1
ACME_DATABASE
  2
AcMeDbDatabase
  3
AcMeServices
 90
        0
280
     0
281
     0
  0
CLASS
  1
ACRFINSADJUSTERMGR
  2
AcRfInsAdjusterMgr
  3
AcMeServices
 90
        0
280
     0
281
     0
  0
CLASS
  1
ACMDATADICTIONARY
  2
AcmDataDictionary
  3
"AcmSymBB|Product Description: AutoCAD Mechanical 2000|Company: Autodesk"
 90
        0
280
     0
281
     0
  0
CLASS
  1
ACMDATAENTRYBLOCK
  2
AcmDataEntryBlock
  3
"AcmSymBB|Product Description: AutoCAD Mechanical 2000|Company: Autodesk"
 90
        0
280
     0
281
     0
  0
CLASS
  1
AMGOBJPROPCFG
  2
AmgObjPropCfg
  3
"AmgLay|Product Description: AutoCAD Mechanical 2000|Company: Autodesk"
 90
        1
280
     0
281
     0
  0
CLASS
  1
ACAMGFILTERDAT
  2
AcAmgFilterDat
  3
"AcadM|Product Description: AutoCAD Mechanical 2000|Company: Autodesk"
 90
        0
280
     0
281
     0
  0
CLASS
  1
LAYER_INDEX
  2
AcDbLayerIndex
  3
AutoCAD 2000
 90
        0
280
     0
281
     0
  0
CLASS
  1
IDBUFFER
  2
AcDbIdBuffer
  3
AutoCAD 2000
 90
        0
280
     0
281
     0
  0
CLASS
  1
ACIMSTRSYSVAR
  2
AcImStrSysVar
  3
AcMeServices
 90
        0
280
     0
281
     0
  0
CLASS
  1
ACMSTANDARDJIS
  2
AcmStandardJIS
  3
"AcmSymBB|Product Description: AutoCAD Mechanical 2000|Company: Autodesk"
 90
        0
280
     0
281
     0
  0
CLASS
  1
ACMSURFSTANDARDJIS
  2
AcmSurfTextStdJIS
  3
"AcmSymBB|Product Description: AutoCAD Mechanical 2000|Company: Autodesk"
 90
        0
280
     0
281
     0
  0
CLASS
  1
ACMFCFSTANDARDJIS
  2
AcmFCFStdJIS
  3
"AcmSymBB|Product Description: AutoCAD Mechanical 2000|Company: Autodesk"
 90
        0
280
     0
281
     0
  0
CLASS
  1
ACMWELDSTANDARDJIS
  2
AcmWeldingStdJIS
  3
"AcmSymBB|Product Description: AutoCAD Mechanical 2000|Company: Autodesk"
 90
        0
280
     0
281
     0
  0
CLASS
  1
ACMIDSTANDARDJIS
  2
AcmIdStdJIS
  3
"AcmSymBB|Product Description: AutoCAD Mechanical 2000|Company: Autodesk"
 90
        0
280
     0
281
     0
  0
CLASS
  1
ACMDATUMSTANDARDJIS
  2
AcmDatumStdJIS
  3
"AcmSymBB|Product Description: AutoCAD Mechanical 2000|Company: Autodesk"
 90
        0
280
     0
281
     0
  0
CLASS
  1
ACMBOMSTANDARDJIS
  2
AcmBOMStdJIS
  3
"AcmSymBB|Product Description: AutoCAD Mechanical 2000|Company: Autodesk"
 90
        0
280
     0
281
     0
  0
CLASS
  1
ACMSTANDARDANSI
  2
AcmStandardANSI
  3
"AcmSymBB|Product Description: AutoCAD Mechanical 2000|Company: Autodesk"
 90
        0
280
     0
281
     0
  0
CLASS
  1
ACMSURFSTANDARDANSI
  2
AcmSurfTextStdANSI
  3
"AcmSymBB|Product Description: AutoCAD Mechanical 2000|Company: Autodesk"
 90
        0
280
     0
281
     0
  0
CLASS
  1
ACMFCFSTANDARDANSI
  2
AcmFCFStdANSI
  3
"AcmSymBB|Product Description: AutoCAD Mechanical 2000|Company: Autodesk"
 90
        0
280
     0
281
     0
  0
CLASS
  1
ACMWELDSTANDARDANSI
  2
AcmWeldingStdANSI
  3
"AcmSymBB|Product Description: AutoCAD Mechanical 2000|Company: Autodesk"
 90
        0
280
     0
281
     0
  0
CLASS
  1
ACMIDSTANDARDANSI
  2
AcmIdStdANSI
  3
"AcmSymBB|Product Description: AutoCAD Mechanical 2000|Company: Autodesk"
 90
        0
280
     0
281
     0
  0
CLASS
  1
ACMDATUMSTANDARDANSI
  2
AcmDatumStdANSI
  3
"AcmSymBB|Product Description: AutoCAD Mechanical 2000|Company: Autodesk"
 90
        0
280
     0
281
     0
  0
CLASS
  1
ACMBOMSTANDARDANSI
  2
AcmBOMStdANSI
  3
"AcmSymBB|Product Description: AutoCAD Mechanical 2000|Company: Autodesk"
 90
        0
280
     0
281
     0
  0
CLASS
  1
ACMSTANDARDBSI
  2
AcmStandardBSI
  3
"AcmSymBB|Product Description: AutoCAD Mechanical 2000|Company: Autodesk"
 90
        0
280
     0
281
     0
  0
CLASS
  1
ACMSURFSTANDARDBSI
  2
AcmSurfTextStdBSI
  3
"AcmSymBB|Product Description: AutoCAD Mechanical 2000|Company: Autodesk"
 90
        0
280
     0
281
     0
  0
CLASS
  1
ACMFCFSTANDARDBSI
  2
AcmFCFStdBSI
  3
"AcmSymBB|Product Description: AutoCAD Mechanical 2000|Company: Autodesk"
 90
        0
280
     0
281
     0
  0
CLASS
  1
ACMWELDSTANDARDBSI
  2
AcmWeldingStdBSI
  3
"AcmSymBB|Product Description: AutoCAD Mechanical 2000|Company: Autodesk"
 90
        0
280
     0
281
     0
  0
CLASS
  1
ACMIDSTANDARDBSI
  2
AcmIdStdBSI
  3
"AcmSymBB|Product Description: AutoCAD Mechanical 2000|Company: Autodesk"
 90
        0
280
     0
281
     0
  0
CLASS
  1
ACMDATUMSTANDARDBSI
  2
AcmDatumStdBSI
  3
"AcmSymBB|Product Description: AutoCAD Mechanical 2000|Company: Autodesk"
 90
        0
280
     0
281
     0
  0
CLASS
  1
ACMBOMSTANDARDBSI
  2
AcmBOMStdBSI
  3
"AcmSymBB|Product Description: AutoCAD Mechanical 2000|Company: Autodesk"
 90
        0
280
     0
281
     0
  0
CLASS
  1
LONG_TRANSACTION
  2
AcDbLongTransaction
  3
AutoCAD 2000
 90
        0
280
     0
281
     0
  0
CLASS
  1
LWPOLYLINE
  2
AcDbPolyline
  3
AutoCAD 2000
 90
        0
280
     0
281
     1
  0
CLASS
  1
HATCH
  2
AcDbHatch
  3
AutoCAD 2000
 90
        0
280
     0
281
     1
  0
CLASS
  1
XRECORD
  2
AcDbXrecord
  3
AutoCAD 2000
 90
        0
280
     0
281
     0
  0
ENDSEC
  0
SECTION
  2
TABLES
  0
TABLE
  2
VPORT
  5
8
330
0
100
AcDbSymbolTable
 70
     3
  0
VPORT
  5
21CB
330
8
100
AcDbSymbolTableRecord
100
AcDbViewportTableRecord
  2
*ACTIVE
 70
     0
 10
0.0
 20
0.0
 11
1.0
 21
1.0
 12
-14.89812456691476
 22
4.665241505062226
 13
0.0
 23
0.0
 14
2.5
 24
2.5
 15
10.0
 25
10.0
 16
0.0
 26
0.0
 36
1.0
 17
0.0
 27
0.0
 37
0.0
 40
28.36955477329661
 41
1.56570841889117
 42
50.0
 43
0.0
 44
0.0
 50
0.0
 51
0.0
 71
     0
 72
   100
 73
     1
 74
     3
 75
     0
 76
     0
 77
     0
 78
     0
  0
ENDTAB
  0
TABLE
  2
LTYPE
  5
5
330
0
100
AcDbSymbolTable
 70
    10
  0
LTYPE
  5
14
330
5
100
AcDbSymbolTableRecord
100
AcDbLinetypeTableRecord
  2
BYBLOCK
 70
     0
  3

 72
    65
 73
     0
 40
0.0
  0
LTYPE
  5
15
330
5
100
AcDbSymbolTableRecord
100
AcDbLinetypeTableRecord
  2
BYLAYER
 70
     0
  3

 72
    65
 73
     0
 40
0.0
  0
LTYPE
  5
16
330
5
100
AcDbSymbolTableRecord
100
AcDbLinetypeTableRecord
  2
CONTINUOUS
 70
     0
  3
Solid line
 72
    65
 73
     0
 40
0.0
  0
LTYPE
  5
4B
330
5
100
AcDbSymbolTableRecord
100
AcDbLinetypeTableRecord
  2
AM_ISO02W050
 70
     0
  3
__ __ __ __ __ __ __ __ __ __ __ __ __ __ __
 72
    65
 73
     2
 40
7.5
 49
6.0
 74
     0
 49
-1.5
 74
     0
  0
LTYPE
  5
4C
330
5
100
AcDbSymbolTableRecord
100
AcDbLinetypeTableRecord
  2
AM_ISO08W050
 70
     0
  3
____ . ____ . ____ . ____ . ____ . ____ . ____
 72
    65
 73
     4
 40
18.0
 49
12.0
 74
     0
 49
-1.5
 74
     0
 49
3.0
 74
     0
 49
-1.5
 74
     0
  0
LTYPE
  5
4D
330
5
100
AcDbSymbolTableRecord
100
AcDbLinetypeTableRecord
  2
AM_ISO09W050
 70
     0
  3
_____ . . _____ . . _____ . . ____ .. ____
 72
    65
 73
     6
 40
22.5
 49
12.0
 74
     0
 49
-1.5
 74
     0
 49
3.0
 74
     0
 49
-1.5
 74
     0
 49
3.0
 74
     0
 49
-1.5
 74
     0
  0
LTYPE
  5
4E
330
5
100
AcDbSymbolTableRecord
100
AcDbLinetypeTableRecord
  2
AMCONSTR
 70
     0
  3
_______________________
 72
    65
 73
     2
 40
9999.0
 49
9999.0
 74
     0
 49
0.0
 74
     0
  0
LTYPE
  5
4F
330
5
100
AcDbSymbolTableRecord
100
AcDbLinetypeTableRecord
  2
AM_ISO02W050X2
 70
     0
  3
 _ _ _ _ _ _ _ _ _ _ _ _
 72
    65
 73
     2
 40
3.75
 49
3.0
 74
     0
 49
-0.75
 74
     0
  0
LTYPE
  5
50
330
5
100
AcDbSymbolTableRecord
100
AcDbLinetypeTableRecord
  2
AM_ISO08W050X2
 70
     0
  3
__ . __ . __ . __ . __ . __
 72
    65
 73
     4
 40
9.0
 49
6.0
 74
     0
 49
-0.75
 74
     0
 49
1.5
 74
     0
 49
-0.75
 74
     0
  0
LTYPE
  5
53
330
5
100
AcDbSymbolTableRecord
100
AcDbLinetypeTableRecord
  2
AMZIGZAG
 70
     0
  3
/\/-/\/-/\/-/\/-/\/-/\/
 72
    65
 73
     2
 40
11.00009999999999
 49
0.0001
 74
     4
 75
   135
340
52
 46
0.04
 50
0.0
 44
0.0
 45
0.0
 49
-11.0
 74
     0
  0
LTYPE
  5
166
330
5
100
AcDbSymbolTableRecord
100
AcDbLinetypeTableRecord
  2
ACJISTGL
 70
     0
  3
_ _ _ _ _
 72
    65
 73
     2
 40
3.0
 49
2.0
 74
     0
 49
-1.0
 74
     0
  0
LTYPE
  5
26A
330
5
100
AcDbSymbolTableRecord
100
AcDbLinetypeTableRecord
  2
ACJISTGB
 70
     0
  3
__ . . __ . .
 72
    65
 73
     6
 40
9.0
 49
4.0
 74
     0
 49
-1.0
 74
     0
 49
1.0
 74
     0
 49
-1.0
 74
     0
 49
1.0
 74
     0
 49
-1.0
 74
     0
  0
ENDTAB
  0
TABLE
  2
LAYER
  5
2
330
0
100
AcDbSymbolTable
 70
     7
  0
LAYER
  5
10
330
2
100
AcDbSymbolTableRecord
100
AcDbLayerTableRecord
  2
0
 70
     0
 62
     7
  6
CONTINUOUS
  0
LAYER
  5
3F9
330
2
100
AcDbSymbolTableRecord
100
AcDbLayerTableRecord
  2
AM_0
 70
     0
 62
     7
  6
CONTINUOUS
  0
LAYER
  5
BD6
330
2
100
AcDbSymbolTableRecord
100
AcDbLayerTableRecord
  2
AM_11
 70
     0
 62
     3
  6
AM_ISO09W050
  0
LAYER
  5
BD7
330
2
100
AcDbSymbolTableRecord
100
AcDbLayerTableRecord
  2
AM_7
 70
     0
 62
     4
  6
AM_ISO08W050
  0
LAYER
  5
BD8
330
2
100
AcDbSymbolTableRecord
100
AcDbLayerTableRecord
  2
AM_5
 70
     0
 62
     3
  6
CONTINUOUS
  0
LAYER
  5
BD9
330
2
100
AcDbSymbolTableRecord
100
AcDbLayerTableRecord
  2
DEFPOINTS
 70
     0
 62
     7
  6
CONTINUOUS
  0
LAYER
  5
BDA
330
2
100
AcDbSymbolTableRecord
100
AcDbLayerTableRecord
  2
AM_6
 70
     0
 62
     2
  6
CONTINUOUS
  0
ENDTAB
  0
TABLE
  2
STYLE
  5
3
330
0
100
AcDbSymbolTable
 70
     5
  0
STYLE
  5
11
330
3
100
AcDbSymbolTableRecord
100
AcDbTextStyleTableRecord
  2
STANDARD
 70
     0
 40
0.0
 41
1.0
 50
0.0
 71
     0
 42
2.5
  3
simplex.shx
  4
EXTFONT.SHX
  0
STYLE
  5
52
330
3
100
AcDbSymbolTableRecord
100
AcDbTextStyleTableRecord
  2

 70
     1
 40
0.0
 41
1.0
 50
0.0
 71
     0
 42
2.5
  3
ltypeshp.shx
  4

  0
STYLE
  5
6B
330
3
100
AcDbSymbolTableRecord
100
AcDbTextStyleTableRecord
  2
ASAMI
 70
     0
 40
0.0
 41
1.0
 50
0.0
 71
     0
 42
2.5
  3
simplex.shx
  4
EXTFONT.SHX
  0
STYLE
  5
262
330
3
100
AcDbSymbolTableRecord
100
AcDbTextStyleTableRecord
  2
ACJISTS
 70
     0
 40
1.0
 41
1.0
 50
0.0
 71
     0
 42
2.5
  3
simplex.shx
  4
bigfont.shx
  0
STYLE
  5
269
330
3
100
AcDbSymbolTableRecord
100
AcDbTextStyleTableRecord
  2
ACJISGDT
 70
     0
 40
0.0
 41
1.0
 50
0.0
 71
     0
 42
2.5
  3
amgdtans.shx
  4

  0
ENDTAB
  0
TABLE
  2
VIEW
  5
6
330
0
100
AcDbSymbolTable
 70
     0
  0
ENDTAB
  0
TABLE
  2
UCS
  5
7
330
0
100
AcDbSymbolTable
 70
     0
  0
ENDTAB
  0
TABLE
  2
APPID
  5
9
330
0
100
AcDbSymbolTable
 70
    13
  0
APPID
  5
12
330
9
100
AcDbSymbolTableRecord
100
AcDbRegAppTableRecord
  2
ACAD
 70
     0
  0
APPID
  5
30
330
9
100
AcDbSymbolTableRecord
100
AcDbRegAppTableRecord
  2
MCAD_NO_VIS
 70
     0
  0
APPID
  5
31
330
9
100
AcDbSymbolTableRecord
100
AcDbRegAppTableRecord
  2
ACAD_TEMP_GRAPHIC
 70
     0
  0
APPID
  5
2C2
330
9
100
AcDbSymbolTableRecord
100
AcDbRegAppTableRecord
  2
GENIUS_GENDTOL_13
 70
     0
  0
APPID
  5
339
330
9
100
AcDbSymbolTableRecord
100
AcDbRegAppTableRecord
  2
GENIUS_GENODEF_13
 70
     0
  0
APPID
  5
33A
330
9
100
AcDbSymbolTableRecord
100
AcDbRegAppTableRecord
  2
GENIUS_GENOBJ-N-RSBK_13
 70
     0
  0
APPID
  5
33B
330
9
100
AcDbSymbolTableRecord
100
AcDbRegAppTableRecord
  2
GENIUS_GENOBJ-N-LIB_13
 70
     0
  0
APPID
  5
33C
330
9
100
AcDbSymbolTableRecord
100
AcDbRegAppTableRecord
  2
GENIUS_GENSCALE_13
 70
     0
  0
APPID
  5
378
330
9
100
AcDbSymbolTableRecord
100
AcDbRegAppTableRecord
  2
GENIUS_GENDIMSH_14
 70
     0
  0
APPID
  5
BDB
330
9
100
AcDbSymbolTableRecord
100
AcDbRegAppTableRecord
  2
GENIUS_GENOBJ-N-CEN_13
 70
     0
  0
APPID
  5
BDC
330
9
100
AcDbSymbolTableRecord
100
AcDbRegAppTableRecord
  2
GENIUS_GENFIL_13
 70
     0
  0
APPID
  5
BDD
330
9
100
AcDbSymbolTableRecord
100
AcDbRegAppTableRecord
  2
GENIUS_GENOBJ-N-FIL_13
 70
     0
  0
APPID
  5
12AD
330
9
100
AcDbSymbolTableRecord
100
AcDbRegAppTableRecord
  2
GENIUS_GENOREF_13
 70
     0
  0
ENDTAB
  0
TABLE
  2
DIMSTYLE
  5
A
330
0
100
AcDbSymbolTable
 70
     8
  0
DIMSTYLE
105
58
102
{ACAD_REACTORS
330
C4F
330
15A7
330
1EC3
330
2114
102
}
330
A
100
AcDbSymbolTableRecord
100
AcDbDimStyleTableRecord
  2
AM_JIS
 70
     0
  3

  4
"
  5
OPEN30
  6

  7

 40
0.5
 41
2.5
 42
1.0
 43
12.0
 44
1.0
 45
0.0
 46
0.0
 47
0.1
 48
0.1
140
3.2
141
0.0
142
0.0
143
0.0393701
144
1.0
145
0.0
146
0.71
147
1.5
 71
     0
 72
     0
 73
     0
 74
     0
 75
     0
 76
     0
 77
     3
 78
     8
170
     0
171
     2
172
     1
173
     0
174
     0
175
     0
176
   256
177
   256
178
     2
270
     2
271
     3
272
     3
273
     2
274
     2
340
6B
275
     0
280
     0
281
     0
282
     0
283
     0
284
     0
285
     0
286
     0
287
     3
288
     0
  0
DIMSTYLE
105
5F
330
A
100
AcDbSymbolTableRecord
100
AcDbDimStyleTableRecord
  2
AM_JIS$3
 70
     0
  3

  4
"
  5
OPEN30
  6

  7

 40
0.5
 41
2.5
 42
1.0
 43
10.0
 44
1.0
 45
0.0
 46
0.0
 47
0.1
 48
0.1
140
3.2
141
0.0
142
0.0
143
0.0393701
144
1.0
145
0.0
146
0.71
147
1.5
 71
     0
 72
     0
 73
     0
 74
     1
 75
     0
 76
     0
 77
     3
 78
     8
170
     0
171
     2
172
     0
173
     0
174
     0
175
     0
176
   256
177
   256
178
     2
270
     2
271
     2
272
     3
273
     2
274
     2
340
6B
275
     0
280
     0
281
     0
282
     0
283
     0
284
     0
285
     0
286
     0
287
     0
288
     1
  0
DIMSTYLE
105
60
330
A
100
AcDbSymbolTableRecord
100
AcDbDimStyleTableRecord
  2
AM_JIS$4
 70
     0
  3

  4
"
  5
OPEN30
  6

  7

 40
0.5
 41
2.5
 42
1.0
 43
10.0
 44
1.0
 45
0.0
 46
0.0
 47
0.1
 48
0.1
140
3.2
141
0.0
142
0.0
143
0.0393701
144
1.0
145
0.0
146
0.71
147
1.5
 71
     0
 72
     0
 73
     0
 74
     1
 75
     0
 76
     0
 77
     3
 78
     8
170
     0
171
     2
172
     0
173
     0
174
     0
175
     0
176
   256
177
   256
178
     2
270
     2
271
     2
272
     3
273
     2
274
     2
340
6B
275
     0
280
     0
281
     0
282
     0
283
     0
284
     0
285
     0
286
     0
287
     0
288
     1
  0
DIMSTYLE
105
61
330
A
100
AcDbSymbolTableRecord
100
AcDbDimStyleTableRecord
  2
AM_JIS$6
 70
     0
  3

  4
"
  5
OPEN30
  6

  7

 40
0.5
 41
2.5
 42
1.0
 43
10.0
 44
1.0
 45
0.0
 46
0.0
 47
0.1
 48
0.1
140
3.2
141
0.0
142
0.0
143
0.0393701
144
1.0
145
0.0
146
0.71
147
1.5
 71
     0
 72
     0
 73
     0
 74
     0
 75
     0
 76
     0
 77
     0
 78
     8
170
     0
171
     2
172
     1
173
     0
174
     0
175
     0
176
   256
177
   256
178
     2
270
     2
271
     2
272
     2
273
     2
274
     2
340
6B
275
     0
280
     0
281
     0
282
     0
283
     0
284
     0
285
     0
286
     0
287
     3
288
     0
  0
DIMSTYLE
105
62
330
A
100
AcDbSymbolTableRecord
100
AcDbDimStyleTableRecord
  2
AM_JIS$7
 70
     0
  3

  4
"
  5
OPEN30
  6

  7

 40
0.5
 41
2.5
 42
1.0
 43
10.0
 44
1.0
 45
0.0
 46
0.0
 47
0.1
 48
0.1
140
3.2
141
0.0
142
0.0
143
0.0393701
144
1.0
145
0.0
146
0.71
147
1.5
 71
     0
 72
     0
 73
     0
 74
     0
 75
     0
 76
     0
 77
     3
 78
     8
170
     0
171
     2
172
     1
173
     0
174
     0
175
     0
176
   256
177
   256
178
     2
270
     2
271
     2
272
     3
273
     2
274
     2
340
6B
275
     0
280
     0
281
     0
282
     0
283
     0
284
     0
285
     0
286
     0
287
     3
288
     0
  0
DIMSTYLE
105
63
330
A
100
AcDbSymbolTableRecord
100
AcDbDimStyleTableRecord
  2
AM_JIS$SF
 70
     0
  3

  4
"
  5
OPEN30
  6

  7

 40
0.5
 41
2.5
 42
1.0
 43
10.0
 44
1.0
 45
0.0
 46
0.0
 47
0.1
 48
0.1
140
3.2
141
0.0
142
0.0
143
0.0393701
144
1.0
145
0.0
146
0.71
147
1.5
 71
     0
 72
     0
 73
     0
 74
     0
 75
     1
 76
     1
 77
     3
 78
     8
170
     0
171
     2
172
     1
173
     0
174
     0
175
     0
176
   256
177
   256
178
     2
270
     2
271
     2
272
     2
273
     2
274
     2
340
6B
275
     0
280
     0
281
     0
282
     0
283
     0
284
     0
285
     0
286
     0
287
     3
288
     0
  0
DIMSTYLE
105
68
330
A
100
AcDbSymbolTableRecord
100
AcDbDimStyleTableRecord
  2
AM_JIS$SH
 70
     0
  3

  4
"
  5

  6
GENAXEH
  7
OPEN30
 40
0.5
 41
2.5
 42
1.0
 43
10.0
 44
1.0
 45
0.0
 46
0.0
 47
0.1
 48
0.1
140
3.2
141
0.0
142
0.0
143
0.0393701
144
2.0
145
0.0
146
0.71
147
1.5
 71
     0
 72
     0
 73
     0
 74
     0
 75
     1
 76
     1
 77
     3
 78
     8
170
     0
171
     2
172
     1
173
     1
174
     0
175
     0
176
   256
177
   256
178
     2
270
     2
271
     2
272
     2
273
     2
274
     2
340
6B
275
     0
280
     0
281
     0
282
     0
283
     0
284
     0
285
     0
286
     0
287
     3
288
     0
  0
DIMSTYLE
105
B34
330
A
100
AcDbSymbolTableRecord
100
AcDbDimStyleTableRecord
  2
AM_JIS$2
 70
     0
  3

  4
"
  5
OPEN30
  6

  7

 40
0.5
 41
2.5
 42
1.0
 43
12.0
 44
1.0
 45
0.0
 46
0.0
 47
0.1
 48
0.1
140
3.2
141
0.0
142
0.0
143
0.0393701
144
1.0
145
0.0
146
0.71
147
1.5
 71
     0
 72
     0
 73
     0
 74
     0
 75
     0
 76
     0
 77
     3
 78
     8
170
     0
171
     2
172
     1
173
     0
174
     0
175
     0
176
   256
177
   256
178
     2
270
     2
271
     3
272
     3
273
     2
274
     2
340
6B
275
     0
280
     0
281
     0
282
     0
283
     0
284
     0
285
     0
286
     0
287
     3
288
     0
  0
ENDTAB
  0
TABLE
  2
BLOCK_RECORD
  5
1
330
0
100
AcDbSymbolTable
 70
     9
  0
BLOCK_RECORD
  5
1F
102
{ACAD_XDICTIONARY
360
74
102
}
330
1
100
AcDbSymbolTableRecord
100
AcDbBlockTableRecord
  2
*MODEL_SPACE
  0
BLOCK_RECORD
  5
101
102
{ACAD_XDICTIONARY
360
21F4
102
}
330
1
100
AcDbSymbolTableRecord
100
AcDbBlockTableRecord
  2
*PAPER_SPACE
  0
BLOCK_RECORD
  5
59
330
1
100
AcDbSymbolTableRecord
100
AcDbBlockTableRecord
  2
_OPEN30
  0
BLOCK_RECORD
  5
64
330
1
100
AcDbSymbolTableRecord
100
AcDbBlockTableRecord
  2
GENAXEH
  0
BLOCK_RECORD
  5
C75
330
1
100
AcDbSymbolTableRecord
100
AcDbBlockTableRecord
  2
*D5
  0
BLOCK_RECORD
  5
15A8
330
1
100
AcDbSymbolTableRecord
100
AcDbBlockTableRecord
  2
*D6
  0
BLOCK_RECORD
  5
1EC4
330
1
100
AcDbSymbolTableRecord
100
AcDbBlockTableRecord
  2
*D7
  0
BLOCK_RECORD
  5
2115
330
1
100
AcDbSymbolTableRecord
100
AcDbBlockTableRecord
  2
*D8
  0
ENDTAB
  0
ENDSEC
  0
SECTION
  2
BLOCKS
  0
BLOCK
  5
20
330
1F
100
AcDbEntity
  8
0
100
AcDbBlockBegin
  2
*MODEL_SPACE
 70
     0
 10
0.0
 20
0.0
 30
0.0
  3
*MODEL_SPACE
  1

  0
ENDBLK
  5
21
330
1F
100
AcDbEntity
  8
0
100
AcDbBlockEnd
  0
BLOCK
  5
103
330
101
100
AcDbEntity
 67
     1
  8
0
100
AcDbBlockBegin
  2
*PAPER_SPACE
 70
     0
 10
0.0
 20
0.0
 30
0.0
  3
*PAPER_SPACE
  1

  0
ENDBLK
  5
104
330
101
100
AcDbEntity
 67
     1
  8
0
100
AcDbBlockEnd
  0
BLOCK
  5
5D
330
59
100
AcDbEntity
  8
0
100
AcDbBlockBegin
  2
_OPEN30
 70
     0
 10
0.0
 20
0.0
 30
0.0
  3
_OPEN30
  1

  0
LINE
  5
5A
330
59
100
AcDbEntity
  8
0
 62
     0
100
AcDbLine
 10
-1.0
 20
0.26794919
 30
0.0
 11
0.0
 21
0.0
 31
0.0
  0
LINE
  5
5B
330
59
100
AcDbEntity
  8
0
 62
     0
100
AcDbLine
 10
0.0
 20
0.0
 30
0.0
 11
-1.0
 21
-0.26794919
 31
0.0
  0
LINE
  5
5C
330
59
100
AcDbEntity
  8
0
 62
     0
100
AcDbLine
 10
0.0
 20
0.0
 30
0.0
 11
-1.0
 21
0.0
 31
0.0
  0
ENDBLK
  5
5E
330
59
100
AcDbEntity
  8
0
100
AcDbBlockEnd
  0
BLOCK
  5
66
330
64
100
AcDbEntity
  8
0
100
AcDbBlockBegin
  2
GENAXEH
 70
     0
 10
0.0
 20
0.0
 30
0.0
  3
GENAXEH
  1

  0
LINE
  5
65
330
64
100
AcDbEntity
  8
0
100
AcDbLine
 10
-1.0
 20
0.0
 30
0.0
 11
1.0
 21
0.0
 31
0.0
  0
ENDBLK
  5
67
330
64
100
AcDbEntity
  8
0
100
AcDbBlockEnd
  0
BLOCK
  5
C7F
330
C75
100
AcDbEntity
  8
0
100
AcDbBlockBegin
  2
*D5
 70
     1
 10
0.0
 20
0.0
 30
0.0
  3
*D5
  1

  0
LINE
  5
217C
330
C75
100
AcDbEntity
  8
AM_5
100
AcDbLine
 10
-90.00000000000005
 20
-3.499999999999998
 30
0.0
 11
-90.00000000000005
 21
-18.00000101001121
 31
0.0
  0
LINE
  5
217D
330
C75
100
AcDbEntity
  8
AM_5
100
AcDbLine
 10
-0.000000000000057
 20
-5.000000000011863
 30
0.0
 11
-0.0000000000000578
 21
-18.00000101001121
 31
0.0
  0
LINE
  5
217E
330
C75
100
AcDbEntity
  8
AM_5
100
AcDbLine
 10
-88.75000000000005
 20
-17.50000101001121
 30
0.0
 11
-1.250000000000057
 21
-17.50000101001121
 31
0.0
  0
INSERT
  5
217F
330
C75
100
AcDbEntity
  8
AM_5
100
AcDbBlockReference
  2
_OPEN30
 10
-90.00000000000005
 20
-17.50000101001121
 30
0.0
 41
1.25
 42
1.25
 43
1.25
 50
180.0
  0
INSERT
  5
2180
330
C75
100
AcDbEntity
  8
AM_5
100
AcDbBlockReference
  2
_OPEN30
 10
-0.0000000000000577
 20
-17.50000101001121
 30
0.0
 41
1.25
 42
1.25
 43
1.25
  0
MTEXT
  5
2181
330
C75
100
AcDbEntity
  8
AM_5
 62
     2
100
AcDbMText
 10
-45.00000000000006
 20
-15.95000101001121
 30
0.0
 40
1.6
 41
0.0
 71
     5
 72
     1
  1
90
  7
ASAMI
1001
ACAD
1000
MTEXTBEGIN
1070
    73
1070
     1
1070
    44
1040
1.0
1070
    74
1070
     0
1000
MTEXTEND
  0
POINT
  5
2182
330
C75
100
AcDbEntity
  8
DEFPOINTS
 62
     0
100
AcDbPoint
 10
-90.00000000000005
 20
-2.999999999999998
 30
0.0
  0
POINT
  5
2183
330
C75
100
AcDbEntity
  8
DEFPOINTS
 62
     0
100
AcDbPoint
 10
-0.0000000000000569
 20
-4.500000000011863
 30
0.0
  0
POINT
  5
2184
330
C75
100
AcDbEntity
  8
DEFPOINTS
 62
     0
100
AcDbPoint
 10
-0.0000000000000577
 20
-17.50000101001121
 30
0.0
  0
ENDBLK
  5
C80
330
C75
100
AcDbEntity
  8
0
100
AcDbBlockEnd
  0
BLOCK
  5
15B2
330
15A8
100
AcDbEntity
  8
0
100
AcDbBlockBegin
  2
*D6
 70
     1
 10
0.0
 20
0.0
 30
0.0
  3
*D6
  1

  0
LINE
  5
2185
330
15A8
100
AcDbEntity
  8
AM_5
100
AcDbLine
 10
-18.00000000000006
 20
-5.000000000000005
 30
0.0
 11
-18.00000000000006
 21
-12.00000101001149
 31
0.0
  0
LINE
  5
2186
330
15A8
100
AcDbEntity
  8
AM_5
100
AcDbLine
 10
-0.000000000000057
 20
-5.000000000011863
 30
0.0
 11
-0.0000000000000574
 21
-12.00000101001149
 31
0.0
  0
LINE
  5
2187
330
15A8
100
AcDbEntity
  8
AM_5
100
AcDbLine
 10
-16.75000000000006
 20
-11.50000101001149
 30
0.0
 11
-1.250000000000057
 21
-11.50000101001149
 31
0.0
  0
INSERT
  5
2188
330
15A8
100
AcDbEntity
  8
AM_5
100
AcDbBlockReference
  2
_OPEN30
 10
-18.00000000000006
 20
-11.50000101001149
 30
0.0
 41
1.25
 42
1.25
 43
1.25
 50
180.0
  0
INSERT
  5
2189
330
15A8
100
AcDbEntity
  8
AM_5
100
AcDbBlockReference
  2
_OPEN30
 10
-0.0000000000000574
 20
-11.50000101001149
 30
0.0
 41
1.25
 42
1.25
 43
1.25
  0
MTEXT
  5
218A
330
15A8
100
AcDbEntity
  8
AM_5
 62
     2
100
AcDbMText
 10
-9.000000000000058
 20
-9.95000101001149
 30
0.0
 40
1.6
 41
0.0
 71
     5
 72
     1
  1
18
  7
ASAMI
1001
ACAD
1000
MTEXTBEGIN
1070
    73
1070
     1
1070
    44
1040
1.0
1070
    74
1070
     0
1000
MTEXTEND
  0
POINT
  5
218B
330
15A8
100
AcDbEntity
  8
DEFPOINTS
 62
     0
100
AcDbPoint
 10
-18.00000000000006
 20
-4.500000000000005
 30
0.0
  0
POINT
  5
218C
330
15A8
100
AcDbEntity
  8
DEFPOINTS
 62
     0
100
AcDbPoint
 10
-0.0000000000000569
 20
-4.500000000011863
 30
0.0
  0
POINT
  5
218D
330
15A8
100
AcDbEntity
  8
DEFPOINTS
 62
     0
100
AcDbPoint
 10
-0.0000000000000574
 20
-11.50000101001149
 30
0.0
  0
ENDBLK
  5
15B3
330
15A8
100
AcDbEntity
  8
0
100
AcDbBlockEnd
  0
BLOCK
  5
1ECE
330
1EC4
100
AcDbEntity
  8
0
100
AcDbBlockBegin
  2
*D7
 70
     1
 10
0.0
 20
0.0
 30
0.0
  3
*D7
  1

  0
LINE
  5
2162
330
1EC4
100
AcDbEntity
  8
AM_5
100
AcDbLine
 10
0.4999999999999432
 20
4.499999999999997
 30
0.0
 11
10.89356115204064
 21
4.499999999999994
 31
0.0
  0
LINE
  5
2163
330
1EC4
100
AcDbEntity
  8
AM_5
100
AcDbLine
 10
0.4999999999997605
 20
-4.500000000011217
 30
0.0
 11
10.89356115204064
 21
-4.50000000001122
 31
0.0
  0
LINE
  5
2164
330
1EC4
100
AcDbEntity
  8
AM_5
100
AcDbLine
 10
10.39356115204064
 20
3.249999999999994
 30
0.0
 11
10.39356115204064
 21
-3.25000000001122
 31
0.0
  0
INSERT
  5
2165
330
1EC4
100
AcDbEntity
  8
AM_5
100
AcDbBlockReference
  2
_OPEN30
 10
10.39356115204064
 20
4.499999999999994
 30
0.0
 41
1.25
 42
1.25
 43
1.25
 50
90.0
  0
INSERT
  5
2166
330
1EC4
100
AcDbEntity
  8
AM_5
100
AcDbBlockReference
  2
_OPEN30
 10
10.39356115204064
 20
-4.50000000001122
 30
0.0
 41
1.25
 42
1.25
 43
1.25
 50
270.0
  0
MTEXT
  5
2167
330
1EC4
100
AcDbEntity
  8
AM_5
 62
     2
100
AcDbMText
 10
8.843561152040646
 20
-0.0000000000056115
 30
0.0
 40
1.6
 41
0.0
 71
     5
 72
     1
  1
%%c9
  7
ASAMI
 11
0.0000000000000001
 21
1.0
 31
0.0
1001
ACAD
1000
MTEXTBEGIN
1070
    73
1070
     1
1070
    44
1040
1.0
1070
    74
1070
     0
1000
MTEXTEND
  0
POINT
  5
2168
330
1EC4
100
AcDbEntity
  8
DEFPOINTS
 62
     0
100
AcDbPoint
 10
-0.0000000000000568
 20
4.499999999999997
 30
0.0
  0
POINT
  5
2169
330
1EC4
100
AcDbEntity
  8
DEFPOINTS
 62
     0
100
AcDbPoint
 10
-0.0000000000002395
 20
-4.500000000011217
 30
0.0
  0
POINT
  5
216A
330
1EC4
100
AcDbEntity
  8
DEFPOINTS
 62
     0
100
AcDbPoint
 10
10.39356115204064
 20
-4.50000000001122
 30
0.0
  0
ENDBLK
  5
1ECF
330
1EC4
100
AcDbEntity
  8
0
100
AcDbBlockEnd
  0
BLOCK
  5
211F
330
2115
100
AcDbEntity
  8
0
100
AcDbBlockBegin
  2
*D8
 70
     1
 10
0.0
 20
0.0
 30
0.0
  3
*D8
  1

  0
LINE
  5
2121
330
2115
100
AcDbEntity
  8
AM_5
100
AcDbLine
 10
-90.00000000000005
 20
-4.000000000000001
 30
0.0
 11
-101.4043021951481
 21
-3.999999999999999
 31
0.0
  0
LINE
  5
2122
330
2115
100
AcDbEntity
  8
AM_5
100
AcDbLine
 10
-90.00000000000005
 20
3.999999999999997
 30
0.0
 11
-101.4043021951481
 21
4.0
 31
0.0
  0
LINE
  5
2123
330
2115
100
AcDbEntity
  8
AM_5
100
AcDbLine
 10
-100.9043021951482
 20
-2.749999999999999
 30
0.0
 11
-100.9043021951482
 21
2.75
 31
0.0
  0
INSERT
  5
2124
330
2115
100
AcDbEntity
  8
AM_5
100
AcDbBlockReference
  2
_OPEN30
 10
-100.9043021951482
 20
-3.999999999999999
 30
0.0
 41
1.25
 42
1.25
 43
1.25
 50
270.0
  0
INSERT
  5
2125
330
2115
100
AcDbEntity
  8
AM_5
100
AcDbBlockReference
  2
_OPEN30
 10
-100.9043021951482
 20
4.0
 30
0.0
 41
1.25
 42
1.25
 43
1.25
 50
90.0
  0
MTEXT
  5
2126
330
2115
100
AcDbEntity
  8
AM_5
 62
     2
100
AcDbMText
 10
-102.4543021951481
 20
-0.0000000000000107
 30
0.0
 40
1.6
 41
0.0
 71
     5
 72
     1
  1
%%c8
  7
ASAMI
 11
0.0000000000000001
 21
1.0
 31
0.0
1001
ACAD
1000
MTEXTBEGIN
1070
    73
1070
     1
1070
    44
1040
1.0
1070
    74
1070
     0
1000
MTEXTEND
  0
POINT
  5
2127
330
2115
100
AcDbEntity
  8
DEFPOINTS
 62
     0
100
AcDbPoint
 10
-89.50000000000006
 20
-4.000000000000001
 30
0.0
  0
POINT
  5
2128
330
2115
100
AcDbEntity
  8
DEFPOINTS
 62
     0
100
AcDbPoint
 10
-89.50000000000006
 20
3.999999999999997
 30
0.0
  0
POINT
  5
2129
330
2115
100
AcDbEntity
  8
DEFPOINTS
 62
     0
100
AcDbPoint
 10
-100.9043021951482
 20
4.0
 30
0.0
  0
ENDBLK
  5
2120
330
2115
100
AcDbEntity
  8
0
100
AcDbBlockEnd
  0
ENDSEC
  0
SECTION
  2
ENTITIES
  0
DIMENSION
  5
C4F
330
1F
100
AcDbEntity
  8
AM_5
100
AcDbDimension
  2
*D5
 10
-0.0000000000000577
 20
-17.50000101001121
 30
0.0
 11
-45.00000000000006
 21
-15.95000101001121
 31
0.0
 70
    32
  1
<>
  3
AM_JIS
100
AcDbAlignedDimension
 13
-90.00000000000005
 23
-2.999999999999998
 33
0.0
 14
-0.0000000000000569
 24
-4.500000000011863
 34
0.0
 50
0.0000000000002036
100
AcDbRotatedDimension
1001
GENIUS_GENDTOL_13
1000

1000
H7
1000

1040
0.0
  0
LINE
  5
C50
330
1F
100
AcDbEntity
  8
AM_7
100
AcDbLine
 10
-93.90430119514826
 20
-0.0000000000000036
 30
0.0
 11
3.393560152040663
 21
-0.0000000000000036
 31
0.0
1001
GENIUS_GENODEF_13
1002
{
1000
HIER
1070
     0
1002
}
1002
{
1000
MANEDIT
1070
     0
1002
}
1002
{
1000
NOSEL
1070
     0
1002
}
1002
{
1000
BEHIND
1070
     0
1002
}
1002
{
1000
REACTOR
1002
}
1001
GENIUS_GENOBJ-N-CEN_13
1002
{
1000
OWNER
1000
GEN
1002
}
  0
TEXT
  5
C58
330
1F
100
AcDbEntity
  8
AM_6
100
AcDbText
 10
-57.08333333333339
 20
-28.75000101001125
 30
0.0
 40
2.5
  1
HHMR6090ZX
 50
0.0000000000002036
 72
     4
 11
-45.00000000000006
 21
-27.50000101001121
 31
0.0
100
AcDbText
  0
DIMENSION
  5
15A7
330
1F
100
AcDbEntity
  8
AM_5
100
AcDbDimension
  2
*D6
 10
-0.0000000000000574
 20
-11.50000101001149
 30
0.0
 11
-9.000000000000058
 21
-9.95000101001149
 31
0.0
 70
    32
  1
<>
  3
AM_JIS
100
AcDbAlignedDimension
 13
-18.00000000000006
 23
-4.500000000000005
 33
0.0
 14
-0.0000000000000569
 24
-4.500000000011863
 34
0.0
 50
359.9999999999993
100
AcDbRotatedDimension
1001
GENIUS_GENDTOL_13
1000

1000
H7
1000

1040
0.0
  0
DIMENSION
  5
1EC3
330
1F
100
AcDbEntity
  8
AM_5
100
AcDbDimension
  2
*D7
 10
10.39356115204064
 20
-4.50000000001122
 30
0.0
 11
8.843561152040646
 21
-0.0000000000056115
 31
0.0
 70
    32
  1
%%c<>
  3
AM_JIS
100
AcDbAlignedDimension
 13
-0.0000000000000568
 23
4.499999999999997
 33
0.0
 14
-0.0000000000002395
 24
-4.500000000011217
 34
0.0
 50
90.0
100
AcDbRotatedDimension
1001
GENIUS_GENDTOL_13
1000

1000
h7
1000

1040
0.0
  0
SPLINE
  5
2040
330
1F
100
AcDbEntity
  8
AM_0
100
AcDbSpline
210
0.0
220
0.0
230
1.0
 70
     8
 71
     3
 72
     8
 73
     4
 74
     0
 42
0.0000000001
 43
0.0000000001
 40
0.0
 40
0.0
 40
0.0
 40
0.0
 40
0.8315775647388605
 40
0.8315775647388605
 40
0.8315775647388605
 40
0.8315775647388605
 10
-0.1479452054795716
 20
4.499999999999997
 30
0.0
 10
-0.1295689258955496
 20
4.084698404038588
 30
0.0
 10
-0.7261753686128224
 20
3.824999999999974
 30
0.0
 10
-1.105891151598599
 20
3.824999999999998
 30
0.0
  0
LINE
  5
2041
330
1F
100
AcDbEntity
  8
AM_0
100
AcDbLine
 10
-0.1479452054795521
 20
3.302785323683202
 30
0.0
 11
-1.105891151598599
 21
3.824999999999997
 31
0.0
  0
SPLINE
  5
2042
330
1F
100
AcDbEntity
  8
AM_0
100
AcDbSpline
210
0.0
220
0.0
230
1.0
 70
     8
 71
     3
 72
     8
 73
     4
 74
     0
 42
0.0000000001
 43
0.0000000001
 40
0.0
 40
0.0
 40
0.0
 40
0.0
 40
0.7964627256794639
 40
0.7964627256794639
 40
0.7964627256794639
 40
0.7964627256794639
 10
-0.1479452054795716
 20
2.480637926918922
 30
0.0
 10
-0.175427595341174
 20
2.083545221564249
 30
0.0
 10
-0.7422095416993047
 20
1.908802145208447
 30
0.0
 10
-1.105891151598599
 20
1.908802145208447
 30
0.0
  0
LINE
  5
2043
330
1F
100
AcDbEntity
  8
AM_0
100
AcDbLine
 10
-1.105891151598599
 20
1.908802145208447
 30
0.0
 11
-1.105891151598599
 21
1.272577385082945
 31
0.0
  0
LINE
  5
2044
330
1F
100
AcDbEntity
  8
AM_0
100
AcDbLine
 10
-0.0000000000002516
 20
-0.8099999999997764
 30
0.0
 11
-0.1479452054795521
 21
-0.5702794994108237
 31
0.0
  0
LINE
  5
2045
330
1F
100
AcDbEntity
  8
AM_0
100
AcDbLine
 10
-0.2338600845838289
 20
0.4049999999996306
 30
0.0
 11
-0.3467394608648875
 21
-0.0000000000000012
 31
0.0
  0
LINE
  5
2046
330
1F
100
AcDbEntity
  8
AM_0
100
AcDbLine
 10
-0.3467394608648875
 20
-0.0000000000000012
 30
0.0
 11
-0.0000000000002516
 21
-0.8099999999997764
 31
0.0
  0
LINE
  5
2047
330
1F
100
AcDbEntity
  8
AM_0
100
AcDbLine
 10
-0.2221927220591472
 20
0.4274451906075905
 30
0.0
 11
-0.0000000000002516
 21
0.8548903812151793
 31
0.0
  0
LINE
  5
2048
330
1F
100
AcDbEntity
  8
AM_0
100
AcDbLine
 10
-0.3467394608648875
 20
-0.0000000000000012
 30
0.0
 11
-0.0000000000002516
 21
0.8548903812151793
 31
0.0
  0
LINE
  5
2049
330
1F
100
AcDbEntity
  8
AM_0
100
AcDbLine
 10
-0.2221927220591472
 20
0.4274451906075905
 30
0.0
 11
-1.105891151598599
 21
1.908802145208447
 31
0.0
  0
LINE
  5
204A
330
1F
100
AcDbEntity
  8
AM_0
100
AcDbLine
 10
-1.105891151598599
 20
1.272577385082945
 30
0.0
 11
-0.1479452054795521
 21
-0.5702794994108237
 31
0.0
  0
LINE
  5
204B
330
1F
100
AcDbEntity
  8
AM_0
100
AcDbLine
 10
-1.105891151598599
 20
1.272577385082945
 30
0.0
 11
-0.3467394608648875
 21
-0.0000000000000012
 31
0.0
  0
LINE
  5
204C
330
1F
100
AcDbEntity
  8
AM_0
100
AcDbLine
 10
-0.0000000000002516
 20
0.8548903812151793
 30
0.0
 11
-0.0000000000002516
 21
4.5
 31
0.0
  0
LINE
  5
204D
330
1F
100
AcDbEntity
  8
AM_0
100
AcDbLine
 10
-0.1479452054795521
 20
3.302785323683202
 30
0.0
 11
-0.0000000000007966
 21
2.340044992978628
 31
0.0
  0
LINE
  5
204E
330
1F
100
AcDbEntity
  8
AM_0
100
AcDbLine
 10
-0.1602660668331294
 20
-2.183655072738706
 30
0.0
 11
-1.105891151598599
 21
-2.183655072738706
 31
0.0
  0
LINE
  5
204F
330
1F
100
AcDbEntity
  8
AM_0
100
AcDbLine
 10
-1.105891151598599
 20
-2.183655072738706
 30
0.0
 11
-1.105891151598599
 21
-2.48757738508261
 31
0.0
  0
ELLIPSE
  5
2050
330
1F
100
AcDbEntity
  8
AM_0
100
AcDbEllipse
 10
5.435071605606396
 20
-2.627759849254217
 30
0.0
 11
0.0000000000002764
 21
6.238949086866951
 31
0.0
210
0.0
220
0.0
230
1.0
 40
0.913242009132422
 41
1.77174777244994
 42
1.875582306116382
  0
LINE
  5
2051
330
1F
100
AcDbEntity
  8
AM_0
100
AcDbLine
 10
-0.1479452054795521
 20
-3.873064823094023
 30
0.0
 11
-0.0444595890507073
 21
-2.297077272050537
 31
0.0
  0
LINE
  5
2052
330
1F
100
AcDbEntity
  8
AM_0
100
AcDbLine
 10
-1.105891151598599
 20
-2.48757738508261
 30
0.0
 11
-0.1479452054795521
 21
-3.873064823094023
 31
0.0
  0
SPLINE
  5
2053
330
1F
100
AcDbEntity
  8
AM_0
100
AcDbSpline
210
0.0
220
0.0
230
1.0
 70
     8
 71
     3
 72
     8
 73
     4
 74
     0
 42
0.0000000001
 43
0.0000000001
 40
7.554568944210345
 40
7.554568944210345
 40
7.554568944210345
 40
7.554568944210345
 40
9.246817942408316
 40
9.246817942408316
 40
9.246817942408316
 40
9.246817942408316
 10
-0.1742195055084125
 20
-1.193871295027547
 30
0.0
 10
-0.5363144288186907
 20
-0.8049001607327804
 30
0.0
 10
-0.894890880321417
 20
-0.4024500803663416
 30
0.0
 10
-1.253467331823948
 20
-0.0000000000000012
 30
0.0
  0
LINE
  5
2054
330
1F
100
AcDbEntity
  8
AM_11
100
AcDbLine
 10
-0.0000000000000569
 20
-4.500000000000004
 30
0.0
 11
-0.0000000000000569
 21
4.5
 31
0.0
  0
LINE
  5
2055
330
1F
100
AcDbEntity
  8
AM_0
100
AcDbLine
 10
-0.0000000000002516
 20
-2.340044992978018
 30
0.0
 11
-0.0000000000002516
 21
-0.8099999999997764
 31
0.0
  0
LINE
  5
2056
330
1F
100
AcDbEntity
  8
AM_0
100
AcDbLine
 10
-0.0000000000002516
 20
-4.500000000000004
 30
0.0
 11
-0.0000000000002516
 21
-0.8099999999997764
 31
0.0
  0
ELLIPSE
  5
2057
330
1F
100
AcDbEntity
  8
AM_0
100
AcDbEllipse
 10
4.384453914834678
 20
-1.111713594038217
 30
0.0
 11
-0.0000000000000222
 21
4.992423454202878
 31
0.0
210
0.0
220
0.0
230
1.0
 40
0.9132420091324069
 41
1.462131443543817
 42
1.848627269249387
  0
SPLINE
  5
2058
330
1F
100
AcDbEntity
  8
AM_0
100
AcDbSpline
210
0.0
220
0.0
230
1.0
 70
     8
 71
     3
 72
     8
 73
     4
 74
     0
 42
0.0000000001
 43
0.0000000001
 40
0.0
 40
0.0
 40
0.0
 40
0.0
 40
2.345304910305074
 40
2.345304910305074
 40
2.345304910305074
 40
2.345304910305074
 10
-4.301369863013737
 20
4.499999999999997
 30
0.0
 10
-4.943919153508244
 20
4.499999999999997
 30
0.0
 10
-5.548444084890431
 20
4.357126912462995
 30
0.0
 10
-6.124526429741682
 20
4.107383380556689
 30
0.0
  0
SPLINE
  5
2059
330
1F
100
AcDbEntity
  8
AM_0
100
AcDbSpline
210
0.0
220
0.0
230
1.0
 70
     8
 71
     3
 72
     8
 73
     4
 74
     0
 42
0.0000000001
 43
0.0000000001
 40
0.0
 40
0.0
 40
0.0
 40
0.0
 40
2.345304910305074
 40
2.345304910305074
 40
2.345304910305074
 40
2.345304910305074
 10
-8.602739726027376
 20
4.499999999999949
 30
0.0
 10
-9.245289016521923
 20
4.499999999999997
 30
0.0
 10
-9.849813947903916
 20
4.357126912462942
 30
0.0
 10
-10.42589629275514
 20
4.107383380556636
 30
0.0
  0
SPLINE
  5
205A
330
1F
100
AcDbEntity
  8
AM_0
100
AcDbSpline
210
0.0
220
0.0
230
1.0
 70
     8
 71
     3
 72
     8
 73
     4
 74
     0
 42
0.0000000001
 43
0.0000000001
 40
0.0
 40
0.0
 40
0.0
 40
0.0
 40
2.345304910305074
 40
2.345304910305074
 40
2.345304910305074
 40
2.345304910305074
 10
-12.90410958904121
 20
4.499999999999948
 30
0.0
 10
-13.54665887953575
 20
4.499999999999996
 30
0.0
 10
-14.15118381091775
 20
4.357126912462941
 30
0.0
 10
-14.72726615576898
 20
4.107383380556635
 30
0.0
  0
SPLINE
  5
205B
330
1F
100
AcDbEntity
  8
AM_0
100
AcDbSpline
210
0.0
220
0.0
230
1.0
 70
     8
 71
     3
 72
     8
 73
     4
 74
     0
 42
0.0000000001
 43
0.0000000001
 40
0.0
 40
0.0
 40
0.0
 40
0.0
 40
5.58427255781815
 40
5.58427255781815
 40
5.58427255781815
 40
5.58427255781815
 10
-12.90410958904125
 20
4.499999999999997
 30
0.0
 10
-10.35421344391883
 20
4.499999999999996
 30
0.0
 10
-8.403134119219732
 20
2.249999999999997
 30
0.0
 10
-6.452054794520634
 20
-0.0000000000000012
 30
0.0
  0
SPLINE
  5
205C
330
1F
100
AcDbEntity
  8
AM_0
100
AcDbSpline
210
0.0
220
0.0
230
1.0
 70
     8
 71
     3
 72
     8
 73
     4
 74
     0
 42
0.0000000001
 43
0.0000000001
 40
0.0
 40
0.0
 40
0.0
 40
0.0
 40
5.548090765444954
 40
5.548090765444954
 40
5.548090765444954
 40
5.548090765444954
 10
-12.00689198935822
 20
4.398150187139565
 30
0.0
 10
-9.473517210616259
 20
4.398150187139564
 30
0.0
 10
-7.514177202727022
 20
2.199075093569781
 30
0.0
 10
-5.554837194837784
 20
-0.0000000000000012
 30
0.0
  0
SPLINE
  5
205D
330
1F
100
AcDbEntity
  8
AM_0
100
AcDbSpline
210
0.0
220
0.0
230
1.0
 70
     8
 71
     3
 72
     8
 73
     4
 74
     0
 42
0.0000000001
 43
0.0000000001
 40
0.0
 40
0.0
 40
0.0
 40
0.0
 40
5.584272557818042
 40
5.584272557818042
 40
5.584272557818042
 40
5.584272557818042
 10
-8.602739726027591
 20
4.499999999999997
 30
0.0
 10
-6.052843580905221
 20
4.499999999999996
 30
0.0
 10
-4.101764256206185
 20
2.249999999999997
 30
0.0
 10
-2.150684931507149
 20
-0.0000000000000012
 30
0.0
  0
SPLINE
  5
205E
330
1F
100
AcDbEntity
  8
AM_0
100
AcDbSpline
210
0.0
220
0.0
230
1.0
 70
     8
 71
     3
 72
     8
 73
     4
 74
     0
 42
0.0000000001
 43
0.0000000001
 40
0.0
 40
0.0
 40
0.0
 40
0.0
 40
1.168827779863518
 40
1.168827779863518
 40
1.168827779863518
 40
1.168827779863518
 10
-4.301369863014105
 20
-4.499999999999802
 30
0.0
 10
-3.981143074010164
 20
-4.499999999999802
 30
0.0
 10
-3.670360466561081
 20
-4.464514342662475
 30
0.0
 10
-3.367836000230691
 20
-4.397999467567217
 30
0.0
  0
SPLINE
  5
205F
330
1F
100
AcDbEntity
  8
AM_0
100
AcDbSpline
210
0.0
220
0.0
230
1.0
 70
     8
 71
     3
 72
     8
 73
     4
 74
     0
 42
0.0000000001
 43
0.0000000001
 40
0.0
 40
0.0
 40
0.0
 40
0.0
 40
2.01589001736573
 40
2.01589001736573
 40
2.01589001736573
 40
2.01589001736573
 10
-3.404152263330886
 20
-4.398150187139421
 30
0.0
 10
-2.851853628436153
 20
-4.398150187139421
 30
0.0
 10
-2.326837687666333
 20
-4.29363266279812
 30
0.0
 10
-1.823156566728003
 20
-4.107383380556591
 30
0.0
  0
SPLINE
  5
2060
330
1F
100
AcDbEntity
  8
AM_0
100
AcDbSpline
210
0.0
220
0.0
230
1.0
 70
     8
 71
     3
 72
     8
 73
     4
 74
     0
 42
0.0000000001
 43
0.0000000001
 40
0.0
 40
0.0
 40
0.0
 40
0.0
 40
2.01589001736573
 40
2.01589001736573
 40
2.01589001736573
 40
2.01589001736573
 10
-7.70552212634472
 20
-4.398150187139421
 30
0.0
 10
-7.153223491449988
 20
-4.398150187139421
 30
0.0
 10
-6.628207550680168
 20
-4.29363266279812
 30
0.0
 10
-6.124526429741838
 20
-4.107383380556592
 30
0.0
  0
SPLINE
  5
2061
330
1F
100
AcDbEntity
  8
AM_0
100
AcDbSpline
210
0.0
220
0.0
230
1.0
 70
     8
 71
     3
 72
     8
 73
     4
 74
     0
 42
0.0000000001
 43
0.0000000001
 40
0.0
 40
0.0
 40
0.0
 40
0.0
 40
1.168827779863518
 40
1.168827779863518
 40
1.168827779863518
 40
1.168827779863518
 10
-12.90410958904142
 20
-4.499999999999805
 30
0.0
 10
-12.58388280003783
 20
-4.499999999999805
 30
0.0
 10
-12.2731001925884
 20
-4.464514342662478
 30
0.0
 10
-11.97057572625836
 20
-4.39799946756722
 30
0.0
  0
SPLINE
  5
2062
330
1F
100
AcDbEntity
  8
AM_0
100
AcDbSpline
210
0.0
220
0.0
230
1.0
 70
     8
 71
     3
 72
     8
 73
     4
 74
     0
 42
0.0000000001
 43
0.0000000001
 40
0.0
 40
0.0
 40
0.0
 40
0.0
 40
2.01589001736573
 40
2.01589001736573
 40
2.01589001736573
 40
2.01589001736573
 10
-12.00689198935836
 20
-4.398150187139424
 30
0.0
 10
-11.45459335446362
 20
-4.398150187139424
 30
0.0
 10
-10.92957741369365
 20
-4.293632662798123
 30
0.0
 10
-10.42589629275551
 20
-4.107383380556593
 30
0.0
  0
SPLINE
  5
2063
330
1F
100
AcDbEntity
  8
AM_0
100
AcDbSpline
210
0.0
220
0.0
230
1.0
 70
     8
 71
     3
 72
     8
 73
     4
 74
     0
 42
0.0000000001
 43
0.0000000001
 40
0.0
 40
0.0
 40
0.0
 40
0.0
 40
1.168827779863518
 40
1.168827779863518
 40
1.168827779863518
 40
1.168827779863518
 10
-8.602739726027941
 20
-4.499999999999803
 30
0.0
 10
-8.282512937023998
 20
-4.499999999999803
 30
0.0
 10
-7.971730329574916
 20
-4.464514342662476
 30
0.0
 10
-7.669205863244527
 20
-4.397999467567217
 30
0.0
  0
SPLINE
  5
2064
330
1F
100
AcDbEntity
  8
AM_0
100
AcDbSpline
210
0.0
220
0.0
230
1.0
 70
     8
 71
     3
 72
     8
 73
     4
 74
     0
 42
0.0000000001
 43
0.0000000001
 40
0.0
 40
0.0
 40
0.0
 40
0.0
 40
5.548090765444937
 40
5.548090765444937
 40
5.548090765444937
 40
5.548090765444937
 10
-7.70552212634472
 20
-4.398150187139626
 30
0.0
 10
-10.23889690508667
 20
-4.398150187139625
 30
0.0
 10
-12.19823691297589
 20
-2.199075093569815
 30
0.0
 10
-14.1575769208651
 20
-0.0000000000000039
 30
0.0
  0
SPLINE
  5
2065
330
1F
100
AcDbEntity
  8
AM_0
100
AcDbSpline
210
0.0
220
0.0
230
1.0
 70
     8
 71
     3
 72
     8
 73
     4
 74
     0
 42
0.0000000001
 43
0.0000000001
 40
0.0
 40
0.0
 40
0.0
 40
0.0
 40
5.584272557818042
 40
5.584272557818042
 40
5.584272557818042
 40
5.584272557818042
 10
-8.602739726027726
 20
-4.500000000000002
 30
0.0
 10
-11.15263587115009
 20
-4.500000000000001
 30
0.0
 10
-13.10371519584913
 20
-2.250000000000003
 30
0.0
 10
-15.05479452054816
 20
-0.0000000000000039
 30
0.0
  0
SPLINE
  5
2066
330
1F
100
AcDbEntity
  8
AM_0
100
AcDbSpline
210
0.0
220
0.0
230
1.0
 70
     8
 71
     3
 72
     8
 73
     4
 74
     0
 42
0.0000000001
 43
0.0000000001
 40
0.0
 40
0.0
 40
0.0
 40
0.0
 40
5.584272557818006
 40
5.584272557818006
 40
5.584272557818006
 40
5.584272557818006
 10
-4.301369863014087
 20
-4.5
 30
0.0
 10
-6.85126600813644
 20
-4.5
 30
0.0
 10
-8.802345332835455
 20
-2.25
 30
0.0
 10
-10.75342465753447
 20
-0.0000000000000015
 30
0.0
  0
SPLINE
  5
2067
330
1F
100
AcDbEntity
  8
AM_0
100
AcDbSpline
210
0.0
220
0.0
230
1.0
 70
     8
 71
     3
 72
     8
 73
     4
 74
     0
 42
0.0000000001
 43
0.0000000001
 40
1.192975873175178
 40
1.192975873175178
 40
1.192975873175178
 40
1.192975873175178
 40
9.246817942408316
 40
9.246817942408316
 40
9.246817942408316
 40
9.246817942408316
 10
-4.357248984873534
 20
-4.293063009390284
 30
0.0
 10
-6.443094551094461
 20
-3.830723955484831
 30
0.0
 10
-8.149650804472836
 20
-1.915361977742463
 30
0.0
 10
-9.856207057851619
 20
-0.0000000000000015
 30
0.0
  0
SPLINE
  5
2068
330
1F
100
AcDbEntity
  8
AM_0
100
AcDbSpline
210
0.0
220
0.0
230
1.0
 70
     8
 71
     3
 72
     8
 73
     4
 74
     0
 42
0.0000000001
 43
0.0000000001
 40
0.0
 40
0.0
 40
0.0
 40
0.0
 40
0.9905457780677108
 40
0.9905457780677108
 40
0.9905457780677108
 40
0.9905457780677108
 10
-17.20547945205491
 20
4.499999999999946
 30
0.0
 10
-17.47686185700494
 20
4.499999999999966
 30
0.0
 10
-17.74146140934949
 20
4.474514045294126
 30
0.0
 10
-18.00000000000006
 20
4.426254575639537
 30
0.0
  0
LINE
  5
2069
330
1F
100
AcDbEntity
  8
AM_0
100
AcDbLine
 10
-18.00000000000006
 20
4.5
 30
0.0
 11
-18.00000000000006
 21
3.048228039126675
 31
0.0
  0
ELLIPSE
  5
206B
330
1F
100
AcDbEntity
  8
AM_0
100
AcDbEllipse
 10
-15.14239168464132
 20
-6.825871874576106
 30
0.0
 11
11.29797285174403
 21
0.4637568632747984
 31
0.0
210
0.0
220
0.0
230
1.0
 40
0.9043529220252196
 41
1.789220368328134
 42
2.024747547052975
  0
SPLINE
  5
206C
330
1F
100
AcDbEntity
  8
AM_0
100
AcDbSpline
210
0.0
220
0.0
230
1.0
 70
     8
 71
     3
 72
     8
 73
     4
 74
     0
 42
0.0000000001
 43
0.0000000001
 40
0.0
 40
0.0
 40
0.0
 40
0.0
 40
0.9905457780672886
 40
0.9905457780672886
 40
0.9905457780672886
 40
0.9905457780672886
 10
-17.20547945205527
 20
-4.500000000000055
 30
0.0
 10
-17.4768618570052
 20
-4.500000000000055
 30
0.0
 10
-17.74146140934962
 20
-4.474514045294228
 30
0.0
 10
-18.00000000000006
 20
-4.426254575639677
 30
0.0
  0
LINE
  5
206D
330
1F
100
AcDbEntity
  8
AM_0
100
AcDbLine
 10
-18.00000000000006
 20
-4.426254575639727
 30
0.0
 11
-18.00000000000006
 21
-4.064990287841565
 31
0.0
  0
SPLINE
  5
206E
330
1F
100
AcDbEntity
  8
AM_0
100
AcDbSpline
210
0.0
220
0.0
230
1.0
 70
     8
 71
     3
 72
     8
 73
     4
 74
     0
 42
0.0000000001
 43
0.0000000001
 40
0.0
 40
0.0
 40
0.0
 40
0.0
 40
1.168827779863518
 40
1.168827779863518
 40
1.168827779863518
 40
1.168827779863518
 10
-17.20547945205527
 20
-4.4999999999998
 30
0.0
 10
-16.88525266305131
 20
-4.499999999999848
 30
0.0
 10
-16.57447005560225
 20
-4.464514342662472
 30
0.0
 10
-16.27194558927184
 20
-4.397999467567321
 30
0.0
  0
ELLIPSE
  5
206F
330
1F
100
AcDbEntity
  8
AM_0
100
AcDbEllipse
 10
-15.64329215026276
 20
-11.55383556808526
 30
0.0
 11
11.98029646000153
 21
2.781829388264106
 31
0.0
210
0.0
220
0.0
230
0.9999999999999998
 40
0.8373475347904417
 41
1.573079739875293
 42
1.789207505823814
  0
LINE
  5
2072
330
1F
100
AcDbEntity
  8
AM_0
100
AcDbLine
 10
-18.00000000000006
 20
-0.5137502465832729
 30
0.0
 11
-18.00000000000006
 21
-1.527954593078896
 31
0.0
  0
LINE
  5
2073
330
1F
100
AcDbEntity
  8
AM_11
 48
0.3
100
AcDbLine
 10
-18.00000000000006
 20
-4.500000000000007
 30
0.0
 11
-18.00000000000006
 21
4.499999999999997
 31
0.0
  0
SPLINE
  5
2074
330
1F
100
AcDbEntity
  8
AM_0
100
AcDbSpline
210
0.0
220
0.0
230
1.0
 70
     8
 71
     3
 72
     8
 73
     4
 74
     0
 42
0.0000000001
 43
0.0000000001
 40
0.0
 40
0.0
 40
0.0
 40
0.0
 40
2.01589001736573
 40
2.01589001736573
 40
2.01589001736573
 40
2.01589001736573
 10
-16.30826185237205
 20
-4.398150187139466
 30
0.0
 10
-15.75596321747732
 20
-4.39815018713952
 30
0.0
 10
-15.2309472767075
 20
-4.293632662798176
 30
0.0
 10
-14.72726615576917
 20
-4.1073833805567
 30
0.0
  0
SPLINE
  5
2075
330
1F
100
AcDbEntity
  8
AM_0
100
AcDbSpline
210
0.0
220
0.0
230
1.0
 70
     8
 71
     3
 72
     8
 73
     4
 74
     0
 42
0.0000000001
 43
0.0000000001
 40
2.84205430791157
 40
2.84205430791157
 40
2.84205430791157
 40
2.84205430791157
 40
5.584272557818032
 40
5.584272557818032
 40
5.584272557818032
 40
5.584272557818032
 10
-18.00000000000006
 20
3.048228039126675
 30
0.0
 10
-16.97099229771966
 20
2.209774325449601
 30
0.0
 10
-16.012893409134
 20
1.104887162724798
 30
0.0
 10
-15.05479452054834
 20
-0.0000000000000039
 30
0.0
  0
SPLINE
  5
2076
330
1F
100
AcDbEntity
  8
AM_0
100
AcDbSpline
210
0.0
220
0.0
230
1.0
 70
     8
 71
     3
 72
     8
 73
     4
 74
     0
 42
0.0000000001
 43
0.0000000001
 40
2.056400414135757
 40
2.056400414135757
 40
2.056400414135757
 40
2.056400414135757
 40
5.548090765444954
 40
5.548090765444954
 40
5.548090765444954
 40
5.548090765444954
 10
-18.00000000000249
 20
3.603791419535126
 30
0.0
 10
-16.62379778483911
 20
2.767975366894041
 30
0.0
 10
-15.3906873528521
 20
1.383987683447018
 30
0.0
 10
-14.1575769208651
 20
-0.0000000000000039
 30
0.0
  0
SPLINE
  5
2077
330
1F
100
AcDbEntity
  8
AM_0
100
AcDbSpline
210
0.0
220
0.0
230
1.0
 70
     8
 71
     3
 72
     8
 73
     4
 74
     0
 42
0.0000000001
 43
0.0000000001
 40
0.0
 40
0.0
 40
0.0
 40
0.0
 40
5.548090765445064
 40
5.548090765445064
 40
5.548090765445064
 40
5.548090765445064
 10
-12.00689198935836
 20
-4.398150187139626
 30
0.0
 10
-14.54026676810037
 20
-4.398150187139625
 30
0.0
 10
-16.49960677598967
 20
-2.19907509356984
 30
0.0
 10
-18.45894678387897
 20
-0.0000000000000546
 30
0.0
  0
SPLINE
  5
2078
330
1F
100
AcDbEntity
  8
AM_0
100
AcDbSpline
210
0.0
220
0.0
230
1.0
 70
     8
 71
     3
 72
     8
 73
     4
 74
     0
 42
0.0000000001
 43
0.0000000001
 40
0.0
 40
0.0
 40
0.0
 40
0.0
 40
4.297417275498208
 40
4.297417275498208
 40
4.297417275498208
 40
4.297417275498208
 10
-12.90410958904142
 20
-4.500000000000061
 30
0.0
 10
-14.86640058241958
 20
-4.500000000000061
 30
0.0
 10
-16.47406128581994
 20
-3.167508785264367
 30
0.0
 10
-17.99999999997218
 20
-1.527954593108859
 30
0.0
  0
SPLINE
  5
2079
330
1F
100
AcDbEntity
  8
AM_0
100
AcDbSpline
210
0.0
220
0.0
230
1.0
 70
     8
 71
     3
 72
     8
 73
     4
 74
     0
 42
0.0000000001
 43
0.0000000001
 40
0.0
 40
0.0
 40
0.0
 40
0.0
 40
5.548090765444954
 40
5.548090765444954
 40
5.548090765444954
 40
5.548090765444954
 10
-16.30826185237205
 20
4.398150187139564
 30
0.0
 10
-13.77488707363009
 20
4.398150187139564
 30
0.0
 10
-11.81554706574085
 20
2.199075093569781
 30
0.0
 10
-9.856207057851619
 20
-0.0000000000000015
 30
0.0
  0
SPLINE
  5
207A
330
1F
100
AcDbEntity
  8
AM_0
100
AcDbSpline
210
0.0
220
0.0
230
1.0
 70
     8
 71
     3
 72
     8
 73
     4
 74
     0
 42
0.0000000001
 43
0.0000000001
 40
0.0
 40
0.0
 40
0.0
 40
0.0
 40
5.58427255781815
 40
5.58427255781815
 40
5.58427255781815
 40
5.58427255781815
 10
-17.20547945205508
 20
4.499999999999996
 30
0.0
 10
-14.65558330693266
 20
4.499999999999996
 30
0.0
 10
-12.70450398223356
 20
2.249999999999997
 30
0.0
 10
-10.75342465753447
 20
-0.0000000000000015
 30
0.0
  0
SPLINE
  5
207B
330
1F
100
AcDbEntity
  8
AM_0
100
AcDbSpline
210
0.0
220
0.0
230
1.0
 70
     8
 71
     3
 72
     8
 73
     4
 74
     0
 42
0.0000000001
 43
0.0000000001
 40
0.0
 40
0.0
 40
0.0
 40
0.0
 40
5.932736810651199
 40
5.932736810651199
 40
5.932736810651199
 40
5.932736810651199
 10
-4.301369863013737
 20
4.499999999999997
 30
0.0
 10
-2.675962517629878
 20
4.499999999999997
 30
0.0
 10
-1.293872726391777
 20
3.585756314525336
 30
0.0
 10
-0.0000000000008161
 20
2.340044992978628
 30
0.0
  0
SPLINE
  5
207C
330
1F
100
AcDbEntity
  8
AM_0
100
AcDbSpline
210
0.0
220
0.0
230
1.0
 70
     8
 71
     3
 72
     8
 73
     4
 74
     0
 42
0.0000000001
 43
0.0000000001
 40
0.0
 40
0.0
 40
0.0
 40
0.0
 40
4.387916526981712
 40
4.387916526981712
 40
4.387916526981712
 40
4.387916526981712
 10
-3.404152263330691
 20
4.398150187139565
 30
0.0
 10
-2.201983351828746
 20
4.398150187139565
 30
0.0
 10
-1.129076270304921
 20
3.90295985148898
 30
0.0
 10
-0.1240920669594206
 20
3.147563135894241
 30
0.0
  0
SPLINE
  5
207D
330
1F
100
AcDbEntity
  8
AM_0
100
AcDbSpline
210
0.0
220
0.0
230
1.0
 70
     8
 71
     3
 72
     8
 73
     4
 74
     0
 42
0.0000000001
 43
0.0000000001
 40
0.0
 40
0.0
 40
0.0
 40
0.0
 40
2.345304910305074
 40
2.345304910305074
 40
2.345304910305074
 40
2.345304910305074
 10
-0.0000000000000569
 20
4.499999999999997
 30
0.0
 10
-0.6425492904945842
 20
4.499999999999997
 30
0.0
 10
-1.247074221876576
 20
4.357126912462995
 30
0.0
 10
-1.823156566727788
 20
4.107383380556689
 30
0.0
  0
SPLINE
  5
207E
330
1F
100
AcDbEntity
  8
AM_0
100
AcDbSpline
210
0.0
220
0.0
230
1.0
 70
     8
 71
     3
 72
     8
 73
     4
 74
     0
 42
0.0000000001
 43
0.0000000001
 40
1.192975873175178
 40
1.192975873175178
 40
1.192975873175178
 40
1.192975873175178
 40
9.246817942408316
 40
9.246817942408316
 40
9.246817942408316
 40
9.246817942408316
 10
-0.0558791218596989
 20
-4.293063009390284
 30
0.0
 10
-2.141724688080625
 20
-3.830723955484831
 30
0.0
 10
-3.848280941459
 20
-1.915361977742462
 30
0.0
 10
-5.554837194837784
 20
-0.0000000000000012
 30
0.0
  0
SPLINE
  5
207F
330
1F
100
AcDbEntity
  8
AM_0
100
AcDbSpline
210
0.0
220
0.0
230
1.0
 70
     8
 71
     3
 72
     8
 73
     4
 74
     0
 42
0.0000000001
 43
0.0000000001
 40
5.932736810651414
 40
5.932736810651414
 40
5.932736810651414
 40
5.932736810651414
 40
9.307120929696782
 40
9.307120929696782
 40
9.307120929696782
 40
9.307120929696782
 10
0.000000000000313
 20
-2.340044992978529
 30
0.0
 10
-0.7359206584319839
 20
-1.631517270529193
 30
0.0
 10
-1.443302794969566
 20
-0.8157586352645694
 30
0.0
 10
-2.150684931506993
 20
-0.0000000000000012
 30
0.0
  0
SPLINE
  5
2080
330
1F
100
AcDbEntity
  8
AM_0
100
AcDbSpline
210
0.0
220
0.0
230
1.0
 70
     8
 71
     3
 72
     8
 73
     4
 74
     0
 42
0.0000000001
 43
0.0000000001
 40
0.0
 40
0.0
 40
0.0
 40
0.0
 40
5.584272557818006
 40
5.584272557818006
 40
5.584272557818006
 40
5.584272557818006
 10
-0.0000000000002516
 20
-4.5
 30
0.0
 10
-2.549896145122605
 20
-4.499999999999999
 30
0.0
 10
-4.50097546982162
 20
-2.25
 30
0.0
 10
-6.452054794520634
 20
-0.0000000000000012
 30
0.0
  0
SPLINE
  5
2081
330
1F
100
AcDbEntity
  8
AM_0
100
AcDbSpline
210
0.0
220
0.0
230
1.0
 70
     8
 71
     3
 72
     8
 73
     4
 74
     0
 42
0.0000000001
 43
0.0000000001
 40
0.0
 40
0.0
 40
0.0
 40
0.0
 40
5.548090765444942
 40
5.548090765444942
 40
5.548090765444942
 40
5.548090765444942
 10
-7.70552212634437
 20
4.398150187139565
 30
0.0
 10
-5.172147347602412
 20
4.398150187139564
 30
0.0
 10
-3.21280733971318
 20
2.199075093569781
 30
0.0
 10
-1.253467331823948
 20
-0.0000000000000012
 30
0.0
  0
LINE
  5
2082
330
1F
100
AcDbEntity
  8
AM_11
 48
0.5
100
AcDbLine
 10
-18.00000000000006
 20
-4.499999999999999
 30
0.0
 11
-0.0000000000002516
 21
-4.500000000000004
 31
0.0
  0
LINE
  5
2083
330
1F
100
AcDbEntity
  8
AM_11
 48
0.5
100
AcDbLine
 10
-0.0000000000009913
 20
4.5
 30
0.0
 11
-18.00000000000006
 21
4.500000000000003
 31
0.0
  0
SPLINE
  5
20DC
330
1F
100
AcDbEntity
  8
AM_0
100
AcDbSpline
210
0.0
220
0.0
230
1.0
 70
     8
 71
     3
 72
     8
 73
     4
 74
     0
 42
0.0000000001
 43
0.0000000001
 40
3.666255773746689
 40
3.666255773746689
 40
3.666255773746689
 40
3.666255773746689
 40
5.548090765444954
 40
5.548090765444954
 40
5.548090765444954
 40
5.548090765444954
 10
-20.47508939037603
 20
2.151873601707398
 30
0.0
 10
-19.78810837959217
 20
1.49179118922358
 30
0.0
 10
-19.12352758173556
 20
0.7458955946117892
 30
0.0
 10
-18.45894678387894
 20
-0.0000000000000023
 30
0.0
  0
SPLINE
  5
20DD
330
1F
100
AcDbEntity
  8
AM_0
100
AcDbSpline
210
0.0
220
0.0
230
1.0
 70
     8
 71
     3
 72
     8
 73
     4
 74
     0
 42
0.0000000001
 43
0.0000000001
 40
0.0
 40
0.0
 40
0.0
 40
0.0
 40
3.459029050221559
 40
3.459029050221559
 40
3.459029050221559
 40
3.459029050221559
 10
-16.30826185237218
 20
-4.398150187139629
 30
0.0
 10
-17.88772717210804
 20
-4.398150187139629
 30
0.0
 10
-19.24406170158976
 20
-3.543356386534956
 30
0.0
 10
-20.51637922213739
 20
-2.366701052161672
 30
0.0
  0
LINE
  5
210C
330
1F
100
AcDbEntity
  8
AM_0
100
AcDbLine
 10
-89.50000000000006
 20
3.999999999999996
 30
0.0
 11
-18.00000000000006
 21
3.999999999999996
 31
0.0
1001
GENIUS_GENODEF_13
1002
{
1000
HIER
1070
     0
1002
}
1002
{
1000
MANEDIT
1070
     0
1002
}
1002
{
1000
NOSEL
1070
     0
1002
}
1002
{
1000
BEHIND
1070
     0
1002
}
1002
{
1000
REACTOR
1002
}
1001
GENIUS_GENOBJ-N-CEN_13
1002
{
1000
OWNER
1000
GEN
1002
}
  0
LINE
  5
210D
330
1F
100
AcDbEntity
  8
AM_0
100
AcDbLine
 10
-89.50000000000006
 20
-3.999999999999998
 30
0.0
 11
-18.00000000000006
 21
-3.999999999999998
 31
0.0
1001
GENIUS_GENODEF_13
1002
{
1000
HIER
1070
     0
1002
}
1002
{
1000
MANEDIT
1070
     0
1002
}
1002
{
1000
NOSEL
1070
     0
1002
}
1002
{
1000
BEHIND
1070
     0
1002
}
1002
{
1000
REACTOR
1002
}
1001
GENIUS_GENOBJ-N-CEN_13
1002
{
1000
OWNER
1000
GEN
1002
}
  0
LINE
  5
210E
330
1F
100
AcDbEntity
  8
AM_0
100
AcDbLine
 10
-81.04856863520305
 20
3.999999999999953
 30
0.0
 11
-82.09231026004886
 21
3.999999999999953
 31
0.0
  0
LINE
  5
210F
330
1F
100
AcDbEntity
  8
AM_0
100
AcDbLine
 10
-90.00000000000005
 20
3.0
 30
0.0
 11
-89.50000000000006
 21
3.999999999999996
 31
0.0
1001
GENIUS_GENFIL_13
1070
     0
1040
0.5
1040
0.5
1040
0.4999999999999716
1040
45.0
1002
{
1002
}
  0
LINE
  5
2110
330
1F
100
AcDbEntity
  8
AM_0
100
AcDbLine
 10
-80.67332249188309
 20
-4.000000000000093
 30
0.0
 11
-82.09231026004886
 21
-4.000000000000093
 31
0.0
  0
LINE
  5
2111
330
1F
100
AcDbEntity
  8
AM_0
100
AcDbLine
 10
-90.00000000000005
 20
-2.999999999999998
 30
0.0
 11
-89.50000000000006
 21
-3.999999999999998
 31
0.0
1001
GENIUS_GENFIL_13
1070
     0
1040
0.5
1040
0.5
1040
0.4999999999999716
1040
45.00000000000036
1002
{
1002
}
  0
LINE
  5
2112
330
1F
100
AcDbEntity
  8
0
100
AcDbLine
 10
-89.50000000000006
 20
-3.999999999999998
 30
0.0
 11
-89.50000000000006
 21
3.999999999999996
 31
0.0
  0
LINE
  5
2113
330
1F
100
AcDbEntity
  8
AM_0
100
AcDbLine
 10
-90.00000000000005
 20
-2.999999999999998
 30
0.0
 11
-90.00000000000005
 21
3.0
 31
0.0
  0
DIMENSION
  5
2114
330
1F
100
AcDbEntity
  8
AM_5
100
AcDbDimension
  2
*D8
 10
-100.9043021951482
 20
4.0
 30
0.0
 11
-100.9043021951482
 21
-0.0000000000000109
 31
0.0
 70
   160
  1
%%c<>
  3
AM_JIS
100
AcDbAlignedDimension
 13
-89.50000000000006
 23
-4.000000000000001
 33
0.0
 14
-89.50000000000006
 24
3.999999999999997
 34
0.0
 50
270.0
100
AcDbRotatedDimension
1001
ACAD
1000
DSTYLE
1002
{
1070
    48
1040
0.1
1070
    47
1040
0.1
1070
   274
1070
     2
1070
   272
1070
     3
1002
}
1001
GENIUS_GENDTOL_13
1000

1000
h6
1000

1040
0.0
  0
VIEWPORT
  5
110
330
101
100
AcDbEntity
 67
     1
  8
0
100
AcDbViewport
 10
420.5
 20
297.0
 30
0.0
 40
948.9782706766916
 41
628.452
 68
     1
 69
     1
1001
ACAD
1000
MVIEW
1002
{
1070
    16
1010
0.0
1020
0.0
1030
0.0
1010
0.0
1020
0.0
1030
1.0
1040
0.0
1040
628.452
1040
420.5
1040
297.0
1040
50.0
1040
0.0
1040
0.0
1070
     0
1070
   100
1070
     1
1070
     1
1070
     0
1070
     0
1070
     0
1070
     0
1040
0.0
1040
0.0
1040
0.0
1040
10.0
1040
10.0
1040
10.0
1040
10.0
1070
     0
1002
{
1002
}
1002
}
  0
ENDSEC
  0
SECTION
  2
OBJECTS
  0
DICTIONARY
  5
C
330
0
100
AcDbDictionary
  3
ACAD_GROUP
350
D
  3
ACAD_LAYOUT
350
1A
  3
ACAD_MLINESTYLE
350
17
  3
ACAD_PLOTSETTINGS
350
19
  3
ACAD_PLOTSTYLENAME
350
E
  3
ACDBVARIABLEDICTIONARY
350
34
  3
ACMDICTIONARY
350
43
  3
AMG
350
2B
  3
AMGSNAPSETTINGS
350
6E
  3
DWGPROPS
350
21C0
  3
ACDBHEADERROUNDTRIPXREC
350
21CC
  0
DICTIONARY
  5
74
330
1F
100
AcDbDictionary
280
     1
  3
ACAD_INDEX
360
21C2
  3
ACAD_LAYOUTSELFREF
360
21EF
  0
DICTIONARY
  5
21F4
330
101
100
AcDbDictionary
280
     1
  3
ACAD_LAYOUTSELFREF
360
21F5
  0
DICTIONARY
  5
D
102
{ACAD_REACTORS
330
C
102
}
330
C
100
AcDbDictionary
  0
DICTIONARY
  5
1A
102
{ACAD_REACTORS
330
C
102
}
330
C
100
AcDbDictionary
  0
DICTIONARY
  5
17
102
{ACAD_REACTORS
330
C
102
}
330
C
100
AcDbDictionary
  3
STANDARD
350
18
  0
DICTIONARY
  5
19
102
{ACAD_REACTORS
330
C
102
}
330
C
100
AcDbDictionary
  0
ACDBDICTIONARYWDFLT
  5
E
102
{ACAD_REACTORS
330
C
102
}
330
C
100
AcDbDictionary
281
     1
  3
Normal
350
F
100
AcDbDictionaryWithDefault
340
F
  0
DICTIONARY
  5
34
102
{ACAD_REACTORS
330
C
102
}
330
C
100
AcDbDictionary
  3
INDEXCTL
350
35
  3
SORTENTS
350
B5E
  0
DICTIONARY
  5
43
102
{ACAD_REACTORS
330
C
102
}
330
C
100
AcDbDictionary
  3
ACMSTDDICTIONARY
350
260
  0
DICTIONARY
  5
2B
102
{ACAD_REACTORS
330
C
102
}
330
C
100
AcDbDictionary
  3
ACMGSETTINGS
350
2C
  0
DICTIONARY
  5
6E
102
{ACAD_REACTORS
330
C
102
}
330
C
100
AcDbDictionary
  0
XRECORD
  5
21C0
102
{ACAD_REACTORS
330
C
102
}
330
C
100
AcDbXrecord
  1
DWGPROPS COOKIE
  2

  3

  4

  6

  7

  8

  9

300
AmdtFileType=82
301
=
302
=
303
=
304
=
305
=
306
=
307
=
308
=
309
=
 40
0.1322256828703704
 41
2452838.620506898
 42
2452841.704761609
  1

 90
        1
  0
DICTIONARY
  5
21CC
102
{ACAD_REACTORS
330
C
102
}
330
C
100
AcDbDictionary
  3
TSTACKALIGN
350
21CD
  3
TSTACKSIZE
350
21CE
  3
HYPERLINKBASE
350
21CF
  3
STYLESHEET
350
21D0
  3
LAYOUTDICT
350
21D1
  3
PLOTSETDICT
350
21D2
  3
PLOTSTYLNAMDICT
350
21D3
  3
LWETCUNION
350
21D4
  3
INSUNITS
350
21D5
  3
CEPSNTYPE
350
21D6
  3
FINGERPRINTGUID
350
21D7
  3
VERSIONGUID
350
21D8
  3
PSVPSCALE
350
21D9
  3
DIMSTYLEDATA
350
21DA
  3
PUCSORTHOREF
350
21DB
  3
PUCSORTHOVIEW
350
21DC
  3
PUCSBASE
350
21DD
  3
PUCSORGTOP
350
21DE
  3
PUCSORGBOTTOM
350
21DF
  3
PUCSORGLEFT
350
21E0
  3
PUCSORGRIGHT
350
21E1
  3
PUCSORGFRONT
350
21E2
  3
PUCSORGBACK
350
21E3
  3
UCSORTHOREF
350
21E4
  3
UCSORTHOVIEW
350
21E5
  3
UCSBASE
350
21E6
  3
UCSORGTOP
350
21E7
  3
UCSORGBOTTOM
350
21E8
  3
UCSORGLEFT
350
21E9
  3
UCSORGRIGHT
350
21EA
  3
UCSORGFRONT
350
21EB
  3
UCSORGBACK
350
21EC
  0
DICTIONARY
  5
21C2
102
{ACAD_REACTORS
330
74
102
}
330
74
100
AcDbDictionary
  3
*A1
350
21C3
  0
XRECORD
  5
21EF
102
{ACAD_REACTORS
330
74
102
}
330
74
100
AcDbXrecord
340
1F
  0
XRECORD
  5
21F5
102
{ACAD_REACTORS
330
21F4
102
}
330
21F4
100
AcDbXrecord
340
101
  0
MLINESTYLE
  5
18
102
{ACAD_REACTORS
330
17
102
}
330
17
100
AcDbMlineStyle
  2
STANDARD
 70
     0
  3

 62
   256
 51
90.0
 52
90.0
 71
     2
 49
0.5
 62
   256
  6
BYLAYER
 49
-0.5
 62
   256
  6
BYLAYER
  0
ACDBPLACEHOLDER
  5
F
102
{ACAD_REACTORS
330
E
102
}
330
E
100
AcDbPlaceHolder
280
     0
  0
DICTIONARYVAR
  5
35
102
{ACAD_REACTORS
330
34
102
}
330
34
100
DictionaryVariables
280
     0
  1
1
  0
DICTIONARYVAR
  5
B5E
102
{ACAD_REACTORS
330
34
102
}
330
34
100
DictionaryVariables
280
     0
  1
96
  0
DICTIONARY
  5
260
102
{ACAD_REACTORS
330
43
102
}
330
43
100
AcDbDictionary
  0
DICTIONARY
  5
2C
102
{ACAD_REACTORS
330
2B
102
}
330
2B
100
AcDbDictionary
  3
DWGSETTINGS
350
2D
  0
XRECORD
  5
21CD
102
{ACAD_REACTORS
330
21CC
102
}
330
21CC
100
AcDbXrecord
 90
        1
  0
XRECORD
  5
21CE
102
{ACAD_REACTORS
330
21CC
102
}
330
21CC
100
AcDbXrecord
 90
       70
  0
XRECORD
  5
21CF
102
{ACAD_REACTORS
330
21CC
102
}
330
21CC
100
AcDbXrecord
  1

  0
XRECORD
  5
21D0
102
{ACAD_REACTORS
330
21CC
102
}
330
21CC
100
AcDbXrecord
  1
ACAD_M_9400.ctb
  0
XRECORD
  5
21D1
102
{ACAD_REACTORS
330
21CC
102
}
330
21CC
100
AcDbXrecord
340
1A
  0
XRECORD
  5
21D2
102
{ACAD_REACTORS
330
21CC
102
}
330
21CC
100
AcDbXrecord
340
19
  0
XRECORD
  5
21D3
102
{ACAD_REACTORS
330
21CC
102
}
330
21CC
100
AcDbXrecord
340
E
  0
XRECORD
  5
21D4
102
{ACAD_REACTORS
330
21CC
102
}
330
21CC
100
AcDbXrecord
 90
    10781
  0
XRECORD
  5
21D5
102
{ACAD_REACTORS
330
21CC
102
}
330
21CC
100
AcDbXrecord
 90
        4
  0
XRECORD
  5
21D6
102
{ACAD_REACTORS
330
21CC
102
}
330
21CC
100
AcDbXrecord
 90
        0
  0
XRECORD
  5
21D7
102
{ACAD_REACTORS
330
21CC
102
}
330
21CC
100
AcDbXrecord
  1
{AFB28963-8C59-40AE-9337-C84526B81ACE}
  0
XRECORD
  5
21D8
102
{ACAD_REACTORS
330
21CC
102
}
330
21CC
100
AcDbXrecord
  1
{FB90F9AB-9289-4016-8E6F-DB228771EB4F}
  0
XRECORD
  5
21D9
102
{ACAD_REACTORS
330
21CC
102
}
330
21CC
100
AcDbXrecord
 40
0.0
  0
XRECORD
  5
21DA
102
{ACAD_REACTORS
330
21CC
102
}
330
21CC
100
AcDbXrecord
1000
DSTYLE
1002
{
1070
    79
 70
     2
1070
   341
340
59
1070
   342
340
59
1070
   371
 70
    -1
1070
   372
 70
    -1
1002
}
  0
XRECORD
  5
21DB
102
{ACAD_REACTORS
330
21CC
102
}
330
21CC
100
AcDbXrecord
340
0
  0
XRECORD
  5
21DC
102
{ACAD_REACTORS
330
21CC
102
}
330
21CC
100
AcDbXrecord
 70
     0
  0
XRECORD
  5
21DD
102
{ACAD_REACTORS
330
21CC
102
}
330
21CC
100
AcDbXrecord
340
0
  0
XRECORD
  5
21DE
102
{ACAD_REACTORS
330
21CC
102
}
330
21CC
100
AcDbXrecord
 10
0.0
 20
0.0
 30
0.0
  0
XRECORD
  5
21DF
102
{ACAD_REACTORS
330
21CC
102
}
330
21CC
100
AcDbXrecord
 10
0.0
 20
0.0
 30
0.0
  0
XRECORD
  5
21E0
102
{ACAD_REACTORS
330
21CC
102
}
330
21CC
100
AcDbXrecord
 10
0.0
 20
0.0
 30
0.0
  0
XRECORD
  5
21E1
102
{ACAD_REACTORS
330
21CC
102
}
330
21CC
100
AcDbXrecord
 10
0.0
 20
0.0
 30
0.0
  0
XRECORD
  5
21E2
102
{ACAD_REACTORS
330
21CC
102
}
330
21CC
100
AcDbXrecord
 10
0.0
 20
0.0
 30
0.0
  0
XRECORD
  5
21E3
102
{ACAD_REACTORS
330
21CC
102
}
330
21CC
100
AcDbXrecord
 10
0.0
 20
0.0
 30
0.0
  0
XRECORD
  5
21E4
102
{ACAD_REACTORS
330
21CC
102
}
330
21CC
100
AcDbXrecord
340
0
  0
XRECORD
  5
21E5
102
{ACAD_REACTORS
330
21CC
102
}
330
21CC
100
AcDbXrecord
 70
     0
  0
XRECORD
  5
21E6
102
{ACAD_REACTORS
330
21CC
102
}
330
21CC
100
AcDbXrecord
340
0
  0
XRECORD
  5
21E7
102
{ACAD_REACTORS
330
21CC
102
}
330
21CC
100
AcDbXrecord
 10
0.0
 20
0.0
 30
0.0
  0
XRECORD
  5
21E8
102
{ACAD_REACTORS
330
21CC
102
}
330
21CC
100
AcDbXrecord
 10
0.0
 20
0.0
 30
0.0
  0
XRECORD
  5
21E9
102
{ACAD_REACTORS
330
21CC
102
}
330
21CC
100
AcDbXrecord
 10
0.0
 20
0.0
 30
0.0
  0
XRECORD
  5
21EA
102
{ACAD_REACTORS
330
21CC
102
}
330
21CC
100
AcDbXrecord
 10
0.0
 20
0.0
 30
0.0
  0
XRECORD
  5
21EB
102
{ACAD_REACTORS
330
21CC
102
}
330
21CC
100
AcDbXrecord
 10
0.0
 20
0.0
 30
0.0
  0
XRECORD
  5
21EC
102
{ACAD_REACTORS
330
21CC
102
}
330
21CC
100
AcDbXrecord
 10
0.0
 20
0.0
 30
0.0
  0
LAYER_INDEX
  5
21C3
102
{ACAD_REACTORS
330
21C2
102
}
330
21C2
100
AcDbIndex
 40
2453152.475050278
100
AcDbLayerIndex
  8
0
360
21C4
 90
        1
  8
AM_0
360
21C5
 90
       70
  8
AM_11
360
21C6
 90
        4
  8
AM_7
360
21C7
 90
        1
  8
AM_5
360
21C8
 90
        4
  8
Defpoints
360
21C9
 90
        0
  8
AM_6
360
21CA
 90
        1
  0
XRECORD
  5
2D
102
{ACAD_REACTORS
330
2C
102
}
330
2C
100
AcDbXrecord
  1
VERSION
140
15.0
  1
PRODUCT
  2
AutoCAD Mechanical 2000
  0
IDBUFFER
  5
21C4
330
0
100
AcDbIdBuffer
330
2112
  0
IDBUFFER
  5
21C5
330
0
100
AcDbIdBuffer
330
2075
330
2076
330
2077
330
2078
330
2079
330
207A
330
207B
330
207C
330
207D
330
207E
330
207F
330
2080
330
2081
330
20DC
330
20DD
330
210C
330
210D
330
210E
330
210F
330
2110
330
2111
330
2113
330
2040
330
2041
330
2042
330
2043
330
2044
330
2045
330
2046
330
2047
330
2048
330
2049
330
204A
330
204B
330
204C
330
204D
330
204E
330
204F
330
2050
330
2051
330
2052
330
2053
330
2055
330
2056
330
2057
330
2058
330
2059
330
205A
330
205B
330
205C
330
205D
330
205E
330
205F
330
2060
330
2061
330
2062
330
2063
330
2064
330
2065
330
2066
330
2067
330
2068
330
2069
330
206B
330
206C
330
206D
330
206E
330
206F
330
2072
330
2074
  0
IDBUFFER
  5
21C6
330
0
100
AcDbIdBuffer
330
2054
330
2073
330
2082
330
2083
  0
IDBUFFER
  5
21C7
330
0
100
AcDbIdBuffer
330
C50
  0
IDBUFFER
  5
21C8
330
0
100
AcDbIdBuffer
330
C4F
330
15A7
330
1EC3
330
2114
  0
IDBUFFER
  5
21C9
330
0
100
AcDbIdBuffer
  0
IDBUFFER
  5
21CA
330
0
100
AcDbIdBuffer
330
C58
  0
ENDSEC
  0
EOF
