  0
SECTION
  2
HEADER
  9
$ACADVER
  1
AC1014
  9
$ACADMAINTVER
 70
     9
  9
$DWGCODEPAGE
  3
ANSI_932
  9
$INSBASE
 10
0.0
 20
0.0
 30
0.0
  9
$EXTMIN
 10
-52.90000100000003
 20
-25.25000099999999
 30
-0.00000001
  9
$EXTMAX
 10
7.829530889074513
 20
7.514285714285708
 30
0.00000001
  9
$LIMMIN
 10
-61.12267536067043
 20
-32.57244780127019
  9
$LIMMAX
 10
17.78259297255226
 20
16.4667599003535
  9
$ORTHOMODE
 70
     0
  9
$REGENMODE
 70
     1
  9
$FILLMODE
 70
     1
  9
$QTEXTMODE
 70
     0
  9
$MIRRTEXT
 70
     0
  9
$DRAGMODE
 70
     2
  9
$LTSCALE
 40
0.3
  9
$OSMODE
 70
    55
  9
$ATTMODE
 70
     1
  9
$TEXTSIZE
 40
2.5
  9
$TRACEWID
 40
1.0
  9
$TEXTSTYLE
  7
ACJISGDT
  9
$CLAYER
  8
AM_0
  9
$CELTYPE
  6
BYLAYER
  9
$CECOLOR
 62
   256
  9
$CELTSCALE
 40
1.0
  9
$DELOBJ
 70
     1
  9
$DISPSILH
 70
     0
  9
$DIMSCALE
 40
1.0
  9
$DIMASZ
 40
2.5
  9
$DIMEXO
 40
1.0
  9
$DIMDLI
 40
12.0
  9
$DIMRND
 40
0.0
  9
$DIMDLE
 40
0.0
  9
$DIMEXE
 40
1.0
  9
$DIMTP
 40
0.1
  9
$DIMTM
 40
0.1
  9
$DIMTXT
 40
3.2
  9
$DIMCEN
 40
0.0
  9
$DIMTSZ
 40
0.0
  9
$DIMTOL
 70
     0
  9
$DIMLIM
 70
     0
  9
$DIMTIH
 70
     0
  9
$DIMTOH
 70
     0
  9
$DIMSE1
 70
     0
  9
$DIMSE2
 70
     0
  9
$DIMTAD
 70
     3
  9
$DIMZIN
 70
     8
  9
$DIMBLK
  1
OPEN30
  9
$DIMASO
 70
     1
  9
$DIMSHO
 70
     1
  9
$DIMPOST
  1

  9
$DIMAPOST
  1
"
  9
$DIMALT
 70
     0
  9
$DIMALTD
 70
     2
  9
$DIMALTF
 40
0.0393701
  9
$DIMLFAC
 40
1.0
  9
$DIMTOFL
 70
     1
  9
$DIMTVP
 40
0.0
  9
$DIMTIX
 70
     0
  9
$DIMSOXD
 70
     0
  9
$DIMSAH
 70
     0
  9
$DIMBLK1
  1

  9
$DIMBLK2
  1

  9
$DIMSTYLE
  2
AM_JIS
  9
$DIMCLRD
 70
   256
  9
$DIMCLRE
 70
   256
  9
$DIMCLRT
 70
     2
  9
$DIMTFAC
 40
0.71
  9
$DIMGAP
 40
1.5
  9
$DIMJUST
 70
     0
  9
$DIMSD1
 70
     0
  9
$DIMSD2
 70
     0
  9
$DIMTOLJ
 70
     0
  9
$DIMTZIN
 70
     0
  9
$DIMALTZ
 70
     0
  9
$DIMALTTZ
 70
     0
  9
$DIMFIT
 70
     3
  9
$DIMUPT
 70
     0
  9
$DIMUNIT
 70
     2
  9
$DIMDEC
 70
     3
  9
$DIMTDEC
 70
     3
  9
$DIMALTU
 70
     2
  9
$DIMALTTD
 70
     2
  9
$DIMTXSTY
  7
ASAMI
  9
$DIMAUNIT
 70
     0
  9
$LUNITS
 70
     2
  9
$LUPREC
 70
     2
  9
$SKETCHINC
 40
1.0
  9
$FILLETRAD
 40
2.5
  9
$AUNITS
 70
     0
  9
$AUPREC
 70
     0
  9
$MENU
  1
.
  9
$ELEVATION
 40
0.0
  9
$PELEVATION
 40
0.0
  9
$THICKNESS
 40
0.0
  9
$LIMCHECK
 70
     0
  9
$BLIPMODE
 70
     0
  9
$CHAMFERA
 40
2.5
  9
$CHAMFERB
 40
2.5
  9
$CHAMFERC
 40
20.0
  9
$CHAMFERD
 40
0.0
  9
$SKPOLY
 70
     0
  9
$TDCREATE
 40
2452838.620506898
  9
$TDUPDATE
 40
2453152.473128032
  9
$TDINDWG
 40
0.0107441667
  9
$TDUSRTIMER
 40
0.0107441667
  9
$USRTIMER
 70
     1
  9
$ANGBASE
 50
0.0
  9
$ANGDIR
 70
     0
  9
$PDMODE
 70
     0
  9
$PDSIZE
 40
0.0
  9
$PLINEWID
 40
0.0
  9
$COORDS
 70
     1
  9
$SPLFRAME
 70
     0
  9
$SPLINETYPE
 70
     6
  9
$SPLINESEGS
 70
     8
  9
$ATTDIA
 70
     1
  9
$ATTREQ
 70
     1
  9
$HANDLING
 70
 12289
  9
$HANDSEED
  5
DA8
  9
$SURFTAB1
 70
     6
  9
$SURFTAB2
 70
     6
  9
$SURFTYPE
 70
     6
  9
$SURFU
 70
     6
  9
$SURFV
 70
     6
  9
$UCSNAME
  2

  9
$UCSORG
 10
0.0
 20
0.0
 30
0.0
  9
$UCSXDIR
 10
1.0
 20
0.0
 30
0.0
  9
$UCSYDIR
 10
0.0
 20
1.0
 30
0.0
  9
$PUCSNAME
  2

  9
$PUCSORG
 10
0.0
 20
0.0
 30
0.0
  9
$PUCSXDIR
 10
1.0
 20
0.0
 30
0.0
  9
$PUCSYDIR
 10
0.0
 20
1.0
 30
0.0
  9
$USERI1
 70
     0
  9
$USERI2
 70
     0
  9
$USERI3
 70
     0
  9
$USERI4
 70
     0
  9
$USERI5
 70
     0
  9
$USERR1
 40
0.0
  9
$USERR2
 40
0.0
  9
$USERR3
 40
0.0
  9
$USERR4
 40
0.0
  9
$USERR5
 40
0.0
  9
$WORLDVIEW
 70
     1
  9
$SHADEDGE
 70
     3
  9
$SHADEDIF
 70
    70
  9
$TILEMODE
 70
     1
  9
$MAXACTVP
 70
    64
  9
$PINSBASE
 10
0.0
 20
0.0
 30
0.0
  9
$PLIMCHECK
 70
     0
  9
$PEXTMIN
 10
1.000000000000000E+20
 20
1.000000000000000E+20
 30
1.000000000000000E+20
  9
$PEXTMAX
 10
-1.000000000000000E+20
 20
-1.000000000000000E+20
 30
-1.000000000000000E+20
  9
$PLIMMIN
 10
0.0
 20
0.0
  9
$PLIMMAX
 10
841.0
 20
594.0
  9
$UNITMODE
 70
     0
  9
$VISRETAIN
 70
     1
  9
$PLINEGEN
 70
     0
  9
$PSLTSCALE
 70
     0
  9
$TREEDEPTH
 70
  3020
  9
$PICKSTYLE
 70
     0
  9
$CMLSTYLE
  2
STANDARD
  9
$CMLJUST
 70
     0
  9
$CMLSCALE
 40
20.0
  9
$PROXYGRAPHICS
 70
     1
  9
$MEASUREMENT
 70
     1
  0
ENDSEC
  0
SECTION
  2
CLASSES
  0
CLASS
  1
ACDBDICTIONARYWDFLT
  2
AcDbDictionaryWithDefault
  3
AutoCAD 2000
 90
        0
280
     0
281
     0
  0
CLASS
  1
ACDBPLACEHOLDER
  2
AcDbPlaceHolder
  3
AutoCAD 2000
 90
        0
280
     0
281
     0
  0
CLASS
  1
LAYOUT
  2
AcDbLayout
  3
AutoCAD 2000
 90
        0
280
     0
281
     0
  0
CLASS
  1
AMGSETTINGSOBJ
  2
AmgSettingsObj
  3
"AcadM|Product Description: AutoCAD Mechanical 2000|Company: Autodesk"
 90
        0
280
     0
281
     0
  0
CLASS
  1
ACME_DOCUMENT
  2
AcMeDbDoc
  3
AcMeServices
 90
        0
280
     0
281
     0
  0
CLASS
  1
ACMESCOPE
  2
AcMeScope
  3
AcMeServices
 90
        0
280
     0
281
     0
  0
CLASS
  1
ACMECOMMANDHISTORY
  2
AcMeCommandHistory
  3
AcMeServices
 90
        0
280
     0
281
     0
  0
CLASS
  1
DICTIONARYVAR
  2
AcDbDictionaryVar
  3
AutoCAD 2000
 90
        0
280
     0
281
     0
  0
CLASS
  1
ACIMSYSVARMAN
  2
AcImSysVarManager
  3
AcMeServices
 90
        0
280
     0
281
     0
  0
CLASS
  1
ACIMREALSYSVAR
  2
AcImRealSysVar
  3
AcMeServices
 90
        0
280
     0
281
     0
  0
CLASS
  1
ACIMINTSYSVAR
  2
AcImIntSysVar
  3
AcMeServices
 90
        0
280
     0
281
     0
  0
CLASS
  1
ACMEDRAWINGMAN
  2
AcMeDrawingMan
  3
AcMeServices
 90
        0
280
     0
281
     0
  0
CLASS
  1
ACMEVIEW
  2
AcMeView
  3
AcMeServices
 90
        0
280
     0
281
     0
  0
CLASS
  1
ACDBENTITYCACHE
  2
AcMeEntityCache
  3
AcMeServices
 90
        0
280
     0
281
     0
  0
CLASS
  1
GSMANAGER
  2
AcMeGSManager
  3
AcMeServices
 90
        0
280
     0
281
     0
  0
CLASS
  1
AmdtInternalReactor
  2
AmdtInternalReactor
  3
AcMeServices
 90
        0
280
     0
281
     0
  0
CLASS
  1
ACMESTATEMGR
  2
AcMeStateMgr
  3
AcMeServices
 90
        0
280
     0
281
     0
  0
CLASS
  1
ACME_DATABASE
  2
AcMeDbDatabase
  3
AcMeServices
 90
        0
280
     0
281
     0
  0
CLASS
  1
ACRFINSADJUSTERMGR
  2
AcRfInsAdjusterMgr
  3
AcMeServices
 90
        0
280
     0
281
     0
  0
CLASS
  1
ACMDATADICTIONARY
  2
AcmDataDictionary
  3
"AcmSymBB|Product Description: AutoCAD Mechanical 2000|Company: Autodesk"
 90
        0
280
     0
281
     0
  0
CLASS
  1
ACMDATAENTRYBLOCK
  2
AcmDataEntryBlock
  3
"AcmSymBB|Product Description: AutoCAD Mechanical 2000|Company: Autodesk"
 90
        0
280
     0
281
     0
  0
CLASS
  1
AMGOBJPROPCFG
  2
AmgObjPropCfg
  3
"AmgLay|Product Description: AutoCAD Mechanical 2000|Company: Autodesk"
 90
        1
280
     0
281
     0
  0
CLASS
  1
ACAMGFILTERDAT
  2
AcAmgFilterDat
  3
"AcadM|Product Description: AutoCAD Mechanical 2000|Company: Autodesk"
 90
        0
280
     0
281
     0
  0
CLASS
  1
LAYER_INDEX
  2
AcDbLayerIndex
  3
AutoCAD 2000
 90
        0
280
     0
281
     0
  0
CLASS
  1
IDBUFFER
  2
AcDbIdBuffer
  3
AutoCAD 2000
 90
        0
280
     0
281
     0
  0
CLASS
  1
ACIMSTRSYSVAR
  2
AcImStrSysVar
  3
AcMeServices
 90
        0
280
     0
281
     0
  0
CLASS
  1
ACMSTANDARDJIS
  2
AcmStandardJIS
  3
"AcmSymBB|Product Description: AutoCAD Mechanical 2000|Company: Autodesk"
 90
        0
280
     0
281
     0
  0
CLASS
  1
ACMSURFSTANDARDJIS
  2
AcmSurfTextStdJIS
  3
"AcmSymBB|Product Description: AutoCAD Mechanical 2000|Company: Autodesk"
 90
        0
280
     0
281
     0
  0
CLASS
  1
ACMFCFSTANDARDJIS
  2
AcmFCFStdJIS
  3
"AcmSymBB|Product Description: AutoCAD Mechanical 2000|Company: Autodesk"
 90
        0
280
     0
281
     0
  0
CLASS
  1
ACMWELDSTANDARDJIS
  2
AcmWeldingStdJIS
  3
"AcmSymBB|Product Description: AutoCAD Mechanical 2000|Company: Autodesk"
 90
        0
280
     0
281
     0
  0
CLASS
  1
ACMIDSTANDARDJIS
  2
AcmIdStdJIS
  3
"AcmSymBB|Product Description: AutoCAD Mechanical 2000|Company: Autodesk"
 90
        0
280
     0
281
     0
  0
CLASS
  1
ACMDATUMSTANDARDJIS
  2
AcmDatumStdJIS
  3
"AcmSymBB|Product Description: AutoCAD Mechanical 2000|Company: Autodesk"
 90
        0
280
     0
281
     0
  0
CLASS
  1
ACMBOMSTANDARDJIS
  2
AcmBOMStdJIS
  3
"AcmSymBB|Product Description: AutoCAD Mechanical 2000|Company: Autodesk"
 90
        0
280
     0
281
     0
  0
CLASS
  1
ACMSTANDARDANSI
  2
AcmStandardANSI
  3
"AcmSymBB|Product Description: AutoCAD Mechanical 2000|Company: Autodesk"
 90
        0
280
     0
281
     0
  0
CLASS
  1
ACMSURFSTANDARDANSI
  2
AcmSurfTextStdANSI
  3
"AcmSymBB|Product Description: AutoCAD Mechanical 2000|Company: Autodesk"
 90
        0
280
     0
281
     0
  0
CLASS
  1
ACMFCFSTANDARDANSI
  2
AcmFCFStdANSI
  3
"AcmSymBB|Product Description: AutoCAD Mechanical 2000|Company: Autodesk"
 90
        0
280
     0
281
     0
  0
CLASS
  1
ACMWELDSTANDARDANSI
  2
AcmWeldingStdANSI
  3
"AcmSymBB|Product Description: AutoCAD Mechanical 2000|Company: Autodesk"
 90
        0
280
     0
281
     0
  0
CLASS
  1
ACMIDSTANDARDANSI
  2
AcmIdStdANSI
  3
"AcmSymBB|Product Description: AutoCAD Mechanical 2000|Company: Autodesk"
 90
        0
280
     0
281
     0
  0
CLASS
  1
ACMDATUMSTANDARDANSI
  2
AcmDatumStdANSI
  3
"AcmSymBB|Product Description: AutoCAD Mechanical 2000|Company: Autodesk"
 90
        0
280
     0
281
     0
  0
CLASS
  1
ACMBOMSTANDARDANSI
  2
AcmBOMStdANSI
  3
"AcmSymBB|Product Description: AutoCAD Mechanical 2000|Company: Autodesk"
 90
        0
280
     0
281
     0
  0
CLASS
  1
ACMSTANDARDBSI
  2
AcmStandardBSI
  3
"AcmSymBB|Product Description: AutoCAD Mechanical 2000|Company: Autodesk"
 90
        0
280
     0
281
     0
  0
CLASS
  1
ACMSURFSTANDARDBSI
  2
AcmSurfTextStdBSI
  3
"AcmSymBB|Product Description: AutoCAD Mechanical 2000|Company: Autodesk"
 90
        0
280
     0
281
     0
  0
CLASS
  1
ACMFCFSTANDARDBSI
  2
AcmFCFStdBSI
  3
"AcmSymBB|Product Description: AutoCAD Mechanical 2000|Company: Autodesk"
 90
        0
280
     0
281
     0
  0
CLASS
  1
ACMWELDSTANDARDBSI
  2
AcmWeldingStdBSI
  3
"AcmSymBB|Product Description: AutoCAD Mechanical 2000|Company: Autodesk"
 90
        0
280
     0
281
     0
  0
CLASS
  1
ACMIDSTANDARDBSI
  2
AcmIdStdBSI
  3
"AcmSymBB|Product Description: AutoCAD Mechanical 2000|Company: Autodesk"
 90
        0
280
     0
281
     0
  0
CLASS
  1
ACMDATUMSTANDARDBSI
  2
AcmDatumStdBSI
  3
"AcmSymBB|Product Description: AutoCAD Mechanical 2000|Company: Autodesk"
 90
        0
280
     0
281
     0
  0
CLASS
  1
ACMBOMSTANDARDBSI
  2
AcmBOMStdBSI
  3
"AcmSymBB|Product Description: AutoCAD Mechanical 2000|Company: Autodesk"
 90
        0
280
     0
281
     0
  0
CLASS
  1
LONG_TRANSACTION
  2
AcDbLongTransaction
  3
AutoCAD 2000
 90
        0
280
     0
281
     0
  0
CLASS
  1
LWPOLYLINE
  2
AcDbPolyline
  3
AutoCAD 2000
 90
        0
280
     0
281
     1
  0
CLASS
  1
HATCH
  2
AcDbHatch
  3
AutoCAD 2000
 90
        0
280
     0
281
     1
  0
CLASS
  1
XRECORD
  2
AcDbXrecord
  3
AutoCAD 2000
 90
        0
280
     0
281
     0
  0
ENDSEC
  0
SECTION
  2
TABLES
  0
TABLE
  2
VPORT
  5
8
330
0
100
AcDbSymbolTable
 70
     3
  0
VPORT
  5
D7D
330
8
100
AcDbSymbolTableRecord
100
AcDbViewportTableRecord
  2
*ACTIVE
 70
     0
 10
0.0
 20
0.0
 11
1.0
 21
1.0
 12
-4.120832738471349
 22
-5.605379600542995
 13
0.0
 23
0.0
 14
2.5
 24
2.5
 15
10.0
 25
10.0
 16
0.0
 26
0.0
 36
1.0
 17
0.0
 27
0.0
 37
0.0
 40
81.36932194947084
 41
1.56570841889117
 42
50.0
 43
0.0
 44
0.0
 50
0.0
 51
0.0
 71
     0
 72
   100
 73
     1
 74
     3
 75
     0
 76
     0
 77
     0
 78
     0
  0
ENDTAB
  0
TABLE
  2
LTYPE
  5
5
330
0
100
AcDbSymbolTable
 70
    10
  0
LTYPE
  5
14
330
5
100
AcDbSymbolTableRecord
100
AcDbLinetypeTableRecord
  2
BYBLOCK
 70
     0
  3

 72
    65
 73
     0
 40
0.0
  0
LTYPE
  5
15
330
5
100
AcDbSymbolTableRecord
100
AcDbLinetypeTableRecord
  2
BYLAYER
 70
     0
  3

 72
    65
 73
     0
 40
0.0
  0
LTYPE
  5
16
330
5
100
AcDbSymbolTableRecord
100
AcDbLinetypeTableRecord
  2
CONTINUOUS
 70
     0
  3
Solid line
 72
    65
 73
     0
 40
0.0
  0
LTYPE
  5
4B
330
5
100
AcDbSymbolTableRecord
100
AcDbLinetypeTableRecord
  2
AM_ISO02W050
 70
     0
  3
__ __ __ __ __ __ __ __ __ __ __ __ __ __ __
 72
    65
 73
     2
 40
7.5
 49
6.0
 74
     0
 49
-1.5
 74
     0
  0
LTYPE
  5
4C
330
5
100
AcDbSymbolTableRecord
100
AcDbLinetypeTableRecord
  2
AM_ISO08W050
 70
     0
  3
____ . ____ . ____ . ____ . ____ . ____ . ____
 72
    65
 73
     4
 40
18.0
 49
12.0
 74
     0
 49
-1.5
 74
     0
 49
3.0
 74
     0
 49
-1.5
 74
     0
  0
LTYPE
  5
4D
330
5
100
AcDbSymbolTableRecord
100
AcDbLinetypeTableRecord
  2
AM_ISO09W050
 70
     0
  3
_____ . . _____ . . _____ . . ____ .. ____
 72
    65
 73
     6
 40
22.5
 49
12.0
 74
     0
 49
-1.5
 74
     0
 49
3.0
 74
     0
 49
-1.5
 74
     0
 49
3.0
 74
     0
 49
-1.5
 74
     0
  0
LTYPE
  5
4E
330
5
100
AcDbSymbolTableRecord
100
AcDbLinetypeTableRecord
  2
AMCONSTR
 70
     0
  3
_______________________
 72
    65
 73
     2
 40
9999.0
 49
9999.0
 74
     0
 49
0.0
 74
     0
  0
LTYPE
  5
4F
330
5
100
AcDbSymbolTableRecord
100
AcDbLinetypeTableRecord
  2
AM_ISO02W050X2
 70
     0
  3
 _ _ _ _ _ _ _ _ _ _ _ _
 72
    65
 73
     2
 40
3.75
 49
3.0
 74
     0
 49
-0.75
 74
     0
  0
LTYPE
  5
50
330
5
100
AcDbSymbolTableRecord
100
AcDbLinetypeTableRecord
  2
AM_ISO08W050X2
 70
     0
  3
__ . __ . __ . __ . __ . __
 72
    65
 73
     4
 40
9.0
 49
6.0
 74
     0
 49
-0.75
 74
     0
 49
1.5
 74
     0
 49
-0.75
 74
     0
  0
LTYPE
  5
53
330
5
100
AcDbSymbolTableRecord
100
AcDbLinetypeTableRecord
  2
AMZIGZAG
 70
     0
  3
/\/-/\/-/\/-/\/-/\/-/\/
 72
    65
 73
     2
 40
11.00009999999999
 49
0.0001
 74
     4
 75
   135
340
52
 46
0.04
 50
0.0
 44
0.0
 45
0.0
 49
-11.0
 74
     0
  0
LTYPE
  5
166
330
5
100
AcDbSymbolTableRecord
100
AcDbLinetypeTableRecord
  2
ACJISTGL
 70
     0
  3
_ _ _ _ _
 72
    65
 73
     2
 40
3.0
 49
2.0
 74
     0
 49
-1.0
 74
     0
  0
LTYPE
  5
26A
330
5
100
AcDbSymbolTableRecord
100
AcDbLinetypeTableRecord
  2
ACJISTGB
 70
     0
  3
__ . . __ . .
 72
    65
 73
     6
 40
9.0
 49
4.0
 74
     0
 49
-1.0
 74
     0
 49
1.0
 74
     0
 49
-1.0
 74
     0
 49
1.0
 74
     0
 49
-1.0
 74
     0
  0
ENDTAB
  0
TABLE
  2
LAYER
  5
2
330
0
100
AcDbSymbolTable
 70
     7
  0
LAYER
  5
10
330
2
100
AcDbSymbolTableRecord
100
AcDbLayerTableRecord
  2
0
 70
     0
 62
     7
  6
CONTINUOUS
  0
LAYER
  5
3F9
330
2
100
AcDbSymbolTableRecord
100
AcDbLayerTableRecord
  2
AM_0
 70
     0
 62
     7
  6
CONTINUOUS
  0
LAYER
  5
BD6
330
2
100
AcDbSymbolTableRecord
100
AcDbLayerTableRecord
  2
AM_11
 70
     0
 62
     3
  6
AM_ISO09W050
  0
LAYER
  5
BD7
330
2
100
AcDbSymbolTableRecord
100
AcDbLayerTableRecord
  2
AM_7
 70
     0
 62
     4
  6
AM_ISO08W050
  0
LAYER
  5
BD8
330
2
100
AcDbSymbolTableRecord
100
AcDbLayerTableRecord
  2
AM_5
 70
     0
 62
     3
  6
CONTINUOUS
  0
LAYER
  5
BD9
330
2
100
AcDbSymbolTableRecord
100
AcDbLayerTableRecord
  2
DEFPOINTS
 70
     0
 62
     7
  6
CONTINUOUS
  0
LAYER
  5
BDA
330
2
100
AcDbSymbolTableRecord
100
AcDbLayerTableRecord
  2
AM_6
 70
     0
 62
     2
  6
CONTINUOUS
  0
ENDTAB
  0
TABLE
  2
STYLE
  5
3
330
0
100
AcDbSymbolTable
 70
     5
  0
STYLE
  5
11
330
3
100
AcDbSymbolTableRecord
100
AcDbTextStyleTableRecord
  2
STANDARD
 70
     0
 40
0.0
 41
1.0
 50
0.0
 71
     0
 42
2.5
  3
simplex.shx
  4
EXTFONT.SHX
  0
STYLE
  5
52
330
3
100
AcDbSymbolTableRecord
100
AcDbTextStyleTableRecord
  2

 70
     1
 40
0.0
 41
1.0
 50
0.0
 71
     0
 42
2.5
  3
ltypeshp.shx
  4

  0
STYLE
  5
6B
330
3
100
AcDbSymbolTableRecord
100
AcDbTextStyleTableRecord
  2
ASAMI
 70
     0
 40
0.0
 41
1.0
 50
0.0
 71
     0
 42
2.5
  3
simplex.shx
  4
EXTFONT.SHX
  0
STYLE
  5
262
330
3
100
AcDbSymbolTableRecord
100
AcDbTextStyleTableRecord
  2
ACJISTS
 70
     0
 40
1.0
 41
1.0
 50
0.0
 71
     0
 42
2.5
  3
simplex.shx
  4
bigfont.shx
  0
STYLE
  5
269
330
3
100
AcDbSymbolTableRecord
100
AcDbTextStyleTableRecord
  2
ACJISGDT
 70
     0
 40
0.0
 41
1.0
 50
0.0
 71
     0
 42
2.5
  3
amgdtans.shx
  4

  0
ENDTAB
  0
TABLE
  2
VIEW
  5
6
330
0
100
AcDbSymbolTable
 70
     0
  0
ENDTAB
  0
TABLE
  2
UCS
  5
7
330
0
100
AcDbSymbolTable
 70
     0
  0
ENDTAB
  0
TABLE
  2
APPID
  5
9
330
0
100
AcDbSymbolTable
 70
    12
  0
APPID
  5
12
330
9
100
AcDbSymbolTableRecord
100
AcDbRegAppTableRecord
  2
ACAD
 70
     0
  0
APPID
  5
30
330
9
100
AcDbSymbolTableRecord
100
AcDbRegAppTableRecord
  2
MCAD_NO_VIS
 70
     0
  0
APPID
  5
31
330
9
100
AcDbSymbolTableRecord
100
AcDbRegAppTableRecord
  2
ACAD_TEMP_GRAPHIC
 70
     0
  0
APPID
  5
2C2
330
9
100
AcDbSymbolTableRecord
100
AcDbRegAppTableRecord
  2
GENIUS_GENDTOL_13
 70
     0
  0
APPID
  5
339
330
9
100
AcDbSymbolTableRecord
100
AcDbRegAppTableRecord
  2
GENIUS_GENODEF_13
 70
     0
  0
APPID
  5
33A
330
9
100
AcDbSymbolTableRecord
100
AcDbRegAppTableRecord
  2
GENIUS_GENOBJ-N-RSBK_13
 70
     0
  0
APPID
  5
33B
330
9
100
AcDbSymbolTableRecord
100
AcDbRegAppTableRecord
  2
GENIUS_GENOBJ-N-LIB_13
 70
     0
  0
APPID
  5
33C
330
9
100
AcDbSymbolTableRecord
100
AcDbRegAppTableRecord
  2
GENIUS_GENSCALE_13
 70
     0
  0
APPID
  5
378
330
9
100
AcDbSymbolTableRecord
100
AcDbRegAppTableRecord
  2
GENIUS_GENDIMSH_14
 70
     0
  0
APPID
  5
BDB
330
9
100
AcDbSymbolTableRecord
100
AcDbRegAppTableRecord
  2
GENIUS_GENOBJ-N-CEN_13
 70
     0
  0
APPID
  5
BDC
330
9
100
AcDbSymbolTableRecord
100
AcDbRegAppTableRecord
  2
GENIUS_GENFIL_13
 70
     0
  0
APPID
  5
BDD
330
9
100
AcDbSymbolTableRecord
100
AcDbRegAppTableRecord
  2
GENIUS_GENOBJ-N-FIL_13
 70
     0
  0
ENDTAB
  0
TABLE
  2
DIMSTYLE
  5
A
330
0
100
AcDbSymbolTable
 70
     8
  0
DIMSTYLE
105
58
102
{ACAD_REACTORS
330
C4F
330
C53
330
C59
330
C6D
102
}
330
A
100
AcDbSymbolTableRecord
100
AcDbDimStyleTableRecord
  2
AM_JIS
 70
     0
  3

  4
"
  5
OPEN30
  6

  7

 40
0.5
 41
2.5
 42
1.0
 43
12.0
 44
1.0
 45
0.0
 46
0.0
 47
0.1
 48
0.1
140
3.2
141
0.0
142
0.0
143
0.0393701
144
1.0
145
0.0
146
0.71
147
1.5
 71
     0
 72
     0
 73
     0
 74
     0
 75
     0
 76
     0
 77
     3
 78
     8
170
     0
171
     2
172
     1
173
     0
174
     0
175
     0
176
   256
177
   256
178
     2
270
     2
271
     3
272
     3
273
     2
274
     2
340
6B
275
     0
280
     0
281
     0
282
     0
283
     0
284
     0
285
     0
286
     0
287
     3
288
     0
  0
DIMSTYLE
105
5F
330
A
100
AcDbSymbolTableRecord
100
AcDbDimStyleTableRecord
  2
AM_JIS$3
 70
     0
  3

  4
"
  5
OPEN30
  6

  7

 40
0.5
 41
2.5
 42
1.0
 43
10.0
 44
1.0
 45
0.0
 46
0.0
 47
0.1
 48
0.1
140
3.2
141
0.0
142
0.0
143
0.0393701
144
1.0
145
0.0
146
0.71
147
1.5
 71
     0
 72
     0
 73
     0
 74
     1
 75
     0
 76
     0
 77
     3
 78
     8
170
     0
171
     2
172
     0
173
     0
174
     0
175
     0
176
   256
177
   256
178
     2
270
     2
271
     2
272
     3
273
     2
274
     2
340
6B
275
     0
280
     0
281
     0
282
     0
283
     0
284
     0
285
     0
286
     0
287
     0
288
     1
  0
DIMSTYLE
105
60
330
A
100
AcDbSymbolTableRecord
100
AcDbDimStyleTableRecord
  2
AM_JIS$4
 70
     0
  3

  4
"
  5
OPEN30
  6

  7

 40
0.5
 41
2.5
 42
1.0
 43
10.0
 44
1.0
 45
0.0
 46
0.0
 47
0.1
 48
0.1
140
3.2
141
0.0
142
0.0
143
0.0393701
144
1.0
145
0.0
146
0.71
147
1.5
 71
     0
 72
     0
 73
     0
 74
     1
 75
     0
 76
     0
 77
     3
 78
     8
170
     0
171
     2
172
     0
173
     0
174
     0
175
     0
176
   256
177
   256
178
     2
270
     2
271
     2
272
     3
273
     2
274
     2
340
6B
275
     0
280
     0
281
     0
282
     0
283
     0
284
     0
285
     0
286
     0
287
     0
288
     1
  0
DIMSTYLE
105
61
330
A
100
AcDbSymbolTableRecord
100
AcDbDimStyleTableRecord
  2
AM_JIS$6
 70
     0
  3

  4
"
  5
OPEN30
  6

  7

 40
0.5
 41
2.5
 42
1.0
 43
10.0
 44
1.0
 45
0.0
 46
0.0
 47
0.1
 48
0.1
140
3.2
141
0.0
142
0.0
143
0.0393701
144
1.0
145
0.0
146
0.71
147
1.5
 71
     0
 72
     0
 73
     0
 74
     0
 75
     0
 76
     0
 77
     0
 78
     8
170
     0
171
     2
172
     1
173
     0
174
     0
175
     0
176
   256
177
   256
178
     2
270
     2
271
     2
272
     2
273
     2
274
     2
340
6B
275
     0
280
     0
281
     0
282
     0
283
     0
284
     0
285
     0
286
     0
287
     3
288
     0
  0
DIMSTYLE
105
62
330
A
100
AcDbSymbolTableRecord
100
AcDbDimStyleTableRecord
  2
AM_JIS$7
 70
     0
  3

  4
"
  5
OPEN30
  6

  7

 40
0.5
 41
2.5
 42
1.0
 43
10.0
 44
1.0
 45
0.0
 46
0.0
 47
0.1
 48
0.1
140
3.2
141
0.0
142
0.0
143
0.0393701
144
1.0
145
0.0
146
0.71
147
1.5
 71
     0
 72
     0
 73
     0
 74
     0
 75
     0
 76
     0
 77
     3
 78
     8
170
     0
171
     2
172
     1
173
     0
174
     0
175
     0
176
   256
177
   256
178
     2
270
     2
271
     2
272
     3
273
     2
274
     2
340
6B
275
     0
280
     0
281
     0
282
     0
283
     0
284
     0
285
     0
286
     0
287
     3
288
     0
  0
DIMSTYLE
105
63
330
A
100
AcDbSymbolTableRecord
100
AcDbDimStyleTableRecord
  2
AM_JIS$SF
 70
     0
  3

  4
"
  5
OPEN30
  6

  7

 40
0.5
 41
2.5
 42
1.0
 43
10.0
 44
1.0
 45
0.0
 46
0.0
 47
0.1
 48
0.1
140
3.2
141
0.0
142
0.0
143
0.0393701
144
1.0
145
0.0
146
0.71
147
1.5
 71
     0
 72
     0
 73
     0
 74
     0
 75
     1
 76
     1
 77
     3
 78
     8
170
     0
171
     2
172
     1
173
     0
174
     0
175
     0
176
   256
177
   256
178
     2
270
     2
271
     2
272
     2
273
     2
274
     2
340
6B
275
     0
280
     0
281
     0
282
     0
283
     0
284
     0
285
     0
286
     0
287
     3
288
     0
  0
DIMSTYLE
105
68
330
A
100
AcDbSymbolTableRecord
100
AcDbDimStyleTableRecord
  2
AM_JIS$SH
 70
     0
  3

  4
"
  5

  6
GENAXEH
  7
OPEN30
 40
0.5
 41
2.5
 42
1.0
 43
10.0
 44
1.0
 45
0.0
 46
0.0
 47
0.1
 48
0.1
140
3.2
141
0.0
142
0.0
143
0.0393701
144
2.0
145
0.0
146
0.71
147
1.5
 71
     0
 72
     0
 73
     0
 74
     0
 75
     1
 76
     1
 77
     3
 78
     8
170
     0
171
     2
172
     1
173
     1
174
     0
175
     0
176
   256
177
   256
178
     2
270
     2
271
     2
272
     2
273
     2
274
     2
340
6B
275
     0
280
     0
281
     0
282
     0
283
     0
284
     0
285
     0
286
     0
287
     3
288
     0
  0
DIMSTYLE
105
B34
330
A
100
AcDbSymbolTableRecord
100
AcDbDimStyleTableRecord
  2
AM_JIS$2
 70
     0
  3

  4
"
  5
OPEN30
  6

  7

 40
0.5
 41
2.5
 42
1.0
 43
12.0
 44
1.0
 45
0.0
 46
0.0
 47
0.1
 48
0.1
140
3.2
141
0.0
142
0.0
143
0.0393701
144
1.0
145
0.0
146
0.71
147
1.5
 71
     0
 72
     0
 73
     0
 74
     0
 75
     0
 76
     0
 77
     3
 78
     8
170
     0
171
     2
172
     1
173
     0
174
     0
175
     0
176
   256
177
   256
178
     2
270
     2
271
     3
272
     3
273
     2
274
     2
340
6B
275
     0
280
     0
281
     0
282
     0
283
     0
284
     0
285
     0
286
     0
287
     3
288
     0
  0
ENDTAB
  0
TABLE
  2
BLOCK_RECORD
  5
1
330
0
100
AcDbSymbolTable
 70
     9
  0
BLOCK_RECORD
  5
1F
102
{ACAD_XDICTIONARY
360
74
102
}
330
1
100
AcDbSymbolTableRecord
100
AcDbBlockTableRecord
  2
*MODEL_SPACE
  0
BLOCK_RECORD
  5
101
102
{ACAD_XDICTIONARY
360
DA6
102
}
330
1
100
AcDbSymbolTableRecord
100
AcDbBlockTableRecord
  2
*PAPER_SPACE
  0
BLOCK_RECORD
  5
59
330
1
100
AcDbSymbolTableRecord
100
AcDbBlockTableRecord
  2
_OPEN30
  0
BLOCK_RECORD
  5
64
330
1
100
AcDbSymbolTableRecord
100
AcDbBlockTableRecord
  2
GENAXEH
  0
BLOCK_RECORD
  5
C75
330
1
100
AcDbSymbolTableRecord
100
AcDbBlockTableRecord
  2
*D5
  0
BLOCK_RECORD
  5
C81
330
1
100
AcDbSymbolTableRecord
100
AcDbBlockTableRecord
  2
*D6
  0
BLOCK_RECORD
  5
C8D
330
1
100
AcDbSymbolTableRecord
100
AcDbBlockTableRecord
  2
*D7
  0
BLOCK_RECORD
  5
C99
330
1
100
AcDbSymbolTableRecord
100
AcDbBlockTableRecord
  2
*D8
  0
ENDTAB
  0
ENDSEC
  0
SECTION
  2
BLOCKS
  0
BLOCK
  5
20
330
1F
100
AcDbEntity
  8
0
100
AcDbBlockBegin
  2
*MODEL_SPACE
 70
     0
 10
0.0
 20
0.0
 30
0.0
  3
*MODEL_SPACE
  1

  0
ENDBLK
  5
21
330
1F
100
AcDbEntity
  8
0
100
AcDbBlockEnd
  0
BLOCK
  5
103
330
101
100
AcDbEntity
 67
     1
  8
0
100
AcDbBlockBegin
  2
*PAPER_SPACE
 70
     0
 10
0.0
 20
0.0
 30
0.0
  3
*PAPER_SPACE
  1

  0
ENDBLK
  5
104
330
101
100
AcDbEntity
 67
     1
  8
0
100
AcDbBlockEnd
  0
BLOCK
  5
5D
330
59
100
AcDbEntity
  8
0
100
AcDbBlockBegin
  2
_OPEN30
 70
     0
 10
0.0
 20
0.0
 30
0.0
  3
_OPEN30
  1

  0
LINE
  5
5A
330
59
100
AcDbEntity
  8
0
 62
     0
100
AcDbLine
 10
-1.0
 20
0.26794919
 30
0.0
 11
0.0
 21
0.0
 31
0.0
  0
LINE
  5
5B
330
59
100
AcDbEntity
  8
0
 62
     0
100
AcDbLine
 10
0.0
 20
0.0
 30
0.0
 11
-1.0
 21
-0.26794919
 31
0.0
  0
LINE
  5
5C
330
59
100
AcDbEntity
  8
0
 62
     0
100
AcDbLine
 10
0.0
 20
0.0
 30
0.0
 11
-1.0
 21
0.0
 31
0.0
  0
ENDBLK
  5
5E
330
59
100
AcDbEntity
  8
0
100
AcDbBlockEnd
  0
BLOCK
  5
66
330
64
100
AcDbEntity
  8
0
100
AcDbBlockBegin
  2
GENAXEH
 70
     0
 10
0.0
 20
0.0
 30
0.0
  3
GENAXEH
  1

  0
LINE
  5
65
330
64
100
AcDbEntity
  8
0
100
AcDbLine
 10
-1.0
 20
0.0
 30
0.0
 11
1.0
 21
0.0
 31
0.0
  0
ENDBLK
  5
67
330
64
100
AcDbEntity
  8
0
100
AcDbBlockEnd
  0
BLOCK
  5
C7F
330
C75
100
AcDbEntity
  8
0
100
AcDbBlockBegin
  2
*D5
 70
     1
 10
0.0
 20
0.0
 30
0.0
  3
*D5
  1

  0
LINE
  5
CA7
330
C75
100
AcDbEntity
  8
AM_5
100
AcDbLine
 10
-40.00000000000006
 20
-2.000000000000003
 30
0.0
 11
-40.00000000000006
 21
-14.50000099999995
 31
0.0
  0
LINE
  5
CA8
330
C75
100
AcDbEntity
  8
AM_5
100
AcDbLine
 10
-0.00000000000006
 20
-1.500000000000003
 30
0.0
 11
-0.0000000000000608
 21
-14.50000099999995
 31
0.0
  0
LINE
  5
CA9
330
C75
100
AcDbEntity
  8
AM_5
100
AcDbLine
 10
-38.75000000000006
 20
-14.00000099999995
 30
0.0
 11
-1.25000000000006
 21
-14.00000099999995
 31
0.0
  0
INSERT
  5
CAA
330
C75
100
AcDbEntity
  8
AM_5
100
AcDbBlockReference
  2
_OPEN30
 10
-40.00000000000006
 20
-14.00000099999995
 30
0.0
 41
1.25
 42
1.25
 43
1.25
 50
180.0
  0
INSERT
  5
CAB
330
C75
100
AcDbEntity
  8
AM_5
100
AcDbBlockReference
  2
_OPEN30
 10
-0.0000000000000607
 20
-14.00000099999995
 30
0.0
 41
1.25
 42
1.25
 43
1.25
  0
MTEXT
  5
CAC
330
C75
100
AcDbEntity
  8
AM_5
 62
     2
100
AcDbMText
 10
-20.00000000000006
 20
-12.45000099999995
 30
0.0
 40
1.6
 41
0.0
 71
     5
 72
     1
  1
40
  7
ASAMI
1001
ACAD
1000
MTEXTBEGIN
1070
    73
1070
     1
1070
    44
1040
1.0
1070
    74
1070
     0
1000
MTEXTEND
  0
POINT
  5
CAD
330
C75
100
AcDbEntity
  8
DEFPOINTS
 62
     0
100
AcDbPoint
 10
-40.00000000000006
 20
-1.500000000000003
 30
0.0
  0
POINT
  5
CAE
330
C75
100
AcDbEntity
  8
DEFPOINTS
 62
     0
100
AcDbPoint
 10
-0.00000000000006
 20
-1.000000000000003
 30
0.0
  0
POINT
  5
CAF
330
C75
100
AcDbEntity
  8
DEFPOINTS
 62
     0
100
AcDbPoint
 10
-0.0000000000000607
 20
-14.00000099999995
 30
0.0
  0
ENDBLK
  5
C80
330
C75
100
AcDbEntity
  8
0
100
AcDbBlockEnd
  0
BLOCK
  5
C8B
330
C81
100
AcDbEntity
  8
0
100
AcDbBlockBegin
  2
*D6
 70
     1
 10
0.0
 20
0.0
 30
0.0
  3
*D6
  1

  0
LINE
  5
CB0
330
C81
100
AcDbEntity
  8
AM_5
100
AcDbLine
 10
-40.00000000000007
 20
-2.000000000000003
 30
0.0
 11
-51.05000100000004
 21
-2.0
 31
0.0
  0
LINE
  5
CB1
330
C81
100
AcDbEntity
  8
AM_5
100
AcDbLine
 10
-40.00000000000007
 20
1.999999999999996
 30
0.0
 11
-51.05000100000004
 21
1.999999999999999
 31
0.0
  0
LINE
  5
CB2
330
C81
100
AcDbEntity
  8
AM_5
100
AcDbLine
 10
-50.55000100000004
 20
-0.7500000000000004
 30
0.0
 11
-50.55000100000004
 21
0.7499999999999995
 31
0.0
  0
INSERT
  5
CB3
330
C81
100
AcDbEntity
  8
AM_5
100
AcDbBlockReference
  2
_OPEN30
 10
-50.55000100000004
 20
-2.0
 30
0.0
 41
1.25
 42
1.25
 43
1.25
 50
270.0
  0
INSERT
  5
CB4
330
C81
100
AcDbEntity
  8
AM_5
100
AcDbBlockReference
  2
_OPEN30
 10
-50.55000100000004
 20
1.999999999999999
 30
0.0
 41
1.25
 42
1.25
 43
1.25
 50
90.0
  0
MTEXT
  5
CB5
330
C81
100
AcDbEntity
  8
AM_5
 62
     2
100
AcDbMText
 10
-52.10000100000003
 20
-0.0000000000000084
 30
0.0
 40
1.6
 41
0.0
 71
     5
 72
     1
  1
%%c4
  7
ASAMI
 11
0.0000000000000001
 21
1.0
 31
0.0
1001
ACAD
1000
MTEXTBEGIN
1070
    73
1070
     1
1070
    44
1040
1.0
1070
    74
1070
     0
1000
MTEXTEND
  0
POINT
  5
CB6
330
C81
100
AcDbEntity
  8
DEFPOINTS
 62
     0
100
AcDbPoint
 10
-39.50000000000007
 20
-2.000000000000003
 30
0.0
  0
POINT
  5
CB7
330
C81
100
AcDbEntity
  8
DEFPOINTS
 62
     0
100
AcDbPoint
 10
-39.50000000000007
 20
1.999999999999996
 30
0.0
  0
POINT
  5
CB8
330
C81
100
AcDbEntity
  8
DEFPOINTS
 62
     0
100
AcDbPoint
 10
-50.55000100000004
 20
1.999999999999999
 30
0.0
  0
ENDBLK
  5
C8C
330
C81
100
AcDbEntity
  8
0
100
AcDbBlockEnd
  0
BLOCK
  5
C97
330
C8D
100
AcDbEntity
  8
0
100
AcDbBlockBegin
  2
*D7
 70
     1
 10
0.0
 20
0.0
 30
0.0
  3
*D7
  1

  0
LINE
  5
CB9
330
C8D
100
AcDbEntity
  8
AM_5
100
AcDbLine
 10
-6.000000000000074
 20
-1.499999999999939
 30
0.0
 11
-6.000000000000075
 21
-8.500001000000038
 31
0.0
  0
LINE
  5
CBA
330
C8D
100
AcDbEntity
  8
AM_5
100
AcDbLine
 10
-0.00000000000006
 20
-1.500000000000003
 30
0.0
 11
-0.0000000000000604
 21
-8.500001000000038
 31
0.0
  0
LINE
  5
CBB
330
C8D
100
AcDbEntity
  8
AM_5
100
AcDbLine
 10
-4.750000000000074
 20
-8.000001000000038
 30
0.0
 11
-1.25000000000006
 21
-8.000001000000038
 31
0.0
  0
INSERT
  5
CBC
330
C8D
100
AcDbEntity
  8
AM_5
100
AcDbBlockReference
  2
_OPEN30
 10
-6.000000000000074
 20
-8.000001000000038
 30
0.0
 41
1.25
 42
1.25
 43
1.25
 50
180.0
  0
INSERT
  5
CBD
330
C8D
100
AcDbEntity
  8
AM_5
100
AcDbBlockReference
  2
_OPEN30
 10
-0.0000000000000604
 20
-8.000001000000038
 30
0.0
 41
1.25
 42
1.25
 43
1.25
  0
MTEXT
  5
CBE
330
C8D
100
AcDbEntity
  8
AM_5
 62
     2
100
AcDbMText
 10
-3.000000000000067
 20
-6.450001000000038
 30
0.0
 40
1.6
 41
0.0
 71
     5
 72
     1
  1
6
  7
ASAMI
1001
ACAD
1000
MTEXTBEGIN
1070
    73
1070
     1
1070
    44
1040
1.0
1070
    74
1070
     0
1000
MTEXTEND
  0
POINT
  5
CBF
330
C8D
100
AcDbEntity
  8
DEFPOINTS
 62
     0
100
AcDbPoint
 10
-6.000000000000074
 20
-0.9999999999999396
 30
0.0
  0
POINT
  5
CC0
330
C8D
100
AcDbEntity
  8
DEFPOINTS
 62
     0
100
AcDbPoint
 10
-0.00000000000006
 20
-1.000000000000003
 30
0.0
  0
POINT
  5
CC1
330
C8D
100
AcDbEntity
  8
DEFPOINTS
 62
     0
100
AcDbPoint
 10
-0.0000000000000604
 20
-8.000001000000038
 30
0.0
  0
ENDBLK
  5
C98
330
C8D
100
AcDbEntity
  8
0
100
AcDbBlockEnd
  0
BLOCK
  5
CA5
330
C99
100
AcDbEntity
  8
0
100
AcDbBlockBegin
  2
*D8
 70
     1
 10
0.0
 20
0.0
 30
0.0
  3
*D8
  1

  0
LINE
  5
CC2
330
C99
100
AcDbEntity
  8
AM_5
100
AcDbLine
 10
0.4999999999999398
 20
-1.000000000000003
 30
0.0
 11
7.829530889074513
 21
-1.000000000000005
 31
0.0
  0
LINE
  5
CC3
330
C99
100
AcDbEntity
  8
AM_5
100
AcDbLine
 10
0.4999999999999894
 20
0.9999999999999962
 30
0.0
 11
7.829530889074513
 21
0.9999999999999943
 31
0.0
  0
LINE
  5
CC4
330
C99
100
AcDbEntity
  8
AM_5
100
AcDbLine
 10
7.329530889074512
 20
-2.250000000000005
 30
0.0
 11
7.329530889074512
 21
-3.500000000000005
 31
0.0
  0
LINE
  5
CC5
330
C99
100
AcDbEntity
  8
AM_5
100
AcDbLine
 10
7.329530889074514
 20
2.249999999999994
 30
0.0
 11
7.329530889074515
 21
7.514285714285708
 31
0.0
  0
LINE
  5
CC6
330
C99
100
AcDbEntity
  8
AM_5
100
AcDbLine
 10
7.329530889074513
 20
-1.000000000000005
 30
0.0
 11
7.329530889074513
 21
0.9999999999999943
 31
0.0
  0
INSERT
  5
CC7
330
C99
100
AcDbEntity
  8
AM_5
100
AcDbBlockReference
  2
_OPEN30
 10
7.329530889074513
 20
-1.000000000000005
 30
0.0
 41
1.25
 42
1.25
 43
1.25
 50
90.0
  0
INSERT
  5
CC8
330
C99
100
AcDbEntity
  8
AM_5
100
AcDbBlockReference
  2
_OPEN30
 10
7.329530889074513
 20
0.9999999999999943
 30
0.0
 41
1.25
 42
1.25
 43
1.25
 50
270.0
  0
MTEXT
  5
CC9
330
C99
100
AcDbEntity
  8
AM_5
 62
     2
100
AcDbMText
 10
5.779530889074512
 20
5.507142857142852
 30
0.0
 40
1.6
 41
0.0
 71
     5
 72
     1
  1
%%c2
  7
ASAMI
 11
0.0000000000000001
 21
1.0
 31
0.0
1001
ACAD
1000
MTEXTBEGIN
1070
    73
1070
     1
1070
    44
1040
1.0
1070
    74
1070
     0
1000
MTEXTEND
  0
POINT
  5
CCA
330
C99
100
AcDbEntity
  8
DEFPOINTS
 62
     0
100
AcDbPoint
 10
-0.0000000000000602
 20
-1.000000000000003
 30
0.0
  0
POINT
  5
CCB
330
C99
100
AcDbEntity
  8
DEFPOINTS
 62
     0
100
AcDbPoint
 10
-0.0000000000000107
 20
0.9999999999999964
 30
0.0
  0
POINT
  5
CCC
330
C99
100
AcDbEntity
  8
DEFPOINTS
 62
     0
100
AcDbPoint
 10
7.329530889074513
 20
0.9999999999999943
 30
0.0
  0
ENDBLK
  5
CA6
330
C99
100
AcDbEntity
  8
0
100
AcDbBlockEnd
  0
ENDSEC
  0
SECTION
  2
ENTITIES
  0
SPLINE
  5
C2C
330
1F
100
AcDbEntity
  8
AM_0
100
AcDbSpline
210
0.0
220
0.0
230
1.0
 70
     8
 71
     3
 72
     8
 73
     4
 74
     0
 42
0.0000000001
 43
0.0000000001
 40
0.0
 40
0.0
 40
0.0
 40
0.0
 40
6.726812023537138
 40
6.726812023537138
 40
6.726812023537138
 40
6.726812023537138
 10
-2.269560425636424
 20
-0.9999999999998863
 30
0.0
 10
-2.805241350524821
 20
-0.9999999999998863
 30
0.0
 10
-3.074928357310511
 20
-0.4999999999998828
 30
0.0
 10
-3.3446153640962
 20
0.0000000000001172
 30
0.0
  0
SPLINE
  5
C2D
330
1F
100
AcDbEntity
  8
AM_0
100
AcDbSpline
210
0.0
220
0.0
230
1.0
 70
     8
 71
     3
 72
     8
 73
     4
 74
     0
 42
0.0000000001
 43
0.0000000001
 40
0.3982504941345976
 40
0.3982504941345976
 40
0.3982504941345976
 40
0.3982504941345976
 40
6.452065446090842
 40
6.452065446090842
 40
6.452065446090842
 40
6.452065446090842
 10
-4.419670302555946
 20
1.000000000000117
 30
0.0
 10
-3.503398156031623
 20
0.867671985285856
 30
0.0
 10
-3.240093138734623
 20
0.4338359926430009
 30
0.0
 10
-2.976788121437503
 20
0.0000000000001457
 30
0.0
  0
SPLINE
  5
C2F
330
1F
100
AcDbEntity
  8
AM_0
100
AcDbSpline
210
0.0
220
0.0
230
1.0
 70
     8
 71
     3
 72
     8
 73
     4
 74
     0
 42
0.0000000001
 43
0.0000000001
 40
0.0
 40
0.0
 40
0.0
 40
0.0
 40
6.726812023537159
 40
6.726812023537159
 40
6.726812023537159
 40
6.726812023537159
 10
-4.419670302555946
 20
1.000000000000117
 30
0.0
 10
-3.883989377667489
 20
1.000000000000117
 30
0.0
 10
-3.61430237088189
 20
0.5000000000001173
 30
0.0
 10
-3.3446153640962
 20
0.0000000000001172
 30
0.0
  0
SPLINE
  5
C30
330
1F
100
AcDbEntity
  8
AM_0
100
AcDbSpline
210
0.0
220
0.0
230
1.0
 70
     8
 71
     3
 72
     8
 73
     4
 74
     0
 42
0.0000000001
 43
0.0000000001
 40
0.0
 40
0.0
 40
0.0
 40
0.0
 40
2.65269546380069
 40
2.65269546380069
 40
2.65269546380069
 40
2.65269546380069
 10
-4.051843059896864
 20
-0.9247518266135692
 30
0.0
 10
-3.840599107408742
 20
-0.9247518266135692
 30
0.0
 10
-3.668769996432943
 20
-0.8465940018881461
 30
0.0
 10
-3.520150750104208
 20
-0.722412079046503
 30
0.0
  0
SPLINE
  5
C31
330
1F
100
AcDbEntity
  8
AM_0
100
AcDbSpline
210
0.0
220
0.0
230
1.0
 70
     8
 71
     3
 72
     8
 73
     4
 74
     0
 42
0.0000000001
 43
0.0000000001
 40
0.0
 40
0.0
 40
0.0
 40
0.0
 40
1.274172826456642
 40
1.274172826456642
 40
1.274172826456642
 40
1.274172826456642
 10
-4.237391083897859
 20
-0.9700769615890543
 30
0.0
 10
-4.135923988376882
 20
-0.9700769615890543
 30
0.0
 10
-4.043832430676502
 20
-0.9520884807613434
 30
0.0
 10
-3.959310878187782
 20
-0.9195757245030016
 30
0.0
  0
SPLINE
  5
C32
330
1F
100
AcDbEntity
  8
AM_0
100
AcDbSpline
210
0.0
220
0.0
230
1.0
 70
     8
 71
     3
 72
     8
 73
     4
 74
     0
 42
0.0000000001
 43
0.0000000001
 40
0.0
 40
0.0
 40
0.0
 40
0.0
 40
0.9875149967633806
 40
0.9875149967633806
 40
0.9875149967633806
 40
0.9875149967633806
 10
-4.4196703025558
 20
-0.9999999999998259
 30
0.0
 10
-4.341030830402141
 20
-0.9999999999998259
 30
0.0
 10
-4.268123811511122
 20
-0.9892244655375712
 30
0.0
 10
-4.200107705559265
 20
-0.9692552754945857
 30
0.0
  0
SPLINE
  5
C33
330
1F
100
AcDbEntity
  8
AM_0
100
AcDbSpline
210
0.0
220
0.0
230
1.0
 70
     8
 71
     3
 72
     8
 73
     4
 74
     0
 42
0.0000000001
 43
0.0000000001
 40
0.0
 40
0.0
 40
0.0
 40
0.0
 40
2.65269546380069
 40
2.65269546380069
 40
2.65269546380069
 40
2.65269546380069
 10
-6.03459420422055
 20
-0.896535345058119
 30
0.0
 10
-5.99637827024684
 20
-0.9034280493699924
 30
0.0
 10
-5.828934983366792
 20
-0.8270369929192291
 30
0.0
 10
-5.670260627023287
 20
-0.722412079046471
 30
0.0
  0
SPLINE
  5
C35
330
1F
100
AcDbEntity
  8
AM_0
100
AcDbSpline
210
0.0
220
0.0
230
1.0
 70
     8
 71
     3
 72
     8
 73
     4
 74
     0
 42
0.0000000001
 43
0.0000000001
 40
0.0
 40
0.0
 40
0.0
 40
0.0
 40
6.452065446090504
 40
6.452065446090504
 40
6.452065446090504
 40
6.452065446090504
 10
-4.051843059896864
 20
-0.9247518266135692
 30
0.0
 10
-4.56564489849573
 20
-0.9247518266135692
 30
0.0
 10
-4.846271448426126
 20
-0.4623759133067083
 30
0.0
 10
-5.12689799835655
 20
0.0000000000001776
 30
0.0
  0
SPLINE
  5
C37
330
1F
100
AcDbEntity
  8
AM_0
100
AcDbSpline
210
0.0
220
0.0
230
1.0
 70
     8
 71
     3
 72
     8
 73
     4
 74
     0
 42
0.0000000001
 43
0.0000000001
 40
0.0
 40
0.0
 40
0.0
 40
0.0
 40
6.726812023537159
 40
6.726812023537159
 40
6.726812023537159
 40
6.726812023537159
 10
-4.419670302555472
 20
-0.9999999999998827
 30
0.0
 10
-4.9553512274439
 20
-0.9999999999998792
 30
0.0
 10
-5.22503823422959
 20
-0.4999999999998508
 30
0.0
 10
-5.494725241015279
 20
0.0000000000001492
 30
0.0
  0
SPLINE
  5
C38
330
1F
100
AcDbEntity
  8
AM_0
100
AcDbSpline
210
0.0
220
0.0
230
1.0
 70
     8
 71
     3
 72
     8
 73
     4
 74
     0
 42
0.0000000001
 43
0.0000000001
 40
0.0
 40
0.0
 40
0.0
 40
0.0
 40
1.274172826456642
 40
1.274172826456642
 40
1.274172826456642
 40
1.274172826456642
 10
-6.423244194391852
 20
-0.9999999999999644
 30
0.0
 10
-6.286033865295811
 20
-0.9700769615890223
 30
0.0
 10
-6.193942307595401
 20
-0.9520884807613114
 30
0.0
 10
-6.075877008179205
 20
-0.9002092331846469
 30
0.0
  0
SPLINE
  5
C39
330
1F
100
AcDbEntity
  8
AM_0
100
AcDbSpline
210
0.0
220
0.0
230
1.0
 70
     8
 71
     3
 72
     8
 73
     4
 74
     0
 42
0.0000000001
 43
0.0000000001
 40
0.0
 40
0.0
 40
0.0
 40
0.0
 40
3.69259279141909
 40
3.69259279141909
 40
3.69259279141909
 40
3.69259279141909
 10
-4.4196703025552
 20
0.9999999999999182
 30
0.0
 10
-4.713725125972622
 20
0.9999999999999467
 30
0.0
 10
-4.927627655090844
 20
0.8493343478095098
 30
0.0
 10
-5.105376411513924
 20
0.6307089224165239
 30
0.0
  0
SPLINE
  5
C3B
330
1F
100
AcDbEntity
  8
AM_0
100
AcDbSpline
210
0.0
220
0.0
230
1.0
 70
     8
 71
     3
 72
     8
 73
     4
 74
     0
 42
0.0000000001
 43
0.0000000001
 40
0.3982504941345976
 40
0.3982504941345976
 40
0.3982504941345976
 40
0.3982504941345976
 40
6.452065446090842
 40
6.452065446090842
 40
6.452065446090842
 40
6.452065446090842
 10
-6.350217582457142
 20
0.9999999999999964
 30
0.0
 10
-5.734931035902434
 20
1.000000000000057
 30
0.0
 10
-5.390203015653611
 20
0.4338359926430329
 30
0.0
 10
-5.12689799835655
 20
0.0000000000001776
 30
0.0
  0
SPLINE
  5
C3D
330
1F
100
AcDbEntity
  8
AM_0
100
AcDbSpline
210
0.0
220
0.0
230
1.0
 70
     8
 71
     3
 72
     8
 73
     4
 74
     0
 42
0.0000000001
 43
0.0000000001
 40
0.0
 40
0.0
 40
0.0
 40
0.0
 40
6.4520654460908
 40
6.4520654460908
 40
6.4520654460908
 40
6.4520654460908
 10
-1.901733182977726
 20
-0.9247518266135728
 30
0.0
 10
-2.415535021576621
 20
-0.9247518266135728
 30
0.0
 10
-2.696161571507077
 20
-0.4623759133067154
 30
0.0
 10
-2.976788121437503
 20
0.0000000000001457
 30
0.0
  0
SPLINE
  5
C3E
330
1F
100
AcDbEntity
  8
AM_0
100
AcDbSpline
210
0.0
220
0.0
230
1.0
 70
     8
 71
     3
 72
     8
 73
     4
 74
     0
 42
0.0000000001
 43
0.0000000001
 40
0.0
 40
0.0
 40
0.0
 40
0.0
 40
0.0681566725481266
 40
0.0681566725481266
 40
0.0681566725481266
 40
0.0681566725481266
 10
-0.1194505487175852
 20
-0.999999999999833
 30
0.0
 10
-0.1140229807611945
 20
-0.999999999999833
 30
0.0
 10
-0.1086227195465319
 20
-0.9999486703643221
 30
0.0
 10
-0.1032494883991031
 20
-0.9998465311698829
 30
0.0
  0
SPLINE
  5
C3F
330
1F
100
AcDbEntity
  8
AM_0
100
AcDbSpline
210
0.0
220
0.0
230
1.0
 70
     8
 71
     3
 72
     8
 73
     4
 74
     0
 42
0.0000000001
 43
0.0000000001
 40
1.28030251894658
 40
1.28030251894658
 40
1.28030251894658
 40
1.28030251894658
 40
6.452065446090842
 40
6.452065446090842
 40
6.452065446090842
 40
6.452065446090842
 10
-0.03176659916611
 20
-0.8737455183031705
 30
0.0
 10
-0.3767962650409329
 20
-0.7412505737347353
 30
0.0
 10
-0.6017372547798584
 20
-0.3706252868672983
 30
0.0
 10
-0.8266782445184546
 20
0.0000000000001386
 30
0.0
  0
ELLIPSE
  5
C41
330
1F
100
AcDbEntity
  8
AM_0
100
AcDbEllipse
 10
2.976080761750188
 20
-0.2119003087976345
 30
0.0
 11
3.110009469555733
 21
0.000000000000052
 31
0.0
210
0.0
220
0.0
230
1.0
 40
0.8371665184752462
 41
2.983510693476356
 42
3.436131081000469
  0
SPLINE
  5
C42
330
1F
100
AcDbEntity
  8
AM_0
100
AcDbSpline
210
0.0
220
0.0
230
1.0
 70
     8
 71
     3
 72
     8
 73
     4
 74
     0
 42
0.0000000001
 43
0.0000000001
 40
0.0
 40
0.0
 40
0.0
 40
0.0
 40
1.274172826456642
 40
1.274172826456642
 40
1.274172826456642
 40
1.274172826456642
 10
-2.087281206978811
 20
-0.9700769615890578
 30
0.0
 10
-1.985814111457865
 20
-0.9700769615890578
 30
0.0
 10
-1.893722553757454
 20
-0.952088480761347
 30
0.0
 10
-1.809201001268763
 20
-0.9195757245029767
 30
0.0
  0
SPLINE
  5
C43
330
1F
100
AcDbEntity
  8
AM_0
100
AcDbSpline
210
0.0
220
0.0
230
1.0
 70
     8
 71
     3
 72
     8
 73
     4
 74
     0
 42
0.0000000001
 43
0.0000000001
 40
0.0
 40
0.0
 40
0.0
 40
0.0
 40
0.9875149967633806
 40
0.9875149967633806
 40
0.9875149967633806
 40
0.9875149967633806
 10
-2.269560425636723
 20
-0.9999999999998294
 30
0.0
 10
-2.190920953483213
 20
-0.9999999999998294
 30
0.0
 10
-2.118013934592104
 20
-0.9892244655375748
 30
0.0
 10
-2.049997828640246
 20
-0.9692552754945893
 30
0.0
  0
SPLINE
  5
C44
330
1F
100
AcDbEntity
  8
AM_0
100
AcDbSpline
210
0.0
220
0.0
230
1.0
 70
     8
 71
     3
 72
     8
 73
     4
 74
     0
 42
0.0000000001
 43
0.0000000001
 40
0.0
 40
0.0
 40
0.0
 40
0.0
 40
6.726812023536833
 40
6.726812023536833
 40
6.726812023536833
 40
6.726812023536833
 10
-0.1194505487174058
 20
-0.9999999999998898
 30
0.0
 10
-0.6551314736057435
 20
-0.9999999999998898
 30
0.0
 10
-0.9248184803914028
 20
-0.4999999999998899
 30
0.0
 10
-1.194505487177092
 20
0.0000000000001137
 30
0.0
  0
SPLINE
  5
C45
330
1F
100
AcDbEntity
  8
AM_0
100
AcDbSpline
210
0.0
220
0.0
230
1.0
 70
     8
 71
     3
 72
     8
 73
     4
 74
     0
 42
0.0000000001
 43
0.0000000001
 40
0.0
 40
0.0
 40
0.0
 40
0.0
 40
2.65269546380069
 40
2.65269546380069
 40
2.65269546380069
 40
2.65269546380069
 10
-1.901733182977726
 20
-0.9247518266135728
 30
0.0
 10
-1.690489230489754
 20
-0.9247518266135728
 30
0.0
 10
-1.518660119513925
 20
-0.8465940018881497
 30
0.0
 10
-1.37004087318519
 20
-0.7224120790465065
 30
0.0
  0
SPLINE
  5
C47
330
1F
100
AcDbEntity
  8
AM_0
100
AcDbSpline
210
0.0
220
0.0
230
1.0
 70
     8
 71
     3
 72
     8
 73
     4
 74
     0
 42
0.0000000001
 43
0.0000000001
 40
0.0
 40
0.0
 40
0.0
 40
0.0
 40
3.69259279141909
 40
3.69259279141909
 40
3.69259279141909
 40
3.69259279141909
 10
-2.269560425636031
 20
0.9999999999999147
 30
0.0
 10
-2.563615249053454
 20
0.9999999999999431
 30
0.0
 10
-2.777517778171676
 20
0.8493343478095027
 30
0.0
 10
-2.955266534594846
 20
0.6307089224164919
 30
0.0
  0
SPLINE
  5
C48
330
1F
100
AcDbEntity
  8
AM_0
100
AcDbSpline
210
0.0
220
0.0
230
1.0
 70
     8
 71
     3
 72
     8
 73
     4
 74
     0
 42
0.0000000001
 43
0.0000000001
 40
0.0
 40
0.0
 40
0.0
 40
0.0
 40
2.409481403939399
 40
2.409481403939399
 40
2.409481403939399
 40
2.409481403939399
 10
-0.119450548716983
 20
0.9999999999999111
 30
0.0
 10
-0.081313211045402
 20
0.8425728204307425
 30
0.0
 10
-0.1498251565297441
 20
0.5554716634486816
 30
0.0
 10
-0.3417010737468984
 20
0.5554716634486816
 30
0.0
  0
SPLINE
  5
C49
330
1F
100
AcDbEntity
  8
AM_0
100
AcDbSpline
210
0.0
220
0.0
230
1.0
 70
     8
 71
     3
 72
     8
 73
     4
 74
     0
 42
0.0000000001
 43
0.0000000001
 40
0.0
 40
0.0
 40
0.0
 40
0.0
 40
3.69259279141909
 40
3.69259279141909
 40
3.69259279141909
 40
3.69259279141909
 10
-0.119450548716983
 20
0.9999999999999111
 30
0.0
 10
-0.4135053721344058
 20
0.9999999999999396
 30
0.0
 10
-0.6274079012526583
 20
0.8493343478094992
 30
0.0
 10
-0.8051566576758272
 20
0.6307089224164848
 30
0.0
  0
SPLINE
  5
C4A
330
1F
100
AcDbEntity
  8
AM_0
100
AcDbSpline
210
0.0
220
0.0
230
1.0
 70
     8
 71
     3
 72
     8
 73
     4
 74
     0
 42
0.0000000001
 43
0.0000000001
 40
0.0
 40
0.0
 40
0.0
 40
0.0
 40
6.726812023537463
 40
6.726812023537463
 40
6.726812023537463
 40
6.726812023537463
 10
-2.269560425636868
 20
1.000000000000113
 30
0.0
 10
-1.733879500748441
 20
1.000000000000113
 30
0.0
 10
-1.464192493962811
 20
0.5000000000001137
 30
0.0
 10
-1.194505487177092
 20
0.0000000000001137
 30
0.0
  0
SPLINE
  5
C4C
330
1F
100
AcDbEntity
  8
AM_0
100
AcDbSpline
210
0.0
220
0.0
230
1.0
 70
     8
 71
     3
 72
     8
 73
     4
 74
     0
 42
0.0000000001
 43
0.0000000001
 40
0.3982504941345976
 40
0.3982504941345976
 40
0.3982504941345976
 40
0.3982504941345976
 40
6.452065446090842
 40
6.452065446090842
 40
6.452065446090842
 40
6.452065446090842
 10
-2.269560425633549
 20
1.00000000000002
 30
0.0
 10
-1.353288279112575
 20
0.8676719852858809
 30
0.0
 10
-1.089983261815544
 20
0.4338359926429974
 30
0.0
 10
-0.8266782445184546
 20
0.0000000000001386
 30
0.0
  0
SPLINE
  5
C4D
330
1F
100
AcDbEntity
  8
AM_0
100
AcDbSpline
210
0.0
220
0.0
230
1.0
 70
     8
 71
     3
 72
     8
 73
     4
 74
     0
 42
0.0000000001
 43
0.0000000001
 40
0.0
 40
0.0
 40
0.0
 40
0.0
 40
3.513493495898223
 40
3.513493495898223
 40
3.513493495898223
 40
3.513493495898223
 10
-6.03459420422055
 20
-0.896535345058119
 30
0.0
 10
-6.18148676017852
 20
-0.9247518266135514
 30
0.0
 10
-6.381730663685678
 20
-0.7876396636194514
 30
0.0
 10
-6.552037812263298
 20
-0.5880802177247873
 30
0.0
  0
ELLIPSE
  5
C4E
330
1F
100
AcDbEntity
  8
AM_0
100
AcDbEllipse
 10
-6.601615636436141
 20
-0.1463698927143824
 30
0.0
 11
0.2271025439460539
 21
0.0000000000000952
 31
0.0
210
0.0
220
0.0
230
1.0
 40
0.8806594436366706
 41
2.701677381627937
 42
3.707543945116097
1001
GENIUS_GENODEF_13
1002
{
1000
HIER
1070
     0
1002
}
1002
{
1000
MANEDIT
1070
     0
1002
}
1002
{
1000
NOSEL
1070
     0
1002
}
1002
{
1000
BEHIND
1070
     0
1002
}
1002
{
1000
REACTOR
1002
}
1001
GENIUS_GENOBJ-N-FIL_13
1002
{
1000
OWNER
1000
GEN
1002
}
  0
DIMENSION
  5
C4F
330
1F
100
AcDbEntity
  8
AM_5
100
AcDbDimension
  2
*D5
 10
-0.0000000000000607
 20
-14.00000099999995
 30
0.0
 11
-20.00000000000006
 21
-12.45000099999995
 31
0.0
 70
    32
  1
<>
  3
AM_JIS
100
AcDbAlignedDimension
 13
-40.00000000000006
 23
-1.500000000000003
 33
0.0
 14
-0.00000000000006
 24
-1.000000000000003
 34
0.0
 50
0.0000000000002036
100
AcDbRotatedDimension
1001
GENIUS_GENDTOL_13
1000

1000
H7
1000

1040
0.0
  0
LINE
  5
C50
330
1F
100
AcDbEntity
  8
AM_7
100
AcDbLine
 10
-43.00000000000006
 20
-0.0000000000000036
 30
0.0
 11
1.32952988907452
 21
-0.0000000000000036
 31
0.0
1001
GENIUS_GENODEF_13
1002
{
1000
HIER
1070
     0
1002
}
1002
{
1000
MANEDIT
1070
     0
1002
}
1002
{
1000
NOSEL
1070
     0
1002
}
1002
{
1000
BEHIND
1070
     0
1002
}
1002
{
1000
REACTOR
1002
}
1001
GENIUS_GENOBJ-N-CEN_13
1002
{
1000
OWNER
1000
GEN
1002
}
  0
LINE
  5
C51
330
1F
100
AcDbEntity
  8
AM_0
100
AcDbLine
 10
-39.50000000000007
 20
1.999999999999996
 30
0.0
 11
-12.50000000000007
 21
1.999999999999996
 31
0.0
1001
GENIUS_GENODEF_13
1002
{
1000
HIER
1070
     0
1002
}
1002
{
1000
MANEDIT
1070
     0
1002
}
1002
{
1000
NOSEL
1070
     0
1002
}
1002
{
1000
BEHIND
1070
     0
1002
}
1002
{
1000
REACTOR
1002
}
1001
GENIUS_GENOBJ-N-CEN_13
1002
{
1000
OWNER
1000
GEN
1002
}
  0
LINE
  5
C52
330
1F
100
AcDbEntity
  8
AM_0
100
AcDbLine
 10
-39.50000000000007
 20
-2.000000000000003
 30
0.0
 11
-12.50000000000007
 21
-2.000000000000003
 31
0.0
1001
GENIUS_GENODEF_13
1002
{
1000
HIER
1070
     0
1002
}
1002
{
1000
MANEDIT
1070
     0
1002
}
1002
{
1000
NOSEL
1070
     0
1002
}
1002
{
1000
BEHIND
1070
     0
1002
}
1002
{
1000
REACTOR
1002
}
1001
GENIUS_GENOBJ-N-CEN_13
1002
{
1000
OWNER
1000
GEN
1002
}
  0
DIMENSION
  5
C53
330
1F
100
AcDbEntity
  8
AM_5
100
AcDbDimension
  2
*D6
 10
-50.55000100000004
 20
1.999999999999999
 30
0.0
 11
-50.55000100000004
 21
-0.0000000000000086
 31
0.0
 70
   160
  1
%%c<>
  3
AM_JIS
100
AcDbAlignedDimension
 13
-39.50000000000007
 23
-2.000000000000003
 33
0.0
 14
-39.50000000000007
 24
1.999999999999996
 34
0.0
 50
270.0
100
AcDbRotatedDimension
1001
ACAD
1000
DSTYLE
1002
{
1070
    48
1040
0.1
1070
    47
1040
0.1
1070
   274
1070
     2
1070
   272
1070
     3
1002
}
1001
GENIUS_GENDTOL_13
1000

1000
h6
1000

1040
0.0
  0
LINE
  5
C54
330
1F
100
AcDbEntity
  8
0
100
AcDbLine
 10
-39.50000000000007
 20
-2.000000000000003
 30
0.0
 11
-39.50000000000007
 21
1.999999999999996
 31
0.0
  0
LINE
  5
C55
330
1F
100
AcDbEntity
  8
AM_0
100
AcDbLine
 10
-40.00000000000007
 20
-1.500000000000003
 30
0.0
 11
-40.00000000000007
 21
1.499999999999996
 31
0.0
  0
LINE
  5
C56
330
1F
100
AcDbEntity
  8
AM_0
100
AcDbLine
 10
-40.00000000000007
 20
-1.500000000000003
 30
0.0
 11
-39.50000000000007
 21
-2.000000000000003
 31
0.0
1001
GENIUS_GENFIL_13
1070
     0
1040
0.5
1040
0.5
1040
0.4999999999999716
1040
45.00000000000036
1002
{
1002
}
  0
LINE
  5
C57
330
1F
100
AcDbEntity
  8
AM_0
100
AcDbLine
 10
-40.00000000000007
 20
1.499999999999996
 30
0.0
 11
-39.50000000000007
 21
1.999999999999996
 31
0.0
1001
GENIUS_GENFIL_13
1070
     0
1040
0.5
1040
0.5
1040
0.4999999999999716
1040
45.0
1002
{
1002
}
  0
TEXT
  5
C58
330
1F
100
AcDbEntity
  8
AM_6
100
AcDbText
 10
-30.71428571428575
 20
-25.25000099999999
 30
0.0
 40
2.5
  1
HSM2020ZX
 50
0.0000000000002036
 72
     4
 11
-20.00000000000004
 21
-24.00000099999995
 31
0.0
100
AcDbText
  0
DIMENSION
  5
C59
330
1F
100
AcDbEntity
  8
AM_5
100
AcDbDimension
  2
*D7
 10
-0.0000000000000604
 20
-8.000001000000038
 30
0.0
 11
-3.000000000000067
 21
-6.450001000000038
 31
0.0
 70
    32
  1
<>
  3
AM_JIS
100
AcDbAlignedDimension
 13
-6.000000000000074
 23
-0.9999999999999396
 33
0.0
 14
-0.00000000000006
 24
-1.000000000000003
 34
0.0
 50
359.9999999999993
100
AcDbRotatedDimension
1001
GENIUS_GENDTOL_13
1000

1000
H7
1000

1040
0.0
  0
LINE
  5
C5A
330
1F
100
AcDbEntity
  8
AM_11
 48
0.3
100
AcDbLine
 10
-0.000000000000012
 20
0.9999999999999964
 30
0.0
 11
-6.000000000000072
 21
1.00000000000006
 31
0.0
  0
LINE
  5
C5B
330
1F
100
AcDbEntity
  8
AM_11
 48
0.3
100
AcDbLine
 10
-6.000000000000072
 20
-0.9999999999999396
 30
0.0
 11
-0.0000000000000617
 21
-1.000000000000003
 31
0.0
  0
LINE
  5
C5C
330
1F
100
AcDbEntity
  8
AM_0
100
AcDbLine
 10
-0.8051566576763683
 20
-0.6307089224164919
 30
0.0
 11
-1.370040873201185
 21
-0.7224120790598647
 31
0.0
  0
LINE
  5
C5D
330
1F
100
AcDbEntity
  8
AM_0
100
AcDbLine
 10
-0.3417010737468984
 20
0.5554716634486816
 30
0.0
 11
-1.370040873201689
 21
0.7224120790602627
 31
0.0
  0
LINE
  5
C5E
330
1F
100
AcDbEntity
  8
AM_11
 48
0.15
100
AcDbLine
 10
-6.000000000000072
 20
-0.9999999999999396
 30
0.0
 11
-6.000000000000072
 21
1.00000000000006
 31
0.0
  0
LINE
  5
C5F
330
1F
100
AcDbEntity
  8
0
100
AcDbLine
 10
-1.558072359161607
 20
0.598209822521028
 30
0.0
 11
-1.194505487177001
 21
0.0
 31
0.0
  0
LINE
  5
C60
330
1F
100
AcDbEntity
  8
0
100
AcDbLine
 10
-6.828718180382439
 20
0.9999999999999964
 30
0.0
 11
-6.828718180382013
 21
-0.9999999999999751
 31
0.0
  0
LINE
  5
C61
330
1F
100
AcDbEntity
  8
AM_0
100
AcDbLine
 10
-12.50000000000007
 20
-2.000000000000003
 30
0.0
 11
-12.50000000000007
 21
1.999999999999996
 31
0.0
  0
LINE
  5
C62
330
1F
100
AcDbEntity
  8
0
100
AcDbLine
 10
-12.5000000000001
 20
-1.999999999999975
 30
0.0
 11
-6.828718180382013
 21
-0.9999999999999751
 31
0.0
  0
LINE
  5
C64
330
1F
100
AcDbEntity
  8
AM_0
100
AcDbLine
 10
-6.793308097787095
 20
-0.2536136974354477
 30
0.0
 11
-6.552037812263298
 21
-0.5880802177247873
 31
0.0
  0
LINE
  5
C65
330
1F
100
AcDbEntity
  8
AM_0
100
AcDbLine
 10
-6.423244194391854
 20
-0.9999999999999644
 30
0.0
 11
-6.828718180382184
 21
-1.000000000000003
 31
0.0
  0
LINE
  5
C66
330
1F
100
AcDbEntity
  8
AM_0
100
AcDbLine
 10
-2.955266534595507
 20
-0.6307089224164848
 30
0.0
 11
-3.520150750120174
 21
-0.7224120790598612
 31
0.0
  0
LINE
  5
C67
330
1F
100
AcDbEntity
  8
AM_0
100
AcDbLine
 10
-5.105376411514525
 20
-0.6307089224164529
 30
0.0
 11
-5.670260627039342
 21
-0.7224120790598292
 31
0.0
  0
LINE
  5
C68
330
1F
100
AcDbEntity
  8
AM_0
100
AcDbLine
 10
-5.105376411514436
 20
-0.6307089224164529
 30
0.0
 11
-5.670260627039136
 21
-0.7224120790598292
 31
0.0
  0
LINE
  5
C69
330
1F
100
AcDbEntity
  8
0
100
AcDbLine
 10
-12.50000000000007
 20
1.999999999999996
 30
0.0
 11
-6.828718180382326
 21
0.9999999999999964
 31
0.0
  0
LINE
  5
C6A
330
1F
100
AcDbEntity
  8
AM_0
100
AcDbLine
 10
-6.350217582457142
 20
0.9999999999999964
 30
0.0
 11
-6.828718180382439
 21
0.9999999999999964
 31
0.0
  0
LINE
  5
C6B
330
1F
100
AcDbEntity
  8
AM_0
100
AcDbLine
 10
-2.491810950665976
 20
0.5554716634486852
 30
0.0
 11
-3.520150750120771
 21
0.7224120790602662
 31
0.0
  0
LINE
  5
C6C
330
1F
100
AcDbEntity
  8
AM_0
100
AcDbLine
 10
-4.641920827585115
 20
0.5554716634486887
 30
0.0
 11
-5.670260627039938
 21
0.7224120790602982
 31
0.0
  0
DIMENSION
  5
C6D
330
1F
100
AcDbEntity
  8
AM_5
100
AcDbDimension
  2
*D8
 10
7.329530889074513
 20
0.9999999999999943
 30
0.0
 11
5.779530889074512
 21
5.507142857142852
 31
0.0
 70
    32
  1
%%c<>
  3
AM_JIS
100
AcDbAlignedDimension
 13
-0.0000000000000602
 23
-1.000000000000003
 33
0.0
 14
-0.0000000000000107
 24
0.9999999999999964
 34
0.0
 50
90.00000000000007
100
AcDbRotatedDimension
1001
ACAD
1000
DSTYLE
1002
{
1070
    48
1040
0.05
1070
    47
1040
0.0
1070
   274
1070
     1
1070
   272
1070
     2
1002
}
1001
GENIUS_GENDTOL_13
1000

1000
H7
1000

1040
0.0
  0
LINE
  5
C6E
330
1F
100
AcDbEntity
  8
AM_11
100
AcDbLine
 10
-0.0000000000000617
 20
-1.000000000000003
 30
0.0
 11
-0.000000000000012
 21
0.9999999999999964
 31
0.0
  0
LINE
  5
C6F
330
1F
100
AcDbEntity
  8
AM_0
100
AcDbLine
 10
-0.0000000000000724
 20
0.0599999999999987
 30
0.0
 11
-0.3417010737468984
 21
0.5554716634486816
 31
0.0
  0
LINE
  5
C70
330
1F
100
AcDbEntity
  8
AM_0
100
AcDbLine
 10
-0.0000000000000724
 20
0.2599999999999873
 30
0.0
 11
-0.000000000000012
 21
0.9732050807569372
 31
0.0
  0
LINE
  5
C71
330
1F
100
AcDbEntity
  8
AM_0
100
AcDbLine
 10
-0.0689648064571435
 20
0.159999999999993
 30
0.0
 11
-0.0000000000000724
 21
0.2599999999999873
 31
0.0
  0
LINE
  5
C72
330
1F
100
AcDbEntity
  8
AM_0
100
AcDbLine
 10
-0.0000000000000759
 20
-0.9766858028749005
 30
0.0
 11
-0.0000000000000724
 21
0.0599999999999987
 31
0.0
  0
LINE
  5
C73
330
1F
100
AcDbEntity
  8
AM_0
100
AcDbLine
 10
-0.1032494883988924
 20
-0.9998465311698829
 30
0.0
 11
-0.0000000000000759
 21
-0.9766858028749005
 31
0.0
  0
LINE
  5
C74
330
1F
100
AcDbEntity
  8
AM_0
100
AcDbLine
 10
-0.1194505487418573
 20
1.000000000005453
 30
0.0
 11
-0.000000000000012
 21
0.9732050807569372
 31
0.0
  0
SPLINE
  5
D60
330
1F
100
AcDbEntity
  8
AM_0
100
AcDbSpline
210
0.0
220
0.0
230
1.0
 70
     8
 71
     3
 72
     8
 73
     4
 74
     0
 42
0.0000000001
 43
0.0000000001
 40
0.3982504941345976
 40
0.3982504941345976
 40
0.3982504941345976
 40
0.3982504941345976
 40
6.452065446090842
 40
6.452065446090842
 40
6.452065446090842
 40
6.452065446090842
 10
-6.131529332346332
 20
0.6867894011604108
 30
0.0
 10
-5.899935295937268
 20
0.6381924046622061
 30
0.0
 10
-5.622875730336948
 20
0.2484687690333568
 30
0.0
 10
-5.49472524101528
 20
0.0000000000001492
 30
0.0
  0
ARC
  5
D61
330
1F
100
AcDbEntity
  8
AM_0
100
AcDbCircle
 10
-5.511183957367587
 20
-0.5525653420053736
 30
0.0
 40
1.385939595965511
100
AcDbArc
 50
116.589751464504
 51
159.2348785703099
  0
LINE
  5
D62
330
1F
100
AcDbEntity
  8
AM_0
100
AcDbLine
 10
-6.000000000000072
 20
0.932925372696145
 30
0.0
 11
-6.000000000000072
 21
0.6281368308421172
 31
0.0
  0
VIEWPORT
  5
110
330
101
100
AcDbEntity
 67
     1
  8
0
100
AcDbViewport
 10
420.5
 20
297.0
 30
0.0
 40
948.9782706766916
 41
628.452
 68
     1
 69
     1
1001
ACAD
1000
MVIEW
1002
{
1070
    16
1010
0.0
1020
0.0
1030
0.0
1010
0.0
1020
0.0
1030
1.0
1040
0.0
1040
628.452
1040
420.5
1040
297.0
1040
50.0
1040
0.0
1040
0.0
1070
     0
1070
   100
1070
     1
1070
     1
1070
     0
1070
     0
1070
     0
1070
     0
1040
0.0
1040
0.0
1040
0.0
1040
10.0
1040
10.0
1040
10.0
1040
10.0
1070
     0
1002
{
1002
}
1002
}
  0
ENDSEC
  0
SECTION
  2
OBJECTS
  0
DICTIONARY
  5
C
330
0
100
AcDbDictionary
  3
ACAD_GROUP
350
D
  3
ACAD_LAYOUT
350
1A
  3
ACAD_MLINESTYLE
350
17
  3
ACAD_PLOTSETTINGS
350
19
  3
ACAD_PLOTSTYLENAME
350
E
  3
ACDBVARIABLEDICTIONARY
350
34
  3
ACMDICTIONARY
350
43
  3
AMG
350
2B
  3
AMGSNAPSETTINGS
350
6E
  3
DWGPROPS
350
D72
  3
ACDBHEADERROUNDTRIPXREC
350
D7E
  0
DICTIONARY
  5
74
330
1F
100
AcDbDictionary
280
     1
  3
ACAD_INDEX
360
D74
  3
ACAD_LAYOUTSELFREF
360
DA1
  0
DICTIONARY
  5
DA6
330
101
100
AcDbDictionary
280
     1
  3
ACAD_LAYOUTSELFREF
360
DA7
  0
DICTIONARY
  5
D
102
{ACAD_REACTORS
330
C
102
}
330
C
100
AcDbDictionary
  0
DICTIONARY
  5
1A
102
{ACAD_REACTORS
330
C
102
}
330
C
100
AcDbDictionary
  0
DICTIONARY
  5
17
102
{ACAD_REACTORS
330
C
102
}
330
C
100
AcDbDictionary
  3
STANDARD
350
18
  0
DICTIONARY
  5
19
102
{ACAD_REACTORS
330
C
102
}
330
C
100
AcDbDictionary
  0
ACDBDICTIONARYWDFLT
  5
E
102
{ACAD_REACTORS
330
C
102
}
330
C
100
AcDbDictionary
281
     1
  3
Normal
350
F
100
AcDbDictionaryWithDefault
340
F
  0
DICTIONARY
  5
34
102
{ACAD_REACTORS
330
C
102
}
330
C
100
AcDbDictionary
  3
INDEXCTL
350
35
  3
SORTENTS
350
B5E
  0
DICTIONARY
  5
43
102
{ACAD_REACTORS
330
C
102
}
330
C
100
AcDbDictionary
  3
ACMSTDDICTIONARY
350
260
  0
DICTIONARY
  5
2B
102
{ACAD_REACTORS
330
C
102
}
330
C
100
AcDbDictionary
  3
ACMGSETTINGS
350
2C
  0
DICTIONARY
  5
6E
102
{ACAD_REACTORS
330
C
102
}
330
C
100
AcDbDictionary
  0
XRECORD
  5
D72
102
{ACAD_REACTORS
330
C
102
}
330
C
100
AcDbXrecord
  1
DWGPROPS COOKIE
  2

  3

  4

  6

  7

  8

  9

300
AmdtFileType=82
301
=
302
=
303
=
304
=
305
=
306
=
307
=
308
=
309
=
 40
0.0105980439814815
 41
2452838.620506898
 42
2453042.885075983
  1

 90
        1
  0
DICTIONARY
  5
D7E
102
{ACAD_REACTORS
330
C
102
}
330
C
100
AcDbDictionary
  3
TSTACKALIGN
350
D7F
  3
TSTACKSIZE
350
D80
  3
HYPERLINKBASE
350
D81
  3
STYLESHEET
350
D82
  3
LAYOUTDICT
350
D83
  3
PLOTSETDICT
350
D84
  3
PLOTSTYLNAMDICT
350
D85
  3
LWETCUNION
350
D86
  3
INSUNITS
350
D87
  3
CEPSNTYPE
350
D88
  3
FINGERPRINTGUID
350
D89
  3
VERSIONGUID
350
D8A
  3
PSVPSCALE
350
D8B
  3
DIMSTYLEDATA
350
D8C
  3
PUCSORTHOREF
350
D8D
  3
PUCSORTHOVIEW
350
D8E
  3
PUCSBASE
350
D8F
  3
PUCSORGTOP
350
D90
  3
PUCSORGBOTTOM
350
D91
  3
PUCSORGLEFT
350
D92
  3
PUCSORGRIGHT
350
D93
  3
PUCSORGFRONT
350
D94
  3
PUCSORGBACK
350
D95
  3
UCSORTHOREF
350
D96
  3
UCSORTHOVIEW
350
D97
  3
UCSBASE
350
D98
  3
UCSORGTOP
350
D99
  3
UCSORGBOTTOM
350
D9A
  3
UCSORGLEFT
350
D9B
  3
UCSORGRIGHT
350
D9C
  3
UCSORGFRONT
350
D9D
  3
UCSORGBACK
350
D9E
  0
DICTIONARY
  5
D74
102
{ACAD_REACTORS
330
74
102
}
330
74
100
AcDbDictionary
  3
*A1
350
D75
  0
XRECORD
  5
DA1
102
{ACAD_REACTORS
330
74
102
}
330
74
100
AcDbXrecord
340
1F
  0
XRECORD
  5
DA7
102
{ACAD_REACTORS
330
DA6
102
}
330
DA6
100
AcDbXrecord
340
101
  0
MLINESTYLE
  5
18
102
{ACAD_REACTORS
330
17
102
}
330
17
100
AcDbMlineStyle
  2
STANDARD
 70
     0
  3

 62
   256
 51
90.0
 52
90.0
 71
     2
 49
0.5
 62
   256
  6
BYLAYER
 49
-0.5
 62
   256
  6
BYLAYER
  0
ACDBPLACEHOLDER
  5
F
102
{ACAD_REACTORS
330
E
102
}
330
E
100
AcDbPlaceHolder
280
     0
  0
DICTIONARYVAR
  5
35
102
{ACAD_REACTORS
330
34
102
}
330
34
100
DictionaryVariables
280
     0
  1
1
  0
DICTIONARYVAR
  5
B5E
102
{ACAD_REACTORS
330
34
102
}
330
34
100
DictionaryVariables
280
     0
  1
96
  0
DICTIONARY
  5
260
102
{ACAD_REACTORS
330
43
102
}
330
43
100
AcDbDictionary
  0
DICTIONARY
  5
2C
102
{ACAD_REACTORS
330
2B
102
}
330
2B
100
AcDbDictionary
  3
DWGSETTINGS
350
2D
  0
XRECORD
  5
D7F
102
{ACAD_REACTORS
330
D7E
102
}
330
D7E
100
AcDbXrecord
 90
        1
  0
XRECORD
  5
D80
102
{ACAD_REACTORS
330
D7E
102
}
330
D7E
100
AcDbXrecord
 90
       70
  0
XRECORD
  5
D81
102
{ACAD_REACTORS
330
D7E
102
}
330
D7E
100
AcDbXrecord
  1

  0
XRECORD
  5
D82
102
{ACAD_REACTORS
330
D7E
102
}
330
D7E
100
AcDbXrecord
  1
ACAD_M_9400.ctb
  0
XRECORD
  5
D83
102
{ACAD_REACTORS
330
D7E
102
}
330
D7E
100
AcDbXrecord
340
1A
  0
XRECORD
  5
D84
102
{ACAD_REACTORS
330
D7E
102
}
330
D7E
100
AcDbXrecord
340
19
  0
XRECORD
  5
D85
102
{ACAD_REACTORS
330
D7E
102
}
330
D7E
100
AcDbXrecord
340
E
  0
XRECORD
  5
D86
102
{ACAD_REACTORS
330
D7E
102
}
330
D7E
100
AcDbXrecord
 90
    10781
  0
XRECORD
  5
D87
102
{ACAD_REACTORS
330
D7E
102
}
330
D7E
100
AcDbXrecord
 90
        4
  0
XRECORD
  5
D88
102
{ACAD_REACTORS
330
D7E
102
}
330
D7E
100
AcDbXrecord
 90
        0
  0
XRECORD
  5
D89
102
{ACAD_REACTORS
330
D7E
102
}
330
D7E
100
AcDbXrecord
  1
{AFB28963-8C59-40AE-9337-C84526B81ACE}
  0
XRECORD
  5
D8A
102
{ACAD_REACTORS
330
D7E
102
}
330
D7E
100
AcDbXrecord
  1
{C3212FD8-22E7-46EC-85F2-31884E5F77A1}
  0
XRECORD
  5
D8B
102
{ACAD_REACTORS
330
D7E
102
}
330
D7E
100
AcDbXrecord
 40
0.0
  0
XRECORD
  5
D8C
102
{ACAD_REACTORS
330
D7E
102
}
330
D7E
100
AcDbXrecord
1000
DSTYLE
1002
{
1070
    79
 70
     2
1070
   341
340
59
1070
   342
340
59
1070
   371
 70
    -1
1070
   372
 70
    -1
1002
}
  0
XRECORD
  5
D8D
102
{ACAD_REACTORS
330
D7E
102
}
330
D7E
100
AcDbXrecord
340
0
  0
XRECORD
  5
D8E
102
{ACAD_REACTORS
330
D7E
102
}
330
D7E
100
AcDbXrecord
 70
     0
  0
XRECORD
  5
D8F
102
{ACAD_REACTORS
330
D7E
102
}
330
D7E
100
AcDbXrecord
340
0
  0
XRECORD
  5
D90
102
{ACAD_REACTORS
330
D7E
102
}
330
D7E
100
AcDbXrecord
 10
0.0
 20
0.0
 30
0.0
  0
XRECORD
  5
D91
102
{ACAD_REACTORS
330
D7E
102
}
330
D7E
100
AcDbXrecord
 10
0.0
 20
0.0
 30
0.0
  0
XRECORD
  5
D92
102
{ACAD_REACTORS
330
D7E
102
}
330
D7E
100
AcDbXrecord
 10
0.0
 20
0.0
 30
0.0
  0
XRECORD
  5
D93
102
{ACAD_REACTORS
330
D7E
102
}
330
D7E
100
AcDbXrecord
 10
0.0
 20
0.0
 30
0.0
  0
XRECORD
  5
D94
102
{ACAD_REACTORS
330
D7E
102
}
330
D7E
100
AcDbXrecord
 10
0.0
 20
0.0
 30
0.0
  0
XRECORD
  5
D95
102
{ACAD_REACTORS
330
D7E
102
}
330
D7E
100
AcDbXrecord
 10
0.0
 20
0.0
 30
0.0
  0
XRECORD
  5
D96
102
{ACAD_REACTORS
330
D7E
102
}
330
D7E
100
AcDbXrecord
340
0
  0
XRECORD
  5
D97
102
{ACAD_REACTORS
330
D7E
102
}
330
D7E
100
AcDbXrecord
 70
     0
  0
XRECORD
  5
D98
102
{ACAD_REACTORS
330
D7E
102
}
330
D7E
100
AcDbXrecord
340
0
  0
XRECORD
  5
D99
102
{ACAD_REACTORS
330
D7E
102
}
330
D7E
100
AcDbXrecord
 10
0.0
 20
0.0
 30
0.0
  0
XRECORD
  5
D9A
102
{ACAD_REACTORS
330
D7E
102
}
330
D7E
100
AcDbXrecord
 10
0.0
 20
0.0
 30
0.0
  0
XRECORD
  5
D9B
102
{ACAD_REACTORS
330
D7E
102
}
330
D7E
100
AcDbXrecord
 10
0.0
 20
0.0
 30
0.0
  0
XRECORD
  5
D9C
102
{ACAD_REACTORS
330
D7E
102
}
330
D7E
100
AcDbXrecord
 10
0.0
 20
0.0
 30
0.0
  0
XRECORD
  5
D9D
102
{ACAD_REACTORS
330
D7E
102
}
330
D7E
100
AcDbXrecord
 10
0.0
 20
0.0
 30
0.0
  0
XRECORD
  5
D9E
102
{ACAD_REACTORS
330
D7E
102
}
330
D7E
100
AcDbXrecord
 10
0.0
 20
0.0
 30
0.0
  0
LAYER_INDEX
  5
D75
102
{ACAD_REACTORS
330
D74
102
}
330
D74
100
AcDbIndex
 40
2453152.473128032
100
AcDbLayerIndex
  8
0
360
D76
 90
        5
  8
AM_0
360
D77
 90
       52
  8
AM_11
360
D78
 90
        4
  8
AM_7
360
D79
 90
        1
  8
AM_5
360
D7A
 90
        4
  8
Defpoints
360
D7B
 90
        0
  8
AM_6
360
D7C
 90
        1
  0
XRECORD
  5
2D
102
{ACAD_REACTORS
330
2C
102
}
330
2C
100
AcDbXrecord
  1
VERSION
140
15.0
  1
PRODUCT
  2
AutoCAD Mechanical 2000
  0
IDBUFFER
  5
D76
330
0
100
AcDbIdBuffer
330
C54
330
C5F
330
C60
330
C62
330
C69
  0
IDBUFFER
  5
D77
330
0
100
AcDbIdBuffer
330
C74
330
D60
330
D61
330
D62
330
C2C
330
C2D
330
C2F
330
C30
330
C31
330
C32
330
C33
330
C35
330
C37
330
C38
330
C39
330
C3B
330
C3D
330
C3E
330
C3F
330
C41
330
C42
330
C43
330
C44
330
C45
330
C47
330
C48
330
C49
330
C4A
330
C4C
330
C4D
330
C4E
330
C51
330
C52
330
C55
330
C56
330
C57
330
C5C
330
C5D
330
C61
330
C64
330
C65
330
C66
330
C67
330
C68
330
C6A
330
C6B
330
C6C
330
C6F
330
C70
330
C71
330
C72
330
C73
  0
IDBUFFER
  5
D78
330
0
100
AcDbIdBuffer
330
C5A
330
C5B
330
C5E
330
C6E
  0
IDBUFFER
  5
D79
330
0
100
AcDbIdBuffer
330
C50
  0
IDBUFFER
  5
D7A
330
0
100
AcDbIdBuffer
330
C4F
330
C53
330
C59
330
C6D
  0
IDBUFFER
  5
D7B
330
0
100
AcDbIdBuffer
  0
IDBUFFER
  5
D7C
330
0
100
AcDbIdBuffer
330
C58
  0
ENDSEC
  0
EOF
