  0
SECTION
  2
HEADER
  9
$ACADVER
  1
AC1014
  9
$ACADMAINTVER
 70
     9
  9
$DWGCODEPAGE
  3
ANSI_932
  9
$INSBASE
 10
0.0
 20
0.0
 30
0.0
  9
$EXTMIN
 10
-54.35000100000006
 20
-27.32983042999952
 30
-0.00000001
  9
$EXTMAX
 10
8.829530889074508
 20
8.014285714293894
 30
0.00000001
  9
$LIMMIN
 10
-75.39320468207454
 20
-40.73039478042001
  9
$LIMMAX
 10
32.76373417768513
 20
35.72733941427884
  9
$ORTHOMODE
 70
     0
  9
$REGENMODE
 70
     1
  9
$FILLMODE
 70
     1
  9
$QTEXTMODE
 70
     0
  9
$MIRRTEXT
 70
     0
  9
$DRAGMODE
 70
     2
  9
$LTSCALE
 40
0.3
  9
$OSMODE
 70
    55
  9
$ATTMODE
 70
     1
  9
$TEXTSIZE
 40
2.5
  9
$TRACEWID
 40
1.0
  9
$TEXTSTYLE
  7
STANDARD
  9
$CLAYER
  8
AM_0
  9
$CELTYPE
  6
BYLAYER
  9
$CECOLOR
 62
   256
  9
$CELTSCALE
 40
1.0
  9
$DELOBJ
 70
     1
  9
$DISPSILH
 70
     0
  9
$DIMSCALE
 40
0.5
  9
$DIMASZ
 40
2.5
  9
$DIMEXO
 40
1.0
  9
$DIMDLI
 40
12.0
  9
$DIMRND
 40
0.0
  9
$DIMDLE
 40
0.0
  9
$DIMEXE
 40
1.0
  9
$DIMTP
 40
0.1
  9
$DIMTM
 40
0.1
  9
$DIMTXT
 40
3.2
  9
$DIMCEN
 40
0.0
  9
$DIMTSZ
 40
0.0
  9
$DIMTOL
 70
     0
  9
$DIMLIM
 70
     0
  9
$DIMTIH
 70
     0
  9
$DIMTOH
 70
     0
  9
$DIMSE1
 70
     0
  9
$DIMSE2
 70
     0
  9
$DIMTAD
 70
     3
  9
$DIMZIN
 70
     8
  9
$DIMBLK
  1
OPEN30
  9
$DIMASO
 70
     1
  9
$DIMSHO
 70
     1
  9
$DIMPOST
  1

  9
$DIMAPOST
  1
"
  9
$DIMALT
 70
     0
  9
$DIMALTD
 70
     2
  9
$DIMALTF
 40
0.0393701
  9
$DIMLFAC
 40
1.0
  9
$DIMTOFL
 70
     1
  9
$DIMTVP
 40
0.0
  9
$DIMTIX
 70
     0
  9
$DIMSOXD
 70
     0
  9
$DIMSAH
 70
     0
  9
$DIMBLK1
  1

  9
$DIMBLK2
  1

  9
$DIMSTYLE
  2
AM_JIS
  9
$DIMCLRD
 70
   256
  9
$DIMCLRE
 70
   256
  9
$DIMCLRT
 70
     2
  9
$DIMTFAC
 40
0.71
  9
$DIMGAP
 40
1.5
  9
$DIMJUST
 70
     0
  9
$DIMSD1
 70
     0
  9
$DIMSD2
 70
     0
  9
$DIMTOLJ
 70
     0
  9
$DIMTZIN
 70
     0
  9
$DIMALTZ
 70
     0
  9
$DIMALTTZ
 70
     0
  9
$DIMFIT
 70
     3
  9
$DIMUPT
 70
     0
  9
$DIMUNIT
 70
     2
  9
$DIMDEC
 70
     3
  9
$DIMTDEC
 70
     3
  9
$DIMALTU
 70
     2
  9
$DIMALTTD
 70
     2
  9
$DIMTXSTY
  7
ASAMI
  9
$DIMAUNIT
 70
     0
  9
$LUNITS
 70
     2
  9
$LUPREC
 70
     2
  9
$SKETCHINC
 40
1.0
  9
$FILLETRAD
 40
2.5
  9
$AUNITS
 70
     0
  9
$AUPREC
 70
     0
  9
$MENU
  1
.
  9
$ELEVATION
 40
0.0
  9
$PELEVATION
 40
0.0
  9
$THICKNESS
 40
0.0
  9
$LIMCHECK
 70
     0
  9
$BLIPMODE
 70
     0
  9
$CHAMFERA
 40
2.5
  9
$CHAMFERB
 40
2.5
  9
$CHAMFERC
 40
20.0
  9
$CHAMFERD
 40
0.0
  9
$SKPOLY
 70
     0
  9
$TDCREATE
 40
2452838.620506898
  9
$TDUPDATE
 40
2453152.473307245
  9
$TDINDWG
 40
0.0461037847
  9
$TDUSRTIMER
 40
0.0461037847
  9
$USRTIMER
 70
     1
  9
$ANGBASE
 50
0.0
  9
$ANGDIR
 70
     0
  9
$PDMODE
 70
     0
  9
$PDSIZE
 40
0.0
  9
$PLINEWID
 40
0.0
  9
$COORDS
 70
     1
  9
$SPLFRAME
 70
     0
  9
$SPLINETYPE
 70
     6
  9
$SPLINESEGS
 70
     8
  9
$ATTDIA
 70
     1
  9
$ATTREQ
 70
     1
  9
$HANDLING
 70
 12289
  9
$HANDSEED
  5
1488
  9
$SURFTAB1
 70
     6
  9
$SURFTAB2
 70
     6
  9
$SURFTYPE
 70
     6
  9
$SURFU
 70
     6
  9
$SURFV
 70
     6
  9
$UCSNAME
  2

  9
$UCSORG
 10
-0.0000000000000568
 20
-0.0000000000000036
 30
0.0
  9
$UCSXDIR
 10
1.0
 20
0.0
 30
0.0
  9
$UCSYDIR
 10
0.0
 20
1.0
 30
0.0
  9
$PUCSNAME
  2

  9
$PUCSORG
 10
0.0
 20
0.0
 30
0.0
  9
$PUCSXDIR
 10
1.0
 20
0.0
 30
0.0
  9
$PUCSYDIR
 10
0.0
 20
1.0
 30
0.0
  9
$USERI1
 70
     0
  9
$USERI2
 70
     0
  9
$USERI3
 70
     0
  9
$USERI4
 70
     0
  9
$USERI5
 70
     0
  9
$USERR1
 40
0.0
  9
$USERR2
 40
0.0
  9
$USERR3
 40
0.0
  9
$USERR4
 40
0.0
  9
$USERR5
 40
0.0
  9
$WORLDVIEW
 70
     1
  9
$SHADEDGE
 70
     3
  9
$SHADEDIF
 70
    70
  9
$TILEMODE
 70
     1
  9
$MAXACTVP
 70
    64
  9
$PINSBASE
 10
0.0
 20
0.0
 30
0.0
  9
$PLIMCHECK
 70
     0
  9
$PEXTMIN
 10
1.000000000000000E+20
 20
1.000000000000000E+20
 30
1.000000000000000E+20
  9
$PEXTMAX
 10
-1.000000000000000E+20
 20
-1.000000000000000E+20
 30
-1.000000000000000E+20
  9
$PLIMMIN
 10
0.0
 20
0.0
  9
$PLIMMAX
 10
841.0
 20
594.0
  9
$UNITMODE
 70
     0
  9
$VISRETAIN
 70
     1
  9
$PLINEGEN
 70
     0
  9
$PSLTSCALE
 70
     0
  9
$TREEDEPTH
 70
  3020
  9
$PICKSTYLE
 70
     0
  9
$CMLSTYLE
  2
STANDARD
  9
$CMLJUST
 70
     0
  9
$CMLSCALE
 40
20.0
  9
$PROXYGRAPHICS
 70
     1
  9
$MEASUREMENT
 70
     1
  0
ENDSEC
  0
SECTION
  2
CLASSES
  0
CLASS
  1
ACDBDICTIONARYWDFLT
  2
AcDbDictionaryWithDefault
  3
AutoCAD 2000
 90
        0
280
     0
281
     0
  0
CLASS
  1
ACDBPLACEHOLDER
  2
AcDbPlaceHolder
  3
AutoCAD 2000
 90
        0
280
     0
281
     0
  0
CLASS
  1
LAYOUT
  2
AcDbLayout
  3
AutoCAD 2000
 90
        0
280
     0
281
     0
  0
CLASS
  1
AMGSETTINGSOBJ
  2
AmgSettingsObj
  3
"AcadM|Product Description: AutoCAD Mechanical 2000|Company: Autodesk"
 90
        0
280
     0
281
     0
  0
CLASS
  1
ACME_DOCUMENT
  2
AcMeDbDoc
  3
AcMeServices
 90
        0
280
     0
281
     0
  0
CLASS
  1
ACMESCOPE
  2
AcMeScope
  3
AcMeServices
 90
        0
280
     0
281
     0
  0
CLASS
  1
ACMECOMMANDHISTORY
  2
AcMeCommandHistory
  3
AcMeServices
 90
        0
280
     0
281
     0
  0
CLASS
  1
DICTIONARYVAR
  2
AcDbDictionaryVar
  3
AutoCAD 2000
 90
        0
280
     0
281
     0
  0
CLASS
  1
ACIMSYSVARMAN
  2
AcImSysVarManager
  3
AcMeServices
 90
        0
280
     0
281
     0
  0
CLASS
  1
ACIMREALSYSVAR
  2
AcImRealSysVar
  3
AcMeServices
 90
        0
280
     0
281
     0
  0
CLASS
  1
ACIMINTSYSVAR
  2
AcImIntSysVar
  3
AcMeServices
 90
        0
280
     0
281
     0
  0
CLASS
  1
ACMEDRAWINGMAN
  2
AcMeDrawingMan
  3
AcMeServices
 90
        0
280
     0
281
     0
  0
CLASS
  1
ACMEVIEW
  2
AcMeView
  3
AcMeServices
 90
        0
280
     0
281
     0
  0
CLASS
  1
ACDBENTITYCACHE
  2
AcMeEntityCache
  3
AcMeServices
 90
        0
280
     0
281
     0
  0
CLASS
  1
GSMANAGER
  2
AcMeGSManager
  3
AcMeServices
 90
        0
280
     0
281
     0
  0
CLASS
  1
AmdtInternalReactor
  2
AmdtInternalReactor
  3
AcMeServices
 90
        0
280
     0
281
     0
  0
CLASS
  1
ACMESTATEMGR
  2
AcMeStateMgr
  3
AcMeServices
 90
        0
280
     0
281
     0
  0
CLASS
  1
ACME_DATABASE
  2
AcMeDbDatabase
  3
AcMeServices
 90
        0
280
     0
281
     0
  0
CLASS
  1
ACRFINSADJUSTERMGR
  2
AcRfInsAdjusterMgr
  3
AcMeServices
 90
        0
280
     0
281
     0
  0
CLASS
  1
ACMDATADICTIONARY
  2
AcmDataDictionary
  3
"AcmSymBB|Product Description: AutoCAD Mechanical 2000|Company: Autodesk"
 90
        0
280
     0
281
     0
  0
CLASS
  1
ACMDATAENTRYBLOCK
  2
AcmDataEntryBlock
  3
"AcmSymBB|Product Description: AutoCAD Mechanical 2000|Company: Autodesk"
 90
        0
280
     0
281
     0
  0
CLASS
  1
AMGOBJPROPCFG
  2
AmgObjPropCfg
  3
"AmgLay|Product Description: AutoCAD Mechanical 2000|Company: Autodesk"
 90
        1
280
     0
281
     0
  0
CLASS
  1
ACAMGFILTERDAT
  2
AcAmgFilterDat
  3
"AcadM|Product Description: AutoCAD Mechanical 2000|Company: Autodesk"
 90
        0
280
     0
281
     0
  0
CLASS
  1
LAYER_INDEX
  2
AcDbLayerIndex
  3
AutoCAD 2000
 90
        0
280
     0
281
     0
  0
CLASS
  1
IDBUFFER
  2
AcDbIdBuffer
  3
AutoCAD 2000
 90
        0
280
     0
281
     0
  0
CLASS
  1
ACIMSTRSYSVAR
  2
AcImStrSysVar
  3
AcMeServices
 90
        0
280
     0
281
     0
  0
CLASS
  1
ACMSTANDARDJIS
  2
AcmStandardJIS
  3
"AcmSymBB|Product Description: AutoCAD Mechanical 2000|Company: Autodesk"
 90
        0
280
     0
281
     0
  0
CLASS
  1
ACMSURFSTANDARDJIS
  2
AcmSurfTextStdJIS
  3
"AcmSymBB|Product Description: AutoCAD Mechanical 2000|Company: Autodesk"
 90
        0
280
     0
281
     0
  0
CLASS
  1
ACMFCFSTANDARDJIS
  2
AcmFCFStdJIS
  3
"AcmSymBB|Product Description: AutoCAD Mechanical 2000|Company: Autodesk"
 90
        0
280
     0
281
     0
  0
CLASS
  1
ACMWELDSTANDARDJIS
  2
AcmWeldingStdJIS
  3
"AcmSymBB|Product Description: AutoCAD Mechanical 2000|Company: Autodesk"
 90
        0
280
     0
281
     0
  0
CLASS
  1
ACMIDSTANDARDJIS
  2
AcmIdStdJIS
  3
"AcmSymBB|Product Description: AutoCAD Mechanical 2000|Company: Autodesk"
 90
        0
280
     0
281
     0
  0
CLASS
  1
ACMDATUMSTANDARDJIS
  2
AcmDatumStdJIS
  3
"AcmSymBB|Product Description: AutoCAD Mechanical 2000|Company: Autodesk"
 90
        0
280
     0
281
     0
  0
CLASS
  1
ACMBOMSTANDARDJIS
  2
AcmBOMStdJIS
  3
"AcmSymBB|Product Description: AutoCAD Mechanical 2000|Company: Autodesk"
 90
        0
280
     0
281
     0
  0
CLASS
  1
ACMSTANDARDANSI
  2
AcmStandardANSI
  3
"AcmSymBB|Product Description: AutoCAD Mechanical 2000|Company: Autodesk"
 90
        0
280
     0
281
     0
  0
CLASS
  1
ACMSURFSTANDARDANSI
  2
AcmSurfTextStdANSI
  3
"AcmSymBB|Product Description: AutoCAD Mechanical 2000|Company: Autodesk"
 90
        0
280
     0
281
     0
  0
CLASS
  1
ACMFCFSTANDARDANSI
  2
AcmFCFStdANSI
  3
"AcmSymBB|Product Description: AutoCAD Mechanical 2000|Company: Autodesk"
 90
        0
280
     0
281
     0
  0
CLASS
  1
ACMWELDSTANDARDANSI
  2
AcmWeldingStdANSI
  3
"AcmSymBB|Product Description: AutoCAD Mechanical 2000|Company: Autodesk"
 90
        0
280
     0
281
     0
  0
CLASS
  1
ACMIDSTANDARDANSI
  2
AcmIdStdANSI
  3
"AcmSymBB|Product Description: AutoCAD Mechanical 2000|Company: Autodesk"
 90
        0
280
     0
281
     0
  0
CLASS
  1
ACMDATUMSTANDARDANSI
  2
AcmDatumStdANSI
  3
"AcmSymBB|Product Description: AutoCAD Mechanical 2000|Company: Autodesk"
 90
        0
280
     0
281
     0
  0
CLASS
  1
ACMBOMSTANDARDANSI
  2
AcmBOMStdANSI
  3
"AcmSymBB|Product Description: AutoCAD Mechanical 2000|Company: Autodesk"
 90
        0
280
     0
281
     0
  0
CLASS
  1
ACMSTANDARDBSI
  2
AcmStandardBSI
  3
"AcmSymBB|Product Description: AutoCAD Mechanical 2000|Company: Autodesk"
 90
        0
280
     0
281
     0
  0
CLASS
  1
ACMSURFSTANDARDBSI
  2
AcmSurfTextStdBSI
  3
"AcmSymBB|Product Description: AutoCAD Mechanical 2000|Company: Autodesk"
 90
        0
280
     0
281
     0
  0
CLASS
  1
ACMFCFSTANDARDBSI
  2
AcmFCFStdBSI
  3
"AcmSymBB|Product Description: AutoCAD Mechanical 2000|Company: Autodesk"
 90
        0
280
     0
281
     0
  0
CLASS
  1
ACMWELDSTANDARDBSI
  2
AcmWeldingStdBSI
  3
"AcmSymBB|Product Description: AutoCAD Mechanical 2000|Company: Autodesk"
 90
        0
280
     0
281
     0
  0
CLASS
  1
ACMIDSTANDARDBSI
  2
AcmIdStdBSI
  3
"AcmSymBB|Product Description: AutoCAD Mechanical 2000|Company: Autodesk"
 90
        0
280
     0
281
     0
  0
CLASS
  1
ACMDATUMSTANDARDBSI
  2
AcmDatumStdBSI
  3
"AcmSymBB|Product Description: AutoCAD Mechanical 2000|Company: Autodesk"
 90
        0
280
     0
281
     0
  0
CLASS
  1
ACMBOMSTANDARDBSI
  2
AcmBOMStdBSI
  3
"AcmSymBB|Product Description: AutoCAD Mechanical 2000|Company: Autodesk"
 90
        0
280
     0
281
     0
  0
CLASS
  1
LONG_TRANSACTION
  2
AcDbLongTransaction
  3
AutoCAD 2000
 90
        0
280
     0
281
     0
  0
CLASS
  1
LWPOLYLINE
  2
AcDbPolyline
  3
AutoCAD 2000
 90
        0
280
     0
281
     1
  0
CLASS
  1
HATCH
  2
AcDbHatch
  3
AutoCAD 2000
 90
        0
280
     0
281
     1
  0
CLASS
  1
XRECORD
  2
AcDbXrecord
  3
AutoCAD 2000
 90
        0
280
     0
281
     0
  0
ENDSEC
  0
SECTION
  2
TABLES
  0
TABLE
  2
VPORT
  5
8
330
0
100
AcDbSymbolTable
 70
     3
  0
VPORT
  5
145D
330
8
100
AcDbSymbolTableRecord
100
AcDbViewportTableRecord
  2
*ACTIVE
 70
     0
 10
0.0
 20
0.0
 11
1.0
 21
1.0
 12
-20.64968037162184
 22
-5.056618110595287
 13
0.0
 23
0.0
 14
2.5
 24
2.5
 15
10.0
 25
10.0
 16
0.0
 26
0.0
 36
1.0
 17
0.0
 27
0.0
 37
0.0
 40
65.16174449401468
 41
1.56570841889117
 42
50.0
 43
0.0
 44
0.0
 50
0.0
 51
0.0
 71
     0
 72
   100
 73
     1
 74
     3
 75
     0
 76
     0
 77
     0
 78
     0
  0
ENDTAB
  0
TABLE
  2
LTYPE
  5
5
330
0
100
AcDbSymbolTable
 70
    10
  0
LTYPE
  5
14
330
5
100
AcDbSymbolTableRecord
100
AcDbLinetypeTableRecord
  2
BYBLOCK
 70
     0
  3

 72
    65
 73
     0
 40
0.0
  0
LTYPE
  5
15
330
5
100
AcDbSymbolTableRecord
100
AcDbLinetypeTableRecord
  2
BYLAYER
 70
     0
  3

 72
    65
 73
     0
 40
0.0
  0
LTYPE
  5
16
330
5
100
AcDbSymbolTableRecord
100
AcDbLinetypeTableRecord
  2
CONTINUOUS
 70
     0
  3
Solid line
 72
    65
 73
     0
 40
0.0
  0
LTYPE
  5
4B
330
5
100
AcDbSymbolTableRecord
100
AcDbLinetypeTableRecord
  2
AM_ISO02W050
 70
     0
  3
__ __ __ __ __ __ __ __ __ __ __ __ __ __ __
 72
    65
 73
     2
 40
7.5
 49
6.0
 74
     0
 49
-1.5
 74
     0
  0
LTYPE
  5
4C
330
5
100
AcDbSymbolTableRecord
100
AcDbLinetypeTableRecord
  2
AM_ISO08W050
 70
     0
  3
____ . ____ . ____ . ____ . ____ . ____ . ____
 72
    65
 73
     4
 40
18.0
 49
12.0
 74
     0
 49
-1.5
 74
     0
 49
3.0
 74
     0
 49
-1.5
 74
     0
  0
LTYPE
  5
4D
330
5
100
AcDbSymbolTableRecord
100
AcDbLinetypeTableRecord
  2
AM_ISO09W050
 70
     0
  3
_____ . . _____ . . _____ . . ____ .. ____
 72
    65
 73
     6
 40
22.5
 49
12.0
 74
     0
 49
-1.5
 74
     0
 49
3.0
 74
     0
 49
-1.5
 74
     0
 49
3.0
 74
     0
 49
-1.5
 74
     0
  0
LTYPE
  5
4E
330
5
100
AcDbSymbolTableRecord
100
AcDbLinetypeTableRecord
  2
AMCONSTR
 70
     0
  3
_______________________
 72
    65
 73
     2
 40
9999.0
 49
9999.0
 74
     0
 49
0.0
 74
     0
  0
LTYPE
  5
4F
330
5
100
AcDbSymbolTableRecord
100
AcDbLinetypeTableRecord
  2
AM_ISO02W050X2
 70
     0
  3
 _ _ _ _ _ _ _ _ _ _ _ _
 72
    65
 73
     2
 40
3.75
 49
3.0
 74
     0
 49
-0.75
 74
     0
  0
LTYPE
  5
50
330
5
100
AcDbSymbolTableRecord
100
AcDbLinetypeTableRecord
  2
AM_ISO08W050X2
 70
     0
  3
__ . __ . __ . __ . __ . __
 72
    65
 73
     4
 40
9.0
 49
6.0
 74
     0
 49
-0.75
 74
     0
 49
1.5
 74
     0
 49
-0.75
 74
     0
  0
LTYPE
  5
53
330
5
100
AcDbSymbolTableRecord
100
AcDbLinetypeTableRecord
  2
AMZIGZAG
 70
     0
  3
/\/-/\/-/\/-/\/-/\/-/\/
 72
    65
 73
     2
 40
11.00009999999999
 49
0.0001
 74
     4
 75
   135
340
52
 46
0.04
 50
0.0
 44
0.0
 45
0.0
 49
-11.0
 74
     0
  0
LTYPE
  5
166
330
5
100
AcDbSymbolTableRecord
100
AcDbLinetypeTableRecord
  2
ACJISTGL
 70
     0
  3
_ _ _ _ _
 72
    65
 73
     2
 40
3.0
 49
2.0
 74
     0
 49
-1.0
 74
     0
  0
LTYPE
  5
26A
330
5
100
AcDbSymbolTableRecord
100
AcDbLinetypeTableRecord
  2
ACJISTGB
 70
     0
  3
__ . . __ . .
 72
    65
 73
     6
 40
9.0
 49
4.0
 74
     0
 49
-1.0
 74
     0
 49
1.0
 74
     0
 49
-1.0
 74
     0
 49
1.0
 74
     0
 49
-1.0
 74
     0
  0
ENDTAB
  0
TABLE
  2
LAYER
  5
2
330
0
100
AcDbSymbolTable
 70
     8
  0
LAYER
  5
10
330
2
100
AcDbSymbolTableRecord
100
AcDbLayerTableRecord
  2
0
 70
     0
 62
     7
  6
CONTINUOUS
  0
LAYER
  5
3F9
330
2
100
AcDbSymbolTableRecord
100
AcDbLayerTableRecord
  2
AM_0
 70
     0
 62
     7
  6
CONTINUOUS
  0
LAYER
  5
BD6
330
2
100
AcDbSymbolTableRecord
100
AcDbLayerTableRecord
  2
AM_11
 70
     0
 62
     3
  6
AM_ISO09W050
  0
LAYER
  5
BD7
330
2
100
AcDbSymbolTableRecord
100
AcDbLayerTableRecord
  2
AM_7
 70
     0
 62
     4
  6
AM_ISO08W050
  0
LAYER
  5
BD8
330
2
100
AcDbSymbolTableRecord
100
AcDbLayerTableRecord
  2
AM_5
 70
     0
 62
     3
  6
CONTINUOUS
  0
LAYER
  5
BD9
330
2
100
AcDbSymbolTableRecord
100
AcDbLayerTableRecord
  2
DEFPOINTS
 70
     0
 62
     7
  6
CONTINUOUS
  0
LAYER
  5
BDA
330
2
100
AcDbSymbolTableRecord
100
AcDbLayerTableRecord
  2
AM_6
 70
     0
 62
     2
  6
CONTINUOUS
  0
LAYER
  5
12D7
330
2
100
AcDbSymbolTableRecord
100
AcDbLayerTableRecord
  2
AM_CL
 70
     0
 62
     1
  6
AMCONSTR
  0
ENDTAB
  0
TABLE
  2
STYLE
  5
3
330
0
100
AcDbSymbolTable
 70
     5
  0
STYLE
  5
11
330
3
100
AcDbSymbolTableRecord
100
AcDbTextStyleTableRecord
  2
STANDARD
 70
     0
 40
0.0
 41
1.0
 50
0.0
 71
     0
 42
2.5
  3
simplex.shx
  4
EXTFONT.SHX
  0
STYLE
  5
52
330
3
100
AcDbSymbolTableRecord
100
AcDbTextStyleTableRecord
  2

 70
     1
 40
0.0
 41
1.0
 50
0.0
 71
     0
 42
2.5
  3
ltypeshp.shx
  4

  0
STYLE
  5
6B
330
3
100
AcDbSymbolTableRecord
100
AcDbTextStyleTableRecord
  2
ASAMI
 70
     0
 40
0.0
 41
1.0
 50
0.0
 71
     0
 42
2.5
  3
simplex.shx
  4
EXTFONT.SHX
  0
STYLE
  5
262
330
3
100
AcDbSymbolTableRecord
100
AcDbTextStyleTableRecord
  2
ACJISTS
 70
     0
 40
1.0
 41
1.0
 50
0.0
 71
     0
 42
2.5
  3
simplex.shx
  4
bigfont.shx
  0
STYLE
  5
269
330
3
100
AcDbSymbolTableRecord
100
AcDbTextStyleTableRecord
  2
ACJISGDT
 70
     0
 40
0.0
 41
1.0
 50
0.0
 71
     0
 42
2.5
  3
amgdtans.shx
  4

  0
ENDTAB
  0
TABLE
  2
VIEW
  5
6
330
0
100
AcDbSymbolTable
 70
     0
  0
ENDTAB
  0
TABLE
  2
UCS
  5
7
330
0
100
AcDbSymbolTable
 70
     0
  0
ENDTAB
  0
TABLE
  2
APPID
  5
9
330
0
100
AcDbSymbolTable
 70
    13
  0
APPID
  5
12
330
9
100
AcDbSymbolTableRecord
100
AcDbRegAppTableRecord
  2
ACAD
 70
     0
  0
APPID
  5
30
330
9
100
AcDbSymbolTableRecord
100
AcDbRegAppTableRecord
  2
MCAD_NO_VIS
 70
     0
  0
APPID
  5
31
330
9
100
AcDbSymbolTableRecord
100
AcDbRegAppTableRecord
  2
ACAD_TEMP_GRAPHIC
 70
     0
  0
APPID
  5
2C2
330
9
100
AcDbSymbolTableRecord
100
AcDbRegAppTableRecord
  2
GENIUS_GENDTOL_13
 70
     0
  0
APPID
  5
339
330
9
100
AcDbSymbolTableRecord
100
AcDbRegAppTableRecord
  2
GENIUS_GENODEF_13
 70
     0
  0
APPID
  5
33A
330
9
100
AcDbSymbolTableRecord
100
AcDbRegAppTableRecord
  2
GENIUS_GENOBJ-N-RSBK_13
 70
     0
  0
APPID
  5
33B
330
9
100
AcDbSymbolTableRecord
100
AcDbRegAppTableRecord
  2
GENIUS_GENOBJ-N-LIB_13
 70
     0
  0
APPID
  5
33C
330
9
100
AcDbSymbolTableRecord
100
AcDbRegAppTableRecord
  2
GENIUS_GENSCALE_13
 70
     0
  0
APPID
  5
378
330
9
100
AcDbSymbolTableRecord
100
AcDbRegAppTableRecord
  2
GENIUS_GENDIMSH_14
 70
     0
  0
APPID
  5
BDB
330
9
100
AcDbSymbolTableRecord
100
AcDbRegAppTableRecord
  2
GENIUS_GENOBJ-N-CEN_13
 70
     0
  0
APPID
  5
BDC
330
9
100
AcDbSymbolTableRecord
100
AcDbRegAppTableRecord
  2
GENIUS_GENFIL_13
 70
     0
  0
APPID
  5
BDD
330
9
100
AcDbSymbolTableRecord
100
AcDbRegAppTableRecord
  2
GENIUS_GENOBJ-N-FIL_13
 70
     0
  0
APPID
  5
12AD
330
9
100
AcDbSymbolTableRecord
100
AcDbRegAppTableRecord
  2
GENIUS_GENOREF_13
 70
     0
  0
ENDTAB
  0
TABLE
  2
DIMSTYLE
  5
A
330
0
100
AcDbSymbolTable
 70
     8
  0
DIMSTYLE
105
58
102
{ACAD_REACTORS
330
C4F
330
C53
330
C59
330
C6D
102
}
330
A
100
AcDbSymbolTableRecord
100
AcDbDimStyleTableRecord
  2
AM_JIS
 70
     0
  3

  4
"
  5
OPEN30
  6

  7

 40
0.5
 41
2.5
 42
1.0
 43
12.0
 44
1.0
 45
0.0
 46
0.0
 47
0.1
 48
0.1
140
3.2
141
0.0
142
0.0
143
0.0393701
144
1.0
145
0.0
146
0.71
147
1.5
 71
     0
 72
     0
 73
     0
 74
     0
 75
     0
 76
     0
 77
     3
 78
     8
170
     0
171
     2
172
     1
173
     0
174
     0
175
     0
176
   256
177
   256
178
     2
270
     2
271
     3
272
     3
273
     2
274
     2
340
6B
275
     0
280
     0
281
     0
282
     0
283
     0
284
     0
285
     0
286
     0
287
     3
288
     0
  0
DIMSTYLE
105
5F
330
A
100
AcDbSymbolTableRecord
100
AcDbDimStyleTableRecord
  2
AM_JIS$3
 70
     0
  3

  4
"
  5
OPEN30
  6

  7

 40
0.5
 41
2.5
 42
1.0
 43
10.0
 44
1.0
 45
0.0
 46
0.0
 47
0.1
 48
0.1
140
3.2
141
0.0
142
0.0
143
0.0393701
144
1.0
145
0.0
146
0.71
147
1.5
 71
     0
 72
     0
 73
     0
 74
     1
 75
     0
 76
     0
 77
     3
 78
     8
170
     0
171
     2
172
     0
173
     0
174
     0
175
     0
176
   256
177
   256
178
     2
270
     2
271
     2
272
     3
273
     2
274
     2
340
6B
275
     0
280
     0
281
     0
282
     0
283
     0
284
     0
285
     0
286
     0
287
     0
288
     1
  0
DIMSTYLE
105
60
330
A
100
AcDbSymbolTableRecord
100
AcDbDimStyleTableRecord
  2
AM_JIS$4
 70
     0
  3

  4
"
  5
OPEN30
  6

  7

 40
0.5
 41
2.5
 42
1.0
 43
10.0
 44
1.0
 45
0.0
 46
0.0
 47
0.1
 48
0.1
140
3.2
141
0.0
142
0.0
143
0.0393701
144
1.0
145
0.0
146
0.71
147
1.5
 71
     0
 72
     0
 73
     0
 74
     1
 75
     0
 76
     0
 77
     3
 78
     8
170
     0
171
     2
172
     0
173
     0
174
     0
175
     0
176
   256
177
   256
178
     2
270
     2
271
     2
272
     3
273
     2
274
     2
340
6B
275
     0
280
     0
281
     0
282
     0
283
     0
284
     0
285
     0
286
     0
287
     0
288
     1
  0
DIMSTYLE
105
61
330
A
100
AcDbSymbolTableRecord
100
AcDbDimStyleTableRecord
  2
AM_JIS$6
 70
     0
  3

  4
"
  5
OPEN30
  6

  7

 40
0.5
 41
2.5
 42
1.0
 43
10.0
 44
1.0
 45
0.0
 46
0.0
 47
0.1
 48
0.1
140
3.2
141
0.0
142
0.0
143
0.0393701
144
1.0
145
0.0
146
0.71
147
1.5
 71
     0
 72
     0
 73
     0
 74
     0
 75
     0
 76
     0
 77
     0
 78
     8
170
     0
171
     2
172
     1
173
     0
174
     0
175
     0
176
   256
177
   256
178
     2
270
     2
271
     2
272
     2
273
     2
274
     2
340
6B
275
     0
280
     0
281
     0
282
     0
283
     0
284
     0
285
     0
286
     0
287
     3
288
     0
  0
DIMSTYLE
105
62
330
A
100
AcDbSymbolTableRecord
100
AcDbDimStyleTableRecord
  2
AM_JIS$7
 70
     0
  3

  4
"
  5
OPEN30
  6

  7

 40
0.5
 41
2.5
 42
1.0
 43
10.0
 44
1.0
 45
0.0
 46
0.0
 47
0.1
 48
0.1
140
3.2
141
0.0
142
0.0
143
0.0393701
144
1.0
145
0.0
146
0.71
147
1.5
 71
     0
 72
     0
 73
     0
 74
     0
 75
     0
 76
     0
 77
     3
 78
     8
170
     0
171
     2
172
     1
173
     0
174
     0
175
     0
176
   256
177
   256
178
     2
270
     2
271
     2
272
     3
273
     2
274
     2
340
6B
275
     0
280
     0
281
     0
282
     0
283
     0
284
     0
285
     0
286
     0
287
     3
288
     0
  0
DIMSTYLE
105
63
330
A
100
AcDbSymbolTableRecord
100
AcDbDimStyleTableRecord
  2
AM_JIS$SF
 70
     0
  3

  4
"
  5
OPEN30
  6

  7

 40
0.5
 41
2.5
 42
1.0
 43
10.0
 44
1.0
 45
0.0
 46
0.0
 47
0.1
 48
0.1
140
3.2
141
0.0
142
0.0
143
0.0393701
144
1.0
145
0.0
146
0.71
147
1.5
 71
     0
 72
     0
 73
     0
 74
     0
 75
     1
 76
     1
 77
     3
 78
     8
170
     0
171
     2
172
     1
173
     0
174
     0
175
     0
176
   256
177
   256
178
     2
270
     2
271
     2
272
     2
273
     2
274
     2
340
6B
275
     0
280
     0
281
     0
282
     0
283
     0
284
     0
285
     0
286
     0
287
     3
288
     0
  0
DIMSTYLE
105
68
330
A
100
AcDbSymbolTableRecord
100
AcDbDimStyleTableRecord
  2
AM_JIS$SH
 70
     0
  3

  4
"
  5

  6
GENAXEH
  7
OPEN30
 40
0.5
 41
2.5
 42
1.0
 43
10.0
 44
1.0
 45
0.0
 46
0.0
 47
0.1
 48
0.1
140
3.2
141
0.0
142
0.0
143
0.0393701
144
2.0
145
0.0
146
0.71
147
1.5
 71
     0
 72
     0
 73
     0
 74
     0
 75
     1
 76
     1
 77
     3
 78
     8
170
     0
171
     2
172
     1
173
     1
174
     0
175
     0
176
   256
177
   256
178
     2
270
     2
271
     2
272
     2
273
     2
274
     2
340
6B
275
     0
280
     0
281
     0
282
     0
283
     0
284
     0
285
     0
286
     0
287
     3
288
     0
  0
DIMSTYLE
105
B34
330
A
100
AcDbSymbolTableRecord
100
AcDbDimStyleTableRecord
  2
AM_JIS$2
 70
     0
  3

  4
"
  5
OPEN30
  6

  7

 40
0.5
 41
2.5
 42
1.0
 43
12.0
 44
1.0
 45
0.0
 46
0.0
 47
0.1
 48
0.1
140
3.2
141
0.0
142
0.0
143
0.0393701
144
1.0
145
0.0
146
0.71
147
1.5
 71
     0
 72
     0
 73
     0
 74
     0
 75
     0
 76
     0
 77
     3
 78
     8
170
     0
171
     2
172
     1
173
     0
174
     0
175
     0
176
   256
177
   256
178
     2
270
     2
271
     3
272
     3
273
     2
274
     2
340
6B
275
     0
280
     0
281
     0
282
     0
283
     0
284
     0
285
     0
286
     0
287
     3
288
     0
  0
ENDTAB
  0
TABLE
  2
BLOCK_RECORD
  5
1
330
0
100
AcDbSymbolTable
 70
     9
  0
BLOCK_RECORD
  5
1F
102
{ACAD_XDICTIONARY
360
74
102
}
330
1
100
AcDbSymbolTableRecord
100
AcDbBlockTableRecord
  2
*MODEL_SPACE
  0
BLOCK_RECORD
  5
101
102
{ACAD_XDICTIONARY
360
1486
102
}
330
1
100
AcDbSymbolTableRecord
100
AcDbBlockTableRecord
  2
*PAPER_SPACE
  0
BLOCK_RECORD
  5
59
330
1
100
AcDbSymbolTableRecord
100
AcDbBlockTableRecord
  2
_OPEN30
  0
BLOCK_RECORD
  5
64
330
1
100
AcDbSymbolTableRecord
100
AcDbBlockTableRecord
  2
GENAXEH
  0
BLOCK_RECORD
  5
C75
330
1
100
AcDbSymbolTableRecord
100
AcDbBlockTableRecord
  2
*D5
  0
BLOCK_RECORD
  5
C81
330
1
100
AcDbSymbolTableRecord
100
AcDbBlockTableRecord
  2
*D6
  0
BLOCK_RECORD
  5
C8D
330
1
100
AcDbSymbolTableRecord
100
AcDbBlockTableRecord
  2
*D7
  0
BLOCK_RECORD
  5
C99
330
1
100
AcDbSymbolTableRecord
100
AcDbBlockTableRecord
  2
*D8
  0
ENDTAB
  0
ENDSEC
  0
SECTION
  2
BLOCKS
  0
BLOCK
  5
20
330
1F
100
AcDbEntity
  8
0
100
AcDbBlockBegin
  2
*MODEL_SPACE
 70
     0
 10
0.0
 20
0.0
 30
0.0
  3
*MODEL_SPACE
  1

  0
ENDBLK
  5
21
330
1F
100
AcDbEntity
  8
0
100
AcDbBlockEnd
  0
BLOCK
  5
103
330
101
100
AcDbEntity
 67
     1
  8
0
100
AcDbBlockBegin
  2
*PAPER_SPACE
 70
     0
 10
0.0
 20
0.0
 30
0.0
  3
*PAPER_SPACE
  1

  0
ENDBLK
  5
104
330
101
100
AcDbEntity
 67
     1
  8
0
100
AcDbBlockEnd
  0
BLOCK
  5
5D
330
59
100
AcDbEntity
  8
0
100
AcDbBlockBegin
  2
_OPEN30
 70
     0
 10
0.0
 20
0.0
 30
0.0
  3
_OPEN30
  1

  0
LINE
  5
5A
330
59
100
AcDbEntity
  8
0
 62
     0
100
AcDbLine
 10
-1.0
 20
0.26794919
 30
0.0
 11
0.0
 21
0.0
 31
0.0
  0
LINE
  5
5B
330
59
100
AcDbEntity
  8
0
 62
     0
100
AcDbLine
 10
0.0
 20
0.0
 30
0.0
 11
-1.0
 21
-0.26794919
 31
0.0
  0
LINE
  5
5C
330
59
100
AcDbEntity
  8
0
 62
     0
100
AcDbLine
 10
0.0
 20
0.0
 30
0.0
 11
-1.0
 21
0.0
 31
0.0
  0
ENDBLK
  5
5E
330
59
100
AcDbEntity
  8
0
100
AcDbBlockEnd
  0
BLOCK
  5
66
330
64
100
AcDbEntity
  8
0
100
AcDbBlockBegin
  2
GENAXEH
 70
     0
 10
0.0
 20
0.0
 30
0.0
  3
GENAXEH
  1

  0
LINE
  5
65
330
64
100
AcDbEntity
  8
0
100
AcDbLine
 10
-1.0
 20
0.0
 30
0.0
 11
1.0
 21
0.0
 31
0.0
  0
ENDBLK
  5
67
330
64
100
AcDbEntity
  8
0
100
AcDbBlockEnd
  0
BLOCK
  5
C7F
330
C75
100
AcDbEntity
  8
0
100
AcDbBlockBegin
  2
*D5
 70
     1
 10
0.0
 20
0.0
 30
0.0
  3
*D5
  1

  0
LINE
  5
13F0
330
C75
100
AcDbEntity
  8
AM_5
100
AcDbLine
 10
-45.00000000000007
 20
-2.750000000000006
 30
0.0
 11
-45.00000000000007
 21
-16.50000099999994
 31
0.0
  0
LINE
  5
13F1
330
C75
100
AcDbEntity
  8
AM_5
100
AcDbLine
 10
-0.0000000000000603
 20
-2.000000000000003
 30
0.0
 11
-0.0000000000000611
 21
-16.50000099999994
 31
0.0
  0
LINE
  5
13F2
330
C75
100
AcDbEntity
  8
AM_5
100
AcDbLine
 10
-43.75000000000007
 20
-16.00000099999994
 30
0.0
 11
-1.250000000000061
 21
-16.00000099999994
 31
0.0
  0
INSERT
  5
13F3
330
C75
100
AcDbEntity
  8
AM_5
100
AcDbBlockReference
  2
_OPEN30
 10
-45.00000000000007
 20
-16.00000099999994
 30
0.0
 41
1.25
 42
1.25
 43
1.25
 50
180.0
  0
INSERT
  5
13F4
330
C75
100
AcDbEntity
  8
AM_5
100
AcDbBlockReference
  2
_OPEN30
 10
-0.0000000000000611
 20
-16.00000099999994
 30
0.0
 41
1.25
 42
1.25
 43
1.25
  0
MTEXT
  5
13F5
330
C75
100
AcDbEntity
  8
AM_5
 62
     2
100
AcDbMText
 10
-22.50000000000006
 20
-14.45000099999994
 30
0.0
 40
1.6
 41
0.0
 71
     5
 72
     1
  1
45
  7
ASAMI
1001
ACAD
1000
MTEXTBEGIN
1070
    73
1070
     1
1070
    44
1040
1.0
1070
    74
1070
     0
1000
MTEXTEND
  0
POINT
  5
13F6
330
C75
100
AcDbEntity
  8
DEFPOINTS
 62
     0
100
AcDbPoint
 10
-45.00000000000007
 20
-2.250000000000006
 30
0.0
  0
POINT
  5
13F7
330
C75
100
AcDbEntity
  8
DEFPOINTS
 62
     0
100
AcDbPoint
 10
-0.0000000000000602
 20
-1.500000000000003
 30
0.0
  0
POINT
  5
13F8
330
C75
100
AcDbEntity
  8
DEFPOINTS
 62
     0
100
AcDbPoint
 10
-0.0000000000000611
 20
-16.00000099999994
 30
0.0
  0
ENDBLK
  5
C80
330
C75
100
AcDbEntity
  8
0
100
AcDbBlockEnd
  0
BLOCK
  5
C8B
330
C81
100
AcDbEntity
  8
0
100
AcDbBlockBegin
  2
*D6
 70
     1
 10
0.0
 20
0.0
 30
0.0
  3
*D6
  1

  0
LINE
  5
12E8
330
C81
100
AcDbEntity
  8
AM_5
100
AcDbLine
 10
-45.00000000000007
 20
-3.000000000000005
 30
0.0
 11
-52.50000100000006
 21
-3.000000000000003
 31
0.0
  0
LINE
  5
12E9
330
C81
100
AcDbEntity
  8
AM_5
100
AcDbLine
 10
-45.00000000000007
 20
2.999999999999999
 30
0.0
 11
-52.50000100000006
 21
3.0
 31
0.0
  0
LINE
  5
12EA
330
C81
100
AcDbEntity
  8
AM_5
100
AcDbLine
 10
-52.00000100000006
 20
-4.250000000000004
 30
0.0
 11
-52.00000100000006
 21
-5.500000000000004
 31
0.0
  0
LINE
  5
12EB
330
C81
100
AcDbEntity
  8
AM_5
100
AcDbLine
 10
-52.00000100000006
 20
4.25
 30
0.0
 11
-52.00000100000006
 21
5.5
 31
0.0
  0
LINE
  5
12EC
330
C81
100
AcDbEntity
  8
AM_5
100
AcDbLine
 10
-52.00000100000006
 20
-3.000000000000003
 30
0.0
 11
-52.00000100000006
 21
3.0
 31
0.0
  0
INSERT
  5
12ED
330
C81
100
AcDbEntity
  8
AM_5
100
AcDbBlockReference
  2
_OPEN30
 10
-52.00000100000006
 20
-3.000000000000003
 30
0.0
 41
1.25
 42
1.25
 43
1.25
 50
90.0
  0
INSERT
  5
12EE
330
C81
100
AcDbEntity
  8
AM_5
100
AcDbBlockReference
  2
_OPEN30
 10
-52.00000100000006
 20
3.0
 30
0.0
 41
1.25
 42
1.25
 43
1.25
 50
270.0
  0
MTEXT
  5
12EF
330
C81
100
AcDbEntity
  8
AM_5
 62
     2
100
AcDbMText
 10
-53.55000100000006
 20
-0.0000000000000079
 30
0.0
 40
1.6
 41
0.0
 71
     5
 72
     1
  1
%%c6
  7
ASAMI
 11
0.0000000000000001
 21
1.0
 31
0.0
1001
ACAD
1000
MTEXTBEGIN
1070
    73
1070
     1
1070
    44
1040
1.0
1070
    74
1070
     0
1000
MTEXTEND
  0
POINT
  5
12F0
330
C81
100
AcDbEntity
  8
DEFPOINTS
 62
     0
100
AcDbPoint
 10
-44.50000000000007
 20
-3.000000000000006
 30
0.0
  0
POINT
  5
12F1
330
C81
100
AcDbEntity
  8
DEFPOINTS
 62
     0
100
AcDbPoint
 10
-44.50000000000007
 20
2.999999999999998
 30
0.0
  0
POINT
  5
12F2
330
C81
100
AcDbEntity
  8
DEFPOINTS
 62
     0
100
AcDbPoint
 10
-52.00000100000006
 20
3.0
 30
0.0
  0
ENDBLK
  5
C8C
330
C81
100
AcDbEntity
  8
0
100
AcDbBlockEnd
  0
BLOCK
  5
C97
330
C8D
100
AcDbEntity
  8
0
100
AcDbBlockBegin
  2
*D7
 70
     1
 10
0.0
 20
0.0
 30
0.0
  3
*D7
  1

  0
LINE
  5
126A
330
C8D
100
AcDbEntity
  8
AM_5
100
AcDbLine
 10
-8.00000000000006
 20
-2.000000000000003
 30
0.0
 11
-8.00000000000006
 21
-10.50000100000006
 31
0.0
  0
LINE
  5
126B
330
C8D
100
AcDbEntity
  8
AM_5
100
AcDbLine
 10
-0.0000000000000569
 20
-2.000000000000003
 30
0.0
 11
-0.0000000000000574
 21
-10.50000100000006
 31
0.0
  0
LINE
  5
126C
330
C8D
100
AcDbEntity
  8
AM_5
100
AcDbLine
 10
-6.75000000000006
 20
-10.00000100000006
 30
0.0
 11
-1.250000000000057
 21
-10.00000100000006
 31
0.0
  0
INSERT
  5
126D
330
C8D
100
AcDbEntity
  8
AM_5
100
AcDbBlockReference
  2
_OPEN30
 10
-8.00000000000006
 20
-10.00000100000006
 30
0.0
 41
1.25
 42
1.25
 43
1.25
 50
180.0
  0
INSERT
  5
126E
330
C8D
100
AcDbEntity
  8
AM_5
100
AcDbBlockReference
  2
_OPEN30
 10
-0.0000000000000574
 20
-10.00000100000006
 30
0.0
 41
1.25
 42
1.25
 43
1.25
  0
MTEXT
  5
126F
330
C8D
100
AcDbEntity
  8
AM_5
 62
     2
100
AcDbMText
 10
-4.000000000000058
 20
-8.450001000000062
 30
0.0
 40
1.6
 41
0.0
 71
     5
 72
     1
  1
8
  7
ASAMI
1001
ACAD
1000
MTEXTBEGIN
1070
    73
1070
     1
1070
    44
1040
1.0
1070
    74
1070
     0
1000
MTEXTEND
  0
POINT
  5
1270
330
C8D
100
AcDbEntity
  8
DEFPOINTS
 62
     0
100
AcDbPoint
 10
-8.00000000000006
 20
-1.500000000000003
 30
0.0
  0
POINT
  5
1271
330
C8D
100
AcDbEntity
  8
DEFPOINTS
 62
     0
100
AcDbPoint
 10
-0.0000000000000568
 20
-1.500000000000003
 30
0.0
  0
POINT
  5
1272
330
C8D
100
AcDbEntity
  8
DEFPOINTS
 62
     0
100
AcDbPoint
 10
-0.0000000000000574
 20
-10.00000100000006
 30
0.0
  0
ENDBLK
  5
C98
330
C8D
100
AcDbEntity
  8
0
100
AcDbBlockEnd
  0
BLOCK
  5
CA5
330
C99
100
AcDbEntity
  8
0
100
AcDbBlockBegin
  2
*D8
 70
     1
 10
0.0
 20
0.0
 30
0.0
  3
*D8
  1

  0
LINE
  5
1273
330
C99
100
AcDbEntity
  8
AM_5
100
AcDbLine
 10
0.4999999999999432
 20
-1.500000000000003
 30
0.0
 11
8.829530889074508
 21
-1.500000000000005
 31
0.0
  0
LINE
  5
1274
330
C99
100
AcDbEntity
  8
AM_5
100
AcDbLine
 10
0.3384389468900105
 20
1.500000000008182
 30
0.0
 11
8.829530889074508
 21
1.500000000008179
 31
0.0
  0
LINE
  5
1275
330
C99
100
AcDbEntity
  8
AM_5
100
AcDbLine
 10
8.329530889074508
 20
-2.750000000000005
 30
0.0
 11
8.329530889074506
 21
-4.000000000000005
 31
0.0
  0
LINE
  5
1276
330
C99
100
AcDbEntity
  8
AM_5
100
AcDbLine
 10
8.329530889074508
 20
2.75000000000818
 30
0.0
 11
8.32953088907451
 21
8.014285714293894
 31
0.0
  0
LINE
  5
1277
330
C99
100
AcDbEntity
  8
AM_5
100
AcDbLine
 10
8.329530889074508
 20
-1.500000000000005
 30
0.0
 11
8.329530889074508
 21
1.50000000000818
 31
0.0
  0
INSERT
  5
1278
330
C99
100
AcDbEntity
  8
AM_5
100
AcDbBlockReference
  2
_OPEN30
 10
8.329530889074508
 20
-1.500000000000005
 30
0.0
 41
1.25
 42
1.25
 43
1.25
 50
90.0
  0
INSERT
  5
1279
330
C99
100
AcDbEntity
  8
AM_5
100
AcDbBlockReference
  2
_OPEN30
 10
8.329530889074508
 20
1.50000000000818
 30
0.0
 41
1.25
 42
1.25
 43
1.25
 50
270.0
  0
MTEXT
  5
127A
330
C99
100
AcDbEntity
  8
AM_5
 62
     2
100
AcDbMText
 10
6.779530889074507
 20
6.007142857151039
 30
0.0
 40
1.6
 41
0.0
 71
     5
 72
     1
  1
%%c3
  7
ASAMI
 11
0.0000000000000001
 21
1.0
 31
0.0
1001
ACAD
1000
MTEXTBEGIN
1070
    73
1070
     1
1070
    44
1040
1.0
1070
    74
1070
     0
1000
MTEXTEND
  0
POINT
  5
127B
330
C99
100
AcDbEntity
  8
DEFPOINTS
 62
     0
100
AcDbPoint
 10
-0.0000000000000568
 20
-1.500000000000003
 30
0.0
  0
POINT
  5
127C
330
C99
100
AcDbEntity
  8
DEFPOINTS
 62
     0
100
AcDbPoint
 10
-0.1615610531099895
 20
1.500000000008182
 30
0.0
  0
POINT
  5
127D
330
C99
100
AcDbEntity
  8
DEFPOINTS
 62
     0
100
AcDbPoint
 10
8.329530889074508
 20
1.50000000000818
 30
0.0
  0
ENDBLK
  5
CA6
330
C99
100
AcDbEntity
  8
0
100
AcDbBlockEnd
  0
ENDSEC
  0
SECTION
  2
ENTITIES
  0
DIMENSION
  5
C4F
330
1F
100
AcDbEntity
  8
AM_5
100
AcDbDimension
  2
*D5
 10
-0.0000000000000611
 20
-16.00000099999994
 30
0.0
 11
-22.50000000000006
 21
-14.45000099999994
 31
0.0
 70
    32
  1
<>
  3
AM_JIS
100
AcDbAlignedDimension
 13
-45.00000000000007
 23
-2.250000000000006
 33
0.0
 14
-0.0000000000000602
 24
-1.500000000000003
 34
0.0
 50
0.0000000000002036
100
AcDbRotatedDimension
1001
GENIUS_GENDTOL_13
1000

1000
H7
1000

1040
0.0
  0
LINE
  5
C50
330
1F
100
AcDbEntity
  8
AM_7
100
AcDbLine
 10
-47.38487321524641
 20
-0.0000000000000036
 30
0.0
 11
1.32952988907452
 21
-0.0000000000000036
 31
0.0
1001
GENIUS_GENODEF_13
1002
{
1000
HIER
1070
     0
1002
}
1002
{
1000
MANEDIT
1070
     0
1002
}
1002
{
1000
NOSEL
1070
     0
1002
}
1002
{
1000
BEHIND
1070
     0
1002
}
1002
{
1000
REACTOR
1002
}
1001
GENIUS_GENOBJ-N-CEN_13
1002
{
1000
OWNER
1000
GEN
1002
}
  0
DIMENSION
  5
C53
330
1F
100
AcDbEntity
  8
AM_5
100
AcDbDimension
  2
*D6
 10
-52.00000100000006
 20
3.0
 30
0.0
 11
-52.00000100000006
 21
-0.0000000000000081
 31
0.0
 70
   160
  1
%%c<>
  3
AM_JIS
100
AcDbAlignedDimension
 13
-44.50000000000007
 23
-3.000000000000006
 33
0.0
 14
-44.50000000000007
 24
2.999999999999998
 34
0.0
 50
270.0
100
AcDbRotatedDimension
1001
ACAD
1000
DSTYLE
1002
{
1070
    48
1040
0.1
1070
    47
1040
0.1
1070
   274
1070
     2
1070
   272
1070
     3
1002
}
1001
GENIUS_GENDTOL_13
1000

1000
h6
1000

1040
0.0
  0
TEXT
  5
C58
330
1F
100
AcDbEntity
  8
AM_6
100
AcDbText
 10
-32.50107655272903
 20
-27.32983042999952
 30
0.0
 40
2.5
  1
HSM2030ZX
 50
0.0000000000002036
 72
     4
 11
-21.78679083844332
 21
-26.07983042999948
 31
0.0
100
AcDbText
  0
DIMENSION
  5
C59
330
1F
100
AcDbEntity
  8
AM_5
100
AcDbDimension
  2
*D7
 10
-0.0000000000000574
 20
-10.00000100000006
 30
0.0
 11
-4.000000000000058
 21
-8.450001000000062
 31
0.0
 70
    32
  1
<>
  3
AM_JIS
100
AcDbAlignedDimension
 13
-8.00000000000006
 23
-1.500000000000003
 33
0.0
 14
-0.0000000000000568
 24
-1.500000000000003
 34
0.0
 50
359.9999999999993
100
AcDbRotatedDimension
1001
GENIUS_GENDTOL_13
1000

1000
H7
1000

1040
0.0
  0
DIMENSION
  5
C6D
330
1F
100
AcDbEntity
  8
AM_5
100
AcDbDimension
  2
*D8
 10
8.329530889074508
 20
1.50000000000818
 30
0.0
 11
6.779530889074507
 21
6.007142857151039
 31
0.0
 70
    32
  1
%%c<>
  3
AM_JIS
100
AcDbAlignedDimension
 13
-0.0000000000000568
 23
-1.500000000000003
 33
0.0
 14
-0.1615610531099895
 24
1.500000000008182
 34
0.0
 50
90.00000000000007
100
AcDbRotatedDimension
1001
ACAD
1000
DSTYLE
1002
{
1070
    48
1040
0.05
1070
    47
1040
0.0
1070
   274
1070
     1
1070
   272
1070
     2
1002
}
1001
GENIUS_GENDTOL_13
1000

1000
H7
1000

1040
0.0
  0
LINE
  5
DFA
330
1F
100
AcDbEntity
  8
AM_0
100
AcDbLine
 10
-16.50000000000007
 20
-3.000000000000006
 30
0.0
 11
-16.50000000000007
 21
2.999999999999993
 31
0.0
  0
LINE
  5
DFB
330
1F
100
AcDbEntity
  8
AM_0
100
AcDbLine
 10
-45.00000000000007
 20
2.249999999999993
 30
0.0
 11
-44.50000000000007
 21
2.999999999999993
 31
0.0
1001
GENIUS_GENFIL_13
1070
     0
1040
0.5
1040
0.5
1040
0.4999999999999716
1040
45.0
1002
{
1002
}
  0
LINE
  5
DFC
330
1F
100
AcDbEntity
  8
AM_0
100
AcDbLine
 10
-45.00000000000007
 20
-2.250000000000006
 30
0.0
 11
-44.50000000000007
 21
-3.000000000000006
 31
0.0
1001
GENIUS_GENFIL_13
1070
     0
1040
0.5
1040
0.5
1040
0.4999999999999716
1040
45.00000000000036
1002
{
1002
}
  0
LINE
  5
DFD
330
1F
100
AcDbEntity
  8
0
100
AcDbLine
 10
-44.50000000000007
 20
-3.000000000000006
 30
0.0
 11
-44.50000000000007
 21
2.999999999999993
 31
0.0
  0
LINE
  5
DFE
330
1F
100
AcDbEntity
  8
AM_0
100
AcDbLine
 10
-45.00000000000007
 20
-2.250000000000006
 30
0.0
 11
-45.00000000000007
 21
2.249999999999993
 31
0.0
  0
LINE
  5
DFF
330
1F
100
AcDbEntity
  8
AM_0
100
AcDbLine
 10
-44.50000000000007
 20
2.999999999999993
 30
0.0
 11
-16.50000000000007
 21
2.999999999999993
 31
0.0
1001
GENIUS_GENODEF_13
1002
{
1000
HIER
1070
     0
1002
}
1002
{
1000
MANEDIT
1070
     0
1002
}
1002
{
1000
NOSEL
1070
     0
1002
}
1002
{
1000
BEHIND
1070
     0
1002
}
1002
{
1000
REACTOR
1002
}
1001
GENIUS_GENOBJ-N-CEN_13
1002
{
1000
OWNER
1000
GEN
1002
}
  0
LINE
  5
E00
330
1F
100
AcDbEntity
  8
AM_0
100
AcDbLine
 10
-44.50000000000007
 20
-3.000000000000006
 30
0.0
 11
-16.50000000000007
 21
-3.000000000000006
 31
0.0
1001
GENIUS_GENODEF_13
1002
{
1000
HIER
1070
     0
1002
}
1002
{
1000
MANEDIT
1070
     0
1002
}
1002
{
1000
NOSEL
1070
     0
1002
}
1002
{
1000
BEHIND
1070
     0
1002
}
1002
{
1000
REACTOR
1002
}
1001
GENIUS_GENOBJ-N-CEN_13
1002
{
1000
OWNER
1000
GEN
1002
}
  0
LINE
  5
E32
330
1F
100
AcDbEntity
  8
AM_0
100
AcDbLine
 10
-16.50000000000007
 20
2.999999999999993
 30
0.0
 11
-10.90192378864678
 21
1.499999999999996
 31
0.0
  0
LINE
  5
103A
330
1F
100
AcDbEntity
  8
AM_11
 48
0.5
100
AcDbLine
 10
-8.00000000000006
 20
1.499999999999996
 30
0.0
 11
-0.0000000000000568
 21
1.499999999999996
 31
0.0
1001
GENIUS_GENODEF_13
1002
{
1000
HIER
1070
     0
1002
}
1002
{
1000
MANEDIT
1070
     0
1002
}
1002
{
1000
NOSEL
1070
     0
1002
}
1002
{
1000
BEHIND
1070
     0
1002
}
1002
{
1000
REACTOR
1002
}
1001
GENIUS_GENOBJ-N-CEN_13
1002
{
1000
OWNER
1000
GEN
1002
}
  0
LINE
  5
1046
330
1F
100
AcDbEntity
  8
AM_11
 48
0.3
100
AcDbLine
 10
-8.00000000000006
 20
1.499999999999996
 30
0.0
 11
-8.00000000000006
 21
-1.500000000000003
 31
0.0
  0
LINE
  5
113A
330
1F
100
AcDbEntity
  8
AM_0
100
AcDbLine
 10
-0.0932773174848691
 20
0.2399999999999833
 30
0.0
 11
-0.0000000000000568
 21
0.3899999999999837
 31
0.0
  0
LINE
  5
113B
330
1F
100
AcDbEntity
  8
AM_0
100
AcDbLine
 10
-0.0000000000000568
 20
0.3899999999999837
 30
0.0
 11
-0.0000000000000568
 21
1.459807621135425
 31
0.0
  0
LINE
  5
113C
330
1F
100
AcDbEntity
  8
AM_0
100
AcDbLine
 10
-0.4621626765620156
 20
0.8332074951730161
 30
0.0
 11
-1.853028291703093
 21
1.083618118590399
 31
0.0
  0
SPLINE
  5
113D
330
1F
100
AcDbEntity
  8
AM_0
100
AcDbSpline
210
0.0
220
0.0
230
1.0
 70
     8
 71
     3
 72
     8
 73
     4
 74
     0
 42
0.0000000001
 43
0.0000000001
 40
0.3982504941345976
 40
0.3982504941345976
 40
0.3982504941345976
 40
0.3982504941345976
 40
6.452065446090842
 40
6.452065446090842
 40
6.452065446090842
 40
6.452065446090842
 10
-2.447007754516347
 20
1.379363586754888
 30
0.0
 10
-1.830369821132021
 20
1.301507977928801
 30
0.0
 10
-1.474240558171675
 20
0.6507539889645014
 30
0.0
 10
-1.118111295211329
 20
0.0000000000002016
 30
0.0
  0
SPLINE
  5
113E
330
1F
100
AcDbEntity
  8
AM_0
100
AcDbSpline
210
0.0
220
0.0
230
1.0
 70
     8
 71
     3
 72
     8
 73
     4
 74
     0
 42
0.0000000001
 43
0.0000000001
 40
0.0
 40
0.0
 40
0.0
 40
0.0
 40
2.018043607061233
 40
2.018043607061233
 40
2.018043607061233
 40
2.018043607061233
 10
-3.069660008468634
 20
1.500000000000167
 30
0.0
 10
-2.345132785551424
 20
1.500000000000167
 30
0.0
 10
-1.980371658161995
 20
0.7500000000001678
 30
0.0
 10
-1.615610530772566
 20
0.0000000000001679
 30
0.0
  0
SPLINE
  5
113F
330
1F
100
AcDbEntity
  8
AM_0
100
AcDbSpline
210
0.0
220
0.0
230
1.0
 70
     8
 71
     3
 72
     8
 73
     4
 74
     0
 42
0.0000000001
 43
0.0000000001
 40
0.157854605497133
 40
0.157854605497133
 40
0.157854605497133
 40
0.157854605497133
 40
6.616360992657454
 40
6.616360992657454
 40
6.616360992657454
 40
6.616360992657454
 10
-2.77269390181303
 20
1.453882913232936
 30
0.0
 10
-2.092801214383897
 20
1.420398975981205
 30
0.0
 10
-1.730936357131765
 20
0.7101994879906868
 30
0.0
 10
-1.369071499879923
 20
0.0000000000001332
 30
0.0
  0
SPLINE
  5
1140
330
1F
100
AcDbEntity
  8
AM_0
100
AcDbSpline
210
0.0
220
0.0
230
1.0
 70
     8
 71
     3
 72
     8
 73
     4
 74
     0
 42
0.0000000001
 43
0.0000000001
 40
0.0
 40
0.0
 40
0.0
 40
0.0
 40
3.69259279141909
 40
3.69259279141909
 40
3.69259279141909
 40
3.69259279141909
 10
-0.1615610530763466
 20
1.49999999999986
 30
0.0
 10
-0.5592805063878879
 20
1.499999999999928
 30
0.0
 10
-0.8485911728621262
 20
1.274001521714259
 30
0.0
 10
-1.089002594820219
 20
0.9460633836247293
 30
0.0
  0
LINE
  5
1141
330
1F
100
AcDbEntity
  8
AM_0
100
AcDbLine
 10
-0.0000000000000568
 20
0.089999999999983
 30
0.0
 11
-0.4621626765620156
 21
0.8332074951730161
 31
0.0
  0
SPLINE
  5
1142
330
1F
100
AcDbEntity
  8
AM_0
100
AcDbSpline
210
0.0
220
0.0
230
1.0
 70
     8
 71
     3
 72
     8
 73
     4
 74
     0
 42
0.0000000001
 43
0.0000000001
 40
0.0
 40
0.0
 40
0.0
 40
0.0
 40
0.7228444211818096
 40
0.7228444211818096
 40
0.7228444211818096
 40
0.7228444211818096
 10
-0.1615610530763466
 20
1.49999999999986
 30
0.0
 10
-0.1099789674189564
 20
1.263859230646139
 30
0.0
 10
-0.2026437745682574
 20
0.8332074951730161
 30
0.0
 10
-0.4621626765620156
 20
0.8332074951730161
 30
0.0
  0
LINE
  5
1143
330
1F
100
AcDbEntity
  8
AM_0
100
AcDbLine
 10
-0.1615610531099895
 20
1.500000000008182
 30
0.0
 11
-0.0000000000000568
 21
1.459807621135425
 31
0.0
  0
SPLINE
  5
1144
330
1F
100
AcDbEntity
  8
AM_0
100
AcDbSpline
210
0.0
220
0.0
230
1.0
 70
     8
 71
     3
 72
     8
 73
     4
 74
     0
 42
0.0000000001
 43
0.0000000001
 40
0.157854605497133
 40
0.157854605497133
 40
0.157854605497133
 40
0.157854605497133
 40
6.616360992657454
 40
6.616360992657454
 40
6.616360992657454
 40
6.616360992657454
 10
-5.6807928572043
 20
1.453882913232937
 30
0.0
 10
-5.000900169774884
 20
1.420398975981206
 30
0.0
 10
-4.639035312523027
 20
0.7101994879906873
 30
0.0
 10
-4.277170455271048
 20
0.0000000000001341
 30
0.0
  0
SPLINE
  5
1145
330
1F
100
AcDbEntity
  8
AM_0
100
AcDbSpline
210
0.0
220
0.0
230
1.0
 70
     8
 71
     3
 72
     8
 73
     4
 74
     0
 42
0.0000000001
 43
0.0000000001
 40
0.0
 40
0.0
 40
0.0
 40
0.0
 40
2.018043607061148
 40
2.018043607061148
 40
2.018043607061148
 40
2.018043607061148
 10
-5.977758963859758
 20
1.500000000000168
 30
0.0
 10
-5.253231740942579
 20
1.500000000000168
 30
0.0
 10
-4.888470613553203
 20
0.750000000000168
 30
0.0
 10
-4.523709486163829
 20
0.0000000000001679
 30
0.0
  0
SPLINE
  5
1146
330
1F
100
AcDbEntity
  8
AM_0
100
AcDbSpline
210
0.0
220
0.0
230
1.0
 70
     8
 71
     3
 72
     8
 73
     4
 74
     0
 42
0.0000000001
 43
0.0000000001
 40
0.3982504941345976
 40
0.3982504941345976
 40
0.3982504941345976
 40
0.3982504941345976
 40
6.452065446090842
 40
6.452065446090842
 40
6.452065446090842
 40
6.452065446090842
 10
-5.355106709907471
 20
1.379363586754889
 30
0.0
 10
-4.738468776523145
 20
1.301507977928801
 30
0.0
 10
-4.382339513562799
 20
0.6507539889645018
 30
0.0
 10
-4.026210250602454
 20
0.0000000000002021
 30
0.0
  0
ELLIPSE
  5
1149
330
1F
100
AcDbEntity
  8
AM_0
100
AcDbEllipse
 10
-9.364548310512958
 20
-0.2195548390715905
 30
0.0
 11
0.3231221061546181
 21
0.000000000000008
 31
0.0
210
0.0
220
0.0
230
1.0
 40
0.928441583803141
 41
2.32815313183839
 42
3.707543945116595
1001
GENIUS_GENODEF_13
1002
{
1000
HIER
1070
     0
1002
}
1002
{
1000
MANEDIT
1070
     0
1002
}
1002
{
1000
NOSEL
1070
     0
1002
}
1002
{
1000
BEHIND
1070
     0
1002
}
1002
{
1000
REACTOR
1002
}
1001
GENIUS_GENOBJ-N-FIL_13
1002
{
1000
OWNER
1000
GEN
1002
}
  0
SPLINE
  5
114B
330
1F
100
AcDbEntity
  8
AM_0
100
AcDbSpline
210
0.0
220
0.0
230
1.0
 70
     8
 71
     3
 72
     8
 73
     4
 74
     0
 42
0.0000000001
 43
0.0000000001
 40
0.3982504941345976
 40
0.3982504941345976
 40
0.3982504941345976
 40
0.3982504941345976
 40
6.452065446090842
 40
6.452065446090842
 40
6.452065446090842
 40
6.452065446090842
 10
-8.263205665298595
 20
1.379363586754889
 30
0.0
 10
-7.646567731914269
 20
1.301507977928802
 30
0.0
 10
-7.290438468953924
 20
0.6507539889645022
 30
0.0
 10
-6.934309205993578
 20
0.0000000000002025
 30
0.0
  0
SPLINE
  5
114C
330
1F
100
AcDbEntity
  8
AM_0
100
AcDbSpline
210
0.0
220
0.0
230
1.0
 70
     8
 71
     3
 72
     8
 73
     4
 74
     0
 42
0.0000000001
 43
0.0000000001
 40
0.157854605497133
 40
0.157854605497133
 40
0.157854605497133
 40
0.157854605497133
 40
6.616360992657454
 40
6.616360992657454
 40
6.616360992657454
 40
6.616360992657454
 10
-8.761003123507006
 20
1.499999999999996
 30
0.0
 10
-7.908999125166146
 20
1.420398975981206
 30
0.0
 10
-7.547134267914151
 20
0.7101994879906873
 30
0.0
 10
-7.185269410662164
 20
0.0000000000001341
 30
0.0
  0
LINE
  5
114D
330
1F
100
AcDbEntity
  8
AM_0
100
AcDbLine
 10
-6.278360587344409
 20
0.8332074951730167
 30
0.0
 11
-7.66922620248548
 21
1.0836181185904
 31
0.0
  0
SPLINE
  5
114E
330
1F
100
AcDbEntity
  8
AM_0
100
AcDbSpline
210
0.0
220
0.0
230
1.0
 70
     8
 71
     3
 72
     8
 73
     4
 74
     0
 42
0.0000000001
 43
0.0000000001
 40
0.0
 40
0.0
 40
0.0
 40
0.0
 40
3.69259279141909
 40
3.69259279141909
 40
3.69259279141909
 40
3.69259279141909
 10
-5.977758963858732
 20
1.499999999999861
 30
0.0
 10
-6.375478417170289
 20
1.499999999999929
 30
0.0
 10
-6.664789083644512
 20
1.27400152171426
 30
0.0
 10
-6.905200505602469
 20
0.9460633836247303
 30
0.0
  0
SPLINE
  5
114F
330
1F
100
AcDbEntity
  8
AM_0
100
AcDbSpline
210
0.0
220
0.0
230
1.0
 70
     8
 71
     3
 72
     8
 73
     4
 74
     0
 42
0.0000000001
 43
0.0000000001
 40
0.0
 40
0.0
 40
0.0
 40
0.0
 40
3.69259279141909
 40
3.69259279141909
 40
3.69259279141909
 40
3.69259279141909
 10
-3.069660008467471
 20
1.49999999999986
 30
0.0
 10
-3.467379461779012
 20
1.499999999999928
 30
0.0
 10
-3.75669012825325
 20
1.274001521714259
 30
0.0
 10
-3.997101550211344
 20
0.9460633836247298
 30
0.0
  0
LINE
  5
1150
330
1F
100
AcDbEntity
  8
AM_0
100
AcDbLine
 10
-3.370261631953139
 20
0.8332074951730167
 30
0.0
 11
-4.761127247094218
 21
1.0836181185904
 31
0.0
  0
SPLINE
  5
1151
330
1F
100
AcDbEntity
  8
AM_0
100
AcDbSpline
210
0.0
220
0.0
230
1.0
 70
     8
 71
     3
 72
     8
 73
     4
 74
     0
 42
0.0000000001
 43
0.0000000001
 40
0.0
 40
0.0
 40
0.0
 40
0.0
 40
0.0681566725481266
 40
0.0681566725481266
 40
0.0681566725481266
 40
0.0681566725481266
 10
-0.1615610530770813
 20
-1.499999999999763
 30
0.0
 10
-0.1542200772163494
 20
-1.499999999999763
 30
0.0
 10
-0.1469160346807823
 20
-1.499923005546489
 30
0.0
 10
-0.1396485512583645
 20
-1.499769796754812
 30
0.0
  0
SPLINE
  5
1152
330
1F
100
AcDbEntity
  8
AM_0
100
AcDbSpline
210
0.0
220
0.0
230
1.0
 70
     8
 71
     3
 72
     8
 73
     4
 74
     0
 42
0.0000000001
 43
0.0000000001
 40
0.0
 40
0.0
 40
0.0
 40
0.0
 40
0.9875149967633806
 40
0.9875149967633806
 40
0.9875149967633806
 40
0.9875149967633806
 10
-3.069660008468343
 20
-1.499999999999763
 30
0.0
 10
-2.963297366597251
 20
-1.499999999999763
 30
0.0
 10
-2.864688068647472
 20
-1.483836698306381
 30
0.0
 10
-2.77269390184153
 20
-1.453882913241877
 30
0.0
  0
SPLINE
  5
1153
330
1F
100
AcDbEntity
  8
AM_0
100
AcDbSpline
210
0.0
220
0.0
230
1.0
 70
     8
 71
     3
 72
     8
 73
     4
 74
     0
 42
0.0000000001
 43
0.0000000001
 40
0.0
 40
0.0
 40
0.0
 40
0.0
 40
1.274172826456642
 40
1.274172826456642
 40
1.274172826456642
 40
1.274172826456642
 10
-2.823120977575547
 20
-1.45511544238358
 30
0.0
 10
-2.68588317514569
 20
-1.45511544238358
 30
0.0
 10
-2.561326116167561
 20
-1.428132721142006
 30
0.0
 10
-2.447007754515903
 20
-1.379363586754484
 30
0.0
  0
SPLINE
  5
1154
330
1F
100
AcDbEntity
  8
AM_0
100
AcDbSpline
210
0.0
220
0.0
230
1.0
 70
     8
 71
     3
 72
     8
 73
     4
 74
     0
 42
0.0000000001
 43
0.0000000001
 40
0.0
 40
0.0
 40
0.0
 40
0.0
 40
2.65269546380069
 40
2.65269546380069
 40
2.65269546380069
 40
2.65269546380069
 10
-2.572160772906524
 20
-1.387127739920369
 30
0.0
 10
-2.286445924489984
 20
-1.38712773992037
 30
0.0
 10
-2.054041030442995
 20
-1.26989100283221
 30
0.0
 10
-1.853028291680608
 20
-1.083618118569771
 30
0.0
  0
LINE
  5
1155
330
1F
100
AcDbEntity
  8
AM_0
100
AcDbLine
 10
-1.089002594820801
 20
-0.9460633836247351
 30
0.0
 11
-1.853028291702205
 21
-1.083618118589791
 31
0.0
  0
LINE
  5
1156
330
1F
100
AcDbEntity
  8
AM_0
100
AcDbLine
 10
-0.1396485512580737
 20
-1.499769796754813
 30
0.0
 11
-0.0000000000000568
 21
-1.465028704312331
 31
0.0
  0
LINE
  5
1157
330
1F
100
AcDbEntity
  8
AM_0
100
AcDbLine
 10
-3.997101550212079
 20
-0.9460633836247351
 30
0.0
 11
-4.761127247093329
 21
-1.08361811858979
 31
0.0
  0
SPLINE
  5
1158
330
1F
100
AcDbEntity
  8
AM_0
100
AcDbSpline
210
0.0
220
0.0
230
1.0
 70
     8
 71
     3
 72
     8
 73
     4
 74
     0
 42
0.0000000001
 43
0.0000000001
 40
0.0
 40
0.0
 40
0.0
 40
0.0
 40
1.274172826456642
 40
1.274172826456642
 40
1.274172826456642
 40
1.274172826456642
 10
-5.731219932966671
 20
-1.45511544238358
 30
0.0
 10
-5.593982130536815
 20
-1.45511544238358
 30
0.0
 10
-5.469425071558686
 20
-1.428132721142005
 30
0.0
 10
-5.355106709907027
 20
-1.379363586754484
 30
0.0
  0
SPLINE
  5
1159
330
1F
100
AcDbEntity
  8
AM_0
100
AcDbSpline
210
0.0
220
0.0
230
1.0
 70
     8
 71
     3
 72
     8
 73
     4
 74
     0
 42
0.0000000001
 43
0.0000000001
 40
0.0
 40
0.0
 40
0.0
 40
0.0
 40
0.9875149967633806
 40
0.9875149967633806
 40
0.9875149967633806
 40
0.9875149967633806
 10
-5.977758963859468
 20
-1.499999999999763
 30
0.0
 10
-5.871396321988223
 20
-1.499999999999763
 30
0.0
 10
-5.772787024038596
 20
-1.483836698306381
 30
0.0
 10
-5.680792857232654
 20
-1.453882913241877
 30
0.0
  0
SPLINE
  5
115A
330
1F
100
AcDbEntity
  8
AM_0
100
AcDbSpline
210
0.0
220
0.0
230
1.0
 70
     8
 71
     3
 72
     8
 73
     4
 74
     0
 42
0.0000000001
 43
0.0000000001
 40
0.0
 40
0.0
 40
0.0
 40
0.0
 40
2.65269546380069
 40
2.65269546380069
 40
2.65269546380069
 40
2.65269546380069
 10
-5.480259728297801
 20
-1.387127739920369
 30
0.0
 10
-5.194544879880956
 20
-1.387127739920369
 30
0.0
 10
-4.96213998583412
 20
-1.269891002832209
 30
0.0
 10
-4.761127247071732
 20
-1.08361811856977
 30
0.0
  0
LINE
  5
115B
330
1F
100
AcDbEntity
  8
AM_0
100
AcDbLine
 10
-6.905200505603203
 20
-0.9460633836247342
 30
0.0
 11
-7.669226202484599
 21
-1.08361811858979
 31
0.0
  0
LINE
  5
115C
330
1F
100
AcDbEntity
  8
AM_0
100
AcDbLine
 10
-6.90520050560318
 20
-0.9460633836247342
 30
0.0
 11
-7.669226202484431
 21
-1.083618118589789
 31
0.0
  0
SPLINE
  5
115D
330
1F
100
AcDbEntity
  8
AM_0
100
AcDbSpline
210
0.0
220
0.0
230
1.0
 70
     8
 71
     3
 72
     8
 73
     4
 74
     0
 42
0.0000000001
 43
0.0000000001
 40
0.0
 40
0.0
 40
0.0
 40
0.0
 40
2.65269546380069
 40
2.65269546380069
 40
2.65269546380069
 40
2.65269546380069
 10
-8.388358683688926
 20
-1.387127739920369
 30
0.0
 10
-8.102643835272234
 20
-1.387127739920369
 30
0.0
 10
-7.870238941225244
 20
-1.269891002832209
 30
0.0
 10
-7.66922620246285
 20
-1.08361811856977
 30
0.0
  0
SPLINE
  5
115E
330
1F
100
AcDbEntity
  8
AM_0
100
AcDbSpline
210
0.0
220
0.0
230
1.0
 70
     8
 71
     3
 72
     8
 73
     4
 74
     0
 42
0.0000000001
 43
0.0000000001
 40
0.0
 40
0.0
 40
0.0
 40
0.0
 40
2.65269546380069
 40
2.65269546380069
 40
2.65269546380069
 40
2.65269546380069
 10
-8.388358683688903
 20
-1.387127739920368
 30
0.0
 10
-8.10264383527221
 20
-1.387127739920368
 30
0.0
 10
-7.870238941225374
 20
-1.269891002832209
 30
0.0
 10
-7.669226202462971
 20
-1.083618118569769
 30
0.0
  0
SPLINE
  5
115F
330
1F
100
AcDbEntity
  8
AM_0
100
AcDbSpline
210
0.0
220
0.0
230
1.0
 70
     8
 71
     3
 72
     8
 73
     4
 74
     0
 42
0.0000000001
 43
0.0000000001
 40
0.0
 40
0.0
 40
0.0
 40
0.0
 40
0.9875149967633806
 40
0.9875149967633806
 40
0.9875149967633806
 40
0.9875149967633806
 10
-8.885857919250591
 20
-1.499999999999762
 30
0.0
 10
-8.779495277379492
 20
-1.499999999999762
 30
0.0
 10
-8.680885979429721
 20
-1.48383669830638
 30
0.0
 10
-8.58889181262378
 20
-1.453882913241877
 30
0.0
  0
SPLINE
  5
1160
330
1F
100
AcDbEntity
  8
AM_0
100
AcDbSpline
210
0.0
220
0.0
230
1.0
 70
     8
 71
     3
 72
     8
 73
     4
 74
     0
 42
0.0000000001
 43
0.0000000001
 40
0.0
 40
0.0
 40
0.0
 40
0.0
 40
1.274172826456642
 40
1.274172826456642
 40
1.274172826456642
 40
1.274172826456642
 10
-8.639318888357948
 20
-1.45511544238358
 30
0.0
 10
-8.502081085928093
 20
-1.45511544238358
 30
0.0
 10
-8.377524026949956
 20
-1.428132721142005
 30
0.0
 10
-8.263205665298297
 20
-1.379363586754483
 30
0.0
  0
SPLINE
  5
1161
330
1F
100
AcDbEntity
  8
AM_0
100
AcDbSpline
210
0.0
220
0.0
230
1.0
 70
     8
 71
     3
 72
     8
 73
     4
 74
     0
 42
0.0000000001
 43
0.0000000001
 40
0.0
 40
0.0
 40
0.0
 40
0.0
 40
3.513493495898223
 40
3.513493495898223
 40
3.513493495898223
 40
3.513493495898223
 10
-8.388358683688903
 20
-1.387127739920368
 30
0.0
 10
-8.766787823140589
 20
-1.387127739920368
 30
0.0
 10
-9.051695383934776
 20
-1.181459495429193
 30
0.0
 10
-9.294008849849378
 20
-0.8821203265872226
 30
0.0
  0
SPLINE
  5
1162
330
1F
100
AcDbEntity
  8
AM_0
100
AcDbSpline
210
0.0
220
0.0
230
1.0
 70
     8
 71
     3
 72
     8
 73
     4
 74
     0
 42
0.0000000001
 43
0.0000000001
 40
0.0
 40
0.0
 40
0.0
 40
0.0
 40
1.274172826456642
 40
1.274172826456642
 40
1.274172826456642
 40
1.274172826456642
 10
-8.687662864327487
 20
-1.500000000000001
 30
0.0
 10
-8.502081085927917
 20
-1.455115442383579
 30
0.0
 10
-8.377524026949787
 20
-1.428132721142005
 30
0.0
 10
-8.263205665298274
 20
-1.379363586754483
 30
0.0
  0
LINE
  5
1163
330
1F
100
AcDbEntity
  8
AM_11
 48
0.5
100
AcDbLine
 10
-8.00000000000006
 20
-1.500000000000003
 30
0.0
 11
-0.0000000000000568
 21
-1.500000000000003
 31
0.0
1001
GENIUS_GENODEF_13
1002
{
1000
HIER
1070
     0
1002
}
1002
{
1000
MANEDIT
1070
     0
1002
}
1002
{
1000
NOSEL
1070
     0
1002
}
1002
{
1000
BEHIND
1070
     0
1002
}
1002
{
1000
REACTOR
1002
}
1001
GENIUS_GENOBJ-N-CEN_13
1002
{
1000
OWNER
1000
GEN
1002
}
  0
SPLINE
  5
1164
330
1F
100
AcDbEntity
  8
AM_0
100
AcDbSpline
210
0.0
220
0.0
230
1.0
 70
     8
 71
     3
 72
     8
 73
     4
 74
     0
 42
0.0000000001
 43
0.0000000001
 40
0.0
 40
0.0
 40
0.0
 40
0.0
 40
2.018043607061147
 40
2.018043607061147
 40
2.018043607061147
 40
2.018043607061147
 10
-5.977758963859024
 20
-1.499999999999831
 30
0.0
 10
-6.702286186776203
 20
-1.499999999999831
 30
0.0
 10
-7.067047314165578
 20
-0.7499999999998317
 30
0.0
 10
-7.431808441554953
 20
0.0000000000001679
 30
0.0
  0
SPLINE
  5
1165
330
1F
100
AcDbEntity
  8
AM_0
100
AcDbSpline
210
0.0
220
0.0
230
1.0
 70
     8
 71
     3
 72
     8
 73
     4
 74
     0
 42
0.0000000001
 43
0.0000000001
 40
0.0
 40
0.0
 40
0.0
 40
0.0
 40
1.935619633827147
 40
1.935619633827147
 40
1.935619633827147
 40
1.935619633827147
 10
-5.480259728297801
 20
-1.387127739920369
 30
0.0
 10
-6.175194720293868
 20
-1.387127739920369
 30
0.0
 10
-6.554751963143723
 20
-0.6935638699600836
 30
0.0
 10
-6.934309205993578
 20
0.0000000000002025
 30
0.0
  0
SPLINE
  5
1166
330
1F
100
AcDbEntity
  8
AM_0
100
AcDbSpline
210
0.0
220
0.0
230
1.0
 70
     8
 71
     3
 72
     8
 73
     4
 74
     0
 42
0.0000000001
 43
0.0000000001
 40
0.0
 40
0.0
 40
0.0
 40
0.0
 40
1.984908297797168
 40
1.984908297797168
 40
1.984908297797168
 40
1.984908297797168
 10
-5.73121993296638
 20
-1.455115442383682
 30
0.0
 10
-6.443850765975268
 20
-1.455115442383682
 30
0.0
 10
-6.814560088318717
 20
-0.7275577211917402
 30
0.0
 10
-7.185269410662164
 20
0.0000000000002025
 30
0.0
  0
SPLINE
  5
1167
330
1F
100
AcDbEntity
  8
AM_0
100
AcDbSpline
210
0.0
220
0.0
230
1.0
 70
     8
 71
     3
 72
     8
 73
     4
 74
     0
 42
0.0000000001
 43
0.0000000001
 40
0.2681335515649923
 40
0.2681335515649923
 40
0.2681335515649923
 40
0.2681335515649923
 40
6.616360992657454
 40
6.616360992657454
 40
6.616360992657454
 40
6.616360992657454
 10
-0.0000000000000568
 20
-1.451579168094966
 30
0.0
 10
-0.6576994645930379
 20
-1.396145674570768
 30
0.0
 10
-1.013385482236473
 20
-0.6980728372852836
 30
0.0
 10
-1.369071499879923
 20
0.0000000000002016
 30
0.0
  0
SPLINE
  5
1168
330
1F
100
AcDbEntity
  8
AM_0
100
AcDbSpline
210
0.0
220
0.0
230
1.0
 70
     8
 71
     3
 72
     8
 73
     4
 74
     0
 42
0.0000000001
 43
0.0000000001
 40
0.0
 40
0.0
 40
0.0
 40
0.0
 40
2.018043607061062
 40
2.018043607061062
 40
2.018043607061062
 40
2.018043607061062
 10
-0.1615610530767752
 20
-1.499999999999832
 30
0.0
 10
-0.8860882759939235
 20
-1.499999999999832
 30
0.0
 10
-1.250849403383245
 20
-0.7499999999998322
 30
0.0
 10
-1.615610530772566
 20
0.0000000000001679
 30
0.0
  0
SPLINE
  5
1169
330
1F
100
AcDbEntity
  8
AM_0
100
AcDbSpline
210
0.0
220
0.0
230
1.0
 70
     8
 71
     3
 72
     8
 73
     4
 74
     0
 42
0.0000000001
 43
0.0000000001
 40
1.28030251894658
 40
1.28030251894658
 40
1.28030251894658
 40
1.28030251894658
 40
6.452065446090842
 40
6.452065446090842
 40
6.452065446090842
 40
6.452065446090842
 10
-0.0429654385773312
 20
-1.310618277454753
 30
0.0
 10
-0.5096301526371223
 20
-1.111875860602109
 30
0.0
 10
-0.8138707239243791
 20
-0.5559379303009369
 30
0.0
 10
-1.118111295211329
 20
0.0000000000002016
 30
0.0
  0
LINE
  5
116A
330
1F
100
AcDbEntity
  8
AM_0
100
AcDbLine
 10
-0.0000000000000568
 20
-1.465028704312331
 30
0.0
 11
-0.0000000000000568
 21
0.089999999999983
 31
0.0
  0
ELLIPSE
  5
116B
330
1F
100
AcDbEntity
  8
AM_0
100
AcDbEllipse
 10
4.0252535218372
 20
-0.3178504631964225
 30
0.0
 11
-4.206396792442638
 21
0.0000000000000096
 31
0.0
210
0.0
220
0.0
230
1.0
 40
0.9284415838031419
 41
-0.1580819601133936
 42
0.2945384274106801
  0
SPLINE
  5
116C
330
1F
100
AcDbEntity
  8
AM_0
100
AcDbSpline
210
0.0
220
0.0
230
1.0
 70
     8
 71
     3
 72
     8
 73
     4
 74
     0
 42
0.0000000001
 43
0.0000000001
 40
0.0
 40
0.0
 40
0.0
 40
0.0
 40
2.018043607061147
 40
2.018043607061147
 40
2.018043607061147
 40
2.018043607061147
 10
-3.069660008467899
 20
-1.499999999999832
 30
0.0
 10
-3.794187231385078
 20
-1.499999999999832
 30
0.0
 10
-4.158948358774453
 20
-0.7499999999998322
 30
0.0
 10
-4.523709486163829
 20
0.0000000000001679
 30
0.0
  0
SPLINE
  5
116D
330
1F
100
AcDbEntity
  8
AM_0
100
AcDbSpline
210
0.0
220
0.0
230
1.0
 70
     8
 71
     3
 72
     8
 73
     4
 74
     0
 42
0.0000000001
 43
0.0000000001
 40
0.0
 40
0.0
 40
0.0
 40
0.0
 40
1.98490829779726
 40
1.98490829779726
 40
1.98490829779726
 40
1.98490829779726
 10
-2.823120977575118
 20
-1.455115442383682
 30
0.0
 10
-3.535751810584039
 20
-1.455115442383682
 30
0.0
 10
-3.906461132927543
 20
-0.7275577211917403
 30
0.0
 10
-4.277170455271048
 20
0.0000000000002021
 30
0.0
  0
SPLINE
  5
116E
330
1F
100
AcDbEntity
  8
AM_0
100
AcDbSpline
210
0.0
220
0.0
230
1.0
 70
     8
 71
     3
 72
     8
 73
     4
 74
     0
 42
0.0000000001
 43
0.0000000001
 40
0.0
 40
0.0
 40
0.0
 40
0.0
 40
1.935619633827245
 40
1.935619633827245
 40
1.935619633827245
 40
1.935619633827245
 10
-2.572160772906524
 20
-1.387127739920369
 30
0.0
 10
-3.267095764902625
 20
-1.387127739920369
 30
0.0
 10
-3.64665300775254
 20
-0.6935638699600839
 30
0.0
 10
-4.026210250602454
 20
0.0000000000002021
 30
0.0
  0
LINE
  5
116F
330
1F
100
AcDbEntity
  8
AM_11
100
AcDbLine
 10
-0.0000000000000602
 20
-1.500000000000003
 30
0.0
 11
-0.00000000000006
 21
1.499999999999996
 31
0.0
  0
LINE
  5
1170
330
1F
100
AcDbEntity
  8
AM_0
100
AcDbLine
 10
-9.637288856565144
 20
-0.3804205461531884
 30
0.0
 11
-9.294008849849378
 21
-0.8821203265872226
 31
0.0
  0
LINE
  5
1171
330
1F
100
AcDbEntity
  8
AM_0
100
AcDbLine
 10
-10.90192378864678
 20
1.499999999999996
 30
0.0
 11
-8.761003123507006
 21
1.499999999999996
 31
0.0
  0
LINE
  5
1173
330
1F
100
AcDbEntity
  8
AM_0
100
AcDbLine
 10
-10.90192378864678
 20
-1.500000000000008
 30
0.0
 11
-8.761003123507006
 21
-1.500000000000008
 31
0.0
  0
LINE
  5
1174
330
1F
100
AcDbEntity
  8
AM_0
100
AcDbLine
 10
-16.50000000000007
 20
-3.000000000000006
 30
0.0
 11
-10.90192378864678
 21
-1.500000000000008
 31
0.0
  0
LINE
  5
1175
330
1F
100
AcDbEntity
  8
AM_0
100
AcDbLine
 10
-10.90192378864678
 20
1.499999999999996
 30
0.0
 11
-10.90192378864678
 21
-1.500000000000008
 31
0.0
  0
SPLINE
  5
1440
330
1F
100
AcDbEntity
  8
AM_0
100
AcDbSpline
210
0.0
220
0.0
230
1.0
 70
     8
 71
     3
 72
     8
 73
     4
 74
     0
 42
0.0000000001
 43
0.0000000001
 40
0.3982504941345976
 40
0.3982504941345976
 40
0.3982504941345976
 40
0.3982504941345976
 40
6.452065446090842
 40
6.452065446090842
 40
6.452065446090842
 40
6.452065446090842
 10
-8.284806299067582
 20
1.145314858710776
 30
0.0
 10
-7.962009819822867
 20
1.025357054052193
 30
0.0
 10
-7.632849052548692
 20
0.4515279435707385
 30
0.0
 10
-7.431808441554953
 20
0.0000000000001678
 30
0.0
  0
ARC
  5
1441
330
1F
100
AcDbEntity
  8
AM_0
100
AcDbCircle
 10
-3.973311194989226
 20
-5.074105352534282
 30
0.0
 40
7.56770624406994
100
AcDbArc
 50
124.7309009017178
 51
138.2419870872603
  0
VIEWPORT
  5
110
330
101
100
AcDbEntity
 67
     1
  8
0
100
AcDbViewport
 10
420.5
 20
297.0
 30
0.0
 40
948.9782706766916
 41
628.452
 68
     1
 69
     1
1001
ACAD
1000
MVIEW
1002
{
1070
    16
1010
0.0
1020
0.0
1030
0.0
1010
0.0
1020
0.0
1030
1.0
1040
0.0
1040
628.452
1040
420.5
1040
297.0
1040
50.0
1040
0.0
1040
0.0
1070
     0
1070
   100
1070
     1
1070
     1
1070
     0
1070
     0
1070
     0
1070
     0
1040
0.0
1040
0.0
1040
0.0
1040
10.0
1040
10.0
1040
10.0
1040
10.0
1070
     0
1002
{
1002
}
1002
}
  0
ENDSEC
  0
SECTION
  2
OBJECTS
  0
DICTIONARY
  5
C
330
0
100
AcDbDictionary
  3
ACAD_GROUP
350
D
  3
ACAD_LAYOUT
350
1A
  3
ACAD_MLINESTYLE
350
17
  3
ACAD_PLOTSETTINGS
350
19
  3
ACAD_PLOTSTYLENAME
350
E
  3
ACDBVARIABLEDICTIONARY
350
34
  3
ACMDICTIONARY
350
43
  3
AMG
350
2B
  3
AMGSNAPSETTINGS
350
6E
  3
DWGPROPS
350
1451
  3
ACDBHEADERROUNDTRIPXREC
350
145E
  0
DICTIONARY
  5
74
330
1F
100
AcDbDictionary
280
     1
  3
ACAD_INDEX
360
1453
  3
ACAD_LAYOUTSELFREF
360
1481
  0
DICTIONARY
  5
1486
330
101
100
AcDbDictionary
280
     1
  3
ACAD_LAYOUTSELFREF
360
1487
  0
DICTIONARY
  5
D
102
{ACAD_REACTORS
330
C
102
}
330
C
100
AcDbDictionary
  0
DICTIONARY
  5
1A
102
{ACAD_REACTORS
330
C
102
}
330
C
100
AcDbDictionary
  0
DICTIONARY
  5
17
102
{ACAD_REACTORS
330
C
102
}
330
C
100
AcDbDictionary
  3
STANDARD
350
18
  0
DICTIONARY
  5
19
102
{ACAD_REACTORS
330
C
102
}
330
C
100
AcDbDictionary
  0
ACDBDICTIONARYWDFLT
  5
E
102
{ACAD_REACTORS
330
C
102
}
330
C
100
AcDbDictionary
281
     1
  3
Normal
350
F
100
AcDbDictionaryWithDefault
340
F
  0
DICTIONARY
  5
34
102
{ACAD_REACTORS
330
C
102
}
330
C
100
AcDbDictionary
  3
INDEXCTL
350
35
  3
SORTENTS
350
B5E
  0
DICTIONARY
  5
43
102
{ACAD_REACTORS
330
C
102
}
330
C
100
AcDbDictionary
  3
ACMSTDDICTIONARY
350
260
  0
DICTIONARY
  5
2B
102
{ACAD_REACTORS
330
C
102
}
330
C
100
AcDbDictionary
  3
ACMGSETTINGS
350
2C
  0
DICTIONARY
  5
6E
102
{ACAD_REACTORS
330
C
102
}
330
C
100
AcDbDictionary
  0
XRECORD
  5
1451
102
{ACAD_REACTORS
330
C
102
}
330
C
100
AcDbXrecord
  1
DWGPROPS COOKIE
  2

  3

  4

  6

  7

  8

  9

300
AmdtFileType=82
301
=
302
=
303
=
304
=
305
=
306
=
307
=
308
=
309
=
 40
0.0459580208333334
 41
2452838.620506898
 42
2453042.88738706
  1

 90
        1
  0
DICTIONARY
  5
145E
102
{ACAD_REACTORS
330
C
102
}
330
C
100
AcDbDictionary
  3
TSTACKALIGN
350
145F
  3
TSTACKSIZE
350
1460
  3
HYPERLINKBASE
350
1461
  3
STYLESHEET
350
1462
  3
LAYOUTDICT
350
1463
  3
PLOTSETDICT
350
1464
  3
PLOTSTYLNAMDICT
350
1465
  3
LWETCUNION
350
1466
  3
INSUNITS
350
1467
  3
CEPSNTYPE
350
1468
  3
FINGERPRINTGUID
350
1469
  3
VERSIONGUID
350
146A
  3
PSVPSCALE
350
146B
  3
DIMSTYLEDATA
350
146C
  3
PUCSORTHOREF
350
146D
  3
PUCSORTHOVIEW
350
146E
  3
PUCSBASE
350
146F
  3
PUCSORGTOP
350
1470
  3
PUCSORGBOTTOM
350
1471
  3
PUCSORGLEFT
350
1472
  3
PUCSORGRIGHT
350
1473
  3
PUCSORGFRONT
350
1474
  3
PUCSORGBACK
350
1475
  3
UCSORTHOREF
350
1476
  3
UCSORTHOVIEW
350
1477
  3
UCSBASE
350
1478
  3
UCSORGTOP
350
1479
  3
UCSORGBOTTOM
350
147A
  3
UCSORGLEFT
350
147B
  3
UCSORGRIGHT
350
147C
  3
UCSORGFRONT
350
147D
  3
UCSORGBACK
350
147E
  0
DICTIONARY
  5
1453
102
{ACAD_REACTORS
330
74
102
}
330
74
100
AcDbDictionary
  3
*A1
350
1454
  0
XRECORD
  5
1481
102
{ACAD_REACTORS
330
74
102
}
330
74
100
AcDbXrecord
340
1F
  0
XRECORD
  5
1487
102
{ACAD_REACTORS
330
1486
102
}
330
1486
100
AcDbXrecord
340
101
  0
MLINESTYLE
  5
18
102
{ACAD_REACTORS
330
17
102
}
330
17
100
AcDbMlineStyle
  2
STANDARD
 70
     0
  3

 62
   256
 51
90.0
 52
90.0
 71
     2
 49
0.5
 62
   256
  6
BYLAYER
 49
-0.5
 62
   256
  6
BYLAYER
  0
ACDBPLACEHOLDER
  5
F
102
{ACAD_REACTORS
330
E
102
}
330
E
100
AcDbPlaceHolder
280
     0
  0
DICTIONARYVAR
  5
35
102
{ACAD_REACTORS
330
34
102
}
330
34
100
DictionaryVariables
280
     0
  1
1
  0
DICTIONARYVAR
  5
B5E
102
{ACAD_REACTORS
330
34
102
}
330
34
100
DictionaryVariables
280
     0
  1
96
  0
DICTIONARY
  5
260
102
{ACAD_REACTORS
330
43
102
}
330
43
100
AcDbDictionary
  0
DICTIONARY
  5
2C
102
{ACAD_REACTORS
330
2B
102
}
330
2B
100
AcDbDictionary
  3
DWGSETTINGS
350
2D
  0
XRECORD
  5
145F
102
{ACAD_REACTORS
330
145E
102
}
330
145E
100
AcDbXrecord
 90
        1
  0
XRECORD
  5
1460
102
{ACAD_REACTORS
330
145E
102
}
330
145E
100
AcDbXrecord
 90
       70
  0
XRECORD
  5
1461
102
{ACAD_REACTORS
330
145E
102
}
330
145E
100
AcDbXrecord
  1

  0
XRECORD
  5
1462
102
{ACAD_REACTORS
330
145E
102
}
330
145E
100
AcDbXrecord
  1
ASAMI.ctb
  0
XRECORD
  5
1463
102
{ACAD_REACTORS
330
145E
102
}
330
145E
100
AcDbXrecord
340
1A
  0
XRECORD
  5
1464
102
{ACAD_REACTORS
330
145E
102
}
330
145E
100
AcDbXrecord
340
19
  0
XRECORD
  5
1465
102
{ACAD_REACTORS
330
145E
102
}
330
145E
100
AcDbXrecord
340
E
  0
XRECORD
  5
1466
102
{ACAD_REACTORS
330
145E
102
}
330
145E
100
AcDbXrecord
 90
    10781
  0
XRECORD
  5
1467
102
{ACAD_REACTORS
330
145E
102
}
330
145E
100
AcDbXrecord
 90
        4
  0
XRECORD
  5
1468
102
{ACAD_REACTORS
330
145E
102
}
330
145E
100
AcDbXrecord
 90
        0
  0
XRECORD
  5
1469
102
{ACAD_REACTORS
330
145E
102
}
330
145E
100
AcDbXrecord
  1
{AFB28963-8C59-40AE-9337-C84526B81ACE}
  0
XRECORD
  5
146A
102
{ACAD_REACTORS
330
145E
102
}
330
145E
100
AcDbXrecord
  1
{AB38BF1A-4A77-4DCF-9109-A4524E788820}
  0
XRECORD
  5
146B
102
{ACAD_REACTORS
330
145E
102
}
330
145E
100
AcDbXrecord
 40
0.0
  0
XRECORD
  5
146C
102
{ACAD_REACTORS
330
145E
102
}
330
145E
100
AcDbXrecord
1000
DSTYLE
1002
{
1070
    79
 70
     2
1070
   341
340
59
1070
   342
340
59
1070
   371
 70
    -1
1070
   372
 70
    -1
1002
}
  0
XRECORD
  5
146D
102
{ACAD_REACTORS
330
145E
102
}
330
145E
100
AcDbXrecord
340
0
  0
XRECORD
  5
146E
102
{ACAD_REACTORS
330
145E
102
}
330
145E
100
AcDbXrecord
 70
     0
  0
XRECORD
  5
146F
102
{ACAD_REACTORS
330
145E
102
}
330
145E
100
AcDbXrecord
340
0
  0
XRECORD
  5
1470
102
{ACAD_REACTORS
330
145E
102
}
330
145E
100
AcDbXrecord
 10
0.0
 20
0.0
 30
0.0
  0
XRECORD
  5
1471
102
{ACAD_REACTORS
330
145E
102
}
330
145E
100
AcDbXrecord
 10
0.0
 20
0.0
 30
0.0
  0
XRECORD
  5
1472
102
{ACAD_REACTORS
330
145E
102
}
330
145E
100
AcDbXrecord
 10
0.0
 20
0.0
 30
0.0
  0
XRECORD
  5
1473
102
{ACAD_REACTORS
330
145E
102
}
330
145E
100
AcDbXrecord
 10
0.0
 20
0.0
 30
0.0
  0
XRECORD
  5
1474
102
{ACAD_REACTORS
330
145E
102
}
330
145E
100
AcDbXrecord
 10
0.0
 20
0.0
 30
0.0
  0
XRECORD
  5
1475
102
{ACAD_REACTORS
330
145E
102
}
330
145E
100
AcDbXrecord
 10
0.0
 20
0.0
 30
0.0
  0
XRECORD
  5
1476
102
{ACAD_REACTORS
330
145E
102
}
330
145E
100
AcDbXrecord
340
0
  0
XRECORD
  5
1477
102
{ACAD_REACTORS
330
145E
102
}
330
145E
100
AcDbXrecord
 70
     0
  0
XRECORD
  5
1478
102
{ACAD_REACTORS
330
145E
102
}
330
145E
100
AcDbXrecord
340
0
  0
XRECORD
  5
1479
102
{ACAD_REACTORS
330
145E
102
}
330
145E
100
AcDbXrecord
 10
0.0
 20
0.0
 30
0.0
  0
XRECORD
  5
147A
102
{ACAD_REACTORS
330
145E
102
}
330
145E
100
AcDbXrecord
 10
0.0
 20
0.0
 30
0.0
  0
XRECORD
  5
147B
102
{ACAD_REACTORS
330
145E
102
}
330
145E
100
AcDbXrecord
 10
0.0
 20
0.0
 30
0.0
  0
XRECORD
  5
147C
102
{ACAD_REACTORS
330
145E
102
}
330
145E
100
AcDbXrecord
 10
0.0
 20
0.0
 30
0.0
  0
XRECORD
  5
147D
102
{ACAD_REACTORS
330
145E
102
}
330
145E
100
AcDbXrecord
 10
0.0
 20
0.0
 30
0.0
  0
XRECORD
  5
147E
102
{ACAD_REACTORS
330
145E
102
}
330
145E
100
AcDbXrecord
 10
0.0
 20
0.0
 30
0.0
  0
LAYER_INDEX
  5
1454
102
{ACAD_REACTORS
330
1453
102
}
330
1453
100
AcDbIndex
 40
2453152.473307245
100
AcDbLayerIndex
  8
0
360
1455
 90
        1
  8
AM_0
360
1456
 90
       63
  8
AM_11
360
1457
 90
        4
  8
AM_7
360
1458
 90
        1
  8
AM_5
360
1459
 90
        4
  8
Defpoints
360
145A
 90
        0
  8
AM_6
360
145B
 90
        1
  8
AM_CL
360
145C
 90
        0
  0
XRECORD
  5
2D
102
{ACAD_REACTORS
330
2C
102
}
330
2C
100
AcDbXrecord
  1
VERSION
140
15.0
  1
PRODUCT
  2
AutoCAD Mechanical 2000
  0
IDBUFFER
  5
1455
330
0
100
AcDbIdBuffer
330
DFD
  0
IDBUFFER
  5
1456
330
0
100
AcDbIdBuffer
330
1167
330
1168
330
1169
330
116A
330
116B
330
116C
330
116D
330
116E
330
1170
330
1171
330
1173
330
1174
330
1175
330
1440
330
1441
330
DFA
330
DFB
330
DFC
330
DFE
330
DFF
330
E00
330
E32
330
113A
330
113B
330
113C
330
113D
330
113E
330
113F
330
1140
330
1141
330
1142
330
1143
330
1144
330
1145
330
1146
330
1149
330
114B
330
114C
330
114D
330
114E
330
114F
330
1150
330
1151
330
1152
330
1153
330
1154
330
1155
330
1156
330
1157
330
1158
330
1159
330
115A
330
115B
330
115C
330
115D
330
115E
330
115F
330
1160
330
1161
330
1162
330
1164
330
1165
330
1166
  0
IDBUFFER
  5
1457
330
0
100
AcDbIdBuffer
330
103A
330
1046
330
1163
330
116F
  0
IDBUFFER
  5
1458
330
0
100
AcDbIdBuffer
330
C50
  0
IDBUFFER
  5
1459
330
0
100
AcDbIdBuffer
330
C4F
330
C53
330
C59
330
C6D
  0
IDBUFFER
  5
145A
330
0
100
AcDbIdBuffer
  0
IDBUFFER
  5
145B
330
0
100
AcDbIdBuffer
330
C58
  0
IDBUFFER
  5
145C
330
0
100
AcDbIdBuffer
  0
ENDSEC
  0
EOF
