  0
SECTION
  2
HEADER
  9
$ACADVER
  1
AC1014
  9
$ACADMAINTVER
 70
     9
  9
$DWGCODEPAGE
  3
ANSI_932
  9
$INSBASE
 10
0.0
 20
0.0
 30
0.0
  9
$EXTMIN
 10
-62.04470045058476
 20
-27.25000100000007
 30
-0.00000001
  9
$EXTMAX
 10
12.05776903085518
 20
3.000000000000003
 30
0.00000001
  9
$LIMMIN
 10
-74.68614024176019
 20
-40.34126636968451
  9
$LIMMAX
 10
15.75837735201798
 20
17.08572638557728
  9
$ORTHOMODE
 70
     0
  9
$REGENMODE
 70
     1
  9
$FILLMODE
 70
     1
  9
$QTEXTMODE
 70
     0
  9
$MIRRTEXT
 70
     0
  9
$DRAGMODE
 70
     2
  9
$LTSCALE
 40
1.0
  9
$OSMODE
 70
    55
  9
$ATTMODE
 70
     1
  9
$TEXTSIZE
 40
2.5
  9
$TRACEWID
 40
1.0
  9
$TEXTSTYLE
  7
STANDARD
  9
$CLAYER
  8
AM_5
  9
$CELTYPE
  6
BYLAYER
  9
$CECOLOR
 62
   256
  9
$CELTSCALE
 40
1.0
  9
$DELOBJ
 70
     1
  9
$DISPSILH
 70
     0
  9
$DIMSCALE
 40
0.5
  9
$DIMASZ
 40
2.5
  9
$DIMEXO
 40
1.0
  9
$DIMDLI
 40
12.0
  9
$DIMRND
 40
0.0
  9
$DIMDLE
 40
0.0
  9
$DIMEXE
 40
1.0
  9
$DIMTP
 40
0.1
  9
$DIMTM
 40
0.1
  9
$DIMTXT
 40
3.2
  9
$DIMCEN
 40
0.0
  9
$DIMTSZ
 40
0.0
  9
$DIMTOL
 70
     0
  9
$DIMLIM
 70
     0
  9
$DIMTIH
 70
     0
  9
$DIMTOH
 70
     0
  9
$DIMSE1
 70
     0
  9
$DIMSE2
 70
     0
  9
$DIMTAD
 70
     3
  9
$DIMZIN
 70
     8
  9
$DIMBLK
  1
OPEN30
  9
$DIMASO
 70
     1
  9
$DIMSHO
 70
     1
  9
$DIMPOST
  1

  9
$DIMAPOST
  1
"
  9
$DIMALT
 70
     0
  9
$DIMALTD
 70
     2
  9
$DIMALTF
 40
0.0393701
  9
$DIMLFAC
 40
1.0
  9
$DIMTOFL
 70
     1
  9
$DIMTVP
 40
0.0
  9
$DIMTIX
 70
     0
  9
$DIMSOXD
 70
     0
  9
$DIMSAH
 70
     0
  9
$DIMBLK1
  1

  9
$DIMBLK2
  1

  9
$DIMSTYLE
  2
AM_JIS
  9
$DIMCLRD
 70
   256
  9
$DIMCLRE
 70
   256
  9
$DIMCLRT
 70
     2
  9
$DIMTFAC
 40
0.71
  9
$DIMGAP
 40
1.5
  9
$DIMJUST
 70
     0
  9
$DIMSD1
 70
     0
  9
$DIMSD2
 70
     0
  9
$DIMTOLJ
 70
     0
  9
$DIMTZIN
 70
     0
  9
$DIMALTZ
 70
     0
  9
$DIMALTTZ
 70
     0
  9
$DIMFIT
 70
     3
  9
$DIMUPT
 70
     0
  9
$DIMUNIT
 70
     2
  9
$DIMDEC
 70
     3
  9
$DIMTDEC
 70
     3
  9
$DIMALTU
 70
     2
  9
$DIMALTTD
 70
     2
  9
$DIMTXSTY
  7
ASAMI
  9
$DIMAUNIT
 70
     0
  9
$LUNITS
 70
     2
  9
$LUPREC
 70
     2
  9
$SKETCHINC
 40
1.0
  9
$FILLETRAD
 40
2.5
  9
$AUNITS
 70
     0
  9
$AUPREC
 70
     0
  9
$MENU
  1
.
  9
$ELEVATION
 40
0.0
  9
$PELEVATION
 40
0.0
  9
$THICKNESS
 40
0.0
  9
$LIMCHECK
 70
     0
  9
$BLIPMODE
 70
     0
  9
$CHAMFERA
 40
0.5
  9
$CHAMFERB
 40
0.5
  9
$CHAMFERC
 40
20.0
  9
$CHAMFERD
 40
0.0
  9
$SKPOLY
 70
     0
  9
$TDCREATE
 40
2452838.430434386
  9
$TDUPDATE
 40
2453152.470876817
  9
$TDINDWG
 40
0.1652870139
  9
$TDUSRTIMER
 40
0.1652870139
  9
$USRTIMER
 70
     1
  9
$ANGBASE
 50
0.0
  9
$ANGDIR
 70
     0
  9
$PDMODE
 70
     0
  9
$PDSIZE
 40
0.0
  9
$PLINEWID
 40
0.0
  9
$COORDS
 70
     1
  9
$SPLFRAME
 70
     0
  9
$SPLINETYPE
 70
     6
  9
$SPLINESEGS
 70
     8
  9
$ATTDIA
 70
     1
  9
$ATTREQ
 70
     1
  9
$HANDLING
 70
 12289
  9
$HANDSEED
  5
451B
  9
$SURFTAB1
 70
     6
  9
$SURFTAB2
 70
     6
  9
$SURFTYPE
 70
     6
  9
$SURFU
 70
     6
  9
$SURFV
 70
     6
  9
$UCSNAME
  2

  9
$UCSORG
 10
0.0
 20
0.0
 30
0.0
  9
$UCSXDIR
 10
1.0
 20
0.0
 30
0.0
  9
$UCSYDIR
 10
0.0
 20
1.0
 30
0.0
  9
$PUCSNAME
  2

  9
$PUCSORG
 10
0.0
 20
0.0
 30
0.0
  9
$PUCSXDIR
 10
1.0
 20
0.0
 30
0.0
  9
$PUCSYDIR
 10
0.0
 20
1.0
 30
0.0
  9
$USERI1
 70
     0
  9
$USERI2
 70
     0
  9
$USERI3
 70
     0
  9
$USERI4
 70
     0
  9
$USERI5
 70
     0
  9
$USERR1
 40
0.0
  9
$USERR2
 40
0.0
  9
$USERR3
 40
0.0
  9
$USERR4
 40
0.0
  9
$USERR5
 40
0.0
  9
$WORLDVIEW
 70
     1
  9
$SHADEDGE
 70
     3
  9
$SHADEDIF
 70
    70
  9
$TILEMODE
 70
     1
  9
$MAXACTVP
 70
    64
  9
$PINSBASE
 10
0.0
 20
0.0
 30
0.0
  9
$PLIMCHECK
 70
     0
  9
$PEXTMIN
 10
1.000000000000000E+20
 20
1.000000000000000E+20
 30
1.000000000000000E+20
  9
$PEXTMAX
 10
-1.000000000000000E+20
 20
-1.000000000000000E+20
 30
-1.000000000000000E+20
  9
$PLIMMIN
 10
0.0
 20
0.0
  9
$PLIMMAX
 10
841.0
 20
594.0
  9
$UNITMODE
 70
     0
  9
$VISRETAIN
 70
     1
  9
$PLINEGEN
 70
     0
  9
$PSLTSCALE
 70
     0
  9
$TREEDEPTH
 70
  3020
  9
$PICKSTYLE
 70
     0
  9
$CMLSTYLE
  2
STANDARD
  9
$CMLJUST
 70
     0
  9
$CMLSCALE
 40
20.0
  9
$PROXYGRAPHICS
 70
     1
  9
$MEASUREMENT
 70
     1
  0
ENDSEC
  0
SECTION
  2
CLASSES
  0
CLASS
  1
ACDBDICTIONARYWDFLT
  2
AcDbDictionaryWithDefault
  3
AutoCAD 2000
 90
        0
280
     0
281
     0
  0
CLASS
  1
ACDBPLACEHOLDER
  2
AcDbPlaceHolder
  3
AutoCAD 2000
 90
        0
280
     0
281
     0
  0
CLASS
  1
LAYOUT
  2
AcDbLayout
  3
AutoCAD 2000
 90
        0
280
     0
281
     0
  0
CLASS
  1
AMGSETTINGSOBJ
  2
AmgSettingsObj
  3
"AcadM|Product Description: AutoCAD Mechanical 2000|Company: Autodesk"
 90
        0
280
     0
281
     0
  0
CLASS
  1
ACME_DOCUMENT
  2
AcMeDbDoc
  3
AcMeServices
 90
        0
280
     0
281
     0
  0
CLASS
  1
ACMESCOPE
  2
AcMeScope
  3
AcMeServices
 90
        0
280
     0
281
     0
  0
CLASS
  1
ACMECOMMANDHISTORY
  2
AcMeCommandHistory
  3
AcMeServices
 90
        0
280
     0
281
     0
  0
CLASS
  1
DICTIONARYVAR
  2
AcDbDictionaryVar
  3
AutoCAD 2000
 90
        0
280
     0
281
     0
  0
CLASS
  1
ACIMSYSVARMAN
  2
AcImSysVarManager
  3
AcMeServices
 90
        0
280
     0
281
     0
  0
CLASS
  1
ACIMREALSYSVAR
  2
AcImRealSysVar
  3
AcMeServices
 90
        0
280
     0
281
     0
  0
CLASS
  1
ACIMINTSYSVAR
  2
AcImIntSysVar
  3
AcMeServices
 90
        0
280
     0
281
     0
  0
CLASS
  1
ACMEDRAWINGMAN
  2
AcMeDrawingMan
  3
AcMeServices
 90
        0
280
     0
281
     0
  0
CLASS
  1
ACMEVIEW
  2
AcMeView
  3
AcMeServices
 90
        0
280
     0
281
     0
  0
CLASS
  1
ACDBENTITYCACHE
  2
AcMeEntityCache
  3
AcMeServices
 90
        0
280
     0
281
     0
  0
CLASS
  1
GSMANAGER
  2
AcMeGSManager
  3
AcMeServices
 90
        0
280
     0
281
     0
  0
CLASS
  1
AmdtInternalReactor
  2
AmdtInternalReactor
  3
AcMeServices
 90
        0
280
     0
281
     0
  0
CLASS
  1
ACMESTATEMGR
  2
AcMeStateMgr
  3
AcMeServices
 90
        0
280
     0
281
     0
  0
CLASS
  1
ACME_DATABASE
  2
AcMeDbDatabase
  3
AcMeServices
 90
        0
280
     0
281
     0
  0
CLASS
  1
ACRFINSADJUSTERMGR
  2
AcRfInsAdjusterMgr
  3
AcMeServices
 90
        0
280
     0
281
     0
  0
CLASS
  1
ACMDATADICTIONARY
  2
AcmDataDictionary
  3
"AcmSymBB|Product Description: AutoCAD Mechanical 2000|Company: Autodesk"
 90
        0
280
     0
281
     0
  0
CLASS
  1
ACMDATAENTRYBLOCK
  2
AcmDataEntryBlock
  3
"AcmSymBB|Product Description: AutoCAD Mechanical 2000|Company: Autodesk"
 90
        0
280
     0
281
     0
  0
CLASS
  1
AMGOBJPROPCFG
  2
AmgObjPropCfg
  3
"AmgLay|Product Description: AutoCAD Mechanical 2000|Company: Autodesk"
 90
        1
280
     0
281
     0
  0
CLASS
  1
ACAMGFILTERDAT
  2
AcAmgFilterDat
  3
"AcadM|Product Description: AutoCAD Mechanical 2000|Company: Autodesk"
 90
        0
280
     0
281
     0
  0
CLASS
  1
LAYER_INDEX
  2
AcDbLayerIndex
  3
AutoCAD 2000
 90
        0
280
     0
281
     0
  0
CLASS
  1
IDBUFFER
  2
AcDbIdBuffer
  3
AutoCAD 2000
 90
        0
280
     0
281
     0
  0
CLASS
  1
ACIMSTRSYSVAR
  2
AcImStrSysVar
  3
AcMeServices
 90
        0
280
     0
281
     0
  0
CLASS
  1
ACMSTANDARDJIS
  2
AcmStandardJIS
  3
"AcmSymBB|Product Description: AutoCAD Mechanical 2000|Company: Autodesk"
 90
        0
280
     0
281
     0
  0
CLASS
  1
ACMSURFSTANDARDJIS
  2
AcmSurfTextStdJIS
  3
"AcmSymBB|Product Description: AutoCAD Mechanical 2000|Company: Autodesk"
 90
        0
280
     0
281
     0
  0
CLASS
  1
ACMFCFSTANDARDJIS
  2
AcmFCFStdJIS
  3
"AcmSymBB|Product Description: AutoCAD Mechanical 2000|Company: Autodesk"
 90
        0
280
     0
281
     0
  0
CLASS
  1
ACMWELDSTANDARDJIS
  2
AcmWeldingStdJIS
  3
"AcmSymBB|Product Description: AutoCAD Mechanical 2000|Company: Autodesk"
 90
        0
280
     0
281
     0
  0
CLASS
  1
ACMIDSTANDARDJIS
  2
AcmIdStdJIS
  3
"AcmSymBB|Product Description: AutoCAD Mechanical 2000|Company: Autodesk"
 90
        0
280
     0
281
     0
  0
CLASS
  1
ACMDATUMSTANDARDJIS
  2
AcmDatumStdJIS
  3
"AcmSymBB|Product Description: AutoCAD Mechanical 2000|Company: Autodesk"
 90
        0
280
     0
281
     0
  0
CLASS
  1
ACMBOMSTANDARDJIS
  2
AcmBOMStdJIS
  3
"AcmSymBB|Product Description: AutoCAD Mechanical 2000|Company: Autodesk"
 90
        0
280
     0
281
     0
  0
CLASS
  1
ACMSTANDARDANSI
  2
AcmStandardANSI
  3
"AcmSymBB|Product Description: AutoCAD Mechanical 2000|Company: Autodesk"
 90
        0
280
     0
281
     0
  0
CLASS
  1
ACMSURFSTANDARDANSI
  2
AcmSurfTextStdANSI
  3
"AcmSymBB|Product Description: AutoCAD Mechanical 2000|Company: Autodesk"
 90
        0
280
     0
281
     0
  0
CLASS
  1
ACMFCFSTANDARDANSI
  2
AcmFCFStdANSI
  3
"AcmSymBB|Product Description: AutoCAD Mechanical 2000|Company: Autodesk"
 90
        0
280
     0
281
     0
  0
CLASS
  1
ACMWELDSTANDARDANSI
  2
AcmWeldingStdANSI
  3
"AcmSymBB|Product Description: AutoCAD Mechanical 2000|Company: Autodesk"
 90
        0
280
     0
281
     0
  0
CLASS
  1
ACMIDSTANDARDANSI
  2
AcmIdStdANSI
  3
"AcmSymBB|Product Description: AutoCAD Mechanical 2000|Company: Autodesk"
 90
        0
280
     0
281
     0
  0
CLASS
  1
ACMDATUMSTANDARDANSI
  2
AcmDatumStdANSI
  3
"AcmSymBB|Product Description: AutoCAD Mechanical 2000|Company: Autodesk"
 90
        0
280
     0
281
     0
  0
CLASS
  1
ACMBOMSTANDARDANSI
  2
AcmBOMStdANSI
  3
"AcmSymBB|Product Description: AutoCAD Mechanical 2000|Company: Autodesk"
 90
        0
280
     0
281
     0
  0
CLASS
  1
ACMSTANDARDBSI
  2
AcmStandardBSI
  3
"AcmSymBB|Product Description: AutoCAD Mechanical 2000|Company: Autodesk"
 90
        0
280
     0
281
     0
  0
CLASS
  1
ACMSURFSTANDARDBSI
  2
AcmSurfTextStdBSI
  3
"AcmSymBB|Product Description: AutoCAD Mechanical 2000|Company: Autodesk"
 90
        0
280
     0
281
     0
  0
CLASS
  1
ACMFCFSTANDARDBSI
  2
AcmFCFStdBSI
  3
"AcmSymBB|Product Description: AutoCAD Mechanical 2000|Company: Autodesk"
 90
        0
280
     0
281
     0
  0
CLASS
  1
ACMWELDSTANDARDBSI
  2
AcmWeldingStdBSI
  3
"AcmSymBB|Product Description: AutoCAD Mechanical 2000|Company: Autodesk"
 90
        0
280
     0
281
     0
  0
CLASS
  1
ACMIDSTANDARDBSI
  2
AcmIdStdBSI
  3
"AcmSymBB|Product Description: AutoCAD Mechanical 2000|Company: Autodesk"
 90
        0
280
     0
281
     0
  0
CLASS
  1
ACMDATUMSTANDARDBSI
  2
AcmDatumStdBSI
  3
"AcmSymBB|Product Description: AutoCAD Mechanical 2000|Company: Autodesk"
 90
        0
280
     0
281
     0
  0
CLASS
  1
ACMBOMSTANDARDBSI
  2
AcmBOMStdBSI
  3
"AcmSymBB|Product Description: AutoCAD Mechanical 2000|Company: Autodesk"
 90
        0
280
     0
281
     0
  0
CLASS
  1
LONG_TRANSACTION
  2
AcDbLongTransaction
  3
AutoCAD 2000
 90
        0
280
     0
281
     0
  0
CLASS
  1
LWPOLYLINE
  2
AcDbPolyline
  3
AutoCAD 2000
 90
        0
280
     0
281
     1
  0
CLASS
  1
HATCH
  2
AcDbHatch
  3
AutoCAD 2000
 90
        0
280
     0
281
     1
  0
CLASS
  1
XRECORD
  2
AcDbXrecord
  3
AutoCAD 2000
 90
        0
280
     0
281
     0
  0
ENDSEC
  0
SECTION
  2
TABLES
  0
TABLE
  2
VPORT
  5
8
330
0
100
AcDbSymbolTable
 70
     3
  0
VPORT
  5
44F0
330
8
100
AcDbSymbolTableRecord
100
AcDbViewportTableRecord
  2
*ACTIVE
 70
     0
 10
0.0
 20
0.0
 11
1.0
 21
1.0
 12
-11.60095273874783
 22
-3.86133265100306
 13
0.0
 23
0.0
 14
2.5
 24
2.5
 15
10.0
 25
10.0
 16
0.0
 26
0.0
 36
1.0
 17
0.0
 27
0.0
 37
0.0
 40
89.28143567036119
 41
1.56570841889117
 42
50.0
 43
0.0
 44
0.0
 50
0.0
 51
0.0
 71
     0
 72
   100
 73
     1
 74
     3
 75
     0
 76
     0
 77
     0
 78
     0
  0
ENDTAB
  0
TABLE
  2
LTYPE
  5
5
330
0
100
AcDbSymbolTable
 70
    10
  0
LTYPE
  5
14
330
5
100
AcDbSymbolTableRecord
100
AcDbLinetypeTableRecord
  2
BYBLOCK
 70
     0
  3

 72
    65
 73
     0
 40
0.0
  0
LTYPE
  5
15
330
5
100
AcDbSymbolTableRecord
100
AcDbLinetypeTableRecord
  2
BYLAYER
 70
     0
  3

 72
    65
 73
     0
 40
0.0
  0
LTYPE
  5
16
330
5
100
AcDbSymbolTableRecord
100
AcDbLinetypeTableRecord
  2
CONTINUOUS
 70
     0
  3
Solid line
 72
    65
 73
     0
 40
0.0
  0
LTYPE
  5
4B
330
5
100
AcDbSymbolTableRecord
100
AcDbLinetypeTableRecord
  2
AM_ISO02W050
 70
     0
  3
__ __ __ __ __ __ __ __ __ __ __ __ __ __ __
 72
    65
 73
     2
 40
7.5
 49
6.0
 74
     0
 49
-1.5
 74
     0
  0
LTYPE
  5
4C
330
5
100
AcDbSymbolTableRecord
100
AcDbLinetypeTableRecord
  2
AM_ISO08W050
 70
     0
  3
____ . ____ . ____ . ____ . ____ . ____ . ____
 72
    65
 73
     4
 40
18.0
 49
12.0
 74
     0
 49
-1.5
 74
     0
 49
3.0
 74
     0
 49
-1.5
 74
     0
  0
LTYPE
  5
4D
330
5
100
AcDbSymbolTableRecord
100
AcDbLinetypeTableRecord
  2
AM_ISO09W050
 70
     0
  3
_____ . . _____ . . _____ . . ____ .. ____
 72
    65
 73
     6
 40
22.5
 49
12.0
 74
     0
 49
-1.5
 74
     0
 49
3.0
 74
     0
 49
-1.5
 74
     0
 49
3.0
 74
     0
 49
-1.5
 74
     0
  0
LTYPE
  5
4E
330
5
100
AcDbSymbolTableRecord
100
AcDbLinetypeTableRecord
  2
AMCONSTR
 70
     0
  3
_______________________
 72
    65
 73
     2
 40
9999.0
 49
9999.0
 74
     0
 49
0.0
 74
     0
  0
LTYPE
  5
4F
330
5
100
AcDbSymbolTableRecord
100
AcDbLinetypeTableRecord
  2
AM_ISO02W050X2
 70
     0
  3
 _ _ _ _ _ _ _ _ _ _ _ _
 72
    65
 73
     2
 40
3.75
 49
3.0
 74
     0
 49
-0.75
 74
     0
  0
LTYPE
  5
50
330
5
100
AcDbSymbolTableRecord
100
AcDbLinetypeTableRecord
  2
AM_ISO08W050X2
 70
     0
  3
__ . __ . __ . __ . __ . __
 72
    65
 73
     4
 40
9.0
 49
6.0
 74
     0
 49
-0.75
 74
     0
 49
1.5
 74
     0
 49
-0.75
 74
     0
  0
LTYPE
  5
53
330
5
100
AcDbSymbolTableRecord
100
AcDbLinetypeTableRecord
  2
AMZIGZAG
 70
     0
  3
/\/-/\/-/\/-/\/-/\/-/\/
 72
    65
 73
     2
 40
11.00009999999999
 49
0.0001
 74
     4
 75
   135
340
52
 46
0.04
 50
0.0
 44
0.0
 45
0.0
 49
-11.0
 74
     0
  0
LTYPE
  5
166
330
5
100
AcDbSymbolTableRecord
100
AcDbLinetypeTableRecord
  2
ACJISTGL
 70
     0
  3
_ _ _ _ _
 72
    65
 73
     2
 40
3.0
 49
2.0
 74
     0
 49
-1.0
 74
     0
  0
LTYPE
  5
26A
330
5
100
AcDbSymbolTableRecord
100
AcDbLinetypeTableRecord
  2
ACJISTGB
 70
     0
  3
__ . . __ . .
 72
    65
 73
     6
 40
9.0
 49
4.0
 74
     0
 49
-1.0
 74
     0
 49
1.0
 74
     0
 49
-1.0
 74
     0
 49
1.0
 74
     0
 49
-1.0
 74
     0
  0
ENDTAB
  0
TABLE
  2
LAYER
  5
2
330
0
100
AcDbSymbolTable
 70
     7
  0
LAYER
  5
10
330
2
100
AcDbSymbolTableRecord
100
AcDbLayerTableRecord
  2
0
 70
     0
 62
     7
  6
CONTINUOUS
  0
LAYER
  5
3F9
330
2
100
AcDbSymbolTableRecord
100
AcDbLayerTableRecord
  2
AM_0
 70
     0
 62
     7
  6
CONTINUOUS
  0
LAYER
  5
BDD
330
2
100
AcDbSymbolTableRecord
100
AcDbLayerTableRecord
  2
AM_11
 70
     0
 62
     3
  6
AM_ISO09W050
  0
LAYER
  5
BDE
330
2
100
AcDbSymbolTableRecord
100
AcDbLayerTableRecord
  2
AM_7
 70
     0
 62
     4
  6
AM_ISO08W050
  0
LAYER
  5
BDF
330
2
100
AcDbSymbolTableRecord
100
AcDbLayerTableRecord
  2
AM_5
 70
     0
 62
     3
  6
CONTINUOUS
  0
LAYER
  5
BE0
330
2
100
AcDbSymbolTableRecord
100
AcDbLayerTableRecord
  2
DEFPOINTS
 70
     0
 62
     7
  6
CONTINUOUS
  0
LAYER
  5
14FF
330
2
100
AcDbSymbolTableRecord
100
AcDbLayerTableRecord
  2
AM_6
 70
     0
 62
     2
  6
CONTINUOUS
  0
ENDTAB
  0
TABLE
  2
STYLE
  5
3
330
0
100
AcDbSymbolTable
 70
     5
  0
STYLE
  5
11
330
3
100
AcDbSymbolTableRecord
100
AcDbTextStyleTableRecord
  2
STANDARD
 70
     0
 40
0.0
 41
1.0
 50
0.0
 71
     0
 42
2.5
  3
simplex.shx
  4
EXTFONT.SHX
  0
STYLE
  5
52
330
3
100
AcDbSymbolTableRecord
100
AcDbTextStyleTableRecord
  2

 70
     1
 40
0.0
 41
1.0
 50
0.0
 71
     0
 42
2.5
  3
ltypeshp.shx
  4

  0
STYLE
  5
6B
330
3
100
AcDbSymbolTableRecord
100
AcDbTextStyleTableRecord
  2
ASAMI
 70
     0
 40
0.0
 41
1.0
 50
0.0
 71
     0
 42
2.5
  3
simplex.shx
  4
EXTFONT.SHX
  0
STYLE
  5
262
330
3
100
AcDbSymbolTableRecord
100
AcDbTextStyleTableRecord
  2
ACJISTS
 70
     0
 40
1.0
 41
1.0
 50
0.0
 71
     0
 42
2.5
  3
simplex.shx
  4
bigfont.shx
  0
STYLE
  5
269
330
3
100
AcDbSymbolTableRecord
100
AcDbTextStyleTableRecord
  2
ACJISGDT
 70
     0
 40
0.0
 41
1.0
 50
0.0
 71
     0
 42
2.5
  3
amgdtans.shx
  4

  0
ENDTAB
  0
TABLE
  2
VIEW
  5
6
330
0
100
AcDbSymbolTable
 70
     0
  0
ENDTAB
  0
TABLE
  2
UCS
  5
7
330
0
100
AcDbSymbolTable
 70
     0
  0
ENDTAB
  0
TABLE
  2
APPID
  5
9
330
0
100
AcDbSymbolTable
 70
    14
  0
APPID
  5
12
330
9
100
AcDbSymbolTableRecord
100
AcDbRegAppTableRecord
  2
ACAD
 70
     0
  0
APPID
  5
30
330
9
100
AcDbSymbolTableRecord
100
AcDbRegAppTableRecord
  2
MCAD_NO_VIS
 70
     0
  0
APPID
  5
31
330
9
100
AcDbSymbolTableRecord
100
AcDbRegAppTableRecord
  2
ACAD_TEMP_GRAPHIC
 70
     0
  0
APPID
  5
2C2
330
9
100
AcDbSymbolTableRecord
100
AcDbRegAppTableRecord
  2
GENIUS_GENDTOL_13
 70
     0
  0
APPID
  5
339
330
9
100
AcDbSymbolTableRecord
100
AcDbRegAppTableRecord
  2
GENIUS_GENODEF_13
 70
     0
  0
APPID
  5
33A
330
9
100
AcDbSymbolTableRecord
100
AcDbRegAppTableRecord
  2
GENIUS_GENOBJ-N-RSBK_13
 70
     0
  0
APPID
  5
33B
330
9
100
AcDbSymbolTableRecord
100
AcDbRegAppTableRecord
  2
GENIUS_GENOBJ-N-LIB_13
 70
     0
  0
APPID
  5
33C
330
9
100
AcDbSymbolTableRecord
100
AcDbRegAppTableRecord
  2
GENIUS_GENSCALE_13
 70
     0
  0
APPID
  5
378
330
9
100
AcDbSymbolTableRecord
100
AcDbRegAppTableRecord
  2
GENIUS_GENDIMSH_14
 70
     0
  0
APPID
  5
BE1
330
9
100
AcDbSymbolTableRecord
100
AcDbRegAppTableRecord
  2
GENIUS_GENFIL_13
 70
     0
  0
APPID
  5
BE2
330
9
100
AcDbSymbolTableRecord
100
AcDbRegAppTableRecord
  2
GENIUS_GENOBJ-N-CHA_13
 70
     0
  0
APPID
  5
151B
330
9
100
AcDbSymbolTableRecord
100
AcDbRegAppTableRecord
  2
DCO15
 70
     0
  0
APPID
  5
1860
330
9
100
AcDbSymbolTableRecord
100
AcDbRegAppTableRecord
  2
GENIUS_GENOBJ-N-CEN_13
 70
     0
  0
APPID
  5
359C
330
9
100
AcDbSymbolTableRecord
100
AcDbRegAppTableRecord
  2
GENIUS_GENOBJ-N-FIL_13
 70
     0
  0
ENDTAB
  0
TABLE
  2
DIMSTYLE
  5
A
330
0
100
AcDbSymbolTable
 70
     8
  0
DIMSTYLE
105
58
102
{ACAD_REACTORS
330
3CAC
330
3D34
330
3E27
330
3FF1
102
}
330
A
100
AcDbSymbolTableRecord
100
AcDbDimStyleTableRecord
  2
AM_JIS
 70
     0
  3

  4
"
  5
OPEN30
  6

  7

 40
0.5
 41
2.5
 42
1.0
 43
12.0
 44
1.0
 45
0.0
 46
0.0
 47
0.1
 48
0.1
140
3.2
141
0.0
142
0.0
143
0.0393701
144
1.0
145
0.0
146
0.71
147
1.5
 71
     0
 72
     0
 73
     0
 74
     0
 75
     0
 76
     0
 77
     3
 78
     8
170
     0
171
     2
172
     1
173
     0
174
     0
175
     0
176
   256
177
   256
178
     2
270
     2
271
     3
272
     3
273
     2
274
     2
340
6B
275
     0
280
     0
281
     0
282
     0
283
     0
284
     0
285
     0
286
     0
287
     3
288
     0
  0
DIMSTYLE
105
5F
330
A
100
AcDbSymbolTableRecord
100
AcDbDimStyleTableRecord
  2
AM_JIS$3
 70
     0
  3

  4
"
  5
OPEN30
  6

  7

 40
0.5
 41
2.5
 42
1.0
 43
10.0
 44
1.0
 45
0.0
 46
0.0
 47
0.1
 48
0.1
140
3.2
141
0.0
142
0.0
143
0.0393701
144
1.0
145
0.0
146
0.71
147
1.5
 71
     0
 72
     0
 73
     0
 74
     1
 75
     0
 76
     0
 77
     3
 78
     8
170
     0
171
     2
172
     0
173
     0
174
     0
175
     0
176
   256
177
   256
178
     2
270
     2
271
     2
272
     3
273
     2
274
     2
340
6B
275
     0
280
     0
281
     0
282
     0
283
     0
284
     0
285
     0
286
     0
287
     0
288
     1
  0
DIMSTYLE
105
60
330
A
100
AcDbSymbolTableRecord
100
AcDbDimStyleTableRecord
  2
AM_JIS$4
 70
     0
  3

  4
"
  5
OPEN30
  6

  7

 40
0.5
 41
2.5
 42
1.0
 43
10.0
 44
1.0
 45
0.0
 46
0.0
 47
0.1
 48
0.1
140
3.2
141
0.0
142
0.0
143
0.0393701
144
1.0
145
0.0
146
0.71
147
1.5
 71
     0
 72
     0
 73
     0
 74
     1
 75
     0
 76
     0
 77
     3
 78
     8
170
     0
171
     2
172
     0
173
     0
174
     0
175
     0
176
   256
177
   256
178
     2
270
     2
271
     2
272
     3
273
     2
274
     2
340
6B
275
     0
280
     0
281
     0
282
     0
283
     0
284
     0
285
     0
286
     0
287
     0
288
     1
  0
DIMSTYLE
105
61
330
A
100
AcDbSymbolTableRecord
100
AcDbDimStyleTableRecord
  2
AM_JIS$6
 70
     0
  3

  4
"
  5
OPEN30
  6

  7

 40
0.5
 41
2.5
 42
1.0
 43
10.0
 44
1.0
 45
0.0
 46
0.0
 47
0.1
 48
0.1
140
3.2
141
0.0
142
0.0
143
0.0393701
144
1.0
145
0.0
146
0.71
147
1.5
 71
     0
 72
     0
 73
     0
 74
     0
 75
     0
 76
     0
 77
     0
 78
     8
170
     0
171
     2
172
     1
173
     0
174
     0
175
     0
176
   256
177
   256
178
     2
270
     2
271
     2
272
     2
273
     2
274
     2
340
6B
275
     0
280
     0
281
     0
282
     0
283
     0
284
     0
285
     0
286
     0
287
     3
288
     0
  0
DIMSTYLE
105
62
330
A
100
AcDbSymbolTableRecord
100
AcDbDimStyleTableRecord
  2
AM_JIS$7
 70
     0
  3

  4
"
  5
OPEN30
  6

  7

 40
0.5
 41
2.5
 42
1.0
 43
10.0
 44
1.0
 45
0.0
 46
0.0
 47
0.1
 48
0.1
140
3.2
141
0.0
142
0.0
143
0.0393701
144
1.0
145
0.0
146
0.71
147
1.5
 71
     0
 72
     0
 73
     0
 74
     0
 75
     0
 76
     0
 77
     3
 78
     8
170
     0
171
     2
172
     1
173
     0
174
     0
175
     0
176
   256
177
   256
178
     2
270
     2
271
     2
272
     3
273
     2
274
     2
340
6B
275
     0
280
     0
281
     0
282
     0
283
     0
284
     0
285
     0
286
     0
287
     3
288
     0
  0
DIMSTYLE
105
63
330
A
100
AcDbSymbolTableRecord
100
AcDbDimStyleTableRecord
  2
AM_JIS$SF
 70
     0
  3

  4
"
  5
OPEN30
  6

  7

 40
0.5
 41
2.5
 42
1.0
 43
10.0
 44
1.0
 45
0.0
 46
0.0
 47
0.1
 48
0.1
140
3.2
141
0.0
142
0.0
143
0.0393701
144
1.0
145
0.0
146
0.71
147
1.5
 71
     0
 72
     0
 73
     0
 74
     0
 75
     1
 76
     1
 77
     3
 78
     8
170
     0
171
     2
172
     1
173
     0
174
     0
175
     0
176
   256
177
   256
178
     2
270
     2
271
     2
272
     2
273
     2
274
     2
340
6B
275
     0
280
     0
281
     0
282
     0
283
     0
284
     0
285
     0
286
     0
287
     3
288
     0
  0
DIMSTYLE
105
68
330
A
100
AcDbSymbolTableRecord
100
AcDbDimStyleTableRecord
  2
AM_JIS$SH
 70
     0
  3

  4
"
  5

  6
GENAXEH
  7
OPEN30
 40
0.5
 41
2.5
 42
1.0
 43
10.0
 44
1.0
 45
0.0
 46
0.0
 47
0.1
 48
0.1
140
3.2
141
0.0
142
0.0
143
0.0393701
144
2.0
145
0.0
146
0.71
147
1.5
 71
     0
 72
     0
 73
     0
 74
     0
 75
     1
 76
     1
 77
     3
 78
     8
170
     0
171
     2
172
     1
173
     1
174
     0
175
     0
176
   256
177
   256
178
     2
270
     2
271
     2
272
     2
273
     2
274
     2
340
6B
275
     0
280
     0
281
     0
282
     0
283
     0
284
     0
285
     0
286
     0
287
     3
288
     0
  0
DIMSTYLE
105
B34
330
A
100
AcDbSymbolTableRecord
100
AcDbDimStyleTableRecord
  2
AM_JIS$2
 70
     0
  3

  4
"
  5
OPEN30
  6

  7

 40
0.5
 41
2.5
 42
1.0
 43
12.0
 44
1.0
 45
0.0
 46
0.0
 47
0.1
 48
0.1
140
3.2
141
0.0
142
0.0
143
0.0393701
144
1.0
145
0.0
146
0.71
147
1.5
 71
     0
 72
     0
 73
     0
 74
     0
 75
     0
 76
     0
 77
     3
 78
     8
170
     0
171
     2
172
     1
173
     0
174
     0
175
     0
176
   256
177
   256
178
     2
270
     2
271
     3
272
     3
273
     2
274
     2
340
6B
275
     0
280
     0
281
     0
282
     0
283
     0
284
     0
285
     0
286
     0
287
     3
288
     0
  0
ENDTAB
  0
TABLE
  2
BLOCK_RECORD
  5
1
330
0
100
AcDbSymbolTable
 70
     9
  0
BLOCK_RECORD
  5
1F
102
{ACAD_XDICTIONARY
360
74
102
}
330
1
100
AcDbSymbolTableRecord
100
AcDbBlockTableRecord
  2
*MODEL_SPACE
  0
BLOCK_RECORD
  5
101
102
{ACAD_XDICTIONARY
360
4519
102
}
330
1
100
AcDbSymbolTableRecord
100
AcDbBlockTableRecord
  2
*PAPER_SPACE
  0
BLOCK_RECORD
  5
59
330
1
100
AcDbSymbolTableRecord
100
AcDbBlockTableRecord
  2
_OPEN30
  0
BLOCK_RECORD
  5
64
330
1
100
AcDbSymbolTableRecord
100
AcDbBlockTableRecord
  2
GENAXEH
  0
BLOCK_RECORD
  5
3CAD
330
1
100
AcDbSymbolTableRecord
100
AcDbBlockTableRecord
  2
*D5
  0
BLOCK_RECORD
  5
3D35
330
1
100
AcDbSymbolTableRecord
100
AcDbBlockTableRecord
  2
*D6
  0
BLOCK_RECORD
  5
3E28
330
1
100
AcDbSymbolTableRecord
100
AcDbBlockTableRecord
  2
*D7
  0
BLOCK_RECORD
  5
3FF2
330
1
100
AcDbSymbolTableRecord
100
AcDbBlockTableRecord
  2
*D8
  0
ENDTAB
  0
ENDSEC
  0
SECTION
  2
BLOCKS
  0
BLOCK
  5
20
330
1F
100
AcDbEntity
  8
0
100
AcDbBlockBegin
  2
*MODEL_SPACE
 70
     0
 10
0.0
 20
0.0
 30
0.0
  3
*MODEL_SPACE
  1

  0
ENDBLK
  5
21
330
1F
100
AcDbEntity
  8
0
100
AcDbBlockEnd
  0
BLOCK
  5
103
330
101
100
AcDbEntity
 67
     1
  8
0
100
AcDbBlockBegin
  2
*PAPER_SPACE
 70
     0
 10
0.0
 20
0.0
 30
0.0
  3
*PAPER_SPACE
  1

  0
ENDBLK
  5
104
330
101
100
AcDbEntity
 67
     1
  8
0
100
AcDbBlockEnd
  0
BLOCK
  5
5D
330
59
100
AcDbEntity
  8
0
100
AcDbBlockBegin
  2
_OPEN30
 70
     0
 10
0.0
 20
0.0
 30
0.0
  3
_OPEN30
  1

  0
LINE
  5
5A
330
59
100
AcDbEntity
  8
0
 62
     0
100
AcDbLine
 10
-1.0
 20
0.26794919
 30
0.0
 11
0.0
 21
0.0
 31
0.0
  0
LINE
  5
5B
330
59
100
AcDbEntity
  8
0
 62
     0
100
AcDbLine
 10
0.0
 20
0.0
 30
0.0
 11
-1.0
 21
-0.26794919
 31
0.0
  0
LINE
  5
5C
330
59
100
AcDbEntity
  8
0
 62
     0
100
AcDbLine
 10
0.0
 20
0.0
 30
0.0
 11
-1.0
 21
0.0
 31
0.0
  0
ENDBLK
  5
5E
330
59
100
AcDbEntity
  8
0
100
AcDbBlockEnd
  0
BLOCK
  5
66
330
64
100
AcDbEntity
  8
0
100
AcDbBlockBegin
  2
GENAXEH
 70
     0
 10
0.0
 20
0.0
 30
0.0
  3
GENAXEH
  1

  0
LINE
  5
65
330
64
100
AcDbEntity
  8
0
100
AcDbLine
 10
-1.0
 20
0.0
 30
0.0
 11
1.0
 21
0.0
 31
0.0
  0
ENDBLK
  5
67
330
64
100
AcDbEntity
  8
0
100
AcDbBlockEnd
  0
BLOCK
  5
3CB7
330
3CAD
100
AcDbEntity
  8
0
100
AcDbBlockBegin
  2
*D5
 70
     1
 10
0.0
 20
0.0
 30
0.0
  3
*D5
  1

  0
LINE
  5
40B6
330
3CAD
100
AcDbEntity
  8
AM_5
100
AcDbLine
 10
0.0
 20
-2.999999999999996
 30
0.0
 11
-0.0000000000000009
 21
-16.50000100000006
 31
0.0
  0
LINE
  5
40B7
330
3CAD
100
AcDbEntity
  8
AM_5
100
AcDbLine
 10
-49.99999999999996
 20
-3.000000000000014
 30
0.0
 11
-49.99999999999996
 21
-16.50000100000006
 31
0.0
  0
LINE
  5
40B8
330
3CAD
100
AcDbEntity
  8
AM_5
100
AcDbLine
 10
-1.25
 20
-16.00000100000006
 30
0.0
 11
-48.74999999999996
 21
-16.00000100000006
 31
0.0
  0
INSERT
  5
40B9
330
3CAD
100
AcDbEntity
  8
AM_5
100
AcDbBlockReference
  2
_OPEN30
 10
-0.0000000000000008
 20
-16.00000100000006
 30
0.0
 41
1.25
 42
1.25
 43
1.25
  0
INSERT
  5
40BA
330
3CAD
100
AcDbEntity
  8
AM_5
100
AcDbBlockReference
  2
_OPEN30
 10
-49.99999999999996
 20
-16.00000100000006
 30
0.0
 41
1.25
 42
1.25
 43
1.25
 50
180.0
  0
MTEXT
  5
40BB
330
3CAD
100
AcDbEntity
  8
AM_5
 62
     2
100
AcDbMText
 10
-24.99999999999998
 20
-14.45000100000006
 30
0.0
 40
1.6
 41
0.0
 71
     5
 72
     1
  1
50
  7
ASAMI
1001
ACAD
1000
MTEXTBEGIN
1070
    73
1070
     1
1070
    44
1040
1.0
1070
    74
1070
     0
1000
MTEXTEND
  0
POINT
  5
40BC
330
3CAD
100
AcDbEntity
  8
DEFPOINTS
 62
     0
100
AcDbPoint
 10
0.0
 20
-2.499999999999996
 30
0.0
  0
POINT
  5
40BD
330
3CAD
100
AcDbEntity
  8
DEFPOINTS
 62
     0
100
AcDbPoint
 10
-49.99999999999996
 20
-2.500000000000014
 30
0.0
  0
POINT
  5
40BE
330
3CAD
100
AcDbEntity
  8
DEFPOINTS
 62
     0
100
AcDbPoint
 10
-49.99999999999996
 20
-16.00000100000006
 30
0.0
  0
ENDBLK
  5
3CB8
330
3CAD
100
AcDbEntity
  8
0
100
AcDbBlockEnd
  0
BLOCK
  5
3D3F
330
3D35
100
AcDbEntity
  8
0
100
AcDbBlockBegin
  2
*D6
 70
     1
 10
0.0
 20
0.0
 30
0.0
  3
*D6
  1

  0
LINE
  5
40BF
330
3D35
100
AcDbEntity
  8
AM_5
100
AcDbLine
 10
0.0
 20
-2.999999999999996
 30
0.0
 11
-0.0000000000000005
 21
-10.50000099999998
 31
0.0
  0
LINE
  5
40C0
330
3D35
100
AcDbEntity
  8
AM_5
100
AcDbLine
 10
-12.0
 20
-2.999999999999996
 30
0.0
 11
-12.0
 21
-10.50000099999998
 31
0.0
  0
LINE
  5
40C1
330
3D35
100
AcDbEntity
  8
AM_5
100
AcDbLine
 10
-1.25
 20
-10.00000099999998
 30
0.0
 11
-10.74999999999999
 21
-10.00000099999998
 31
0.0
  0
INSERT
  5
40C2
330
3D35
100
AcDbEntity
  8
AM_5
100
AcDbBlockReference
  2
_OPEN30
 10
-0.0000000000000005
 20
-10.00000099999998
 30
0.0
 41
1.25
 42
1.25
 43
1.25
  0
INSERT
  5
40C3
330
3D35
100
AcDbEntity
  8
AM_5
100
AcDbBlockReference
  2
_OPEN30
 10
-12.0
 20
-10.00000099999998
 30
0.0
 41
1.25
 42
1.25
 43
1.25
 50
180.0
  0
MTEXT
  5
40C4
330
3D35
100
AcDbEntity
  8
AM_5
 62
     2
100
AcDbMText
 10
-6.0
 20
-8.450000999999986
 30
0.0
 40
1.6
 41
0.0
 71
     5
 72
     1
  1
12
  7
ASAMI
1001
ACAD
1000
MTEXTBEGIN
1070
    73
1070
     1
1070
    44
1040
1.0
1070
    74
1070
     0
1000
MTEXTEND
  0
POINT
  5
40C5
330
3D35
100
AcDbEntity
  8
DEFPOINTS
 62
     0
100
AcDbPoint
 10
0.0
 20
-2.499999999999996
 30
0.0
  0
POINT
  5
40C6
330
3D35
100
AcDbEntity
  8
DEFPOINTS
 62
     0
100
AcDbPoint
 10
-12.0
 20
-2.499999999999996
 30
0.0
  0
POINT
  5
40C7
330
3D35
100
AcDbEntity
  8
DEFPOINTS
 62
     0
100
AcDbPoint
 10
-12.0
 20
-10.00000099999998
 30
0.0
  0
ENDBLK
  5
3D40
330
3D35
100
AcDbEntity
  8
0
100
AcDbBlockEnd
  0
BLOCK
  5
3E32
330
3E28
100
AcDbEntity
  8
0
100
AcDbBlockBegin
  2
*D7
 70
     1
 10
0.0
 20
0.0
 30
0.0
  3
*D7
  1

  0
LINE
  5
40C8
330
3E28
100
AcDbEntity
  8
AM_5
100
AcDbLine
 10
0.5
 20
2.500000000000003
 30
0.0
 11
12.05776903085518
 21
2.5
 31
0.0
  0
LINE
  5
40C9
330
3E28
100
AcDbEntity
  8
AM_5
100
AcDbLine
 10
0.5000000000000036
 20
-2.499999999999996
 30
0.0
 11
12.05776903085518
 21
-2.499999999999999
 31
0.0
  0
LINE
  5
40CA
330
3E28
100
AcDbEntity
  8
AM_5
100
AcDbLine
 10
11.55776903085518
 20
1.25
 30
0.0
 11
11.55776903085518
 21
-1.249999999999999
 31
0.0
  0
INSERT
  5
40CB
330
3E28
100
AcDbEntity
  8
AM_5
100
AcDbBlockReference
  2
_OPEN30
 10
11.55776903085518
 20
2.5
 30
0.0
 41
1.25
 42
1.25
 43
1.25
 50
90.0
  0
INSERT
  5
40CC
330
3E28
100
AcDbEntity
  8
AM_5
100
AcDbBlockReference
  2
_OPEN30
 10
11.55776903085518
 20
-2.499999999999999
 30
0.0
 41
1.25
 42
1.25
 43
1.25
 50
270.0
  0
MTEXT
  5
40CD
330
3E28
100
AcDbEntity
  8
AM_5
 62
     2
100
AcDbMText
 10
10.00776903085518
 20
0.0000000000000024
 30
0.0
 40
1.6
 41
0.0
 71
     5
 72
     1
  1
%%c5
  7
ASAMI
 11
0.0000000000000001
 21
1.0
 31
0.0
1001
ACAD
1000
MTEXTBEGIN
1070
    73
1070
     1
1070
    44
1040
1.0
1070
    74
1070
     0
1000
MTEXTEND
  0
POINT
  5
40CE
330
3E28
100
AcDbEntity
  8
DEFPOINTS
 62
     0
100
AcDbPoint
 10
0.0
 20
2.500000000000003
 30
0.0
  0
POINT
  5
40CF
330
3E28
100
AcDbEntity
  8
DEFPOINTS
 62
     0
100
AcDbPoint
 10
0.0000000000000036
 20
-2.499999999999996
 30
0.0
  0
POINT
  5
40D0
330
3E28
100
AcDbEntity
  8
DEFPOINTS
 62
     0
100
AcDbPoint
 10
11.55776903085518
 20
-2.499999999999999
 30
0.0
  0
ENDBLK
  5
3E33
330
3E28
100
AcDbEntity
  8
0
100
AcDbBlockEnd
  0
BLOCK
  5
3FFC
330
3FF2
100
AcDbEntity
  8
0
100
AcDbBlockBegin
  2
*D8
 70
     1
 10
0.0
 20
0.0
 30
0.0
  3
*D8
  1

  0
LINE
  5
3FFF
330
3FF2
100
AcDbEntity
  8
AM_5
100
AcDbLine
 10
-49.75
 20
2.999999999999999
 30
0.0
 11
-60.19470045058476
 21
3.000000000000002
 31
0.0
  0
LINE
  5
4000
330
3FF2
100
AcDbEntity
  8
AM_5
100
AcDbLine
 10
-49.99999999999996
 20
-3.000000000000014
 30
0.0
 11
-60.19470045058476
 21
-3.000000000000011
 31
0.0
  0
LINE
  5
4001
330
3FF2
100
AcDbEntity
  8
AM_5
100
AcDbLine
 10
-59.69470045058476
 20
1.750000000000001
 30
0.0
 11
-59.69470045058476
 21
-1.750000000000011
 31
0.0
  0
INSERT
  5
4002
330
3FF2
100
AcDbEntity
  8
AM_5
100
AcDbBlockReference
  2
_OPEN30
 10
-59.69470045058476
 20
3.000000000000001
 30
0.0
 41
1.25
 42
1.25
 43
1.25
 50
90.0
  0
INSERT
  5
4003
330
3FF2
100
AcDbEntity
  8
AM_5
100
AcDbBlockReference
  2
_OPEN30
 10
-59.69470045058476
 20
-3.000000000000011
 30
0.0
 41
1.25
 42
1.25
 43
1.25
 50
270.0
  0
MTEXT
  5
4004
330
3FF2
100
AcDbEntity
  8
AM_5
 62
     2
100
AcDbMText
 10
-61.24470045058476
 20
-0.0000000000000146
 30
0.0
 40
1.6
 41
0.0
 71
     5
 72
     1
  1
%%c6
  7
ASAMI
 11
0.0000000000000001
 21
1.0
 31
0.0
1001
ACAD
1000
MTEXTBEGIN
1070
    73
1070
     1
1070
    44
1040
1.0
1070
    74
1070
     0
1000
MTEXTEND
  0
POINT
  5
4005
330
3FF2
100
AcDbEntity
  8
DEFPOINTS
 62
     0
100
AcDbPoint
 10
-49.25
 20
2.999999999999999
 30
0.0
  0
POINT
  5
4006
330
3FF2
100
AcDbEntity
  8
DEFPOINTS
 62
     0
100
AcDbPoint
 10
-49.49999999999996
 20
-3.000000000000014
 30
0.0
  0
POINT
  5
4007
330
3FF2
100
AcDbEntity
  8
DEFPOINTS
 62
     0
100
AcDbPoint
 10
-59.69470045058476
 20
-3.000000000000011
 30
0.0
  0
ENDBLK
  5
3FFD
330
3FF2
100
AcDbEntity
  8
0
100
AcDbBlockEnd
  0
ENDSEC
  0
SECTION
  2
ENTITIES
  0
TEXT
  5
1500
330
1F
100
AcDbEntity
  8
AM_6
100
AcDbText
 10
-33.3333333333333
 20
-27.25000100000006
 30
0.0
 40
2.5
  1
HSM3050
 72
     4
 11
-24.99999999999997
 21
-26.00000100000006
 31
0.0
100
AcDbText
  0
LINE
  5
3B7D
330
1F
100
AcDbEntity
  8
AM_7
  6
AM_ISO08W050X2
100
AcDbLine
 10
4.557768030855186
 20
0.0
 30
0.0
 11
-52.69469945058478
 21
-0.0000000000000142
 31
0.0
1001
GENIUS_GENODEF_13
1002
{
1000
HIER
1070
     0
1002
}
1002
{
1000
MANEDIT
1070
     0
1002
}
1002
{
1000
NOSEL
1070
     0
1002
}
1002
{
1000
BEHIND
1070
     0
1002
}
1002
{
1000
REACTOR
1002
}
1001
GENIUS_GENOBJ-N-CEN_13
1002
{
1000
OWNER
1000
GEN
1002
}
  0
DIMENSION
  5
3CAC
330
1F
100
AcDbEntity
  8
AM_5
100
AcDbDimension
  2
*D5
 10
-49.99999999999996
 20
-16.00000100000006
 30
0.0
 11
-24.99999999999998
 21
-14.45000100000006
 31
0.0
 70
    32
  1
<>
  3
AM_JIS
100
AcDbAlignedDimension
 13
0.0
 23
-2.499999999999996
 33
0.0
 14
-49.99999999999996
 24
-2.500000000000014
 34
0.0
 50
0.0000000000001132
100
AcDbRotatedDimension
1001
GENIUS_GENDTOL_13
1000

1000
h7
1000

1040
0.0
  0
DIMENSION
  5
3D34
330
1F
100
AcDbEntity
  8
AM_5
100
AcDbDimension
  2
*D6
 10
-12.0
 20
-10.00000099999998
 30
0.0
 11
-6.0
 21
-8.450000999999986
 31
0.0
 70
    32
  1
<>
  3
AM_JIS
100
AcDbAlignedDimension
 13
0.0
 23
-2.499999999999996
 33
0.0
 14
-12.0
 24
-2.499999999999996
 34
0.0
 50
0.0000000000001132
100
AcDbRotatedDimension
1001
GENIUS_GENDTOL_13
1000

1000
h7
1000

1040
0.0
  0
DIMENSION
  5
3E27
330
1F
100
AcDbEntity
  8
AM_5
100
AcDbDimension
  2
*D7
 10
11.55776903085518
 20
-2.499999999999999
 30
0.0
 11
10.00776903085518
 21
0.0000000000000024
 31
0.0
 70
    32
  1
%%c<>
  3
AM_JIS
100
AcDbAlignedDimension
 13
0.0
 23
2.500000000000003
 33
0.0
 14
0.0000000000000036
 24
-2.499999999999996
 34
0.0
 50
90.00000000000003
100
AcDbRotatedDimension
1001
GENIUS_GENDTOL_13
1000

1000
h7
1000

1040
0.0
  0
LINE
  5
3FEC
330
1F
100
AcDbEntity
  8
AM_0
100
AcDbLine
 10
-16.49999999999996
 20
-2.999999999999996
 30
0.0
 11
-49.49999999999995
 21
-3.000000000000014
 31
0.0
  0
LINE
  5
3FEF
330
1F
100
AcDbEntity
  8
AM_0
100
AcDbLine
 10
-49.49999999999999
 20
2.999999999999998
 30
0.0
 11
-49.49999999999996
 21
-3.000000000000014
 31
0.0
  0
LINE
  5
3FF0
330
1F
100
AcDbEntity
  8
AM_0
100
AcDbLine
 10
-50.0
 20
2.499999999999998
 30
0.0
 11
-49.99999999999996
 21
-2.500000000000014
 31
0.0
  0
DIMENSION
  5
3FF1
330
1F
100
AcDbEntity
  8
AM_5
100
AcDbDimension
  2
*D8
 10
-59.69470045058476
 20
-3.000000000000011
 30
0.0
 11
-61.24470045058476
 21
-0.0000000000000146
 31
0.0
 70
    32
  1
%%c<>
  3
AM_JIS
100
AcDbAlignedDimension
 13
-49.25
 23
2.999999999999999
 33
0.0
 14
-49.49999999999996
 24
-3.000000000000014
 34
0.0
 50
270.0
100
AcDbRotatedDimension
1001
GENIUS_GENDTOL_13
1000

1000
h7
1000

1040
0.0
  0
LINE
  5
3FFE
330
1F
100
AcDbEntity
  8
AM_0
100
AcDbLine
 10
-16.50000000000001
 20
3.000000000000003
 30
0.0
 11
-49.50000000000001
 21
2.999999999999998
 31
0.0
  0
LINE
  5
400A
330
1F
100
AcDbEntity
  8
AM_0
100
AcDbLine
 10
-49.50000000000001
 20
2.999999999999998
 30
0.0
 11
-50.0
 21
2.499999999999998
 31
0.0
1001
GENIUS_GENFIL_13
1070
     0
1040
0.5
1040
0.5
1040
20.0
1040
0.0
1002
{
1002
}
1001
GENIUS_GENODEF_13
1002
{
1000
HIER
1070
     0
1002
}
1002
{
1000
MANEDIT
1070
     0
1002
}
1002
{
1000
NOSEL
1070
     0
1002
}
1002
{
1000
BEHIND
1070
     0
1002
}
1002
{
1000
REACTOR
1002
}
1001
GENIUS_GENOBJ-N-CHA_13
1002
{
1000
OWNER
1000
GEN
1002
}
  0
LINE
  5
400D
330
1F
100
AcDbEntity
  8
AM_0
100
AcDbLine
 10
-49.99999999999996
 20
-2.500000000000014
 30
0.0
 11
-49.49999999999995
 21
-3.000000000000014
 31
0.0
1001
GENIUS_GENFIL_13
1070
     0
1040
0.5
1040
0.5
1040
20.0
1040
0.0
1002
{
1002
}
1001
GENIUS_GENODEF_13
1002
{
1000
HIER
1070
     0
1002
}
1002
{
1000
MANEDIT
1070
     0
1002
}
1002
{
1000
NOSEL
1070
     0
1002
}
1002
{
1000
BEHIND
1070
     0
1002
}
1002
{
1000
REACTOR
1002
}
1001
GENIUS_GENOBJ-N-CHA_13
1002
{
1000
OWNER
1000
GEN
1002
}
  0
LINE
  5
4087
330
1F
100
AcDbEntity
  8
AM_0
100
AcDbLine
 10
-16.50000000000001
 20
3.000000000000003
 30
0.0
 11
-16.49999999999996
 21
-2.999999999999995
 31
0.0
  0
LINE
  5
409F
330
1F
100
AcDbEntity
  8
AM_0
100
AcDbLine
 10
-13.94822083212386
 20
2.500000000000002
 30
0.0
 11
-14.63397459621557
 21
2.500000000000002
 31
0.0
  0
LINE
  5
40A0
330
1F
100
AcDbEntity
  8
AM_0
100
AcDbLine
 10
-12.49145031513079
 20
-2.499999999999996
 30
0.0
 11
-14.63397459621553
 21
-2.499999999999998
 31
0.0
  0
LINE
  5
40A1
330
1F
100
AcDbEntity
  8
AM_0
100
AcDbLine
 10
-14.63397459621553
 20
-2.499999999999998
 30
0.0
 11
-14.63397459621557
 21
2.500000000000002
 31
0.0
  0
LINE
  5
40A2
330
1F
100
AcDbEntity
  8
AM_0
100
AcDbLine
 10
-14.63397459621557
 20
2.500000000000002
 30
0.0
 11
-16.50000000000001
 21
3.000000000000003
 31
0.0
  0
LINE
  5
40A3
330
1F
100
AcDbEntity
  8
AM_0
100
AcDbLine
 10
-16.49999999999996
 20
-2.999999999999995
 30
0.0
 11
-14.63397459621553
 21
-2.499999999999998
 31
0.0
  0
ARC
  5
43C6
330
1F
100
AcDbEntity
  8
AM_0
100
AcDbCircle
 10
-12.990710179125
 20
-0.4263030115748734
 30
0.0
 40
1.0
100
AcDbArc
 50
117.0923257436931
 51
211.2479114875234
  0
SPLINE
  5
43CB
330
1F
100
AcDbEntity
  8
AM_0
100
AcDbSpline
210
0.0
220
0.0
230
1.0
 70
     8
 71
     3
 72
     8
 73
     4
 74
     2
 42
0.0000000001
 43
0.0000000001
 44
0.0000000001
 12
-1.0
 22
0.0000000000000001
 32
0.0
 40
0.0
 40
0.0
 40
0.0
 40
0.0
 40
2.214641557917178
 40
2.214641557917178
 40
2.214641557917178
 40
2.214641557917178
 10
-12.10311383197357
 20
-2.311879566533832
 30
0.0
 10
-12.84132768461263
 20
-2.311879566533832
 30
0.0
 10
-13.34348432193209
 20
-1.62846233658675
 30
0.0
 10
-13.84564095925155
 20
-0.9450451066396681
 30
0.0
 11
-12.10311383197357
 21
-2.311879566533832
 31
0.0
 11
-13.84564095925155
 21
-0.9450451066396681
 31
0.0
  0
LINE
  5
43CC
330
1F
100
AcDbEntity
  8
AM_0
100
AcDbLine
 10
-0.0000000000000113
 20
0.0
 30
0.0
 11
-0.0000000000002387
 21
2.433012701893062
 31
0.0
  0
SPLINE
  5
43CD
330
1F
100
AcDbEntity
  8
AM_0
100
AcDbSpline
210
0.0
220
0.0
230
1.0
 70
     8
 71
     3
 72
     8
 73
     4
 74
     0
 42
0.0000000001
 43
0.0000000001
 40
0.3982504941345976
 40
0.3982504941345976
 40
0.3982504941345976
 40
0.3982504941345976
 40
6.01848148651983
 40
6.01848148651983
 40
6.01848148651983
 40
6.01848148651983
 10
-2.286506258636347
 20
2.298939311258209
 30
0.0
 10
-1.40065951165867
 20
2.178473536335502
 30
0.0
 10
-0.8622493623011109
 20
1.235052186524228
 30
0.0
 10
-0.348723180638683
 20
0.2326894353745956
 30
0.0
  0
SPLINE
  5
43CE
330
1F
100
AcDbEntity
  8
AM_0
100
AcDbSpline
210
0.0
220
0.0
230
1.0
 70
     8
 71
     3
 72
     8
 73
     4
 74
     0
 42
0.0000000001
 43
0.0000000001
 40
0.157854605497133
 40
0.157854605497133
 40
0.157854605497133
 40
0.157854605497133
 40
6.616360992657454
 40
6.616360992657454
 40
6.616360992657454
 40
6.616360992657454
 10
-2.790473862667806
 20
2.423138188721623
 30
0.0
 10
-1.738406123446122
 20
2.367331626635404
 30
0.0
 10
-1.178455488129895
 20
1.183665813317816
 30
0.0
 10
-0.6185048528138964
 20
0.0000000000002274
 30
0.0
  0
SPLINE
  5
43CF
330
1F
100
AcDbEntity
  8
AM_0
100
AcDbSpline
210
0.0
220
0.0
230
1.0
 70
     8
 71
     3
 72
     8
 73
     4
 74
     2
 42
0.0000000001
 43
0.0000000001
 44
0.0000000001
 12
1.0
 22
-0.0000000000000002
 32
0.0
 40
0.0
 40
0.0
 40
0.0
 40
0.0
 40
3.363406011768731
 40
3.363406011768731
 40
3.363406011768731
 40
3.363406011768731
 10
-3.249999999999783
 20
2.500000000000341
 30
0.0
 10
-2.12886466274354
 20
2.50000000000034
 30
0.0
 10
-1.564432331371434
 20
1.250000000000341
 30
0.0
 10
-0.9999999999993292
 20
0.0000000000003411
 30
0.0
 11
-3.249999999999783
 21
2.500000000000341
 31
0.0
 11
-0.9999999999993292
 21
0.0000000000003411
 31
0.0
  0
SPLINE
  5
43D0
330
1F
100
AcDbEntity
  8
AM_0
100
AcDbSpline
210
0.0
220
0.0
230
1.0
 70
     8
 71
     3
 72
     8
 73
     4
 74
     2
 42
0.0000000001
 43
0.0000000001
 44
0.0000000001
 12
1.0
 22
-0.0000000000000002
 32
0.0
 40
0.0
 40
0.0
 40
0.0
 40
0.0
 40
3.363406011768427
 40
3.363406011768427
 40
3.363406011768427
 40
3.363406011768427
 10
-6.950000000000693
 20
2.500000000000284
 30
0.0
 10
-5.828864662744551
 20
2.500000000000283
 30
0.0
 10
-5.264432331372622
 20
1.250000000000283
 30
0.0
 10
-4.700000000000693
 20
0.0000000000002842
 30
0.0
 11
-6.950000000000693
 21
2.500000000000284
 31
0.0
 11
-4.700000000000693
 21
0.0000000000002842
 31
0.0
  0
SPLINE
  5
43D1
330
1F
100
AcDbEntity
  8
AM_0
100
AcDbSpline
210
0.0
220
0.0
230
1.0
 70
     8
 71
     3
 72
     8
 73
     4
 74
     0
 42
0.0000000001
 43
0.0000000001
 40
0.157854605497133
 40
0.157854605497133
 40
0.157854605497133
 40
0.157854605497133
 40
6.616360992657454
 40
6.616360992657454
 40
6.616360992657454
 40
6.616360992657454
 10
-6.490473862668943
 20
2.423138188721509
 30
0.0
 10
-5.43840612344726
 20
2.367331626635348
 30
0.0
 10
-4.87845548813126
 20
1.183665813317759
 30
0.0
 10
-4.318504852815033
 20
0.0000000000002274
 30
0.0
  0
SPLINE
  5
43D2
330
1F
100
AcDbEntity
  8
AM_0
100
AcDbSpline
210
0.0
220
0.0
230
1.0
 70
     8
 71
     3
 72
     8
 73
     4
 74
     0
 42
0.0000000001
 43
0.0000000001
 40
0.3982504941345976
 40
0.3982504941345976
 40
0.3982504941345976
 40
0.3982504941345976
 40
6.452065446090842
 40
6.452065446090842
 40
6.452065446090842
 40
6.452065446090842
 10
-5.986506258637257
 20
2.298939311258095
 30
0.0
 10
-5.032319092796535
 20
2.169179963214617
 30
0.0
 10
-4.481243731227516
 20
1.08458998160745
 30
0.0
 10
-3.930168369658269
 20
0.0000000000003411
 30
0.0
  0
SPLINE
  5
43D3
330
1F
100
AcDbEntity
  8
AM_0
100
AcDbSpline
210
0.0
220
0.0
230
1.0
 70
     8
 71
     3
 72
     8
 73
     4
 74
     0
 42
0.0000000001
 43
0.0000000001
 40
0.3982504941345976
 40
0.3982504941345976
 40
0.3982504941345976
 40
0.3982504941345976
 40
6.452065446090842
 40
6.452065446090842
 40
6.452065446090842
 40
6.452065446090842
 10
-9.686506258634983
 20
2.298939311258152
 30
0.0
 10
-8.732319092794263
 20
2.169179963214673
 30
0.0
 10
-8.181243731225244
 20
1.084589981607507
 30
0.0
 10
-7.630168369655769
 20
0.0000000000003411
 30
0.0
  0
SPLINE
  5
43D4
330
1F
100
AcDbEntity
  8
AM_0
100
AcDbSpline
210
0.0
220
0.0
230
1.0
 70
     8
 71
     3
 72
     8
 73
     4
 74
     0
 42
0.0000000001
 43
0.0000000001
 40
0.157854605497133
 40
0.157854605497133
 40
0.157854605497133
 40
0.157854605497133
 40
6.616360992657454
 40
6.616360992657454
 40
6.616360992657454
 40
6.616360992657454
 10
-10.19047386266644
 20
2.423138188721566
 30
0.0
 10
-9.138406123444987
 20
2.367331626635348
 30
0.0
 10
-8.578455488128987
 20
1.183665813317816
 30
0.0
 10
-8.018504852812533
 20
0.0000000000002274
 30
0.0
  0
SPLINE
  5
43D5
330
1F
100
AcDbEntity
  8
AM_0
100
AcDbSpline
210
0.0
220
0.0
230
1.0
 70
     8
 71
     3
 72
     8
 73
     4
 74
     2
 42
0.0000000001
 43
0.0000000001
 44
0.0000000001
 12
1.0
 22
-0.0000000000000002
 32
0.0
 40
0.0
 40
0.0
 40
0.0
 40
0.0
 40
3.363406011768578
 40
3.363406011768578
 40
3.363406011768578
 40
3.363406011768578
 10
-10.64999999999842
 20
2.500000000000284
 30
0.0
 10
-9.528864662742225
 20
2.500000000000283
 30
0.0
 10
-8.964432331370209
 20
1.250000000000283
 30
0.0
 10
-8.399999999998193
 20
0.0000000000002842
 30
0.0
 11
-10.64999999999842
 21
2.500000000000284
 31
0.0
 11
-8.399999999998193
 21
0.0000000000002842
 31
0.0
  0
SPLINE
  5
43D6
330
1F
100
AcDbEntity
  8
AM_0
100
AcDbSpline
210
0.0
220
0.0
230
1.0
 70
     8
 71
     3
 72
     8
 73
     4
 74
     0
 42
0.0000000001
 43
0.0000000001
 40
0.3982504941345976
 40
0.3982504941345976
 40
0.3982504941345976
 40
0.3982504941345976
 40
6.452065446090842
 40
6.452065446090842
 40
6.452065446090842
 40
6.452065446090842
 10
-13.3955450146768
 20
2.324990454880082
 30
0.0
 10
-12.45526455511448
 20
2.169179963214673
 30
0.0
 10
-11.90418919354523
 20
1.084589981607507
 30
0.0
 10
-11.35311383197598
 20
0.0000000000003411
 30
0.0
  0
SPLINE
  5
43D7
330
1F
100
AcDbEntity
  8
AM_0
100
AcDbSpline
210
0.0
220
0.0
230
1.0
 70
     8
 71
     3
 72
     8
 73
     4
 74
     0
 42
0.0000000001
 43
0.0000000001
 40
0.157854605497133
 40
0.157854605497133
 40
0.157854605497133
 40
0.157854605497133
 40
6.616360992657454
 40
6.616360992657454
 40
6.616360992657454
 40
6.616360992657454
 10
-13.94822083212385
 20
2.500000000000002
 30
0.0
 10
-12.8613515857652
 20
2.367331626635404
 30
0.0
 10
-12.30140095044897
 20
1.183665813317816
 30
0.0
 10
-11.74145031513274
 20
0.0000000000002274
 30
0.0
  0
SPLINE
  5
43D8
330
1F
100
AcDbEntity
  8
AM_0
100
AcDbSpline
210
0.0
220
0.0
230
1.0
 70
     8
 71
     3
 72
     8
 73
     4
 74
     0
 42
0.0000000001
 43
0.0000000001
 40
5.042249938661663
 40
5.042249938661663
 40
5.042249938661663
 40
5.042249938661663
 40
6.726812023537159
 40
6.726812023537159
 40
6.726812023537159
 40
6.726812023537159
 10
-12.55573233341651
 20
0.919462817273235
 30
0.0
 10
-12.40564142634424
 20
0.6260625683392505
 30
0.0
 10
-12.26429344433132
 20
0.3130312841697957
 30
0.0
 10
-12.12294546231841
 20
0.0000000000003411
 30
0.0
  0
SPLINE
  5
43DD
330
1F
100
AcDbEntity
  8
AM_0
100
AcDbSpline
210
0.0
220
0.0
230
1.0
 70
     8
 71
     3
 72
     8
 73
     4
 74
     2
 42
0.0000000001
 43
0.0000000001
 44
0.0000000001
 12
0.2563440340107919
 22
-0.9665856072935671
 32
0.0
 13
-1.0
 23
0.0000000000000001
 33
0.0
 40
0.0
 40
0.0
 40
0.0
 40
0.0
 40
1.222344657084757
 40
1.222344657084757
 40
1.222344657084757
 40
1.222344657084757
 10
-0.2499999999970555
 20
2.5
 30
0.0
 10
-0.1455530798808405
 20
2.106166415769894
 30
0.0
 10
-0.3520206803817258
 20
1.388888888888857
 30
0.0
 10
-0.7594688994099784
 20
1.388888888888857
 30
0.0
 11
-0.2499999999970555
 21
2.5
 31
0.0
 11
-0.7594688994099784
 21
1.388888888888857
 31
0.0
  0
LINE
  5
43DE
330
1F
100
AcDbEntity
  8
AM_0
100
AcDbLine
 10
-0.2499999999997839
 20
2.500000000000795
 30
0.0
 11
-0.0000000000002387
 21
2.433012701893062
 31
0.0
  0
SPLINE
  5
43DF
330
1F
100
AcDbEntity
  8
AM_0
100
AcDbSpline
210
0.0
220
0.0
230
1.0
 70
     8
 71
     3
 72
     8
 73
     4
 74
     0
 42
0.0000000001
 43
0.0000000001
 40
0.0
 40
0.0
 40
0.0
 40
0.0
 40
2.948331486770748
 40
2.948331486770748
 40
2.948331486770748
 40
2.948331486770748
 10
-0.2499999999984197
 20
2.500000000000397
 30
0.0
 10
-0.741388581126796
 20
2.500000000000625
 30
0.0
 10
-1.125832871709928
 20
2.259871310611742
 30
0.0
 10
-1.450206073799574
 20
1.884861257509896
 30
0.0
  0
SPLINE
  5
43E0
330
1F
100
AcDbEntity
  8
AM_0
100
AcDbSpline
210
0.0
220
0.0
230
1.0
 70
     8
 71
     3
 72
     8
 73
     4
 74
     0
 42
0.0000000001
 43
0.0000000001
 40
0.0
 40
0.0
 40
0.0
 40
0.0
 40
2.948331486770748
 40
2.948331486770748
 40
2.948331486770748
 40
2.948331486770748
 10
-10.64999999999842
 20
2.500000000000284
 30
0.0
 10
-11.86433404344587
 20
2.500000000000625
 30
0.0
 10
-12.248778334029
 20
2.259871310611742
 30
0.0
 10
-12.57315153611865
 20
1.884861257509896
 30
0.0
  0
SPLINE
  5
43E1
330
1F
100
AcDbEntity
  8
AM_0
100
AcDbSpline
210
0.0
220
0.0
230
1.0
 70
     8
 71
     3
 72
     8
 73
     4
 74
     0
 42
0.0000000001
 43
0.0000000001
 40
0.0
 40
0.0
 40
0.0
 40
0.0
 40
2.948331486770748
 40
2.948331486770748
 40
2.948331486770748
 40
2.948331486770748
 10
-6.950000000000693
 20
2.500000000000284
 30
0.0
 10
-8.061485364228598
 20
2.540393740022025
 30
0.0
 10
-8.525832871708793
 20
2.259871310611742
 30
0.0
 10
-8.850206073798439
 20
1.884861257509896
 30
0.0
  0
SPLINE
  5
43E2
330
1F
100
AcDbEntity
  8
AM_0
100
AcDbSpline
210
0.0
220
0.0
230
1.0
 70
     8
 71
     3
 72
     8
 73
     4
 74
     0
 42
0.0000000001
 43
0.0000000001
 40
0.0
 40
0.0
 40
0.0
 40
0.0
 40
2.948331486770748
 40
2.948331486770748
 40
2.948331486770748
 40
2.948331486770748
 10
-3.249999999999783
 20
2.500000000000341
 30
0.0
 10
-4.579421222272809
 20
2.500000000000568
 30
0.0
 10
-4.825832871711066
 20
2.259871310611742
 30
0.0
 10
-5.150206073800712
 20
1.88486125750984
 30
0.0
  0
SPLINE
  5
43E5
330
1F
100
AcDbEntity
  8
AM_0
100
AcDbSpline
210
0.0
220
0.0
230
1.0
 70
     8
 71
     3
 72
     8
 73
     4
 74
     2
 42
0.0000000001
 43
0.0000000001
 44
0.0000000001
 12
-1.0
 22
0.0000000000000001
 32
0.0
 40
0.0
 40
0.0
 40
0.0
 40
0.0
 40
3.36340601176858
 40
3.36340601176858
 40
3.36340601176858
 40
3.36340601176858
 10
-2.449999999997964
 20
-2.499999999999715
 30
0.0
 10
-3.571135337254157
 20
-2.499999999999715
 30
0.0
 10
-4.135567668626174
 20
-1.249999999999715
 30
0.0
 10
-4.699999999998192
 20
0.0000000000002842
 30
0.0
 11
-2.449999999997964
 21
-2.499999999999715
 31
0.0
 11
-4.699999999998192
 21
0.0000000000002842
 31
0.0
  0
SPLINE
  5
43E6
330
1F
100
AcDbEntity
  8
AM_0
100
AcDbSpline
210
0.0
220
0.0
230
1.0
 70
     8
 71
     3
 72
     8
 73
     4
 74
     2
 42
0.0000000001
 43
0.0000000001
 44
0.0000000001
 12
-1.0
 22
0.0000000000000001
 32
0.0
 40
0.0
 40
0.0
 40
0.0
 40
0.0
 40
3.308180496328613
 40
3.308180496328613
 40
3.308180496328613
 40
3.308180496328613
 10
-2.068504852812531
 20
-2.425192403972801
 30
0.0
 10
-3.171231684922069
 20
-2.425192403972801
 30
0.0
 10
-3.7448682688673
 20
-1.212596201986229
 30
0.0
 10
-4.318504852812532
 20
0.0000000000003411
 30
0.0
 11
-2.068504852812531
 21
-2.425192403972801
 31
0.0
 11
-4.318504852812532
 21
0.0000000000003411
 31
0.0
  0
SPLINE
  5
43E7
330
1F
100
AcDbEntity
  8
AM_0
100
AcDbSpline
210
0.0
220
0.0
230
1.0
 70
     8
 71
     3
 72
     8
 73
     4
 74
     2
 42
0.0000000001
 43
0.0000000001
 44
0.0000000001
 12
-1.0
 22
0.0000000000000001
 32
0.0
 40
0.0
 40
0.0
 40
0.0
 40
0.0
 40
3.280765619861354
 40
3.280765619861354
 40
3.280765619861354
 40
3.280765619861354
 10
-1.680168369655768
 20
-2.387660581502871
 30
0.0
 10
-2.773756909609553
 20
-2.387660581502871
 30
0.0
 10
-3.35196263963266
 20
-1.193830290751265
 30
0.0
 10
-3.930168369655768
 20
0.0000000000003411
 30
0.0
 11
-1.680168369655768
 21
-2.387660581502871
 31
0.0
 11
-3.930168369655768
 21
0.0000000000003411
 31
0.0
  0
LINE
  5
43E9
330
1F
100
AcDbEntity
  8
AM_0
100
AcDbLine
 10
-0.1000000000042404
 20
-1.736149438329903
 30
0.0
 11
-0.099999999986278
 21
-1.249999999994997
 31
0.0
  0
LINE
  5
43EA
330
1F
100
AcDbEntity
  8
AM_0
100
AcDbLine
 10
0.0000000000002161
 20
-1.249999999998692
 30
0.0
 11
-0.0999999999999204
 21
-1.736149438308984
 31
0.0
  0
LINE
  5
43EB
330
1F
100
AcDbEntity
  8
AM_0
100
AcDbLine
 10
-0.3250000000000568
 20
-1.709038430138434
 30
0.0
 11
-0.2169068474347682
 21
-1.249999999990677
 31
0.0
  0
LINE
  5
43EC
330
1F
100
AcDbEntity
  8
AM_0
100
AcDbLine
 10
-0.3886043565019122
 20
-1.249999999984424
 30
0.0
 11
0.0000000000002161
 21
-1.249999999998692
 31
0.0
  0
LINE
  5
43ED
330
1F
100
AcDbEntity
  8
AM_0
100
AcDbLine
 10
-0.0000000000000113
 20
-0.3889309567151144
 30
0.0
 11
-0.1000000000001477
 21
0.0
 31
0.0
  0
LINE
  5
43EE
330
1F
100
AcDbEntity
  8
AM_0
100
AcDbLine
 10
-0.1000000000001477
 20
0.0
 30
0.0
 11
-0.3250000000000568
 21
0.8430130263536739
 31
0.0
  0
LINE
  5
43EF
330
1F
100
AcDbEntity
  8
AM_0
100
AcDbLine
 10
0.0000000000002161
 20
-1.249999999998692
 30
0.0
 11
-0.0999999999999204
 21
-0.7535325138796907
 31
0.0
  0
LINE
  5
43F0
330
1F
100
AcDbEntity
  8
AM_0
100
AcDbLine
 10
-0.0999999999999204
 20
-0.7535325138796907
 30
0.0
 11
-0.1000000000001477
 21
0.0
 31
0.0
  0
ARC
  5
43F1
330
1F
100
AcDbEntity
  8
AM_0
100
AcDbCircle
 10
2.503181150095531
 20
0.4274592225136189
 30
0.0
 40
2.858547460099469
100
AcDbArc
 50
171.6411574078214
 51
204.4024896870891
  0
LINE
  5
43F2
330
1F
100
AcDbEntity
  8
AM_0
100
AcDbLine
 10
0.0000000000002161
 20
-1.249999999998692
 30
0.0
 11
-0.0000000000000113
 21
-0.3889309567151713
 31
0.0
  0
LINE
  5
43F3
330
1F
100
AcDbEntity
  8
AM_0
100
AcDbLine
 10
-0.0000000000000113
 20
0.0
 30
0.0
 11
-0.0510316974389411
 21
-0.1904528876382301
 31
0.0
  0
LINE
  5
43F4
330
1F
100
AcDbEntity
  8
AM_0
100
AcDbLine
 10
-0.3250000000000568
 20
0.8430130263536739
 30
0.0
 11
-0.7594688994099784
 21
1.388888888888857
 31
0.0
  0
SPLINE
  5
43F5
330
1F
100
AcDbEntity
  8
AM_0
100
AcDbSpline
210
0.0
220
0.0
230
1.0
 70
     8
 71
     3
 72
     8
 73
     4
 74
     0
 42
0.0000000001
 43
0.0000000001
 40
4.32310436431184
 40
4.32310436431184
 40
4.32310436431184
 40
4.32310436431184
 40
6.616360992657454
 40
6.616360992657454
 40
6.616360992657454
 40
6.616360992657454
 10
0.0000000000002161
 20
-1.210380470336644
 30
0.0
 10
-0.2208554803403444
 20
-0.8405811837647547
 30
0.0
 10
-0.4196801665771205
 20
-0.4202905918822353
 30
0.0
 10
-0.6185048528138964
 20
0.0000000000002842
 30
0.0
  0
SPLINE
  5
43F6
330
1F
100
AcDbEntity
  8
AM_0
100
AcDbSpline
210
0.0
220
0.0
230
1.0
 70
     8
 71
     3
 72
     8
 73
     4
 74
     0
 42
0.0000000001
 43
0.0000000001
 40
4.390614724758877
 40
4.390614724758877
 40
4.390614724758877
 40
4.390614724758877
 40
6.726812023537121
 40
6.726812023537121
 40
6.726812023537121
 40
6.726812023537121
 10
-0.3886043564919077
 20
-1.249999999993747
 30
0.0
 10
-0.6079494169653231
 20
-0.8682408883298649
 30
0.0
 10
-0.8039747084824398
 20
-0.434120444164762
 30
0.0
 10
-0.9999999999993292
 20
0.0000000000002842
 30
0.0
  0
SPLINE
  5
43F7
330
1F
100
AcDbEntity
  8
AM_0
100
AcDbSpline
210
0.0
220
0.0
230
1.0
 70
     8
 71
     3
 72
     8
 73
     4
 74
     0
 42
0.0000000001
 43
0.0000000001
 40
0.0
 40
0.0
 40
0.0
 40
0.0
 40
0.4556590281797062
 40
0.4556590281797062
 40
0.4556590281797062
 40
0.4556590281797062
 10
-1.680168369658334
 20
-2.387660581502927
 30
0.0
 10
-1.604225198294929
 20
-2.392954716042837
 30
0.0
 10
-1.449419893455807
 20
-2.388000432848343
 30
0.0
 10
-1.225992265500225
 20
-2.36538094915204
 30
0.0
  0
SPLINE
  5
43F8
330
1F
100
AcDbEntity
  8
AM_0
100
AcDbSpline
210
0.0
220
0.0
230
1.0
 70
     8
 71
     3
 72
     8
 73
     4
 74
     0
 42
0.0000000001
 43
0.0000000001
 40
0.0
 40
0.0
 40
0.0
 40
0.0
 40
3.138307834541913
 40
3.138307834541913
 40
3.138307834541913
 40
3.138307834541913
 10
-2.068504852812531
 20
-2.425192403972801
 30
0.0
 10
-0.8454535470573432
 20
-2.42519240397263
 30
0.0
 10
-0.4414393730614961
 20
-2.152376992292602
 30
0.0
 10
-0.1000000000042404
 20
-1.736149438314214
 30
0.0
  0
SPLINE
  5
43F9
330
1F
100
AcDbEntity
  8
AM_0
100
AcDbSpline
210
0.0
220
0.0
230
1.0
 70
     8
 71
     3
 72
     8
 73
     4
 74
     0
 42
0.0000000001
 43
0.0000000001
 40
0.0
 40
0.0
 40
0.0
 40
0.0
 40
0.9875149968653097
 40
0.9875149968653097
 40
0.9875149968653097
 40
0.9875149968653097
 10
-2.45000000000053
 20
-2.499999999999602
 30
0.0
 10
-2.285414167189659
 20
-2.499999999999602
 30
0.0
 10
-2.132825879231662
 20
-2.473061163838451
 30
0.0
 10
-1.990473862669008
 20
-2.423138188720997
 30
0.0
  0
SPLINE
  5
43FA
330
1F
100
AcDbEntity
  8
AM_0
100
AcDbSpline
210
0.0
220
0.0
230
1.0
 70
     8
 71
     3
 72
     9
 73
     5
 74
     3
 42
0.0000000001
 43
0.0000000001
 44
0.0000000001
 12
-0.7037104554506215
 22
-0.7104868717221163
 32
0.0
 13
-0.5728114391284046
 23
0.8196871691100488
 33
0.0
 40
0.0
 40
0.0
 40
0.0
 40
0.0
 40
0.1733210601747192
 40
0.3245171534616626
 40
0.3245171534616626
 40
0.3245171534616626
 40
0.3245171534616626
 10
-0.100000000003331
 20
-1.709038430138434
 30
0.0
 10
-0.1406559474015764
 20
-1.750085876087466
 30
0.0
 10
-0.227961784155615
 20
-1.90126108189668
 30
0.0
 10
-0.2961310494046279
 20
-1.750349596034059
 30
0.0
 10
-0.3250000000000568
 20
-1.709038430138434
 30
0.0
 11
-0.100000000003331
 21
-1.709038430138434
 31
0.0
 11
-0.2284554028349361
 21
-1.825397354950666
 31
0.0
 11
-0.3250000000000568
 21
-1.709038430138434
 31
0.0
  0
SPLINE
  5
43FB
330
1F
100
AcDbEntity
  8
AM_0
100
AcDbSpline
210
0.0
220
0.0
230
1.0
 70
     8
 71
     3
 72
     9
 73
     5
 74
     3
 42
0.0000000001
 43
0.0000000001
 44
0.0000000001
 12
-0.3385048798911531
 22
0.9409646360463693
 32
0.0
 13
0.9630016908632653
 23
-0.2694953494858349
 33
0.0
 40
0.0
 40
0.0
 40
0.0
 40
0.0
 40
0.8307268519375265
 40
1.03933472814042
 40
1.03933472814042
 40
1.03933472814042
 40
1.03933472814042
 10
-0.3250000000000568
 20
-1.709038430138434
 30
0.0
 10
-0.4187350310792129
 20
-1.448476900175987
 30
0.0
 10
-1.048627884384889
 20
-1.150476282310842
 30
0.0
 10
-0.6357308795514534
 20
-0.8976831153588822
 30
0.0
 10
-0.5687676337145263
 20
-0.9164227328598144
 30
0.0
 11
-0.3250000000000568
 21
-1.709038430138434
 31
0.0
 11
-0.7594688994099784
 21
-1.00098202138588
 31
0.0
 11
-0.5687676337145263
 21
-0.9164227328598144
 31
0.0
  0
SPLINE
  5
43FC
330
1F
100
AcDbEntity
  8
AM_0
100
AcDbSpline
210
0.0
220
0.0
230
1.0
 70
     8
 71
     3
 72
     8
 73
     4
 74
     2
 42
0.0000000001
 43
0.0000000001
 44
0.0000000001
 12
-1.0
 22
0.0000000000000001
 32
0.0
 40
0.0
 40
0.0
 40
0.0
 40
0.0
 40
3.363406011768579
 40
3.363406011768579
 40
3.363406011768579
 40
3.363406011768579
 10
-9.872945462318181
 20
-2.499999999999658
 30
0.0
 10
-10.99408079957437
 20
-2.499999999999658
 30
0.0
 10
-11.55851313094639
 20
-1.249999999999658
 30
0.0
 10
-12.12294546231841
 20
0.0000000000003411
 30
0.0
 11
-9.872945462318181
 21
-2.499999999999658
 31
0.0
 11
-12.12294546231841
 21
0.0000000000003411
 31
0.0
  0
SPLINE
  5
43FF
330
1F
100
AcDbEntity
  8
AM_0
100
AcDbSpline
210
0.0
220
0.0
230
1.0
 70
     8
 71
     3
 72
     8
 73
     4
 74
     2
 42
0.0000000001
 43
0.0000000001
 44
0.0000000001
 12
-1.0
 22
0.0000000000000001
 32
0.0
 40
0.0
 40
0.0
 40
0.0
 40
0.0
 40
3.226032723045252
 40
3.226032723045252
 40
3.226032723045252
 40
3.226032723045252
 10
-5.380168369655769
 20
-2.311879566533946
 30
0.0
 10
-6.455512610670853
 20
-2.311879566533946
 30
0.0
 10
-7.042840490163311
 20
-1.155939783266802
 30
0.0
 10
-7.630168369655769
 20
0.0000000000003411
 30
0.0
 11
-5.380168369655769
 21
-2.311879566533946
 31
0.0
 11
-7.630168369655769
 21
0.0000000000003411
 31
0.0
  0
SPLINE
  5
4400
330
1F
100
AcDbEntity
  8
AM_0
100
AcDbSpline
210
0.0
220
0.0
230
1.0
 70
     8
 71
     3
 72
     8
 73
     4
 74
     2
 42
0.0000000001
 43
0.0000000001
 44
0.0000000001
 12
-1.0
 22
0.0000000000000001
 32
0.0
 40
0.0
 40
0.0
 40
0.0
 40
0.0
 40
3.308180496328613
 40
3.308180496328613
 40
3.308180496328613
 40
3.308180496328613
 10
-5.768504852812532
 20
-2.425192403972801
 30
0.0
 10
-6.87123168492207
 20
-2.425192403972801
 30
0.0
 10
-7.444868268867302
 20
-1.212596201986229
 30
0.0
 10
-8.018504852812533
 20
0.0000000000003411
 30
0.0
 11
-5.768504852812532
 21
-2.425192403972801
 31
0.0
 11
-8.018504852812533
 21
0.0000000000003411
 31
0.0
  0
SPLINE
  5
4401
330
1F
100
AcDbEntity
  8
AM_0
100
AcDbSpline
210
0.0
220
0.0
230
1.0
 70
     8
 71
     3
 72
     8
 73
     4
 74
     2
 42
0.0000000001
 43
0.0000000001
 44
0.0000000001
 12
-1.0
 22
0.0000000000000001
 32
0.0
 40
0.0
 40
0.0
 40
0.0
 40
0.0
 40
3.36340601176858
 40
3.36340601176858
 40
3.36340601176858
 40
3.36340601176858
 10
-6.149999999997965
 20
-2.499999999999715
 30
0.0
 10
-7.271135337254158
 20
-2.499999999999715
 30
0.0
 10
-7.835567668626176
 20
-1.249999999999715
 30
0.0
 10
-8.399999999998193
 20
0.0000000000002842
 30
0.0
 11
-6.149999999997965
 21
-2.499999999999715
 31
0.0
 11
-8.399999999998193
 21
0.0000000000002842
 31
0.0
  0
SPLINE
  5
4402
330
1F
100
AcDbEntity
  8
AM_0
100
AcDbSpline
210
0.0
220
0.0
230
1.0
 70
     8
 71
     3
 72
     8
 73
     4
 74
     0
 42
0.0000000001
 43
0.0000000001
 40
0.0
 40
0.0
 40
0.0
 40
0.0
 40
2.420483029949796
 40
2.420483029949796
 40
2.420483029949796
 40
2.420483029949796
 10
-9.10311383197644
 20
-2.311879566533946
 30
0.0
 10
-8.699699993651517
 20
-2.311879566533946
 30
0.0
 10
-7.978327357766669
 20
-2.149196718380494
 30
0.0
 10
-7.583750131367643
 20
-1.578791708288733
 30
0.0
  0
SPLINE
  5
4403
330
1F
100
AcDbEntity
  8
AM_0
100
AcDbSpline
210
0.0
220
0.0
230
1.0
 70
     8
 71
     3
 72
     8
 73
     4
 74
     0
 42
0.0000000001
 43
0.0000000001
 40
0.0
 40
0.0
 40
0.0
 40
0.0
 40
0.9875149967633806
 40
0.9875149967633806
 40
0.9875149967633806
 40
0.9875149967633806
 10
-6.149999999998647
 20
-2.499999999999602
 30
0.0
 10
-5.985414167204601
 20
-2.499999999999602
 30
0.0
 10
-5.832825879261156
 20
-2.473061163844022
 30
0.0
 10
-5.690473862711235
 20
-2.423138188736459
 30
0.0
  0
SPLINE
  5
4404
330
1F
100
AcDbEntity
  8
AM_0
100
AcDbSpline
210
0.0
220
0.0
230
1.0
 70
     8
 71
     3
 72
     8
 73
     4
 74
     0
 42
0.0000000001
 43
0.0000000001
 40
0.0
 40
0.0
 40
0.0
 40
0.0
 40
1.274172826456642
 40
1.274172826456642
 40
1.274172826456642
 40
1.274172826456642
 10
-5.768504852812987
 20
-2.42519240397263
 30
0.0
 10
-5.556142715070257
 20
-2.42519240397263
 30
0.0
 10
-5.363402793217722
 20
-2.380221201903282
 30
0.0
 10
-5.186506258634984
 20
-2.298939311257413
 30
0.0
  0
SPLINE
  5
4405
330
1F
100
AcDbEntity
  8
AM_0
100
AcDbSpline
210
0.0
220
0.0
230
1.0
 70
     8
 71
     3
 72
     8
 73
     4
 74
     0
 42
0.0000000001
 43
0.0000000001
 40
0.0
 40
0.0
 40
0.0
 40
0.0
 40
2.420483029949796
 40
2.420483029949796
 40
2.420483029949796
 40
2.420483029949796
 10
-5.380168369656224
 20
-2.311879566533946
 30
0.0
 10
-4.976754531331301
 20
-2.311879566533946
 30
0.0
 10
-4.323175992455968
 20
-2.149196718380551
 30
0.0
 10
-3.883750131367641
 20
-1.578791708288733
 30
0.0
  0
SPLINE
  5
4406
330
1F
100
AcDbEntity
  8
AM_0
100
AcDbSpline
210
0.0
220
0.0
230
1.0
 70
     8
 71
     3
 72
     8
 73
     4
 74
     0
 42
0.0000000001
 43
0.0000000001
 40
0.0
 40
0.0
 40
0.0
 40
0.0
 40
1.274172826456642
 40
1.274172826456642
 40
1.274172826456642
 40
1.274172826456642
 10
-9.491450315133203
 20
-2.425192403972573
 30
0.0
 10
-9.279088177390473
 20
-2.425192403972573
 30
0.0
 10
-9.086348255537938
 20
-2.380221201903282
 30
0.0
 10
-8.9094517209552
 20
-2.298939311257413
 30
0.0
  0
SPLINE
  5
4407
330
1F
100
AcDbEntity
  8
AM_0
100
AcDbSpline
210
0.0
220
0.0
230
1.0
 70
     8
 71
     3
 72
     8
 73
     4
 74
     0
 42
0.0000000001
 43
0.0000000001
 40
0.0
 40
0.0
 40
0.0
 40
0.0
 40
0.9875149967633806
 40
0.9875149967633806
 40
0.9875149967633806
 40
0.9875149967633806
 10
-9.872945462318636
 20
-2.499999999999545
 30
0.0
 10
-9.708359629524817
 20
-2.499999999999545
 30
0.0
 10
-9.555771341581145
 20
-2.473061163843965
 30
0.0
 10
-9.413419325031451
 20
-2.423138188736402
 30
0.0
  0
SPLINE
  5
4408
330
1F
100
AcDbEntity
  8
AM_0
100
AcDbSpline
210
0.0
220
0.0
230
1.0
 70
     8
 71
     3
 72
     8
 73
     4
 74
     2
 42
0.0000000001
 43
0.0000000001
 44
0.0000000001
 12
-1.0
 22
0.0000000000000001
 32
0.0
 40
0.0
 40
0.0
 40
0.0
 40
0.0
 40
3.226032723045292
 40
3.226032723045292
 40
3.226032723045292
 40
3.226032723045292
 10
-9.103113831975985
 20
-2.311879566533946
 30
0.0
 10
-10.17845807299108
 20
-2.311879566533946
 30
0.0
 10
-10.76578595248353
 20
-1.155939783266774
 30
0.0
 10
-11.35311383197598
 20
0.0000000000003979
 30
0.0
 11
-9.103113831975985
 21
-2.311879566533946
 31
0.0
 11
-11.35311383197598
 21
0.0000000000003979
 31
0.0
  0
SPLINE
  5
4409
330
1F
100
AcDbEntity
  8
AM_0
100
AcDbSpline
210
0.0
220
0.0
230
1.0
 70
     8
 71
     3
 72
     8
 73
     4
 74
     2
 42
0.0000000001
 43
0.0000000001
 44
0.0000000001
 12
-1.0
 22
0.0000000000000001
 32
0.0
 40
0.0
 40
0.0
 40
0.0
 40
0.0
 40
3.308180496328612
 40
3.308180496328612
 40
3.308180496328612
 40
3.308180496328612
 10
-9.491450315132748
 20
-2.425192403972801
 30
0.0
 10
-10.59417714724228
 20
-2.425192403972801
 30
0.0
 10
-11.16781373118751
 20
-1.212596201986229
 30
0.0
 10
-11.74145031513274
 20
0.0000000000003411
 30
0.0
 11
-9.491450315132748
 21
-2.425192403972801
 31
0.0
 11
-11.74145031513274
 21
0.0000000000003411
 31
0.0
  0
SPLINE
  5
440A
330
1F
100
AcDbEntity
  8
AM_0
100
AcDbSpline
210
0.0
220
0.0
230
1.0
 70
     8
 71
     3
 72
     8
 73
     4
 74
     0
 42
0.0000000001
 43
0.0000000001
 40
0.0
 40
0.0
 40
0.0
 40
0.0
 40
2.420483029949796
 40
2.420483029949796
 40
2.420483029949796
 40
2.420483029949796
 10
-12.10311383197416
 20
-2.311879566533889
 30
0.0
 10
-11.69969999364901
 20
-2.311879566533889
 30
0.0
 10
-11.36496783994756
 20
-2.149196718380494
 30
0.0
 10
-11.07315153611638
 20
-1.884861257509044
 30
0.0
  0
LINE
  5
4414
330
1F
100
AcDbEntity
  8
AM_0
100
AcDbLine
 10
-13.44613584624356
 20
0.463970801209598
 30
0.0
 11
-12.55573233341668
 21
0.9194628172731427
 31
0.0
  0
SPLINE
  5
4416
330
1F
100
AcDbEntity
  8
AM_0
100
AcDbSpline
210
0.0
220
0.0
230
1.0
 70
     8
 71
     3
 72
     8
 73
     4
 74
     0
 42
0.0000000001
 43
0.0000000001
 40
0.0
 40
0.0
 40
0.0
 40
0.0
 40
1.274172826456642
 40
1.274172826456642
 40
1.274172826456642
 40
1.274172826456642
 10
-12.49145031513079
 20
-2.5
 30
0.0
 10
-12.27908817738806
 20
-2.425192403972516
 30
0.0
 10
-12.08634825553553
 20
-2.380221201903168
 30
0.0
 10
-11.90945172095301
 20
-2.298939311257299
 30
0.0
  0
SPLINE
  5
4417
330
1F
100
AcDbEntity
  8
AM_0
100
AcDbSpline
210
0.0
220
0.0
230
1.0
 70
     8
 71
     3
 72
     8
 73
     4
 74
     0
 42
0.0000000001
 43
0.0000000001
 40
0.0
 40
0.0
 40
0.0
 40
0.0
 40
2.420483029949796
 40
2.420483029949796
 40
2.420483029949796
 40
2.420483029949796
 10
-12.10311383197403
 20
-2.311879566533832
 30
0.0
 10
-11.6996999936491
 20
-2.311879566533832
 30
0.0
 10
-11.36496783994765
 20
-2.149196718380437
 30
0.0
 10
-11.07315153611647
 20
-1.884861257508987
 30
0.0
  0
LINE
  5
44BF
330
1F
100
AcDbEntity
  8
AM_11
100
AcDbLine
 10
-0.0000000000000113
 20
2.5
 30
0.0
 11
-12.00000000000001
 21
2.499999999999992
 31
0.0
  0
LINE
  5
44C0
330
1F
100
AcDbEntity
  8
AM_11
100
AcDbLine
 10
-0.0000000000000113
 20
2.5
 30
0.0
 11
-0.0000000000000113
 21
-2.5
 31
0.0
  0
LINE
  5
44C1
330
1F
100
AcDbEntity
  8
AM_11
100
AcDbLine
 10
-12.0
 20
-2.5
 30
0.0
 11
-0.0000000000000113
 21
-2.5
 31
0.0
  0
LINE
  5
44C2
330
1F
100
AcDbEntity
  8
AM_11
100
AcDbLine
 10
-12.00000000000001
 20
2.5
 30
0.0
 11
-12.00000000000001
 21
-2.5
 31
0.0
  0
LINE
  5
44CD
330
1F
100
AcDbEntity
  8
AM_0
100
AcDbLine
 10
-12.00000000000001
 20
1.178657574886727
 30
0.0
 11
-12.00000000000001
 21
-0.2713313322231485
 31
0.0
  0
VIEWPORT
  5
110
330
101
100
AcDbEntity
 67
     1
  8
0
100
AcDbViewport
 10
420.5
 20
297.0
 30
0.0
 40
948.9782706766916
 41
628.452
 68
     1
 69
     1
1001
ACAD
1000
MVIEW
1002
{
1070
    16
1010
0.0
1020
0.0
1030
0.0
1010
0.0
1020
0.0
1030
1.0
1040
0.0
1040
628.452
1040
420.5
1040
297.0
1040
50.0
1040
0.0
1040
0.0
1070
     0
1070
   100
1070
     1
1070
     1
1070
     0
1070
     0
1070
     0
1070
     0
1040
0.0
1040
0.0
1040
0.0
1040
10.0
1040
10.0
1040
10.0
1040
10.0
1070
     0
1002
{
1002
}
1002
}
  0
ENDSEC
  0
SECTION
  2
OBJECTS
  0
DICTIONARY
  5
C
330
0
100
AcDbDictionary
  3
ACAD_GROUP
350
D
  3
ACAD_LAYOUT
350
1A
  3
ACAD_MLINESTYLE
350
17
  3
ACAD_PLOTSETTINGS
350
19
  3
ACAD_PLOTSTYLENAME
350
E
  3
ACDBVARIABLEDICTIONARY
350
34
  3
ACMDICTIONARY
350
43
  3
AMG
350
2B
  3
AMGSNAPSETTINGS
350
6E
  3
ASE_INDEX_DICTIONARY
350
151A
  3
DWGPROPS
350
44E5
  3
ACDBHEADERROUNDTRIPXREC
350
44F1
  0
DICTIONARY
  5
74
330
1F
100
AcDbDictionary
280
     1
  3
ACAD_INDEX
360
44E7
  3
ACAD_LAYOUTSELFREF
360
4514
  0
DICTIONARY
  5
4519
330
101
100
AcDbDictionary
280
     1
  3
ACAD_LAYOUTSELFREF
360
451A
  0
DICTIONARY
  5
D
102
{ACAD_REACTORS
330
C
102
}
330
C
100
AcDbDictionary
  0
DICTIONARY
  5
1A
102
{ACAD_REACTORS
330
C
102
}
330
C
100
AcDbDictionary
  0
DICTIONARY
  5
17
102
{ACAD_REACTORS
330
C
102
}
330
C
100
AcDbDictionary
  3
STANDARD
350
18
  0
DICTIONARY
  5
19
102
{ACAD_REACTORS
330
C
102
}
330
C
100
AcDbDictionary
  0
ACDBDICTIONARYWDFLT
  5
E
102
{ACAD_REACTORS
330
C
102
}
330
C
100
AcDbDictionary
281
     1
  3
Normal
350
F
100
AcDbDictionaryWithDefault
340
F
  0
DICTIONARY
  5
34
102
{ACAD_REACTORS
330
C
102
}
330
C
100
AcDbDictionary
  3
INDEXCTL
350
35
  3
SORTENTS
350
B5E
  0
DICTIONARY
  5
43
102
{ACAD_REACTORS
330
C
102
}
330
C
100
AcDbDictionary
  3
ACMSTDDICTIONARY
350
260
  0
DICTIONARY
  5
2B
102
{ACAD_REACTORS
330
C
102
}
330
C
100
AcDbDictionary
  3
ACMGSETTINGS
350
2C
  0
DICTIONARY
  5
6E
102
{ACAD_REACTORS
330
C
102
}
330
C
100
AcDbDictionary
  0
DICTIONARY
  5
151A
102
{ACAD_REACTORS
330
C
102
}
330
C
100
AcDbDictionary
  3
ASEBLOCKHIERARCHYINDEXRECORD
350
151C
1001
DCO15
1040
1471862535.906
  0
XRECORD
  5
44E5
102
{ACAD_REACTORS
330
C
102
}
330
C
100
AcDbXrecord
  1
DWGPROPS COOKIE
  2

  3

  4

  6

  7

  8

  9

300
AmdtFileType=82
301
=
302
=
303
=
304
=
305
=
306
=
307
=
308
=
309
=
 40
0.1651488541666667
 41
2452838.430434386
 42
2453045.475229213
  1

 90
        1
  0
DICTIONARY
  5
44F1
102
{ACAD_REACTORS
330
C
102
}
330
C
100
AcDbDictionary
  3
TSTACKALIGN
350
44F2
  3
TSTACKSIZE
350
44F3
  3
HYPERLINKBASE
350
44F4
  3
STYLESHEET
350
44F5
  3
LAYOUTDICT
350
44F6
  3
PLOTSETDICT
350
44F7
  3
PLOTSTYLNAMDICT
350
44F8
  3
LWETCUNION
350
44F9
  3
INSUNITS
350
44FA
  3
CEPSNTYPE
350
44FB
  3
FINGERPRINTGUID
350
44FC
  3
VERSIONGUID
350
44FD
  3
PSVPSCALE
350
44FE
  3
DIMSTYLEDATA
350
44FF
  3
PUCSORTHOREF
350
4500
  3
PUCSORTHOVIEW
350
4501
  3
PUCSBASE
350
4502
  3
PUCSORGTOP
350
4503
  3
PUCSORGBOTTOM
350
4504
  3
PUCSORGLEFT
350
4505
  3
PUCSORGRIGHT
350
4506
  3
PUCSORGFRONT
350
4507
  3
PUCSORGBACK
350
4508
  3
UCSORTHOREF
350
4509
  3
UCSORTHOVIEW
350
450A
  3
UCSBASE
350
450B
  3
UCSORGTOP
350
450C
  3
UCSORGBOTTOM
350
450D
  3
UCSORGLEFT
350
450E
  3
UCSORGRIGHT
350
450F
  3
UCSORGFRONT
350
4510
  3
UCSORGBACK
350
4511
  0
DICTIONARY
  5
44E7
102
{ACAD_REACTORS
330
74
102
}
330
74
100
AcDbDictionary
  3
*A1
350
44E8
  0
XRECORD
  5
4514
102
{ACAD_REACTORS
330
74
102
}
330
74
100
AcDbXrecord
340
1F
  0
XRECORD
  5
451A
102
{ACAD_REACTORS
330
4519
102
}
330
4519
100
AcDbXrecord
340
101
  0
MLINESTYLE
  5
18
102
{ACAD_REACTORS
330
17
102
}
330
17
100
AcDbMlineStyle
  2
STANDARD
 70
     0
  3

 62
   256
 51
90.0
 52
90.0
 71
     2
 49
0.5
 62
   256
  6
BYLAYER
 49
-0.5
 62
   256
  6
BYLAYER
  0
ACDBPLACEHOLDER
  5
F
102
{ACAD_REACTORS
330
E
102
}
330
E
100
AcDbPlaceHolder
280
     0
  0
DICTIONARYVAR
  5
35
102
{ACAD_REACTORS
330
34
102
}
330
34
100
DictionaryVariables
280
     0
  1
1
  0
DICTIONARYVAR
  5
B5E
102
{ACAD_REACTORS
330
34
102
}
330
34
100
DictionaryVariables
280
     0
  1
96
  0
DICTIONARY
  5
260
102
{ACAD_REACTORS
330
43
102
}
330
43
100
AcDbDictionary
  0
DICTIONARY
  5
2C
102
{ACAD_REACTORS
330
2B
102
}
330
2B
100
AcDbDictionary
  3
DWGSETTINGS
350
2D
  0
XRECORD
  5
151C
102
{ACAD_REACTORS
330
151A
102
}
330
151A
100
AcDbXrecord
330
0
330
0
330
0
330
0
330
0
330
0
330
0
330
0
  0
XRECORD
  5
44F2
102
{ACAD_REACTORS
330
44F1
102
}
330
44F1
100
AcDbXrecord
 90
        1
  0
XRECORD
  5
44F3
102
{ACAD_REACTORS
330
44F1
102
}
330
44F1
100
AcDbXrecord
 90
       70
  0
XRECORD
  5
44F4
102
{ACAD_REACTORS
330
44F1
102
}
330
44F1
100
AcDbXrecord
  1

  0
XRECORD
  5
44F5
102
{ACAD_REACTORS
330
44F1
102
}
330
44F1
100
AcDbXrecord
  1
ASAMI.ctb
  0
XRECORD
  5
44F6
102
{ACAD_REACTORS
330
44F1
102
}
330
44F1
100
AcDbXrecord
340
1A
  0
XRECORD
  5
44F7
102
{ACAD_REACTORS
330
44F1
102
}
330
44F1
100
AcDbXrecord
340
19
  0
XRECORD
  5
44F8
102
{ACAD_REACTORS
330
44F1
102
}
330
44F1
100
AcDbXrecord
340
E
  0
XRECORD
  5
44F9
102
{ACAD_REACTORS
330
44F1
102
}
330
44F1
100
AcDbXrecord
 90
    10781
  0
XRECORD
  5
44FA
102
{ACAD_REACTORS
330
44F1
102
}
330
44F1
100
AcDbXrecord
 90
        4
  0
XRECORD
  5
44FB
102
{ACAD_REACTORS
330
44F1
102
}
330
44F1
100
AcDbXrecord
 90
        0
  0
XRECORD
  5
44FC
102
{ACAD_REACTORS
330
44F1
102
}
330
44F1
100
AcDbXrecord
  1
{AFB28963-8C59-40AE-9337-C84526B81ACE}
  0
XRECORD
  5
44FD
102
{ACAD_REACTORS
330
44F1
102
}
330
44F1
100
AcDbXrecord
  1
{A92567A0-CCA4-49DC-8233-CDA6BDFC0AF0}
  0
XRECORD
  5
44FE
102
{ACAD_REACTORS
330
44F1
102
}
330
44F1
100
AcDbXrecord
 40
0.0
  0
XRECORD
  5
44FF
102
{ACAD_REACTORS
330
44F1
102
}
330
44F1
100
AcDbXrecord
1000
DSTYLE
1002
{
1070
    79
 70
     2
1070
   341
340
59
1070
   342
340
59
1070
   371
 70
    -1
1070
   372
 70
    -1
1002
}
  0
XRECORD
  5
4500
102
{ACAD_REACTORS
330
44F1
102
}
330
44F1
100
AcDbXrecord
340
0
  0
XRECORD
  5
4501
102
{ACAD_REACTORS
330
44F1
102
}
330
44F1
100
AcDbXrecord
 70
     0
  0
XRECORD
  5
4502
102
{ACAD_REACTORS
330
44F1
102
}
330
44F1
100
AcDbXrecord
340
0
  0
XRECORD
  5
4503
102
{ACAD_REACTORS
330
44F1
102
}
330
44F1
100
AcDbXrecord
 10
0.0
 20
0.0
 30
0.0
  0
XRECORD
  5
4504
102
{ACAD_REACTORS
330
44F1
102
}
330
44F1
100
AcDbXrecord
 10
0.0
 20
0.0
 30
0.0
  0
XRECORD
  5
4505
102
{ACAD_REACTORS
330
44F1
102
}
330
44F1
100
AcDbXrecord
 10
0.0
 20
0.0
 30
0.0
  0
XRECORD
  5
4506
102
{ACAD_REACTORS
330
44F1
102
}
330
44F1
100
AcDbXrecord
 10
0.0
 20
0.0
 30
0.0
  0
XRECORD
  5
4507
102
{ACAD_REACTORS
330
44F1
102
}
330
44F1
100
AcDbXrecord
 10
0.0
 20
0.0
 30
0.0
  0
XRECORD
  5
4508
102
{ACAD_REACTORS
330
44F1
102
}
330
44F1
100
AcDbXrecord
 10
0.0
 20
0.0
 30
0.0
  0
XRECORD
  5
4509
102
{ACAD_REACTORS
330
44F1
102
}
330
44F1
100
AcDbXrecord
340
0
  0
XRECORD
  5
450A
102
{ACAD_REACTORS
330
44F1
102
}
330
44F1
100
AcDbXrecord
 70
     0
  0
XRECORD
  5
450B
102
{ACAD_REACTORS
330
44F1
102
}
330
44F1
100
AcDbXrecord
340
0
  0
XRECORD
  5
450C
102
{ACAD_REACTORS
330
44F1
102
}
330
44F1
100
AcDbXrecord
 10
0.0
 20
0.0
 30
0.0
  0
XRECORD
  5
450D
102
{ACAD_REACTORS
330
44F1
102
}
330
44F1
100
AcDbXrecord
 10
0.0
 20
0.0
 30
0.0
  0
XRECORD
  5
450E
102
{ACAD_REACTORS
330
44F1
102
}
330
44F1
100
AcDbXrecord
 10
0.0
 20
0.0
 30
0.0
  0
XRECORD
  5
450F
102
{ACAD_REACTORS
330
44F1
102
}
330
44F1
100
AcDbXrecord
 10
0.0
 20
0.0
 30
0.0
  0
XRECORD
  5
4510
102
{ACAD_REACTORS
330
44F1
102
}
330
44F1
100
AcDbXrecord
 10
0.0
 20
0.0
 30
0.0
  0
XRECORD
  5
4511
102
{ACAD_REACTORS
330
44F1
102
}
330
44F1
100
AcDbXrecord
 10
0.0
 20
0.0
 30
0.0
  0
LAYER_INDEX
  5
44E8
102
{ACAD_REACTORS
330
44E7
102
}
330
44E7
100
AcDbIndex
 40
2453152.470876817
100
AcDbLayerIndex
  8
0
360
44E9
 90
        0
  8
AM_0
360
44EA
 90
       72
  8
AM_11
360
44EB
 90
        4
  8
AM_7
360
44EC
 90
        1
  8
AM_5
360
44ED
 90
        4
  8
Defpoints
360
44EE
 90
        0
  8
AM_6
360
44EF
 90
        1
  0
XRECORD
  5
2D
102
{ACAD_REACTORS
330
2C
102
}
330
2C
100
AcDbXrecord
  1
VERSION
140
15.0
  1
PRODUCT
  2
AutoCAD Mechanical 2000
  0
IDBUFFER
  5
44E9
330
0
100
AcDbIdBuffer
  0
IDBUFFER
  5
44EA
330
0
100
AcDbIdBuffer
330
43F5
330
43F6
330
43F7
330
43F8
330
43F9
330
43FA
330
43FB
330
43FC
330
43FF
330
4400
330
4401
330
4402
330
4403
330
4404
330
4405
330
4406
330
4407
330
4408
330
4409
330
440A
330
4414
330
4416
330
4417
330
44CD
330
3FEC
330
3FEF
330
3FF0
330
3FFE
330
400A
330
400D
330
4087
330
409F
330
40A0
330
40A1
330
40A2
330
40A3
330
43C6
330
43CB
330
43CC
330
43CD
330
43CE
330
43CF
330
43D0
330
43D1
330
43D2
330
43D3
330
43D4
330
43D5
330
43D6
330
43D7
330
43D8
330
43DD
330
43DE
330
43DF
330
43E0
330
43E1
330
43E2
330
43E5
330
43E6
330
43E7
330
43E9
330
43EA
330
43EB
330
43EC
330
43ED
330
43EE
330
43EF
330
43F0
330
43F1
330
43F2
330
43F3
330
43F4
  0
IDBUFFER
  5
44EB
330
0
100
AcDbIdBuffer
330
44BF
330
44C0
330
44C1
330
44C2
  0
IDBUFFER
  5
44EC
330
0
100
AcDbIdBuffer
330
3B7D
  0
IDBUFFER
  5
44ED
330
0
100
AcDbIdBuffer
330
3CAC
330
3D34
330
3E27
330
3FF1
  0
IDBUFFER
  5
44EE
330
0
100
AcDbIdBuffer
  0
IDBUFFER
  5
44EF
330
0
100
AcDbIdBuffer
330
1500
  0
ENDSEC
  0
EOF
