  0
SECTION
  2
HEADER
  9
$ACADVER
  1
AC1014
  9
$ACADMAINTVER
 70
     9
  9
$DWGCODEPAGE
  3
ANSI_932
  9
$INSBASE
 10
0.0
 20
0.0
 30
0.0
  9
$EXTMIN
 10
-72.04470045058475
 20
-28.25000100000009
 30
-0.00000001
  9
$EXTMAX
 10
12.05776903085518
 20
4.051548502154866
 30
0.00000001
  9
$LIMMIN
 10
-74.68614024176019
 20
-40.34126636968451
  9
$LIMMAX
 10
15.75837735201798
 20
17.08572638557728
  9
$ORTHOMODE
 70
     0
  9
$REGENMODE
 70
     1
  9
$FILLMODE
 70
     1
  9
$QTEXTMODE
 70
     0
  9
$MIRRTEXT
 70
     0
  9
$DRAGMODE
 70
     2
  9
$LTSCALE
 40
1.0
  9
$OSMODE
 70
    55
  9
$ATTMODE
 70
     1
  9
$TEXTSIZE
 40
2.5
  9
$TRACEWID
 40
1.0
  9
$TEXTSTYLE
  7
STANDARD
  9
$CLAYER
  8
AM_0
  9
$CELTYPE
  6
BYLAYER
  9
$CECOLOR
 62
   256
  9
$CELTSCALE
 40
1.0
  9
$DELOBJ
 70
     1
  9
$DISPSILH
 70
     0
  9
$DIMSCALE
 40
0.5
  9
$DIMASZ
 40
2.5
  9
$DIMEXO
 40
1.0
  9
$DIMDLI
 40
12.0
  9
$DIMRND
 40
0.0
  9
$DIMDLE
 40
0.0
  9
$DIMEXE
 40
1.0
  9
$DIMTP
 40
0.1
  9
$DIMTM
 40
0.1
  9
$DIMTXT
 40
3.2
  9
$DIMCEN
 40
0.0
  9
$DIMTSZ
 40
0.0
  9
$DIMTOL
 70
     0
  9
$DIMLIM
 70
     0
  9
$DIMTIH
 70
     0
  9
$DIMTOH
 70
     0
  9
$DIMSE1
 70
     0
  9
$DIMSE2
 70
     0
  9
$DIMTAD
 70
     3
  9
$DIMZIN
 70
     8
  9
$DIMBLK
  1
OPEN30
  9
$DIMASO
 70
     1
  9
$DIMSHO
 70
     1
  9
$DIMPOST
  1

  9
$DIMAPOST
  1
"
  9
$DIMALT
 70
     0
  9
$DIMALTD
 70
     2
  9
$DIMALTF
 40
0.0393701
  9
$DIMLFAC
 40
1.0
  9
$DIMTOFL
 70
     1
  9
$DIMTVP
 40
0.0
  9
$DIMTIX
 70
     0
  9
$DIMSOXD
 70
     0
  9
$DIMSAH
 70
     0
  9
$DIMBLK1
  1

  9
$DIMBLK2
  1

  9
$DIMSTYLE
  2
AM_JIS
  9
$DIMCLRD
 70
   256
  9
$DIMCLRE
 70
   256
  9
$DIMCLRT
 70
     2
  9
$DIMTFAC
 40
0.71
  9
$DIMGAP
 40
1.5
  9
$DIMJUST
 70
     0
  9
$DIMSD1
 70
     0
  9
$DIMSD2
 70
     0
  9
$DIMTOLJ
 70
     0
  9
$DIMTZIN
 70
     0
  9
$DIMALTZ
 70
     0
  9
$DIMALTTZ
 70
     0
  9
$DIMFIT
 70
     3
  9
$DIMUPT
 70
     0
  9
$DIMUNIT
 70
     2
  9
$DIMDEC
 70
     3
  9
$DIMTDEC
 70
     3
  9
$DIMALTU
 70
     2
  9
$DIMALTTD
 70
     2
  9
$DIMTXSTY
  7
ASAMI
  9
$DIMAUNIT
 70
     0
  9
$LUNITS
 70
     2
  9
$LUPREC
 70
     2
  9
$SKETCHINC
 40
1.0
  9
$FILLETRAD
 40
2.5
  9
$AUNITS
 70
     0
  9
$AUPREC
 70
     0
  9
$MENU
  1
.
  9
$ELEVATION
 40
0.0
  9
$PELEVATION
 40
0.0
  9
$THICKNESS
 40
0.0
  9
$LIMCHECK
 70
     0
  9
$BLIPMODE
 70
     0
  9
$CHAMFERA
 40
0.5
  9
$CHAMFERB
 40
0.5
  9
$CHAMFERC
 40
20.0
  9
$CHAMFERD
 40
0.0
  9
$SKPOLY
 70
     0
  9
$TDCREATE
 40
2452838.430434386
  9
$TDUPDATE
 40
2453152.471220972
  9
$TDINDWG
 40
0.1478964005
  9
$TDUSRTIMER
 40
0.1478964005
  9
$USRTIMER
 70
     1
  9
$ANGBASE
 50
0.0
  9
$ANGDIR
 70
     0
  9
$PDMODE
 70
     0
  9
$PDSIZE
 40
0.0
  9
$PLINEWID
 40
0.0
  9
$COORDS
 70
     1
  9
$SPLFRAME
 70
     0
  9
$SPLINETYPE
 70
     6
  9
$SPLINESEGS
 70
     8
  9
$ATTDIA
 70
     1
  9
$ATTREQ
 70
     1
  9
$HANDLING
 70
 12289
  9
$HANDSEED
  5
43E9
  9
$SURFTAB1
 70
     6
  9
$SURFTAB2
 70
     6
  9
$SURFTYPE
 70
     6
  9
$SURFU
 70
     6
  9
$SURFV
 70
     6
  9
$UCSNAME
  2

  9
$UCSORG
 10
0.0
 20
0.0
 30
0.0
  9
$UCSXDIR
 10
1.0
 20
0.0
 30
0.0
  9
$UCSYDIR
 10
0.0
 20
1.0
 30
0.0
  9
$PUCSNAME
  2

  9
$PUCSORG
 10
0.0
 20
0.0
 30
0.0
  9
$PUCSXDIR
 10
1.0
 20
0.0
 30
0.0
  9
$PUCSYDIR
 10
0.0
 20
1.0
 30
0.0
  9
$USERI1
 70
     0
  9
$USERI2
 70
     0
  9
$USERI3
 70
     0
  9
$USERI4
 70
     0
  9
$USERI5
 70
     0
  9
$USERR1
 40
0.0
  9
$USERR2
 40
0.0
  9
$USERR3
 40
0.0
  9
$USERR4
 40
0.0
  9
$USERR5
 40
0.0
  9
$WORLDVIEW
 70
     1
  9
$SHADEDGE
 70
     3
  9
$SHADEDIF
 70
    70
  9
$TILEMODE
 70
     1
  9
$MAXACTVP
 70
    64
  9
$PINSBASE
 10
0.0
 20
0.0
 30
0.0
  9
$PLIMCHECK
 70
     0
  9
$PEXTMIN
 10
1.000000000000000E+20
 20
1.000000000000000E+20
 30
1.000000000000000E+20
  9
$PEXTMAX
 10
-1.000000000000000E+20
 20
-1.000000000000000E+20
 30
-1.000000000000000E+20
  9
$PLIMMIN
 10
0.0
 20
0.0
  9
$PLIMMAX
 10
841.0
 20
594.0
  9
$UNITMODE
 70
     0
  9
$VISRETAIN
 70
     1
  9
$PLINEGEN
 70
     0
  9
$PSLTSCALE
 70
     0
  9
$TREEDEPTH
 70
  3020
  9
$PICKSTYLE
 70
     0
  9
$CMLSTYLE
  2
STANDARD
  9
$CMLJUST
 70
     0
  9
$CMLSCALE
 40
20.0
  9
$PROXYGRAPHICS
 70
     1
  9
$MEASUREMENT
 70
     1
  0
ENDSEC
  0
SECTION
  2
CLASSES
  0
CLASS
  1
ACDBDICTIONARYWDFLT
  2
AcDbDictionaryWithDefault
  3
AutoCAD 2000
 90
        0
280
     0
281
     0
  0
CLASS
  1
ACDBPLACEHOLDER
  2
AcDbPlaceHolder
  3
AutoCAD 2000
 90
        0
280
     0
281
     0
  0
CLASS
  1
LAYOUT
  2
AcDbLayout
  3
AutoCAD 2000
 90
        0
280
     0
281
     0
  0
CLASS
  1
AMGSETTINGSOBJ
  2
AmgSettingsObj
  3
"AcadM|Product Description: AutoCAD Mechanical 2000|Company: Autodesk"
 90
        0
280
     0
281
     0
  0
CLASS
  1
ACME_DOCUMENT
  2
AcMeDbDoc
  3
AcMeServices
 90
        0
280
     0
281
     0
  0
CLASS
  1
ACMESCOPE
  2
AcMeScope
  3
AcMeServices
 90
        0
280
     0
281
     0
  0
CLASS
  1
ACMECOMMANDHISTORY
  2
AcMeCommandHistory
  3
AcMeServices
 90
        0
280
     0
281
     0
  0
CLASS
  1
DICTIONARYVAR
  2
AcDbDictionaryVar
  3
AutoCAD 2000
 90
        0
280
     0
281
     0
  0
CLASS
  1
ACIMSYSVARMAN
  2
AcImSysVarManager
  3
AcMeServices
 90
        0
280
     0
281
     0
  0
CLASS
  1
ACIMREALSYSVAR
  2
AcImRealSysVar
  3
AcMeServices
 90
        0
280
     0
281
     0
  0
CLASS
  1
ACIMINTSYSVAR
  2
AcImIntSysVar
  3
AcMeServices
 90
        0
280
     0
281
     0
  0
CLASS
  1
ACMEDRAWINGMAN
  2
AcMeDrawingMan
  3
AcMeServices
 90
        0
280
     0
281
     0
  0
CLASS
  1
ACMEVIEW
  2
AcMeView
  3
AcMeServices
 90
        0
280
     0
281
     0
  0
CLASS
  1
ACDBENTITYCACHE
  2
AcMeEntityCache
  3
AcMeServices
 90
        0
280
     0
281
     0
  0
CLASS
  1
GSMANAGER
  2
AcMeGSManager
  3
AcMeServices
 90
        0
280
     0
281
     0
  0
CLASS
  1
AmdtInternalReactor
  2
AmdtInternalReactor
  3
AcMeServices
 90
        0
280
     0
281
     0
  0
CLASS
  1
ACMESTATEMGR
  2
AcMeStateMgr
  3
AcMeServices
 90
        0
280
     0
281
     0
  0
CLASS
  1
ACME_DATABASE
  2
AcMeDbDatabase
  3
AcMeServices
 90
        0
280
     0
281
     0
  0
CLASS
  1
ACRFINSADJUSTERMGR
  2
AcRfInsAdjusterMgr
  3
AcMeServices
 90
        0
280
     0
281
     0
  0
CLASS
  1
ACMDATADICTIONARY
  2
AcmDataDictionary
  3
"AcmSymBB|Product Description: AutoCAD Mechanical 2000|Company: Autodesk"
 90
        0
280
     0
281
     0
  0
CLASS
  1
ACMDATAENTRYBLOCK
  2
AcmDataEntryBlock
  3
"AcmSymBB|Product Description: AutoCAD Mechanical 2000|Company: Autodesk"
 90
        0
280
     0
281
     0
  0
CLASS
  1
AMGOBJPROPCFG
  2
AmgObjPropCfg
  3
"AmgLay|Product Description: AutoCAD Mechanical 2000|Company: Autodesk"
 90
        1
280
     0
281
     0
  0
CLASS
  1
ACAMGFILTERDAT
  2
AcAmgFilterDat
  3
"AcadM|Product Description: AutoCAD Mechanical 2000|Company: Autodesk"
 90
        0
280
     0
281
     0
  0
CLASS
  1
LAYER_INDEX
  2
AcDbLayerIndex
  3
AutoCAD 2000
 90
        0
280
     0
281
     0
  0
CLASS
  1
IDBUFFER
  2
AcDbIdBuffer
  3
AutoCAD 2000
 90
        0
280
     0
281
     0
  0
CLASS
  1
ACIMSTRSYSVAR
  2
AcImStrSysVar
  3
AcMeServices
 90
        0
280
     0
281
     0
  0
CLASS
  1
ACMSTANDARDJIS
  2
AcmStandardJIS
  3
"AcmSymBB|Product Description: AutoCAD Mechanical 2000|Company: Autodesk"
 90
        0
280
     0
281
     0
  0
CLASS
  1
ACMSURFSTANDARDJIS
  2
AcmSurfTextStdJIS
  3
"AcmSymBB|Product Description: AutoCAD Mechanical 2000|Company: Autodesk"
 90
        0
280
     0
281
     0
  0
CLASS
  1
ACMFCFSTANDARDJIS
  2
AcmFCFStdJIS
  3
"AcmSymBB|Product Description: AutoCAD Mechanical 2000|Company: Autodesk"
 90
        0
280
     0
281
     0
  0
CLASS
  1
ACMWELDSTANDARDJIS
  2
AcmWeldingStdJIS
  3
"AcmSymBB|Product Description: AutoCAD Mechanical 2000|Company: Autodesk"
 90
        0
280
     0
281
     0
  0
CLASS
  1
ACMIDSTANDARDJIS
  2
AcmIdStdJIS
  3
"AcmSymBB|Product Description: AutoCAD Mechanical 2000|Company: Autodesk"
 90
        0
280
     0
281
     0
  0
CLASS
  1
ACMDATUMSTANDARDJIS
  2
AcmDatumStdJIS
  3
"AcmSymBB|Product Description: AutoCAD Mechanical 2000|Company: Autodesk"
 90
        0
280
     0
281
     0
  0
CLASS
  1
ACMBOMSTANDARDJIS
  2
AcmBOMStdJIS
  3
"AcmSymBB|Product Description: AutoCAD Mechanical 2000|Company: Autodesk"
 90
        0
280
     0
281
     0
  0
CLASS
  1
ACMSTANDARDANSI
  2
AcmStandardANSI
  3
"AcmSymBB|Product Description: AutoCAD Mechanical 2000|Company: Autodesk"
 90
        0
280
     0
281
     0
  0
CLASS
  1
ACMSURFSTANDARDANSI
  2
AcmSurfTextStdANSI
  3
"AcmSymBB|Product Description: AutoCAD Mechanical 2000|Company: Autodesk"
 90
        0
280
     0
281
     0
  0
CLASS
  1
ACMFCFSTANDARDANSI
  2
AcmFCFStdANSI
  3
"AcmSymBB|Product Description: AutoCAD Mechanical 2000|Company: Autodesk"
 90
        0
280
     0
281
     0
  0
CLASS
  1
ACMWELDSTANDARDANSI
  2
AcmWeldingStdANSI
  3
"AcmSymBB|Product Description: AutoCAD Mechanical 2000|Company: Autodesk"
 90
        0
280
     0
281
     0
  0
CLASS
  1
ACMIDSTANDARDANSI
  2
AcmIdStdANSI
  3
"AcmSymBB|Product Description: AutoCAD Mechanical 2000|Company: Autodesk"
 90
        0
280
     0
281
     0
  0
CLASS
  1
ACMDATUMSTANDARDANSI
  2
AcmDatumStdANSI
  3
"AcmSymBB|Product Description: AutoCAD Mechanical 2000|Company: Autodesk"
 90
        0
280
     0
281
     0
  0
CLASS
  1
ACMBOMSTANDARDANSI
  2
AcmBOMStdANSI
  3
"AcmSymBB|Product Description: AutoCAD Mechanical 2000|Company: Autodesk"
 90
        0
280
     0
281
     0
  0
CLASS
  1
ACMSTANDARDBSI
  2
AcmStandardBSI
  3
"AcmSymBB|Product Description: AutoCAD Mechanical 2000|Company: Autodesk"
 90
        0
280
     0
281
     0
  0
CLASS
  1
ACMSURFSTANDARDBSI
  2
AcmSurfTextStdBSI
  3
"AcmSymBB|Product Description: AutoCAD Mechanical 2000|Company: Autodesk"
 90
        0
280
     0
281
     0
  0
CLASS
  1
ACMFCFSTANDARDBSI
  2
AcmFCFStdBSI
  3
"AcmSymBB|Product Description: AutoCAD Mechanical 2000|Company: Autodesk"
 90
        0
280
     0
281
     0
  0
CLASS
  1
ACMWELDSTANDARDBSI
  2
AcmWeldingStdBSI
  3
"AcmSymBB|Product Description: AutoCAD Mechanical 2000|Company: Autodesk"
 90
        0
280
     0
281
     0
  0
CLASS
  1
ACMIDSTANDARDBSI
  2
AcmIdStdBSI
  3
"AcmSymBB|Product Description: AutoCAD Mechanical 2000|Company: Autodesk"
 90
        0
280
     0
281
     0
  0
CLASS
  1
ACMDATUMSTANDARDBSI
  2
AcmDatumStdBSI
  3
"AcmSymBB|Product Description: AutoCAD Mechanical 2000|Company: Autodesk"
 90
        0
280
     0
281
     0
  0
CLASS
  1
ACMBOMSTANDARDBSI
  2
AcmBOMStdBSI
  3
"AcmSymBB|Product Description: AutoCAD Mechanical 2000|Company: Autodesk"
 90
        0
280
     0
281
     0
  0
CLASS
  1
LONG_TRANSACTION
  2
AcDbLongTransaction
  3
AutoCAD 2000
 90
        0
280
     0
281
     0
  0
CLASS
  1
LWPOLYLINE
  2
AcDbPolyline
  3
AutoCAD 2000
 90
        0
280
     0
281
     1
  0
CLASS
  1
HATCH
  2
AcDbHatch
  3
AutoCAD 2000
 90
        0
280
     0
281
     1
  0
CLASS
  1
XRECORD
  2
AcDbXrecord
  3
AutoCAD 2000
 90
        0
280
     0
281
     0
  0
ENDSEC
  0
SECTION
  2
TABLES
  0
TABLE
  2
VPORT
  5
8
330
0
100
AcDbSymbolTable
 70
     3
  0
VPORT
  5
43BE
330
8
100
AcDbSymbolTableRecord
100
AcDbViewportTableRecord
  2
*ACTIVE
 70
     0
 10
0.0
 20
0.0
 11
1.0
 21
1.0
 12
-27.89497150844542
 22
-4.967689742867676
 13
0.0
 23
0.0
 14
2.5
 24
2.5
 15
10.0
 25
10.0
 16
0.0
 26
0.0
 36
1.0
 17
0.0
 27
0.0
 37
0.0
 40
91.61978698212076
 41
1.56570841889117
 42
50.0
 43
0.0
 44
0.0
 50
0.0
 51
0.0
 71
     0
 72
   100
 73
     1
 74
     3
 75
     0
 76
     0
 77
     0
 78
     0
  0
ENDTAB
  0
TABLE
  2
LTYPE
  5
5
330
0
100
AcDbSymbolTable
 70
    10
  0
LTYPE
  5
14
330
5
100
AcDbSymbolTableRecord
100
AcDbLinetypeTableRecord
  2
BYBLOCK
 70
     0
  3

 72
    65
 73
     0
 40
0.0
  0
LTYPE
  5
15
330
5
100
AcDbSymbolTableRecord
100
AcDbLinetypeTableRecord
  2
BYLAYER
 70
     0
  3

 72
    65
 73
     0
 40
0.0
  0
LTYPE
  5
16
330
5
100
AcDbSymbolTableRecord
100
AcDbLinetypeTableRecord
  2
CONTINUOUS
 70
     0
  3
Solid line
 72
    65
 73
     0
 40
0.0
  0
LTYPE
  5
4B
330
5
100
AcDbSymbolTableRecord
100
AcDbLinetypeTableRecord
  2
AM_ISO02W050
 70
     0
  3
__ __ __ __ __ __ __ __ __ __ __ __ __ __ __
 72
    65
 73
     2
 40
7.5
 49
6.0
 74
     0
 49
-1.5
 74
     0
  0
LTYPE
  5
4C
330
5
100
AcDbSymbolTableRecord
100
AcDbLinetypeTableRecord
  2
AM_ISO08W050
 70
     0
  3
____ . ____ . ____ . ____ . ____ . ____ . ____
 72
    65
 73
     4
 40
18.0
 49
12.0
 74
     0
 49
-1.5
 74
     0
 49
3.0
 74
     0
 49
-1.5
 74
     0
  0
LTYPE
  5
4D
330
5
100
AcDbSymbolTableRecord
100
AcDbLinetypeTableRecord
  2
AM_ISO09W050
 70
     0
  3
_____ . . _____ . . _____ . . ____ .. ____
 72
    65
 73
     6
 40
22.5
 49
12.0
 74
     0
 49
-1.5
 74
     0
 49
3.0
 74
     0
 49
-1.5
 74
     0
 49
3.0
 74
     0
 49
-1.5
 74
     0
  0
LTYPE
  5
4E
330
5
100
AcDbSymbolTableRecord
100
AcDbLinetypeTableRecord
  2
AMCONSTR
 70
     0
  3
_______________________
 72
    65
 73
     2
 40
9999.0
 49
9999.0
 74
     0
 49
0.0
 74
     0
  0
LTYPE
  5
4F
330
5
100
AcDbSymbolTableRecord
100
AcDbLinetypeTableRecord
  2
AM_ISO02W050X2
 70
     0
  3
 _ _ _ _ _ _ _ _ _ _ _ _
 72
    65
 73
     2
 40
3.75
 49
3.0
 74
     0
 49
-0.75
 74
     0
  0
LTYPE
  5
50
330
5
100
AcDbSymbolTableRecord
100
AcDbLinetypeTableRecord
  2
AM_ISO08W050X2
 70
     0
  3
__ . __ . __ . __ . __ . __
 72
    65
 73
     4
 40
9.0
 49
6.0
 74
     0
 49
-0.75
 74
     0
 49
1.5
 74
     0
 49
-0.75
 74
     0
  0
LTYPE
  5
53
330
5
100
AcDbSymbolTableRecord
100
AcDbLinetypeTableRecord
  2
AMZIGZAG
 70
     0
  3
/\/-/\/-/\/-/\/-/\/-/\/
 72
    65
 73
     2
 40
11.00009999999999
 49
0.0001
 74
     4
 75
   135
340
52
 46
0.04
 50
0.0
 44
0.0
 45
0.0
 49
-11.0
 74
     0
  0
LTYPE
  5
166
330
5
100
AcDbSymbolTableRecord
100
AcDbLinetypeTableRecord
  2
ACJISTGL
 70
     0
  3
_ _ _ _ _
 72
    65
 73
     2
 40
3.0
 49
2.0
 74
     0
 49
-1.0
 74
     0
  0
LTYPE
  5
26A
330
5
100
AcDbSymbolTableRecord
100
AcDbLinetypeTableRecord
  2
ACJISTGB
 70
     0
  3
__ . . __ . .
 72
    65
 73
     6
 40
9.0
 49
4.0
 74
     0
 49
-1.0
 74
     0
 49
1.0
 74
     0
 49
-1.0
 74
     0
 49
1.0
 74
     0
 49
-1.0
 74
     0
  0
ENDTAB
  0
TABLE
  2
LAYER
  5
2
330
0
100
AcDbSymbolTable
 70
     7
  0
LAYER
  5
10
330
2
100
AcDbSymbolTableRecord
100
AcDbLayerTableRecord
  2
0
 70
     0
 62
     7
  6
CONTINUOUS
  0
LAYER
  5
3F9
330
2
100
AcDbSymbolTableRecord
100
AcDbLayerTableRecord
  2
AM_0
 70
     0
 62
     7
  6
CONTINUOUS
  0
LAYER
  5
BDD
330
2
100
AcDbSymbolTableRecord
100
AcDbLayerTableRecord
  2
AM_11
 70
     0
 62
     3
  6
AM_ISO09W050
  0
LAYER
  5
BDE
330
2
100
AcDbSymbolTableRecord
100
AcDbLayerTableRecord
  2
AM_7
 70
     0
 62
     4
  6
AM_ISO08W050
  0
LAYER
  5
BDF
330
2
100
AcDbSymbolTableRecord
100
AcDbLayerTableRecord
  2
AM_5
 70
     0
 62
     3
  6
CONTINUOUS
  0
LAYER
  5
BE0
330
2
100
AcDbSymbolTableRecord
100
AcDbLayerTableRecord
  2
DEFPOINTS
 70
     0
 62
     7
  6
CONTINUOUS
  0
LAYER
  5
14FF
330
2
100
AcDbSymbolTableRecord
100
AcDbLayerTableRecord
  2
AM_6
 70
     0
 62
     2
  6
CONTINUOUS
  0
ENDTAB
  0
TABLE
  2
STYLE
  5
3
330
0
100
AcDbSymbolTable
 70
     5
  0
STYLE
  5
11
330
3
100
AcDbSymbolTableRecord
100
AcDbTextStyleTableRecord
  2
STANDARD
 70
     0
 40
0.0
 41
1.0
 50
0.0
 71
     0
 42
2.5
  3
simplex.shx
  4
EXTFONT.SHX
  0
STYLE
  5
52
330
3
100
AcDbSymbolTableRecord
100
AcDbTextStyleTableRecord
  2

 70
     1
 40
0.0
 41
1.0
 50
0.0
 71
     0
 42
2.5
  3
ltypeshp.shx
  4

  0
STYLE
  5
6B
330
3
100
AcDbSymbolTableRecord
100
AcDbTextStyleTableRecord
  2
ASAMI
 70
     0
 40
0.0
 41
1.0
 50
0.0
 71
     0
 42
2.5
  3
simplex.shx
  4
EXTFONT.SHX
  0
STYLE
  5
262
330
3
100
AcDbSymbolTableRecord
100
AcDbTextStyleTableRecord
  2
ACJISTS
 70
     0
 40
1.0
 41
1.0
 50
0.0
 71
     0
 42
2.5
  3
simplex.shx
  4
bigfont.shx
  0
STYLE
  5
269
330
3
100
AcDbSymbolTableRecord
100
AcDbTextStyleTableRecord
  2
ACJISGDT
 70
     0
 40
0.0
 41
1.0
 50
0.0
 71
     0
 42
2.5
  3
amgdtans.shx
  4

  0
ENDTAB
  0
TABLE
  2
VIEW
  5
6
330
0
100
AcDbSymbolTable
 70
     0
  0
ENDTAB
  0
TABLE
  2
UCS
  5
7
330
0
100
AcDbSymbolTable
 70
     0
  0
ENDTAB
  0
TABLE
  2
APPID
  5
9
330
0
100
AcDbSymbolTable
 70
    14
  0
APPID
  5
12
330
9
100
AcDbSymbolTableRecord
100
AcDbRegAppTableRecord
  2
ACAD
 70
     0
  0
APPID
  5
30
330
9
100
AcDbSymbolTableRecord
100
AcDbRegAppTableRecord
  2
MCAD_NO_VIS
 70
     0
  0
APPID
  5
31
330
9
100
AcDbSymbolTableRecord
100
AcDbRegAppTableRecord
  2
ACAD_TEMP_GRAPHIC
 70
     0
  0
APPID
  5
2C2
330
9
100
AcDbSymbolTableRecord
100
AcDbRegAppTableRecord
  2
GENIUS_GENDTOL_13
 70
     0
  0
APPID
  5
339
330
9
100
AcDbSymbolTableRecord
100
AcDbRegAppTableRecord
  2
GENIUS_GENODEF_13
 70
     0
  0
APPID
  5
33A
330
9
100
AcDbSymbolTableRecord
100
AcDbRegAppTableRecord
  2
GENIUS_GENOBJ-N-RSBK_13
 70
     0
  0
APPID
  5
33B
330
9
100
AcDbSymbolTableRecord
100
AcDbRegAppTableRecord
  2
GENIUS_GENOBJ-N-LIB_13
 70
     0
  0
APPID
  5
33C
330
9
100
AcDbSymbolTableRecord
100
AcDbRegAppTableRecord
  2
GENIUS_GENSCALE_13
 70
     0
  0
APPID
  5
378
330
9
100
AcDbSymbolTableRecord
100
AcDbRegAppTableRecord
  2
GENIUS_GENDIMSH_14
 70
     0
  0
APPID
  5
BE1
330
9
100
AcDbSymbolTableRecord
100
AcDbRegAppTableRecord
  2
GENIUS_GENFIL_13
 70
     0
  0
APPID
  5
BE2
330
9
100
AcDbSymbolTableRecord
100
AcDbRegAppTableRecord
  2
GENIUS_GENOBJ-N-CHA_13
 70
     0
  0
APPID
  5
151B
330
9
100
AcDbSymbolTableRecord
100
AcDbRegAppTableRecord
  2
DCO15
 70
     0
  0
APPID
  5
1860
330
9
100
AcDbSymbolTableRecord
100
AcDbRegAppTableRecord
  2
GENIUS_GENOBJ-N-CEN_13
 70
     0
  0
APPID
  5
359C
330
9
100
AcDbSymbolTableRecord
100
AcDbRegAppTableRecord
  2
GENIUS_GENOBJ-N-FIL_13
 70
     0
  0
ENDTAB
  0
TABLE
  2
DIMSTYLE
  5
A
330
0
100
AcDbSymbolTable
 70
     8
  0
DIMSTYLE
105
58
102
{ACAD_REACTORS
330
3CAC
330
3D34
330
3E27
330
3F25
102
}
330
A
100
AcDbSymbolTableRecord
100
AcDbDimStyleTableRecord
  2
AM_JIS
 70
     0
  3

  4
"
  5
OPEN30
  6

  7

 40
0.5
 41
2.5
 42
1.0
 43
12.0
 44
1.0
 45
0.0
 46
0.0
 47
0.1
 48
0.1
140
3.2
141
0.0
142
0.0
143
0.0393701
144
1.0
145
0.0
146
0.71
147
1.5
 71
     0
 72
     0
 73
     0
 74
     0
 75
     0
 76
     0
 77
     3
 78
     8
170
     0
171
     2
172
     1
173
     0
174
     0
175
     0
176
   256
177
   256
178
     2
270
     2
271
     3
272
     3
273
     2
274
     2
340
6B
275
     0
280
     0
281
     0
282
     0
283
     0
284
     0
285
     0
286
     0
287
     3
288
     0
  0
DIMSTYLE
105
5F
330
A
100
AcDbSymbolTableRecord
100
AcDbDimStyleTableRecord
  2
AM_JIS$3
 70
     0
  3

  4
"
  5
OPEN30
  6

  7

 40
0.5
 41
2.5
 42
1.0
 43
10.0
 44
1.0
 45
0.0
 46
0.0
 47
0.1
 48
0.1
140
3.2
141
0.0
142
0.0
143
0.0393701
144
1.0
145
0.0
146
0.71
147
1.5
 71
     0
 72
     0
 73
     0
 74
     1
 75
     0
 76
     0
 77
     3
 78
     8
170
     0
171
     2
172
     0
173
     0
174
     0
175
     0
176
   256
177
   256
178
     2
270
     2
271
     2
272
     3
273
     2
274
     2
340
6B
275
     0
280
     0
281
     0
282
     0
283
     0
284
     0
285
     0
286
     0
287
     0
288
     1
  0
DIMSTYLE
105
60
330
A
100
AcDbSymbolTableRecord
100
AcDbDimStyleTableRecord
  2
AM_JIS$4
 70
     0
  3

  4
"
  5
OPEN30
  6

  7

 40
0.5
 41
2.5
 42
1.0
 43
10.0
 44
1.0
 45
0.0
 46
0.0
 47
0.1
 48
0.1
140
3.2
141
0.0
142
0.0
143
0.0393701
144
1.0
145
0.0
146
0.71
147
1.5
 71
     0
 72
     0
 73
     0
 74
     1
 75
     0
 76
     0
 77
     3
 78
     8
170
     0
171
     2
172
     0
173
     0
174
     0
175
     0
176
   256
177
   256
178
     2
270
     2
271
     2
272
     3
273
     2
274
     2
340
6B
275
     0
280
     0
281
     0
282
     0
283
     0
284
     0
285
     0
286
     0
287
     0
288
     1
  0
DIMSTYLE
105
61
330
A
100
AcDbSymbolTableRecord
100
AcDbDimStyleTableRecord
  2
AM_JIS$6
 70
     0
  3

  4
"
  5
OPEN30
  6

  7

 40
0.5
 41
2.5
 42
1.0
 43
10.0
 44
1.0
 45
0.0
 46
0.0
 47
0.1
 48
0.1
140
3.2
141
0.0
142
0.0
143
0.0393701
144
1.0
145
0.0
146
0.71
147
1.5
 71
     0
 72
     0
 73
     0
 74
     0
 75
     0
 76
     0
 77
     0
 78
     8
170
     0
171
     2
172
     1
173
     0
174
     0
175
     0
176
   256
177
   256
178
     2
270
     2
271
     2
272
     2
273
     2
274
     2
340
6B
275
     0
280
     0
281
     0
282
     0
283
     0
284
     0
285
     0
286
     0
287
     3
288
     0
  0
DIMSTYLE
105
62
330
A
100
AcDbSymbolTableRecord
100
AcDbDimStyleTableRecord
  2
AM_JIS$7
 70
     0
  3

  4
"
  5
OPEN30
  6

  7

 40
0.5
 41
2.5
 42
1.0
 43
10.0
 44
1.0
 45
0.0
 46
0.0
 47
0.1
 48
0.1
140
3.2
141
0.0
142
0.0
143
0.0393701
144
1.0
145
0.0
146
0.71
147
1.5
 71
     0
 72
     0
 73
     0
 74
     0
 75
     0
 76
     0
 77
     3
 78
     8
170
     0
171
     2
172
     1
173
     0
174
     0
175
     0
176
   256
177
   256
178
     2
270
     2
271
     2
272
     3
273
     2
274
     2
340
6B
275
     0
280
     0
281
     0
282
     0
283
     0
284
     0
285
     0
286
     0
287
     3
288
     0
  0
DIMSTYLE
105
63
330
A
100
AcDbSymbolTableRecord
100
AcDbDimStyleTableRecord
  2
AM_JIS$SF
 70
     0
  3

  4
"
  5
OPEN30
  6

  7

 40
0.5
 41
2.5
 42
1.0
 43
10.0
 44
1.0
 45
0.0
 46
0.0
 47
0.1
 48
0.1
140
3.2
141
0.0
142
0.0
143
0.0393701
144
1.0
145
0.0
146
0.71
147
1.5
 71
     0
 72
     0
 73
     0
 74
     0
 75
     1
 76
     1
 77
     3
 78
     8
170
     0
171
     2
172
     1
173
     0
174
     0
175
     0
176
   256
177
   256
178
     2
270
     2
271
     2
272
     2
273
     2
274
     2
340
6B
275
     0
280
     0
281
     0
282
     0
283
     0
284
     0
285
     0
286
     0
287
     3
288
     0
  0
DIMSTYLE
105
68
330
A
100
AcDbSymbolTableRecord
100
AcDbDimStyleTableRecord
  2
AM_JIS$SH
 70
     0
  3

  4
"
  5

  6
GENAXEH
  7
OPEN30
 40
0.5
 41
2.5
 42
1.0
 43
10.0
 44
1.0
 45
0.0
 46
0.0
 47
0.1
 48
0.1
140
3.2
141
0.0
142
0.0
143
0.0393701
144
2.0
145
0.0
146
0.71
147
1.5
 71
     0
 72
     0
 73
     0
 74
     0
 75
     1
 76
     1
 77
     3
 78
     8
170
     0
171
     2
172
     1
173
     1
174
     0
175
     0
176
   256
177
   256
178
     2
270
     2
271
     2
272
     2
273
     2
274
     2
340
6B
275
     0
280
     0
281
     0
282
     0
283
     0
284
     0
285
     0
286
     0
287
     3
288
     0
  0
DIMSTYLE
105
B34
330
A
100
AcDbSymbolTableRecord
100
AcDbDimStyleTableRecord
  2
AM_JIS$2
 70
     0
  3

  4
"
  5
OPEN30
  6

  7

 40
0.5
 41
2.5
 42
1.0
 43
12.0
 44
1.0
 45
0.0
 46
0.0
 47
0.1
 48
0.1
140
3.2
141
0.0
142
0.0
143
0.0393701
144
1.0
145
0.0
146
0.71
147
1.5
 71
     0
 72
     0
 73
     0
 74
     0
 75
     0
 76
     0
 77
     3
 78
     8
170
     0
171
     2
172
     1
173
     0
174
     0
175
     0
176
   256
177
   256
178
     2
270
     2
271
     3
272
     3
273
     2
274
     2
340
6B
275
     0
280
     0
281
     0
282
     0
283
     0
284
     0
285
     0
286
     0
287
     3
288
     0
  0
ENDTAB
  0
TABLE
  2
BLOCK_RECORD
  5
1
330
0
100
AcDbSymbolTable
 70
     9
  0
BLOCK_RECORD
  5
1F
102
{ACAD_XDICTIONARY
360
74
102
}
330
1
100
AcDbSymbolTableRecord
100
AcDbBlockTableRecord
  2
*MODEL_SPACE
  0
BLOCK_RECORD
  5
101
102
{ACAD_XDICTIONARY
360
43E7
102
}
330
1
100
AcDbSymbolTableRecord
100
AcDbBlockTableRecord
  2
*PAPER_SPACE
  0
BLOCK_RECORD
  5
59
330
1
100
AcDbSymbolTableRecord
100
AcDbBlockTableRecord
  2
_OPEN30
  0
BLOCK_RECORD
  5
64
330
1
100
AcDbSymbolTableRecord
100
AcDbBlockTableRecord
  2
GENAXEH
  0
BLOCK_RECORD
  5
3CAD
330
1
100
AcDbSymbolTableRecord
100
AcDbBlockTableRecord
  2
*D5
  0
BLOCK_RECORD
  5
3D35
330
1
100
AcDbSymbolTableRecord
100
AcDbBlockTableRecord
  2
*D6
  0
BLOCK_RECORD
  5
3E28
330
1
100
AcDbSymbolTableRecord
100
AcDbBlockTableRecord
  2
*D7
  0
BLOCK_RECORD
  5
3F26
330
1
100
AcDbSymbolTableRecord
100
AcDbBlockTableRecord
  2
*D8
  0
ENDTAB
  0
ENDSEC
  0
SECTION
  2
BLOCKS
  0
BLOCK
  5
20
330
1F
100
AcDbEntity
  8
0
100
AcDbBlockBegin
  2
*MODEL_SPACE
 70
     0
 10
0.0
 20
0.0
 30
0.0
  3
*MODEL_SPACE
  1

  0
ENDBLK
  5
21
330
1F
100
AcDbEntity
  8
0
100
AcDbBlockEnd
  0
BLOCK
  5
103
330
101
100
AcDbEntity
 67
     1
  8
0
100
AcDbBlockBegin
  2
*PAPER_SPACE
 70
     0
 10
0.0
 20
0.0
 30
0.0
  3
*PAPER_SPACE
  1

  0
ENDBLK
  5
104
330
101
100
AcDbEntity
 67
     1
  8
0
100
AcDbBlockEnd
  0
BLOCK
  5
5D
330
59
100
AcDbEntity
  8
0
100
AcDbBlockBegin
  2
_OPEN30
 70
     0
 10
0.0
 20
0.0
 30
0.0
  3
_OPEN30
  1

  0
LINE
  5
5A
330
59
100
AcDbEntity
  8
0
 62
     0
100
AcDbLine
 10
-1.0
 20
0.26794919
 30
0.0
 11
0.0
 21
0.0
 31
0.0
  0
LINE
  5
5B
330
59
100
AcDbEntity
  8
0
 62
     0
100
AcDbLine
 10
0.0
 20
0.0
 30
0.0
 11
-1.0
 21
-0.26794919
 31
0.0
  0
LINE
  5
5C
330
59
100
AcDbEntity
  8
0
 62
     0
100
AcDbLine
 10
0.0
 20
0.0
 30
0.0
 11
-1.0
 21
0.0
 31
0.0
  0
ENDBLK
  5
5E
330
59
100
AcDbEntity
  8
0
100
AcDbBlockEnd
  0
BLOCK
  5
66
330
64
100
AcDbEntity
  8
0
100
AcDbBlockBegin
  2
GENAXEH
 70
     0
 10
0.0
 20
0.0
 30
0.0
  3
GENAXEH
  1

  0
LINE
  5
65
330
64
100
AcDbEntity
  8
0
100
AcDbLine
 10
-1.0
 20
0.0
 30
0.0
 11
1.0
 21
0.0
 31
0.0
  0
ENDBLK
  5
67
330
64
100
AcDbEntity
  8
0
100
AcDbBlockEnd
  0
BLOCK
  5
3CB7
330
3CAD
100
AcDbEntity
  8
0
100
AcDbBlockBegin
  2
*D5
 70
     1
 10
0.0
 20
0.0
 30
0.0
  3
*D5
  1

  0
LINE
  5
4097
330
3CAD
100
AcDbEntity
  8
AM_5
100
AcDbLine
 10
0.0
 20
-3.999999999999994
 30
0.0
 11
-0.0000000000000009
 21
-17.50000100000008
 31
0.0
  0
LINE
  5
4098
330
3CAD
100
AcDbEntity
  8
AM_5
100
AcDbLine
 10
-59.99999999999996
 20
-4.000000000000015
 30
0.0
 11
-59.99999999999996
 21
-17.50000100000008
 31
0.0
  0
LINE
  5
4099
330
3CAD
100
AcDbEntity
  8
AM_5
100
AcDbLine
 10
-1.25
 20
-17.00000100000008
 30
0.0
 11
-58.74999999999996
 21
-17.00000100000008
 31
0.0
  0
INSERT
  5
409A
330
3CAD
100
AcDbEntity
  8
AM_5
100
AcDbBlockReference
  2
_OPEN30
 10
-0.0000000000000008
 20
-17.00000100000008
 30
0.0
 41
1.25
 42
1.25
 43
1.25
  0
INSERT
  5
409B
330
3CAD
100
AcDbEntity
  8
AM_5
100
AcDbBlockReference
  2
_OPEN30
 10
-59.99999999999996
 20
-17.00000100000008
 30
0.0
 41
1.25
 42
1.25
 43
1.25
 50
180.0
  0
MTEXT
  5
409C
330
3CAD
100
AcDbEntity
  8
AM_5
 62
     2
100
AcDbMText
 10
-29.99999999999998
 20
-15.45000100000008
 30
0.0
 40
1.6
 41
0.0
 71
     5
 72
     1
  1
60
  7
ASAMI
1001
ACAD
1000
MTEXTBEGIN
1070
    73
1070
     1
1070
    44
1040
1.0
1070
    74
1070
     0
1000
MTEXTEND
  0
POINT
  5
409D
330
3CAD
100
AcDbEntity
  8
DEFPOINTS
 62
     0
100
AcDbPoint
 10
0.0
 20
-3.499999999999994
 30
0.0
  0
POINT
  5
409E
330
3CAD
100
AcDbEntity
  8
DEFPOINTS
 62
     0
100
AcDbPoint
 10
-59.99999999999996
 20
-3.500000000000015
 30
0.0
  0
POINT
  5
409F
330
3CAD
100
AcDbEntity
  8
DEFPOINTS
 62
     0
100
AcDbPoint
 10
-59.99999999999996
 20
-17.00000100000008
 30
0.0
  0
ENDBLK
  5
3CB8
330
3CAD
100
AcDbEntity
  8
0
100
AcDbBlockEnd
  0
BLOCK
  5
3D3F
330
3D35
100
AcDbEntity
  8
0
100
AcDbBlockBegin
  2
*D6
 70
     1
 10
0.0
 20
0.0
 30
0.0
  3
*D6
  1

  0
LINE
  5
40A0
330
3D35
100
AcDbEntity
  8
AM_5
100
AcDbLine
 10
0.0
 20
-3.999999999999994
 30
0.0
 11
-0.0000000000000005
 21
-11.500001
 31
0.0
  0
LINE
  5
40A1
330
3D35
100
AcDbEntity
  8
AM_5
100
AcDbLine
 10
-18.0
 20
-3.999999999999995
 30
0.0
 11
-18.0
 21
-11.500001
 31
0.0
  0
LINE
  5
40A2
330
3D35
100
AcDbEntity
  8
AM_5
100
AcDbLine
 10
-1.25
 20
-11.000001
 30
0.0
 11
-16.75
 21
-11.000001
 31
0.0
  0
INSERT
  5
40A3
330
3D35
100
AcDbEntity
  8
AM_5
100
AcDbBlockReference
  2
_OPEN30
 10
-0.0000000000000005
 20
-11.000001
 30
0.0
 41
1.25
 42
1.25
 43
1.25
  0
INSERT
  5
40A4
330
3D35
100
AcDbEntity
  8
AM_5
100
AcDbBlockReference
  2
_OPEN30
 10
-18.0
 20
-11.000001
 30
0.0
 41
1.25
 42
1.25
 43
1.25
 50
180.0
  0
MTEXT
  5
40A5
330
3D35
100
AcDbEntity
  8
AM_5
 62
     2
100
AcDbMText
 10
-9.0
 20
-9.450001000000005
 30
0.0
 40
1.6
 41
0.0
 71
     5
 72
     1
  1
18
  7
ASAMI
1001
ACAD
1000
MTEXTBEGIN
1070
    73
1070
     1
1070
    44
1040
1.0
1070
    74
1070
     0
1000
MTEXTEND
  0
POINT
  5
40A6
330
3D35
100
AcDbEntity
  8
DEFPOINTS
 62
     0
100
AcDbPoint
 10
0.0
 20
-3.499999999999994
 30
0.0
  0
POINT
  5
40A7
330
3D35
100
AcDbEntity
  8
DEFPOINTS
 62
     0
100
AcDbPoint
 10
-18.0
 20
-3.499999999999995
 30
0.0
  0
POINT
  5
40A8
330
3D35
100
AcDbEntity
  8
DEFPOINTS
 62
     0
100
AcDbPoint
 10
-18.0
 20
-11.000001
 30
0.0
  0
ENDBLK
  5
3D40
330
3D35
100
AcDbEntity
  8
0
100
AcDbBlockEnd
  0
BLOCK
  5
3E32
330
3E28
100
AcDbEntity
  8
0
100
AcDbBlockBegin
  2
*D7
 70
     1
 10
0.0
 20
0.0
 30
0.0
  3
*D7
  1

  0
LINE
  5
3FB0
330
3E28
100
AcDbEntity
  8
AM_5
100
AcDbLine
 10
0.5
 20
3.500000000000004
 30
0.0
 11
12.05776903085518
 21
3.500000000000001
 31
0.0
  0
LINE
  5
3FB1
330
3E28
100
AcDbEntity
  8
AM_5
100
AcDbLine
 10
0.500000000000005
 20
-3.499999999999994
 30
0.0
 11
12.05776903085518
 21
-3.499999999999998
 31
0.0
  0
LINE
  5
3FB2
330
3E28
100
AcDbEntity
  8
AM_5
100
AcDbLine
 10
11.55776903085518
 20
2.250000000000001
 30
0.0
 11
11.55776903085518
 21
-2.249999999999998
 31
0.0
  0
INSERT
  5
3FB3
330
3E28
100
AcDbEntity
  8
AM_5
100
AcDbBlockReference
  2
_OPEN30
 10
11.55776903085518
 20
3.500000000000001
 30
0.0
 41
1.25
 42
1.25
 43
1.25
 50
90.0
  0
INSERT
  5
3FB4
330
3E28
100
AcDbEntity
  8
AM_5
100
AcDbBlockReference
  2
_OPEN30
 10
11.55776903085518
 20
-3.499999999999998
 30
0.0
 41
1.25
 42
1.25
 43
1.25
 50
270.0
  0
MTEXT
  5
3FB5
330
3E28
100
AcDbEntity
  8
AM_5
 62
     2
100
AcDbMText
 10
10.00776903085518
 20
0.0000000000000037
 30
0.0
 40
1.6
 41
0.0
 71
     5
 72
     1
  1
%%c7
  7
ASAMI
 11
0.0000000000000001
 21
1.0
 31
0.0
1001
ACAD
1000
MTEXTBEGIN
1070
    73
1070
     1
1070
    44
1040
1.0
1070
    74
1070
     0
1000
MTEXTEND
  0
POINT
  5
3FB6
330
3E28
100
AcDbEntity
  8
DEFPOINTS
 62
     0
100
AcDbPoint
 10
0.0
 20
3.500000000000004
 30
0.0
  0
POINT
  5
3FB7
330
3E28
100
AcDbEntity
  8
DEFPOINTS
 62
     0
100
AcDbPoint
 10
0.000000000000005
 20
-3.499999999999994
 30
0.0
  0
POINT
  5
3FB8
330
3E28
100
AcDbEntity
  8
DEFPOINTS
 62
     0
100
AcDbPoint
 10
11.55776903085518
 20
-3.499999999999998
 30
0.0
  0
ENDBLK
  5
3E33
330
3E28
100
AcDbEntity
  8
0
100
AcDbBlockEnd
  0
BLOCK
  5
3F30
330
3F26
100
AcDbEntity
  8
0
100
AcDbBlockBegin
  2
*D8
 70
     1
 10
0.0
 20
0.0
 30
0.0
  3
*D8
  1

  0
LINE
  5
3F42
330
3F26
100
AcDbEntity
  8
AM_5
100
AcDbLine
 10
-59.75
 20
4.000000000000003
 30
0.0
 11
-70.19470045058476
 21
4.000000000000007
 31
0.0
  0
LINE
  5
3F43
330
3F26
100
AcDbEntity
  8
AM_5
100
AcDbLine
 10
-59.99999999999996
 20
-4.000000000000015
 30
0.0
 11
-70.19470045058476
 21
-4.000000000000011
 31
0.0
  0
LINE
  5
3F44
330
3F26
100
AcDbEntity
  8
AM_5
100
AcDbLine
 10
-69.69470045058476
 20
2.750000000000006
 30
0.0
 11
-69.69470045058476
 21
-2.750000000000011
 31
0.0
  0
INSERT
  5
3F45
330
3F26
100
AcDbEntity
  8
AM_5
100
AcDbBlockReference
  2
_OPEN30
 10
-69.69470045058476
 20
4.000000000000006
 30
0.0
 41
1.25
 42
1.25
 43
1.25
 50
90.0
  0
INSERT
  5
3F46
330
3F26
100
AcDbEntity
  8
AM_5
100
AcDbBlockReference
  2
_OPEN30
 10
-69.69470045058476
 20
-4.000000000000012
 30
0.0
 41
1.25
 42
1.25
 43
1.25
 50
270.0
  0
MTEXT
  5
3F47
330
3F26
100
AcDbEntity
  8
AM_5
 62
     2
100
AcDbMText
 10
-71.24470045058476
 20
-0.000000000000014
 30
0.0
 40
1.6
 41
0.0
 71
     5
 72
     1
  1
%%c8
  7
ASAMI
 11
0.0000000000000001
 21
1.0
 31
0.0
1001
ACAD
1000
MTEXTBEGIN
1070
    73
1070
     1
1070
    44
1040
1.0
1070
    74
1070
     0
1000
MTEXTEND
  0
POINT
  5
3F48
330
3F26
100
AcDbEntity
  8
DEFPOINTS
 62
     0
100
AcDbPoint
 10
-59.25
 20
4.000000000000003
 30
0.0
  0
POINT
  5
3F49
330
3F26
100
AcDbEntity
  8
DEFPOINTS
 62
     0
100
AcDbPoint
 10
-59.49999999999996
 20
-4.000000000000015
 30
0.0
  0
POINT
  5
3F4A
330
3F26
100
AcDbEntity
  8
DEFPOINTS
 62
     0
100
AcDbPoint
 10
-69.69470045058476
 20
-4.000000000000012
 30
0.0
  0
ENDBLK
  5
3F31
330
3F26
100
AcDbEntity
  8
0
100
AcDbBlockEnd
  0
ENDSEC
  0
SECTION
  2
ENTITIES
  0
TEXT
  5
1500
330
1F
100
AcDbEntity
  8
AM_6
100
AcDbText
 10
-38.33333333333331
 20
-28.25000100000008
 30
0.0
 40
2.5
  1
HSM3070
 72
     4
 11
-29.99999999999998
 21
-27.00000100000008
 31
0.0
100
AcDbText
  0
LINE
  5
3B7D
330
1F
100
AcDbEntity
  8
AM_7
  6
AM_ISO08W050X2
100
AcDbLine
 10
4.557768030855186
 20
0.0
 30
0.0
 11
-62.69469945058478
 21
-0.0000000000000142
 31
0.0
1001
GENIUS_GENODEF_13
1002
{
1000
HIER
1070
     0
1002
}
1002
{
1000
MANEDIT
1070
     0
1002
}
1002
{
1000
NOSEL
1070
     0
1002
}
1002
{
1000
BEHIND
1070
     0
1002
}
1002
{
1000
REACTOR
1002
}
1001
GENIUS_GENOBJ-N-CEN_13
1002
{
1000
OWNER
1000
GEN
1002
}
  0
LINE
  5
3B7E
330
1F
100
AcDbEntity
  8
AM_11
100
AcDbLine
 10
-18.0
 20
-3.499999999999995
 30
0.0
 11
0.0
 21
-3.499999999999994
 31
0.0
  0
LINE
  5
3B80
330
1F
100
AcDbEntity
  8
AM_11
100
AcDbLine
 10
0.0
 20
3.500000000000004
 30
0.0
 11
-18.0
 21
3.500000000000004
 31
0.0
  0
LINE
  5
3C00
330
1F
100
AcDbEntity
  8
AM_11
100
AcDbLine
 10
0.0
 20
3.500000000000004
 30
0.0
 11
0.0
 21
-3.499999999999994
 31
0.0
  0
DIMENSION
  5
3CAC
330
1F
100
AcDbEntity
  8
AM_5
100
AcDbDimension
  2
*D5
 10
-59.99999999999996
 20
-17.00000100000008
 30
0.0
 11
-29.99999999999998
 21
-15.45000100000008
 31
0.0
 70
    32
  1
<>
  3
AM_JIS
100
AcDbAlignedDimension
 13
0.0
 23
-3.499999999999994
 33
0.0
 14
-59.99999999999996
 24
-3.500000000000015
 34
0.0
 50
0.0000000000001132
100
AcDbRotatedDimension
1001
GENIUS_GENDTOL_13
1000

1000
h7
1000

1040
0.0
  0
DIMENSION
  5
3D34
330
1F
100
AcDbEntity
  8
AM_5
100
AcDbDimension
  2
*D6
 10
-18.0
 20
-11.000001
 30
0.0
 11
-9.0
 21
-9.450001000000005
 31
0.0
 70
    32
  1
<>
  3
AM_JIS
100
AcDbAlignedDimension
 13
0.0
 23
-3.499999999999994
 33
0.0
 14
-18.0
 24
-3.499999999999995
 34
0.0
 50
0.0000000000001132
100
AcDbRotatedDimension
1001
GENIUS_GENDTOL_13
1000

1000
h7
1000

1040
0.0
  0
DIMENSION
  5
3E27
330
1F
100
AcDbEntity
  8
AM_5
100
AcDbDimension
  2
*D7
 10
11.55776903085518
 20
-3.499999999999998
 30
0.0
 11
10.00776903085518
 21
0.0000000000000037
 31
0.0
 70
    32
  1
%%c<>
  3
AM_JIS
100
AcDbAlignedDimension
 13
0.0
 23
3.500000000000004
 33
0.0
 14
0.000000000000005
 24
-3.499999999999994
 34
0.0
 50
90.00000000000003
100
AcDbRotatedDimension
1001
GENIUS_GENDTOL_13
1000

1000
h7
1000

1040
0.0
  0
LINE
  5
3F20
330
1F
100
AcDbEntity
  8
AM_0
100
AcDbLine
 10
-21.99999999999996
 20
-3.999999999999992
 30
0.0
 11
-59.49999999999996
 21
-4.000000000000015
 31
0.0
  0
LINE
  5
3F23
330
1F
100
AcDbEntity
  8
AM_0
100
AcDbLine
 10
-59.49999999999999
 20
4.000000000000002
 30
0.0
 11
-59.49999999999996
 21
-4.000000000000014
 31
0.0
  0
LINE
  5
3F24
330
1F
100
AcDbEntity
  8
AM_0
100
AcDbLine
 10
-60.0
 20
3.500000000000003
 30
0.0
 11
-59.99999999999996
 21
-3.500000000000015
 31
0.0
  0
DIMENSION
  5
3F25
330
1F
100
AcDbEntity
  8
AM_5
100
AcDbDimension
  2
*D8
 10
-69.69470045058476
 20
-4.000000000000012
 30
0.0
 11
-71.24470045058476
 21
-0.000000000000014
 31
0.0
 70
    32
  1
%%c<>
  3
AM_JIS
100
AcDbAlignedDimension
 13
-59.25
 23
4.000000000000003
 33
0.0
 14
-59.49999999999996
 24
-4.000000000000015
 34
0.0
 50
270.0
100
AcDbRotatedDimension
1001
GENIUS_GENDTOL_13
1000

1000
h7
1000

1040
0.0
  0
LINE
  5
3F32
330
1F
100
AcDbEntity
  8
AM_0
100
AcDbLine
 10
-22.0
 20
4.000000000000003
 30
0.0
 11
-59.50000000000001
 21
4.000000000000003
 31
0.0
  0
LINE
  5
3F3E
330
1F
100
AcDbEntity
  8
AM_0
100
AcDbLine
 10
-60.0
 20
3.500000000000003
 30
0.0
 11
-59.50000000000001
 21
4.000000000000003
 31
0.0
1001
GENIUS_GENFIL_13
1070
     0
1040
0.5
1040
0.5
1040
20.0
1040
0.0
1002
{
1002
}
1001
GENIUS_GENODEF_13
1002
{
1000
HIER
1070
     0
1002
}
1002
{
1000
MANEDIT
1070
     0
1002
}
1002
{
1000
NOSEL
1070
     0
1002
}
1002
{
1000
BEHIND
1070
     0
1002
}
1002
{
1000
REACTOR
1002
}
1001
GENIUS_GENOBJ-N-CHA_13
1002
{
1000
OWNER
1000
GEN
1002
}
  0
LINE
  5
3F41
330
1F
100
AcDbEntity
  8
AM_0
100
AcDbLine
 10
-59.99999999999996
 20
-3.500000000000015
 30
0.0
 11
-59.49999999999996
 21
-4.000000000000015
 31
0.0
1001
GENIUS_GENFIL_13
1070
     0
1040
0.5
1040
0.5
1040
20.0
1040
0.0
1002
{
1002
}
1001
GENIUS_GENODEF_13
1002
{
1000
HIER
1070
     0
1002
}
1002
{
1000
MANEDIT
1070
     0
1002
}
1002
{
1000
NOSEL
1070
     0
1002
}
1002
{
1000
BEHIND
1070
     0
1002
}
1002
{
1000
REACTOR
1002
}
1001
GENIUS_GENOBJ-N-CHA_13
1002
{
1000
OWNER
1000
GEN
1002
}
  0
LINE
  5
3F69
330
1F
100
AcDbEntity
  8
AM_11
100
AcDbLine
 10
-18.0
 20
3.500000000000004
 30
0.0
 11
-18.0
 21
-3.499999999999994
 31
0.0
  0
LINE
  5
3F7C
330
1F
100
AcDbEntity
  8
AM_0
100
AcDbLine
 10
-22.00000000000001
 20
4.000000000000003
 30
0.0
 11
-21.99999999999996
 21
-3.999999999999993
 31
0.0
  0
LINE
  5
3F9E
330
1F
100
AcDbEntity
  8
AM_0
100
AcDbLine
 10
-20.10666340772664
 20
3.500000000000003
 30
0.0
 11
-20.62626129027269
 21
3.500000000000002
 31
0.0
  0
LINE
  5
3F9F
330
1F
100
AcDbEntity
  8
AM_0
100
AcDbLine
 10
-20.62626129027269
 20
3.500000000000002
 30
0.0
 11
-22.00000000000001
 21
4.000000000000003
 31
0.0
  0
LINE
  5
3FA9
330
1F
100
AcDbEntity
  8
AM_0
100
AcDbLine
 10
-20.62626129027269
 20
-3.500000000000013
 30
0.0
 11
-22.00000000000001
 21
-4.000000000000014
 31
0.0
  0
LINE
  5
3FAA
330
1F
100
AcDbEntity
  8
AM_0
100
AcDbLine
 10
-18.11590679392802
 20
-3.500000000000013
 30
0.0
 11
-20.62626129027269
 21
-3.500000000000013
 31
0.0
  0
LINE
  5
3FAB
330
1F
100
AcDbEntity
  8
AM_0
100
AcDbLine
 10
-20.62626129027269
 20
3.500000000000002
 30
0.0
 11
-20.62626129027269
 21
-3.500000000000013
 31
0.0
  0
ARC
  5
4347
330
1F
100
AcDbEntity
  8
AM_0
100
AcDbCircle
 10
-18.81487060351992
 20
-0.5968242162048157
 30
0.0
 40
1.399999999999999
100
AcDbArc
 50
117.0923257436931
 51
211.2479114875233
  0
SPLINE
  5
434C
330
1F
100
AcDbEntity
  8
AM_0
100
AcDbSpline
210
0.0
220
0.0
230
1.0
 70
     8
 71
     3
 72
     8
 73
     4
 74
     2
 42
0.0000000001
 43
0.0000000001
 44
0.0000000001
 12
-1.0
 22
0.0000000000000001
 32
0.0
 40
0.0
 40
0.0
 40
0.0
 40
0.0
 40
3.100498181084046
 40
3.100498181084046
 40
3.100498181084046
 40
3.100498181084046
 10
-17.57223571750792
 20
-3.236631393147362
 30
0.0
 10
-18.6057351112026
 20
-3.236631393147362
 30
0.0
 10
-19.30875440344984
 20
-2.279847271221449
 30
0.0
 10
-20.01177369569709
 20
-1.323063149295535
 30
0.0
 11
-17.57223571750792
 21
-3.236631393147362
 31
0.0
 11
-20.01177369569709
 21
-1.323063149295535
 31
0.0
  0
LINE
  5
434D
330
1F
100
AcDbEntity
  8
AM_0
100
AcDbLine
 10
-0.0000000000000111
 20
0.0
 30
0.0
 11
-0.0000000000003273
 21
3.406217782650287
 31
0.0
  0
SPLINE
  5
434E
330
1F
100
AcDbEntity
  8
AM_0
100
AcDbSpline
210
0.0
220
0.0
230
1.0
 70
     8
 71
     3
 72
     8
 73
     4
 74
     0
 42
0.0000000001
 43
0.0000000001
 40
0.3982504941345976
 40
0.3982504941345976
 40
0.3982504941345976
 40
0.3982504941345976
 40
6.01848148651983
 40
6.01848148651983
 40
6.01848148651983
 40
6.01848148651983
 10
-3.201108762090879
 20
3.218515035761491
 30
0.0
 10
-1.96092331632213
 20
3.049862950869702
 30
0.0
 10
-1.207149107221547
 20
1.729073061133924
 30
0.0
 10
-0.4882124528941501
 20
0.3257652095244339
 30
0.0
  0
SPLINE
  5
434F
330
1F
100
AcDbEntity
  8
AM_0
100
AcDbSpline
210
0.0
220
0.0
230
1.0
 70
     8
 71
     3
 72
     8
 73
     4
 74
     0
 42
0.0000000001
 43
0.0000000001
 40
0.157854605497133
 40
0.157854605497133
 40
0.157854605497133
 40
0.157854605497133
 40
6.616360992657454
 40
6.616360992657454
 40
6.616360992657454
 40
6.616360992657454
 10
-3.906663407734921
 20
3.392393464210272
 30
0.0
 10
-2.433768572824565
 20
3.314264277289566
 30
0.0
 10
-1.649837683381847
 20
1.657132138644946
 30
0.0
 10
-0.8659067939394486
 20
0.0000000000003197
 30
0.0
  0
SPLINE
  5
4350
330
1F
100
AcDbEntity
  8
AM_0
100
AcDbSpline
210
0.0
220
0.0
230
1.0
 70
     8
 71
     3
 72
     8
 73
     4
 74
     2
 42
0.0000000001
 43
0.0000000001
 44
0.0000000001
 12
1.0
 22
-0.0000000000000002
 32
0.0
 40
0.0
 40
0.0
 40
0.0
 40
0.0
 40
4.708768416476226
 40
4.708768416476226
 40
4.708768416476226
 40
4.708768416476226
 10
-4.549999999999692
 20
3.500000000000476
 30
0.0
 10
-2.98041052784095
 20
3.500000000000475
 30
0.0
 10
-2.190205263920002
 20
1.750000000000475
 30
0.0
 10
-1.399999999999054
 20
0.0000000000004761
 30
0.0
 11
-4.549999999999692
 21
3.500000000000476
 31
0.0
 11
-1.399999999999054
 21
0.0000000000004761
 31
0.0
  0
SPLINE
  5
4351
330
1F
100
AcDbEntity
  8
AM_0
100
AcDbSpline
210
0.0
220
0.0
230
1.0
 70
     8
 71
     3
 72
     8
 73
     4
 74
     2
 42
0.0000000001
 43
0.0000000001
 44
0.0000000001
 12
1.0
 22
-0.0000000000000002
 32
0.0
 40
0.0
 40
0.0
 40
0.0
 40
0.0
 40
4.708768416475797
 40
4.708768416475797
 40
4.708768416475797
 40
4.708768416475797
 10
-8.550000000000963
 20
3.500000000000397
 30
0.0
 10
-6.980410527842364
 20
3.500000000000397
 30
0.0
 10
-6.190205263921664
 20
1.750000000000397
 30
0.0
 10
-5.400000000000965
 20
0.0000000000003979
 30
0.0
 11
-8.550000000000963
 21
3.500000000000397
 31
0.0
 11
-5.400000000000965
 21
0.0000000000003979
 31
0.0
  0
SPLINE
  5
4352
330
1F
100
AcDbEntity
  8
AM_0
100
AcDbSpline
210
0.0
220
0.0
230
1.0
 70
     8
 71
     3
 72
     8
 73
     4
 74
     0
 42
0.0000000001
 43
0.0000000001
 40
0.157854605497133
 40
0.157854605497133
 40
0.157854605497133
 40
0.157854605497133
 40
6.616360992657454
 40
6.616360992657454
 40
6.616360992657454
 40
6.616360992657454
 10
-7.906663407736512
 20
3.392393464210115
 30
0.0
 10
-6.433768572826157
 20
3.314264277289488
 30
0.0
 10
-5.649837683383759
 20
1.657132138644861
 30
0.0
 10
-4.86590679394104
 20
0.0000000000003197
 30
0.0
  0
SPLINE
  5
4353
330
1F
100
AcDbEntity
  8
AM_0
100
AcDbSpline
210
0.0
220
0.0
230
1.0
 70
     8
 71
     3
 72
     8
 73
     4
 74
     0
 42
0.0000000001
 43
0.0000000001
 40
0.3982504941345976
 40
0.3982504941345976
 40
0.3982504941345976
 40
0.3982504941345976
 40
6.452065446090842
 40
6.452065446090842
 40
6.452065446090842
 40
6.452065446090842
 10
-7.201108762092155
 20
3.218515035761335
 30
0.0
 10
-5.865246729915143
 20
3.036851948500462
 30
0.0
 10
-5.093741223718518
 20
1.518425974250433
 30
0.0
 10
-4.322235717521572
 20
0.0000000000004761
 30
0.0
  0
SPLINE
  5
4354
330
1F
100
AcDbEntity
  8
AM_0
100
AcDbSpline
210
0.0
220
0.0
230
1.0
 70
     8
 71
     3
 72
     8
 73
     4
 74
     0
 42
0.0000000001
 43
0.0000000001
 40
0.3982504941345976
 40
0.3982504941345976
 40
0.3982504941345976
 40
0.3982504941345976
 40
6.452065446090842
 40
6.452065446090842
 40
6.452065446090842
 40
6.452065446090842
 10
-11.20110876208896
 20
3.218515035761413
 30
0.0
 10
-9.865246729911957
 20
3.036851948500547
 30
0.0
 10
-9.093741223715332
 20
1.518425974250511
 30
0.0
 10
-8.322235717518067
 20
0.0000000000004761
 30
0.0
  0
SPLINE
  5
4355
330
1F
100
AcDbEntity
  8
AM_0
100
AcDbSpline
210
0.0
220
0.0
230
1.0
 70
     8
 71
     3
 72
     8
 73
     4
 74
     0
 42
0.0000000001
 43
0.0000000001
 40
0.157854605497133
 40
0.157854605497133
 40
0.157854605497133
 40
0.157854605497133
 40
6.616360992657454
 40
6.616360992657454
 40
6.616360992657454
 40
6.616360992657454
 10
-11.90666340773301
 20
3.392393464210194
 30
0.0
 10
-10.43376857282297
 20
3.314264277289488
 30
0.0
 10
-9.649837683380573
 20
1.657132138644946
 30
0.0
 10
-8.865906793937538
 20
0.0000000000003197
 30
0.0
  0
SPLINE
  5
4356
330
1F
100
AcDbEntity
  8
AM_0
100
AcDbSpline
210
0.0
220
0.0
230
1.0
 70
     8
 71
     3
 72
     8
 73
     4
 74
     2
 42
0.0000000001
 43
0.0000000001
 44
0.0000000001
 12
1.0
 22
-0.0000000000000002
 32
0.0
 40
0.0
 40
0.0
 40
0.0
 40
0.0
 40
4.708768416476011
 40
4.708768416476011
 40
4.708768416476011
 40
4.708768416476011
 10
-12.54999999999777
 20
3.500000000000397
 30
0.0
 10
-10.9804105278391
 20
3.500000000000397
 30
0.0
 10
-10.19020526391828
 20
1.750000000000397
 30
0.0
 10
-9.39999999999746
 20
0.0000000000003979
 30
0.0
 11
-12.54999999999777
 21
3.500000000000397
 31
0.0
 11
-9.39999999999746
 21
0.0000000000003979
 31
0.0
  0
SPLINE
  5
4357
330
1F
100
AcDbEntity
  8
AM_0
100
AcDbSpline
210
0.0
220
0.0
230
1.0
 70
     8
 71
     3
 72
     8
 73
     4
 74
     0
 42
0.0000000001
 43
0.0000000001
 40
0.3982504941345976
 40
0.3982504941345976
 40
0.3982504941345976
 40
0.3982504941345976
 40
6.452065446090842
 40
6.452065446090842
 40
6.452065446090842
 40
6.452065446090842
 10
-15.20110876208579
 20
3.218515035761491
 30
0.0
 10
-13.86524672990877
 20
3.036851948500547
 30
0.0
 10
-13.09374122371183
 20
1.518425974250511
 30
0.0
 10
-12.32223571751488
 20
0.0000000000004761
 30
0.0
  0
SPLINE
  5
4358
330
1F
100
AcDbEntity
  8
AM_0
100
AcDbSpline
210
0.0
220
0.0
230
1.0
 70
     8
 71
     3
 72
     8
 73
     4
 74
     0
 42
0.0000000001
 43
0.0000000001
 40
0.157854605497133
 40
0.157854605497133
 40
0.157854605497133
 40
0.157854605497133
 40
6.616360992657454
 40
6.616360992657454
 40
6.616360992657454
 40
6.616360992657454
 10
-15.90666340772983
 20
3.392393464210272
 30
0.0
 10
-14.43376857281978
 20
3.314264277289566
 30
0.0
 10
-13.64983768337707
 20
1.657132138644946
 30
0.0
 10
-12.86590679393436
 20
0.0000000000003197
 30
0.0
  0
SPLINE
  5
4359
330
1F
100
AcDbEntity
  8
AM_0
100
AcDbSpline
210
0.0
220
0.0
230
1.0
 70
     8
 71
     3
 72
     8
 73
     4
 74
     2
 42
0.0000000001
 43
0.0000000001
 44
0.0000000001
 12
1.0
 22
-0.0000000000000002
 32
0.0
 40
0.0
 40
0.0
 40
0.0
 40
0.0
 40
4.70876841647601
 40
4.70876841647601
 40
4.70876841647601
 40
4.70876841647601
 10
-16.54999999999459
 20
3.500000000000476
 30
0.0
 10
-14.98041052783592
 20
3.500000000000475
 30
0.0
 10
-14.1902052639151
 20
1.750000000000476
 30
0.0
 10
-13.39999999999428
 20
0.0000000000004761
 30
0.0
 11
-16.54999999999459
 21
3.500000000000476
 31
0.0
 11
-13.39999999999428
 21
0.0000000000004761
 31
0.0
  0
SPLINE
  5
435A
330
1F
100
AcDbEntity
  8
AM_0
100
AcDbSpline
210
0.0
220
0.0
230
1.0
 70
     8
 71
     3
 72
     8
 73
     4
 74
     0
 42
0.0000000001
 43
0.0000000001
 40
0.3982504941345976
 40
0.3982504941345976
 40
0.3982504941345976
 40
0.3982504941345976
 40
6.452065446090842
 40
6.452065446090842
 40
6.452065446090842
 40
6.452065446090842
 10
-19.37570610147083
 20
3.266043387509871
 30
0.0
 10
-18.06524672990558
 20
3.036851948500547
 30
0.0
 10
-17.29374122370832
 20
1.51842597425059
 30
0.0
 10
-16.5222357175117
 20
0.0000000000005613
 30
0.0
  0
SPLINE
  5
435B
330
1F
100
AcDbEntity
  8
AM_0
100
AcDbSpline
210
0.0
220
0.0
230
1.0
 70
     8
 71
     3
 72
     8
 73
     4
 74
     0
 42
0.0000000001
 43
0.0000000001
 40
0.157854605497133
 40
0.157854605497133
 40
0.157854605497133
 40
0.157854605497133
 40
6.616360992657454
 40
6.616360992657454
 40
6.616360992657454
 40
6.616360992657454
 10
-20.10666340772664
 20
3.500000000000002
 30
0.0
 10
-18.63376857281628
 20
3.314264277289566
 30
0.0
 10
-17.84983768337356
 20
1.657132138644946
 30
0.0
 10
-17.06590679393117
 20
0.0000000000003979
 30
0.0
  0
SPLINE
  5
435C
330
1F
100
AcDbEntity
  8
AM_0
100
AcDbSpline
210
0.0
220
0.0
230
1.0
 70
     8
 71
     3
 72
     8
 73
     4
 74
     0
 42
0.0000000001
 43
0.0000000001
 40
5.042249938661717
 40
5.042249938661717
 40
5.042249938661717
 40
5.042249938661717
 40
6.726812023537159
 40
6.726812023537159
 40
6.726812023537159
 40
6.726812023537159
 10
-18.20590161952809
 20
1.287247944182496
 30
0.0
 10
-17.99577434962691
 20
0.8764875956749307
 30
0.0
 10
-17.79788717480884
 20
0.4382437978376999
 30
0.0
 10
-17.59999999999077
 20
0.0000000000004761
 30
0.0
  0
SPLINE
  5
435E
330
1F
100
AcDbEntity
  8
AM_0
100
AcDbSpline
210
0.0
220
0.0
230
1.0
 70
     8
 71
     3
 72
     8
 73
     4
 74
     2
 42
0.0000000001
 43
0.0000000001
 44
0.0000000001
 12
0.2563440340107919
 22
-0.9665856072935671
 32
0.0
 13
-1.0
 23
0.0000000000000001
 33
0.0
 40
0.0
 40
0.0
 40
0.0
 40
0.0
 40
1.711282519918661
 40
1.711282519918661
 40
1.711282519918661
 40
1.711282519918661
 10
-0.3499999999958701
 20
3.5
 30
0.0
 10
-0.2037743118331691
 20
2.948632982077851
 30
0.0
 10
-0.4928289525344106
 20
1.9444444444444
 30
0.0
 10
-1.063256459173964
 20
1.9444444444444
 30
0.0
 11
-0.3499999999958701
 21
3.5
 31
0.0
 11
-1.063256459173964
 21
1.9444444444444
 31
0.0
  0
LINE
  5
435F
330
1F
100
AcDbEntity
  8
AM_0
100
AcDbLine
 10
-0.3499999999996928
 20
3.500000000001115
 30
0.0
 11
-0.0000000000003273
 21
3.406217782650287
 31
0.0
  0
SPLINE
  5
4360
330
1F
100
AcDbEntity
  8
AM_0
100
AcDbSpline
210
0.0
220
0.0
230
1.0
 70
     8
 71
     3
 72
     8
 73
     4
 74
     0
 42
0.0000000001
 43
0.0000000001
 40
0.0
 40
0.0
 40
0.0
 40
0.0
 40
2.948331486770748
 40
2.948331486770748
 40
2.948331486770748
 40
2.948331486770748
 10
-0.3499999999977814
 20
3.500000000000554
 30
0.0
 10
-1.037944013577508
 20
3.500000000000873
 30
0.0
 10
-1.576166020393892
 20
3.16381983485644
 30
0.0
 10
-2.030288503319397
 20
2.638805760513854
 30
0.0
  0
SPLINE
  5
4361
330
1F
100
AcDbEntity
  8
AM_0
100
AcDbSpline
210
0.0
220
0.0
230
1.0
 70
     8
 71
     3
 72
     8
 73
     4
 74
     0
 42
0.0000000001
 43
0.0000000001
 40
0.0
 40
0.0
 40
0.0
 40
0.0
 40
2.948331486770748
 40
2.948331486770748
 40
2.948331486770748
 40
2.948331486770748
 10
-12.54999999999269
 20
3.500000000000554
 30
0.0
 10
-13.23794401357273
 20
3.500000000000873
 30
0.0
 10
-13.77616602038911
 20
3.16381983485644
 30
0.0
 10
-14.14314103662917
 20
2.736071672998771
 30
0.0
  0
SPLINE
  5
4362
330
1F
100
AcDbEntity
  8
AM_0
100
AcDbSpline
210
0.0
220
0.0
230
1.0
 70
     8
 71
     3
 72
     8
 73
     4
 74
     0
 42
0.0000000001
 43
0.0000000001
 40
0.0
 40
0.0
 40
0.0
 40
0.0
 40
2.948331486770748
 40
2.948331486770748
 40
2.948331486770748
 40
2.948331486770748
 10
-8.549999999996188
 20
3.500000000000476
 30
0.0
 10
-9.237944013575916
 20
3.500000000000795
 30
0.0
 10
-9.776166020392302
 20
3.16381983485644
 30
0.0
 10
-10.14314103663239
 20
2.736071672998729
 30
0.0
  0
SPLINE
  5
4363
330
1F
100
AcDbEntity
  8
AM_0
100
AcDbSpline
210
0.0
220
0.0
230
1.0
 70
     8
 71
     3
 72
     8
 73
     4
 74
     0
 42
0.0000000001
 43
0.0000000001
 40
0.0
 40
0.0
 40
0.0
 40
0.0
 40
2.948331486770748
 40
2.948331486770748
 40
2.948331486770748
 40
2.948331486770748
 10
-4.549999999999692
 20
3.500000000000476
 30
0.0
 10
-5.237944013579416
 20
3.500000000000795
 30
0.0
 10
-5.776166020395486
 20
3.16381983485644
 30
0.0
 10
-6.143141036635591
 20
2.736071672998653
 30
0.0
  0
SPLINE
  5
4364
330
1F
100
AcDbEntity
  8
AM_0
100
AcDbSpline
210
0.0
220
0.0
230
1.0
 70
     8
 71
     3
 72
     8
 73
     4
 74
     0
 42
0.0000000001
 43
0.0000000001
 40
0.0
 40
0.0
 40
0.0
 40
0.0
 40
2.948331486770748
 40
2.948331486770748
 40
2.948331486770748
 40
2.948331486770748
 10
-16.5499999999895
 20
3.500000000000554
 30
0.0
 10
-17.23794401356922
 20
3.500000000000952
 30
0.0
 10
-17.77616602038561
 20
3.163819834856518
 30
0.0
 10
-18.23028850331111
 20
2.638805760513854
 30
0.0
  0
SPLINE
  5
4366
330
1F
100
AcDbEntity
  8
AM_0
100
AcDbSpline
210
0.0
220
0.0
230
1.0
 70
     8
 71
     3
 72
     8
 73
     4
 74
     2
 42
0.0000000001
 43
0.0000000001
 44
0.0000000001
 12
-1.0
 22
0.0000000000000001
 32
0.0
 40
0.0
 40
0.0
 40
0.0
 40
0.0
 40
4.708768416476011
 40
4.708768416476011
 40
4.708768416476011
 40
4.708768416476011
 10
-2.249999999997144
 20
-3.499999999999602
 30
0.0
 10
-3.819589472155814
 20
-3.499999999999602
 30
0.0
 10
-4.609794736076638
 20
-1.749999999999602
 30
0.0
 10
-5.399999999997462
 20
0.0000000000003979
 30
0.0
 11
-2.249999999997144
 21
-3.499999999999602
 31
0.0
 11
-5.399999999997462
 21
0.0000000000003979
 31
0.0
  0
SPLINE
  5
4367
330
1F
100
AcDbEntity
  8
AM_0
100
AcDbSpline
210
0.0
220
0.0
230
1.0
 70
     8
 71
     3
 72
     8
 73
     4
 74
     2
 42
0.0000000001
 43
0.0000000001
 44
0.0000000001
 12
-1.0
 22
0.0000000000000001
 32
0.0
 40
0.0
 40
0.0
 40
0.0
 40
0.0
 40
4.631452694860057
 40
4.631452694860057
 40
4.631452694860057
 40
4.631452694860057
 10
-1.715906793937538
 20
-3.395269365561922
 30
0.0
 10
-3.259724358890891
 20
-3.395269365561922
 30
0.0
 10
-4.062815576414214
 20
-1.697634682780723
 30
0.0
 10
-4.865906793937537
 20
0.0000000000004761
 30
0.0
 11
-1.715906793937538
 21
-3.395269365561922
 31
0.0
 11
-4.865906793937537
 21
0.0000000000004761
 31
0.0
  0
SPLINE
  5
4368
330
1F
100
AcDbEntity
  8
AM_0
100
AcDbSpline
210
0.0
220
0.0
230
1.0
 70
     8
 71
     3
 72
     8
 73
     4
 74
     2
 42
0.0000000001
 43
0.0000000001
 44
0.0000000001
 12
-1.0
 22
0.0000000000000001
 32
0.0
 40
0.0
 40
0.0
 40
0.0
 40
0.0
 40
4.516445812263351
 40
4.516445812263351
 40
4.516445812263351
 40
4.516445812263351
 10
-1.17223571751807
 20
-3.236631393147526
 30
0.0
 10
-2.677717654939188
 20
-3.236631393147526
 30
0.0
 10
-3.499976686228629
 20
-1.618315696573525
 30
0.0
 10
-4.322235717518069
 20
0.0000000000004761
 30
0.0
 11
-1.17223571751807
 21
-3.236631393147526
 31
0.0
 11
-4.322235717518069
 21
0.0000000000004761
 31
0.0
  0
LINE
  5
4369
330
1F
100
AcDbEntity
  8
AM_11
100
AcDbLine
 10
0.0000000000003086
 20
-3.5
 30
0.0
 11
0.0000000000003086
 21
-1.749999999998166
 31
0.0
  0
LINE
  5
436A
330
1F
100
AcDbEntity
  8
AM_0
100
AcDbLine
 10
-0.1400000000059305
 20
-2.430609213661867
 30
0.0
 11
-0.1399999999807844
 21
-1.749999999992994
 31
0.0
  0
LINE
  5
436B
330
1F
100
AcDbEntity
  8
AM_0
100
AcDbLine
 10
0.0000000000003086
 20
-1.749999999998166
 30
0.0
 11
-0.1399999999998838
 21
-2.430609213632578
 31
0.0
  0
LINE
  5
436C
330
1F
100
AcDbEntity
  8
AM_0
100
AcDbLine
 10
-0.4550000000000734
 20
-2.392653802193805
 30
0.0
 11
-0.3036695864086707
 21
-1.749999999986947
 31
0.0
  0
LINE
  5
436D
330
1F
100
AcDbEntity
  8
AM_0
100
AcDbLine
 10
-0.544046099102673
 20
-1.749999999978193
 30
0.0
 11
0.0000000000003086
 21
-1.749999999998166
 31
0.0
  0
LINE
  5
436E
330
1F
100
AcDbEntity
  8
AM_0
100
AcDbLine
 10
-0.0000000000000111
 20
-0.5445033394011603
 30
0.0
 11
-0.1400000000002
 21
0.0
 31
0.0
  0
LINE
  5
436F
330
1F
100
AcDbEntity
  8
AM_0
100
AcDbLine
 10
-0.1400000000002
 20
0.0
 30
0.0
 11
-0.4550000000000734
 21
1.180218236895143
 31
0.0
  0
LINE
  5
4370
330
1F
100
AcDbEntity
  8
AM_0
100
AcDbLine
 10
0.0000000000003086
 20
-1.749999999998166
 30
0.0
 11
-0.1399999999998838
 21
-1.054945519431569
 31
0.0
  0
LINE
  5
4371
330
1F
100
AcDbEntity
  8
AM_0
100
AcDbLine
 10
-0.1399999999998838
 20
-1.054945519431569
 30
0.0
 11
-0.1400000000002
 21
0.0
 31
0.0
  0
ARC
  5
4372
330
1F
100
AcDbEntity
  8
AM_0
100
AcDbCircle
 10
3.50445361013375
 20
0.5984429115190651
 30
0.0
 40
4.001966444139257
100
AcDbArc
 50
171.6411574078214
 51
204.4024896870891
  0
LINE
  5
4373
330
1F
100
AcDbEntity
  8
AM_0
100
AcDbLine
 10
0.0000000000003086
 20
-1.749999999998166
 30
0.0
 11
-0.0000000000000111
 21
-0.5445033394012384
 31
0.0
  0
LINE
  5
4374
330
1F
100
AcDbEntity
  8
AM_0
100
AcDbLine
 10
-0.0000000000000111
 20
0.0
 30
0.0
 11
-0.0714443764145121
 21
-0.266634042693525
 31
0.0
  0
LINE
  5
4375
330
1F
100
AcDbEntity
  8
AM_0
100
AcDbLine
 10
-0.4550000000000734
 20
1.180218236895143
 30
0.0
 11
-1.063256459173964
 21
1.9444444444444
 31
0.0
  0
SPLINE
  5
4376
330
1F
100
AcDbEntity
  8
AM_0
100
AcDbSpline
210
0.0
220
0.0
230
1.0
 70
     8
 71
     3
 72
     8
 73
     4
 74
     0
 42
0.0000000001
 43
0.0000000001
 40
4.32310436431184
 40
4.32310436431184
 40
4.32310436431184
 40
4.32310436431184
 40
6.616360992657454
 40
6.616360992657454
 40
6.616360992657454
 40
6.616360992657454
 10
0.0000000000003086
 20
-1.694532658471302
 30
0.0
 10
-0.309197672476476
 20
-1.176813657270656
 30
0.0
 10
-0.5875522332079624
 20
-0.5884068286351294
 30
0.0
 10
-0.8659067939394486
 20
0.0000000000003979
 30
0.0
  0
SPLINE
  5
4377
330
1F
100
AcDbEntity
  8
AM_0
100
AcDbSpline
210
0.0
220
0.0
230
1.0
 70
     8
 71
     3
 72
     8
 73
     4
 74
     0
 42
0.0000000001
 43
0.0000000001
 40
4.390614724758877
 40
4.390614724758877
 40
4.390614724758877
 40
4.390614724758877
 40
6.726812023537121
 40
6.726812023537121
 40
6.726812023537121
 40
6.726812023537121
 10
-0.5440460990886647
 20
-1.749999999991246
 30
0.0
 10
-0.8511291837514466
 20
-1.215537243661806
 30
0.0
 10
-1.12556459187541
 20
-0.6077686218306653
 30
0.0
 10
-1.399999999999054
 20
0.0000000000003979
 30
0.0
  0
SPLINE
  5
4378
330
1F
100
AcDbEntity
  8
AM_0
100
AcDbSpline
210
0.0
220
0.0
230
1.0
 70
     8
 71
     3
 72
     8
 73
     4
 74
     0
 42
0.0000000001
 43
0.0000000001
 40
0.0
 40
0.0
 40
0.0
 40
0.0
 40
0.4556590281797062
 40
0.4556590281797062
 40
0.4556590281797062
 40
0.4556590281797062
 10
-1.372235717520617
 20
-3.236631393147604
 30
0.0
 10
-1.265915277611846
 20
-3.236631393147604
 30
0.0
 10
-1.163002408200882
 20
-3.22856005248542
 30
0.0
 10
-1.063256459177463
 20
-3.212987386960342
 30
0.0
  0
SPLINE
  5
4379
330
1F
100
AcDbEntity
  8
AM_0
100
AcDbSpline
210
0.0
220
0.0
230
1.0
 70
     8
 71
     3
 72
     8
 73
     4
 74
     0
 42
0.0000000001
 43
0.0000000001
 40
0.0
 40
0.0
 40
0.0
 40
0.0
 40
3.138307834541913
 40
3.138307834541913
 40
3.138307834541913
 40
3.138307834541913
 10
-1.915906793940085
 20
-3.395269365561681
 30
0.0
 10
-1.183634965880273
 20
-3.395269365561681
 30
0.0
 10
-0.6180151222860891
 20
-3.01332778920964
 30
0.0
 10
-0.1400000000059305
 20
-2.430609213639897
 30
0.0
  0
SPLINE
  5
437A
330
1F
100
AcDbEntity
  8
AM_0
100
AcDbSpline
210
0.0
220
0.0
230
1.0
 70
     8
 71
     3
 72
     8
 73
     4
 74
     0
 42
0.0000000001
 43
0.0000000001
 40
0.0
 40
0.0
 40
0.0
 40
0.0
 40
0.9875149968653097
 40
0.9875149968653097
 40
0.9875149968653097
 40
0.9875149968653097
 10
-2.44999999999969
 20
-3.499999999999438
 30
0.0
 10
-2.219579834064469
 20
-3.499999999999438
 30
0.0
 10
-2.005956230923275
 20
-3.46228562937383
 30
0.0
 10
-1.806663407735559
 20
-3.392393464209398
 30
0.0
  0
SPLINE
  5
437B
330
1F
100
AcDbEntity
  8
AM_0
100
AcDbSpline
210
0.0
220
0.0
230
1.0
 70
     8
 71
     3
 72
     9
 73
     5
 74
     3
 42
0.0000000001
 43
0.0000000001
 44
0.0000000001
 12
-0.7037104554506215
 22
-0.7104868717221163
 32
0.0
 13
-0.5728114391284047
 23
0.819687169110049
 33
0.0
 40
0.0
 40
0.0
 40
0.0
 40
0.0
 40
0.2426494842446053
 40
0.4543240148463266
 40
0.4543240148463266
 40
0.4543240148463266
 40
0.4543240148463266
 10
-0.1400000000046586
 20
-2.392653802193805
 30
0.0
 10
-0.1969183263622019
 20
-2.45012022652245
 30
0.0
 10
-0.3191464978178539
 20
-2.661765514655348
 30
0.0
 10
-0.4145834691664728
 20
-2.45048943444768
 30
0.0
 10
-0.4550000000000734
 20
-2.392653802193805
 30
0.0
 11
-0.1400000000046586
 21
-2.392653802193805
 31
0.0
 11
-0.3198375639689037
 21
-2.55555629693093
 31
0.0
 11
-0.4550000000000734
 21
-2.392653802193805
 31
0.0
  0
SPLINE
  5
437C
330
1F
100
AcDbEntity
  8
AM_0
100
AcDbSpline
210
0.0
220
0.0
230
1.0
 70
     8
 71
     3
 72
     9
 73
     5
 74
     3
 42
0.0000000001
 43
0.0000000001
 44
0.0000000001
 12
-0.3385048798911531
 22
0.9409646360463691
 32
0.0
 13
0.9630016908632651
 23
-0.2694953494858349
 33
0.0
 40
0.0
 40
0.0
 40
0.0
 40
0.0
 40
1.163017592712536
 40
1.455068619396588
 40
1.455068619396588
 40
1.455068619396588
 40
1.455068619396588
 10
-0.4550000000000734
 20
-2.392653802193805
 30
0.0
 10
-0.5862290435108917
 20
-2.02786766024638
 30
0.0
 10
-1.468079038138838
 20
-1.61066679523518
 30
0.0
 10
-0.8900232313720294
 20
-1.256756361502432
 30
0.0
 10
-0.7962746872003313
 20
-1.282991826003737
 30
0.0
 11
-0.4550000000000734
 21
-2.392653802193805
 31
0.0
 11
-1.063256459173964
 21
-1.40137482994023
 31
0.0
 11
-0.7962746872003313
 21
-1.282991826003737
 31
0.0
  0
SPLINE
  5
437D
330
1F
100
AcDbEntity
  8
AM_0
100
AcDbSpline
210
0.0
220
0.0
230
1.0
 70
     8
 71
     3
 72
     8
 73
     4
 74
     2
 42
0.0000000001
 43
0.0000000001
 44
0.0000000001
 12
-1.0
 22
0.0000000000000001
 32
0.0
 40
0.0
 40
0.0
 40
0.0
 40
0.0
 40
4.708768416476011
 40
4.708768416476011
 40
4.708768416476011
 40
4.708768416476011
 10
-10.24999999999396
 20
-3.499999999999523
 30
0.0
 10
-11.81958947215263
 20
-3.499999999999523
 30
0.0
 10
-12.60979473607345
 20
-1.749999999999523
 30
0.0
 10
-13.39999999999428
 20
0.0000000000004761
 30
0.0
 11
-10.24999999999396
 21
-3.499999999999523
 31
0.0
 11
-13.39999999999428
 21
0.0000000000004761
 31
0.0
  0
SPLINE
  5
437E
330
1F
100
AcDbEntity
  8
AM_0
100
AcDbSpline
210
0.0
220
0.0
230
1.0
 70
     8
 71
     3
 72
     8
 73
     4
 74
     0
 42
0.0000000001
 43
0.0000000001
 40
0.0
 40
0.0
 40
0.0
 40
0.0
 40
1.274172826456642
 40
1.274172826456642
 40
1.274172826456642
 40
1.274172826456642
 10
-13.91590679393181
 20
-3.395269365561603
 30
0.0
 10
-13.61859980109199
 20
-3.395269365561603
 30
0.0
 10
-13.34876391049843
 20
-3.332309682664593
 30
0.0
 10
-13.1011087620826
 20
-3.218515035760376
 30
0.0
  0
SPLINE
  5
437F
330
1F
100
AcDbEntity
  8
AM_0
100
AcDbSpline
210
0.0
220
0.0
230
1.0
 70
     8
 71
     3
 72
     8
 73
     4
 74
     2
 42
0.0000000001
 43
0.0000000001
 44
0.0000000001
 12
-1.0
 22
0.0000000000000001
 32
0.0
 40
0.0
 40
0.0
 40
0.0
 40
0.0
 40
4.516445812263626
 40
4.516445812263626
 40
4.516445812263626
 40
4.516445812263626
 10
-13.37223571751138
 20
-3.23663139314744
 30
0.0
 10
-14.87771765493259
 20
-3.23663139314744
 30
0.0
 10
-15.69997668622214
 20
-1.6183156965734
 30
0.0
 10
-16.5222357175117
 20
0.0000000000006395
 30
0.0
 11
-13.37223571751138
 21
-3.23663139314744
 31
0.0
 11
-16.5222357175117
 21
0.0000000000006395
 31
0.0
  0
SPLINE
  5
4380
330
1F
100
AcDbEntity
  8
AM_0
100
AcDbSpline
210
0.0
220
0.0
230
1.0
 70
     8
 71
     3
 72
     8
 73
     4
 74
     2
 42
0.0000000001
 43
0.0000000001
 44
0.0000000001
 12
-1.0
 22
0.0000000000000001
 32
0.0
 40
0.0
 40
0.0
 40
0.0
 40
0.0
 40
4.51644581226335
 40
4.51644581226335
 40
4.51644581226335
 40
4.51644581226335
 10
-5.172235717518069
 20
-3.236631393147526
 30
0.0
 10
-6.677717654939186
 20
-3.236631393147526
 30
0.0
 10
-7.499976686228627
 20
-1.618315696573525
 30
0.0
 10
-8.322235717518067
 20
0.0000000000004761
 30
0.0
 11
-5.172235717518069
 21
-3.236631393147526
 31
0.0
 11
-8.322235717518067
 21
0.0000000000004761
 31
0.0
  0
SPLINE
  5
4381
330
1F
100
AcDbEntity
  8
AM_0
100
AcDbSpline
210
0.0
220
0.0
230
1.0
 70
     8
 71
     3
 72
     8
 73
     4
 74
     2
 42
0.0000000001
 43
0.0000000001
 44
0.0000000001
 12
-1.0
 22
0.0000000000000001
 32
0.0
 40
0.0
 40
0.0
 40
0.0
 40
0.0
 40
4.631452694860058
 40
4.631452694860058
 40
4.631452694860058
 40
4.631452694860058
 10
-5.715906793937537
 20
-3.395269365561922
 30
0.0
 10
-7.25972435889089
 20
-3.395269365561922
 30
0.0
 10
-8.062815576414214
 20
-1.697634682780723
 30
0.0
 10
-8.865906793937538
 20
0.0000000000004761
 30
0.0
 11
-5.715906793937537
 21
-3.395269365561922
 31
0.0
 11
-8.865906793937538
 21
0.0000000000004761
 31
0.0
  0
SPLINE
  5
4382
330
1F
100
AcDbEntity
  8
AM_0
100
AcDbSpline
210
0.0
220
0.0
230
1.0
 70
     8
 71
     3
 72
     8
 73
     4
 74
     2
 42
0.0000000001
 43
0.0000000001
 44
0.0000000001
 12
-1.0
 22
0.0000000000000001
 32
0.0
 40
0.0
 40
0.0
 40
0.0
 40
0.0
 40
4.708768416476011
 40
4.708768416476011
 40
4.708768416476011
 40
4.708768416476011
 10
-6.249999999997142
 20
-3.499999999999602
 30
0.0
 10
-7.819589472155812
 20
-3.499999999999602
 30
0.0
 10
-8.609794736076636
 20
-1.749999999999602
 30
0.0
 10
-9.39999999999746
 20
0.0000000000003979
 30
0.0
 11
-6.249999999997142
 21
-3.499999999999602
 31
0.0
 11
-9.39999999999746
 21
0.0000000000003979
 31
0.0
  0
SPLINE
  5
4383
330
1F
100
AcDbEntity
  8
AM_0
100
AcDbSpline
210
0.0
220
0.0
230
1.0
 70
     8
 71
     3
 72
     8
 73
     4
 74
     0
 42
0.0000000001
 43
0.0000000001
 40
0.0
 40
0.0
 40
0.0
 40
0.0
 40
2.420483029949796
 40
2.420483029949796
 40
2.420483029949796
 40
2.420483029949796
 10
-9.172235717515521
 20
-3.236631393147526
 30
0.0
 10
-8.607456343860631
 20
-3.236631393147526
 30
0.0
 10
-8.13883132867828
 20
-3.008875405732688
 30
0.0
 10
-7.843141036631103
 20
-2.736071672999112
 30
0.0
  0
SPLINE
  5
4384
330
1F
100
AcDbEntity
  8
AM_0
100
AcDbSpline
210
0.0
220
0.0
230
1.0
 70
     8
 71
     3
 72
     8
 73
     4
 74
     0
 42
0.0000000001
 43
0.0000000001
 40
0.0
 40
0.0
 40
0.0
 40
0.0
 40
0.9875149967633806
 40
0.9875149967633806
 40
0.9875149967633806
 40
0.9875149967633806
 10
-6.249999999998098
 20
-3.499999999999438
 30
0.0
 10
-6.019579834086434
 20
-3.499999999999438
 30
0.0
 10
-5.805956230965612
 20
-3.462285629381632
 30
0.0
 10
-5.60666340779572
 20
-3.392393464231041
 30
0.0
  0
SPLINE
  5
4385
330
1F
100
AcDbEntity
  8
AM_0
100
AcDbSpline
210
0.0
220
0.0
230
1.0
 70
     8
 71
     3
 72
     8
 73
     4
 74
     0
 42
0.0000000001
 43
0.0000000001
 40
0.0
 40
0.0
 40
0.0
 40
0.0
 40
1.274172826456642
 40
1.274172826456642
 40
1.274172826456642
 40
1.274172826456642
 10
-5.715906793938173
 20
-3.395269365561681
 30
0.0
 10
-5.418599801098351
 20
-3.395269365561681
 30
0.0
 10
-5.148763910504803
 20
-3.332309682664593
 30
0.0
 10
-4.901108762088969
 20
-3.218515035760376
 30
0.0
  0
SPLINE
  5
4386
330
1F
100
AcDbEntity
  8
AM_0
100
AcDbSpline
210
0.0
220
0.0
230
1.0
 70
     8
 71
     3
 72
     8
 73
     4
 74
     0
 42
0.0000000001
 43
0.0000000001
 40
0.0
 40
0.0
 40
0.0
 40
0.0
 40
2.420483029949796
 40
2.420483029949796
 40
2.420483029949796
 40
2.420483029949796
 10
-5.172235717518705
 20
-3.236631393147526
 30
0.0
 10
-4.607456343863815
 20
-3.236631393147526
 30
0.0
 10
-4.138831328681461
 20
-3.008875405732773
 30
0.0
 10
-3.843141036632436
 20
-2.736071672997676
 30
0.0
  0
SPLINE
  5
4387
330
1F
100
AcDbEntity
  8
AM_0
100
AcDbSpline
210
0.0
220
0.0
230
1.0
 70
     8
 71
     3
 72
     8
 73
     4
 74
     0
 42
0.0000000001
 43
0.0000000001
 40
0.0
 40
0.0
 40
0.0
 40
0.0
 40
1.274172826456642
 40
1.274172826456642
 40
1.274172826456642
 40
1.274172826456642
 10
-9.715906793934992
 20
-3.395269365561603
 30
0.0
 10
-9.418599801095171
 20
-3.395269365561603
 30
0.0
 10
-9.148763910501619
 20
-3.332309682664593
 30
0.0
 10
-8.901108762085785
 20
-3.218515035760376
 30
0.0
  0
SPLINE
  5
4388
330
1F
100
AcDbEntity
  8
AM_0
100
AcDbSpline
210
0.0
220
0.0
230
1.0
 70
     8
 71
     3
 72
     8
 73
     4
 74
     0
 42
0.0000000001
 43
0.0000000001
 40
0.0
 40
0.0
 40
0.0
 40
0.0
 40
0.9875149967633806
 40
0.9875149967633806
 40
0.9875149967633806
 40
0.9875149967633806
 10
-10.2499999999946
 20
-3.49999999999936
 30
0.0
 10
-10.01957983408325
 20
-3.49999999999936
 30
0.0
 10
-9.805956230962111
 20
-3.462285629381547
 30
0.0
 10
-9.60666340779254
 20
-3.392393464230963
 30
0.0
  0
SPLINE
  5
4389
330
1F
100
AcDbEntity
  8
AM_0
100
AcDbSpline
210
0.0
220
0.0
230
1.0
 70
     8
 71
     3
 72
     8
 73
     4
 74
     2
 42
0.0000000001
 43
0.0000000001
 44
0.0000000001
 12
-1.0
 22
0.0000000000000001
 32
0.0
 40
0.0
 40
0.0
 40
0.0
 40
0.0
 40
4.516445812263415
 40
4.516445812263415
 40
4.516445812263415
 40
4.516445812263415
 10
-9.172235717514885
 20
-3.236631393147526
 30
0.0
 10
-10.67771765493602
 20
-3.236631393147526
 30
0.0
 10
-11.49997668622545
 20
-1.618315696573482
 30
0.0
 10
-12.32223571751488
 20
0.0000000000005613
 30
0.0
 11
-9.172235717514885
 21
-3.236631393147526
 31
0.0
 11
-12.32223571751488
 21
0.0000000000005613
 31
0.0
  0
SPLINE
  5
438A
330
1F
100
AcDbEntity
  8
AM_0
100
AcDbSpline
210
0.0
220
0.0
230
1.0
 70
     8
 71
     3
 72
     8
 73
     4
 74
     2
 42
0.0000000001
 43
0.0000000001
 44
0.0000000001
 12
-1.0
 22
0.0000000000000001
 32
0.0
 40
0.0
 40
0.0
 40
0.0
 40
0.0
 40
4.631452694860061
 40
4.631452694860061
 40
4.631452694860061
 40
4.631452694860061
 10
-9.715906793934353
 20
-3.395269365561922
 30
0.0
 10
-11.2597243588877
 20
-3.395269365561922
 30
0.0
 10
-12.06281557641103
 20
-1.697634682780723
 30
0.0
 10
-12.86590679393436
 20
0.0000000000004761
 30
0.0
 11
-9.715906793934353
 21
-3.395269365561922
 31
0.0
 11
-12.86590679393436
 21
0.0000000000004761
 31
0.0
  0
SPLINE
  5
438B
330
1F
100
AcDbEntity
  8
AM_0
100
AcDbSpline
210
0.0
220
0.0
230
1.0
 70
     8
 71
     3
 72
     8
 73
     4
 74
     0
 42
0.0000000001
 43
0.0000000001
 40
0.0
 40
0.0
 40
0.0
 40
0.0
 40
2.420483029949796
 40
2.420483029949796
 40
2.420483029949796
 40
2.420483029949796
 10
-13.37223571751233
 20
-3.23663139314744
 30
0.0
 10
-12.80745634385712
 20
-3.23663139314744
 30
0.0
 10
-12.33883132867509
 20
-3.008875405732688
 30
0.0
 10
-11.93028850331143
 20
-2.63880576051266
 30
0.0
  0
SPLINE
  5
438F
330
1F
100
AcDbEntity
  8
AM_0
100
AcDbSpline
210
0.0
220
0.0
230
1.0
 70
     8
 71
     3
 72
     8
 73
     4
 74
     0
 42
0.0000000001
 43
0.0000000001
 40
0.0
 40
0.0
 40
0.0
 40
0.0
 40
0.9875149967633806
 40
0.9875149967633806
 40
0.9875149967633806
 40
0.9875149967633806
 10
-14.47492465402426
 20
-3.49999999999936
 30
0.0
 10
-14.24450448811291
 20
-3.49999999999936
 30
0.0
 10
-14.03088088499178
 20
-3.462285629381469
 30
0.0
 10
-13.83158806182189
 20
-3.392393464230963
 30
0.0
  0
SPLINE
  5
4390
330
1F
100
AcDbEntity
  8
AM_0
100
AcDbSpline
210
0.0
220
0.0
230
1.0
 70
     8
 71
     3
 72
     8
 73
     4
 74
     2
 42
0.0000000001
 43
0.0000000001
 44
0.0000000001
 12
-1.0
 22
0.0000000000000001
 32
0.0
 40
0.0
 40
0.0
 40
0.0
 40
0.0
 40
4.631452694860211
 40
4.631452694860211
 40
4.631452694860211
 40
4.631452694860211
 10
-13.91590679393085
 20
-3.395269365561837
 30
0.0
 10
-15.45972435888425
 20
-3.395269365561837
 30
0.0
 10
-16.26281557640771
 20
-1.69763468278068
 30
0.0
 10
-17.06590679393117
 20
0.0000000000004761
 30
0.0
 11
-13.91590679393085
 21
-3.395269365561837
 31
0.0
 11
-17.06590679393117
 21
0.0000000000004761
 31
0.0
  0
SPLINE
  5
4391
330
1F
100
AcDbEntity
  8
AM_0
100
AcDbSpline
210
0.0
220
0.0
230
1.0
 70
     8
 71
     3
 72
     8
 73
     4
 74
     2
 42
0.0000000001
 43
0.0000000001
 44
0.0000000001
 12
-1.0
 22
0.0000000000000001
 32
0.0
 40
0.0
 40
0.0
 40
0.0
 40
0.0
 40
4.708768416475792
 40
4.708768416475792
 40
4.708768416475792
 40
4.708768416475792
 10
-14.44999999999078
 20
-3.499999999999523
 30
0.0
 10
-16.01958947214937
 20
-3.499999999999523
 30
0.0
 10
-16.80979473607007
 20
-1.749999999999523
 30
0.0
 10
-17.59999999999077
 20
0.0000000000004761
 30
0.0
 11
-14.44999999999078
 21
-3.499999999999523
 31
0.0
 11
-17.59999999999077
 21
0.0000000000004761
 31
0.0
  0
SPLINE
  5
4394
330
1F
100
AcDbEntity
  8
AM_0
100
AcDbSpline
210
0.0
220
0.0
230
1.0
 70
     8
 71
     3
 72
     8
 73
     4
 74
     0
 42
0.0000000001
 43
0.0000000001
 40
0.0
 40
0.0
 40
0.0
 40
0.0
 40
2.420483029949796
 40
2.420483029949796
 40
2.420483029949796
 40
2.420483029949796
 10
-17.57223571750883
 20
-3.23663139314744
 30
0.0
 10
-17.00745634385394
 20
-3.23663139314744
 30
0.0
 10
-16.53883132867159
 20
-3.008875405732688
 30
0.0
 10
-16.13028850330793
 20
-2.638805760512582
 30
0.0
  0
LINE
  5
4395
330
1F
100
AcDbEntity
  8
AM_0
100
AcDbLine
 10
-19.4524665374859
 20
0.6495591216934358
 30
0.0
 11
-18.20590161952827
 21
1.287247944182396
 31
0.0
  0
SPLINE
  5
4397
330
1F
100
AcDbEntity
  8
AM_0
100
AcDbSpline
210
0.0
220
0.0
230
1.0
 70
     8
 71
     3
 72
     8
 73
     4
 74
     0
 42
0.0000000001
 43
0.0000000001
 40
0.0
 40
0.0
 40
0.0
 40
0.0
 40
1.274172826456642
 40
1.274172826456642
 40
1.274172826456642
 40
1.274172826456642
 10
-18.11590679392802
 20
-3.5
 30
0.0
 10
-17.8185998010882
 20
-3.395269365561524
 30
0.0
 10
-17.54876391049465
 20
-3.332309682664437
 30
0.0
 10
-17.30110876207914
 20
-3.218515035760219
 30
0.0
  0
SPLINE
  5
4398
330
1F
100
AcDbEntity
  8
AM_0
100
AcDbSpline
210
0.0
220
0.0
230
1.0
 70
     8
 71
     3
 72
     8
 73
     4
 74
     0
 42
0.0000000001
 43
0.0000000001
 40
0.0
 40
0.0
 40
0.0
 40
0.0
 40
2.420483029949796
 40
2.420483029949796
 40
2.420483029949796
 40
2.420483029949796
 10
-17.57223571750855
 20
-3.236631393147362
 30
0.0
 10
-17.00745634385366
 20
-3.236631393147362
 30
0.0
 10
-16.53883132867163
 20
-3.008875405732609
 30
0.0
 10
-16.13028850330797
 20
-2.638805760512582
 30
0.0
  0
LINE
  5
439B
330
1F
100
AcDbEntity
  8
AM_0
100
AcDbLine
 10
-18.0
 20
2.424515065131707
 30
0.0
 11
-18.0
 21
0.8695992328442624
 31
0.0
  0
VIEWPORT
  5
110
330
101
100
AcDbEntity
 67
     1
  8
0
100
AcDbViewport
 10
420.5
 20
297.0
 30
0.0
 40
948.9782706766916
 41
628.452
 68
     1
 69
     1
1001
ACAD
1000
MVIEW
1002
{
1070
    16
1010
0.0
1020
0.0
1030
0.0
1010
0.0
1020
0.0
1030
1.0
1040
0.0
1040
628.452
1040
420.5
1040
297.0
1040
50.0
1040
0.0
1040
0.0
1070
     0
1070
   100
1070
     1
1070
     1
1070
     0
1070
     0
1070
     0
1070
     0
1040
0.0
1040
0.0
1040
0.0
1040
10.0
1040
10.0
1040
10.0
1040
10.0
1070
     0
1002
{
1002
}
1002
}
  0
ENDSEC
  0
SECTION
  2
OBJECTS
  0
DICTIONARY
  5
C
330
0
100
AcDbDictionary
  3
ACAD_GROUP
350
D
  3
ACAD_LAYOUT
350
1A
  3
ACAD_MLINESTYLE
350
17
  3
ACAD_PLOTSETTINGS
350
19
  3
ACAD_PLOTSTYLENAME
350
E
  3
ACDBVARIABLEDICTIONARY
350
34
  3
ACMDICTIONARY
350
43
  3
AMG
350
2B
  3
AMGSNAPSETTINGS
350
6E
  3
ASE_INDEX_DICTIONARY
350
151A
  3
DWGPROPS
350
43B3
  3
ACDBHEADERROUNDTRIPXREC
350
43BF
  0
DICTIONARY
  5
74
330
1F
100
AcDbDictionary
280
     1
  3
ACAD_INDEX
360
43B5
  3
ACAD_LAYOUTSELFREF
360
43E2
  0
DICTIONARY
  5
43E7
330
101
100
AcDbDictionary
280
     1
  3
ACAD_LAYOUTSELFREF
360
43E8
  0
DICTIONARY
  5
D
102
{ACAD_REACTORS
330
C
102
}
330
C
100
AcDbDictionary
  0
DICTIONARY
  5
1A
102
{ACAD_REACTORS
330
C
102
}
330
C
100
AcDbDictionary
  0
DICTIONARY
  5
17
102
{ACAD_REACTORS
330
C
102
}
330
C
100
AcDbDictionary
  3
STANDARD
350
18
  0
DICTIONARY
  5
19
102
{ACAD_REACTORS
330
C
102
}
330
C
100
AcDbDictionary
  0
ACDBDICTIONARYWDFLT
  5
E
102
{ACAD_REACTORS
330
C
102
}
330
C
100
AcDbDictionary
281
     1
  3
Normal
350
F
100
AcDbDictionaryWithDefault
340
F
  0
DICTIONARY
  5
34
102
{ACAD_REACTORS
330
C
102
}
330
C
100
AcDbDictionary
  3
INDEXCTL
350
35
  3
SORTENTS
350
B5E
  0
DICTIONARY
  5
43
102
{ACAD_REACTORS
330
C
102
}
330
C
100
AcDbDictionary
  3
ACMSTDDICTIONARY
350
260
  0
DICTIONARY
  5
2B
102
{ACAD_REACTORS
330
C
102
}
330
C
100
AcDbDictionary
  3
ACMGSETTINGS
350
2C
  0
DICTIONARY
  5
6E
102
{ACAD_REACTORS
330
C
102
}
330
C
100
AcDbDictionary
  0
DICTIONARY
  5
151A
102
{ACAD_REACTORS
330
C
102
}
330
C
100
AcDbDictionary
  3
ASEBLOCKHIERARCHYINDEXRECORD
350
151C
1001
DCO15
1040
1471862535.906
  0
XRECORD
  5
43B3
102
{ACAD_REACTORS
330
C
102
}
330
C
100
AcDbXrecord
  1
DWGPROPS COOKIE
  2

  3

  4

  6

  7

  8

  9

300
AmdtFileType=82
301
=
302
=
303
=
304
=
305
=
306
=
307
=
308
=
309
=
 40
0.1477565972222222
 41
2452838.430434386
 42
2453045.475259236
  1

 90
        1
  0
DICTIONARY
  5
43BF
102
{ACAD_REACTORS
330
C
102
}
330
C
100
AcDbDictionary
  3
TSTACKALIGN
350
43C0
  3
TSTACKSIZE
350
43C1
  3
HYPERLINKBASE
350
43C2
  3
STYLESHEET
350
43C3
  3
LAYOUTDICT
350
43C4
  3
PLOTSETDICT
350
43C5
  3
PLOTSTYLNAMDICT
350
43C6
  3
LWETCUNION
350
43C7
  3
INSUNITS
350
43C8
  3
CEPSNTYPE
350
43C9
  3
FINGERPRINTGUID
350
43CA
  3
VERSIONGUID
350
43CB
  3
PSVPSCALE
350
43CC
  3
DIMSTYLEDATA
350
43CD
  3
PUCSORTHOREF
350
43CE
  3
PUCSORTHOVIEW
350
43CF
  3
PUCSBASE
350
43D0
  3
PUCSORGTOP
350
43D1
  3
PUCSORGBOTTOM
350
43D2
  3
PUCSORGLEFT
350
43D3
  3
PUCSORGRIGHT
350
43D4
  3
PUCSORGFRONT
350
43D5
  3
PUCSORGBACK
350
43D6
  3
UCSORTHOREF
350
43D7
  3
UCSORTHOVIEW
350
43D8
  3
UCSBASE
350
43D9
  3
UCSORGTOP
350
43DA
  3
UCSORGBOTTOM
350
43DB
  3
UCSORGLEFT
350
43DC
  3
UCSORGRIGHT
350
43DD
  3
UCSORGFRONT
350
43DE
  3
UCSORGBACK
350
43DF
  0
DICTIONARY
  5
43B5
102
{ACAD_REACTORS
330
74
102
}
330
74
100
AcDbDictionary
  3
*A1
350
43B6
  0
XRECORD
  5
43E2
102
{ACAD_REACTORS
330
74
102
}
330
74
100
AcDbXrecord
340
1F
  0
XRECORD
  5
43E8
102
{ACAD_REACTORS
330
43E7
102
}
330
43E7
100
AcDbXrecord
340
101
  0
MLINESTYLE
  5
18
102
{ACAD_REACTORS
330
17
102
}
330
17
100
AcDbMlineStyle
  2
STANDARD
 70
     0
  3

 62
   256
 51
90.0
 52
90.0
 71
     2
 49
0.5
 62
   256
  6
BYLAYER
 49
-0.5
 62
   256
  6
BYLAYER
  0
ACDBPLACEHOLDER
  5
F
102
{ACAD_REACTORS
330
E
102
}
330
E
100
AcDbPlaceHolder
280
     0
  0
DICTIONARYVAR
  5
35
102
{ACAD_REACTORS
330
34
102
}
330
34
100
DictionaryVariables
280
     0
  1
1
  0
DICTIONARYVAR
  5
B5E
102
{ACAD_REACTORS
330
34
102
}
330
34
100
DictionaryVariables
280
     0
  1
96
  0
DICTIONARY
  5
260
102
{ACAD_REACTORS
330
43
102
}
330
43
100
AcDbDictionary
  0
DICTIONARY
  5
2C
102
{ACAD_REACTORS
330
2B
102
}
330
2B
100
AcDbDictionary
  3
DWGSETTINGS
350
2D
  0
XRECORD
  5
151C
102
{ACAD_REACTORS
330
151A
102
}
330
151A
100
AcDbXrecord
330
0
330
0
330
0
330
0
330
0
330
0
330
0
330
0
  0
XRECORD
  5
43C0
102
{ACAD_REACTORS
330
43BF
102
}
330
43BF
100
AcDbXrecord
 90
        1
  0
XRECORD
  5
43C1
102
{ACAD_REACTORS
330
43BF
102
}
330
43BF
100
AcDbXrecord
 90
       70
  0
XRECORD
  5
43C2
102
{ACAD_REACTORS
330
43BF
102
}
330
43BF
100
AcDbXrecord
  1

  0
XRECORD
  5
43C3
102
{ACAD_REACTORS
330
43BF
102
}
330
43BF
100
AcDbXrecord
  1
ASAMI.ctb
  0
XRECORD
  5
43C4
102
{ACAD_REACTORS
330
43BF
102
}
330
43BF
100
AcDbXrecord
340
1A
  0
XRECORD
  5
43C5
102
{ACAD_REACTORS
330
43BF
102
}
330
43BF
100
AcDbXrecord
340
19
  0
XRECORD
  5
43C6
102
{ACAD_REACTORS
330
43BF
102
}
330
43BF
100
AcDbXrecord
340
E
  0
XRECORD
  5
43C7
102
{ACAD_REACTORS
330
43BF
102
}
330
43BF
100
AcDbXrecord
 90
    10781
  0
XRECORD
  5
43C8
102
{ACAD_REACTORS
330
43BF
102
}
330
43BF
100
AcDbXrecord
 90
        4
  0
XRECORD
  5
43C9
102
{ACAD_REACTORS
330
43BF
102
}
330
43BF
100
AcDbXrecord
 90
        0
  0
XRECORD
  5
43CA
102
{ACAD_REACTORS
330
43BF
102
}
330
43BF
100
AcDbXrecord
  1
{AFB28963-8C59-40AE-9337-C84526B81ACE}
  0
XRECORD
  5
43CB
102
{ACAD_REACTORS
330
43BF
102
}
330
43BF
100
AcDbXrecord
  1
{53557033-2D6F-40E6-B6B2-C91478660ECB}
  0
XRECORD
  5
43CC
102
{ACAD_REACTORS
330
43BF
102
}
330
43BF
100
AcDbXrecord
 40
0.0
  0
XRECORD
  5
43CD
102
{ACAD_REACTORS
330
43BF
102
}
330
43BF
100
AcDbXrecord
1000
DSTYLE
1002
{
1070
    79
 70
     2
1070
   341
340
59
1070
   342
340
59
1070
   371
 70
    -1
1070
   372
 70
    -1
1002
}
  0
XRECORD
  5
43CE
102
{ACAD_REACTORS
330
43BF
102
}
330
43BF
100
AcDbXrecord
340
0
  0
XRECORD
  5
43CF
102
{ACAD_REACTORS
330
43BF
102
}
330
43BF
100
AcDbXrecord
 70
     0
  0
XRECORD
  5
43D0
102
{ACAD_REACTORS
330
43BF
102
}
330
43BF
100
AcDbXrecord
340
0
  0
XRECORD
  5
43D1
102
{ACAD_REACTORS
330
43BF
102
}
330
43BF
100
AcDbXrecord
 10
0.0
 20
0.0
 30
0.0
  0
XRECORD
  5
43D2
102
{ACAD_REACTORS
330
43BF
102
}
330
43BF
100
AcDbXrecord
 10
0.0
 20
0.0
 30
0.0
  0
XRECORD
  5
43D3
102
{ACAD_REACTORS
330
43BF
102
}
330
43BF
100
AcDbXrecord
 10
0.0
 20
0.0
 30
0.0
  0
XRECORD
  5
43D4
102
{ACAD_REACTORS
330
43BF
102
}
330
43BF
100
AcDbXrecord
 10
0.0
 20
0.0
 30
0.0
  0
XRECORD
  5
43D5
102
{ACAD_REACTORS
330
43BF
102
}
330
43BF
100
AcDbXrecord
 10
0.0
 20
0.0
 30
0.0
  0
XRECORD
  5
43D6
102
{ACAD_REACTORS
330
43BF
102
}
330
43BF
100
AcDbXrecord
 10
0.0
 20
0.0
 30
0.0
  0
XRECORD
  5
43D7
102
{ACAD_REACTORS
330
43BF
102
}
330
43BF
100
AcDbXrecord
340
0
  0
XRECORD
  5
43D8
102
{ACAD_REACTORS
330
43BF
102
}
330
43BF
100
AcDbXrecord
 70
     0
  0
XRECORD
  5
43D9
102
{ACAD_REACTORS
330
43BF
102
}
330
43BF
100
AcDbXrecord
340
0
  0
XRECORD
  5
43DA
102
{ACAD_REACTORS
330
43BF
102
}
330
43BF
100
AcDbXrecord
 10
0.0
 20
0.0
 30
0.0
  0
XRECORD
  5
43DB
102
{ACAD_REACTORS
330
43BF
102
}
330
43BF
100
AcDbXrecord
 10
0.0
 20
0.0
 30
0.0
  0
XRECORD
  5
43DC
102
{ACAD_REACTORS
330
43BF
102
}
330
43BF
100
AcDbXrecord
 10
0.0
 20
0.0
 30
0.0
  0
XRECORD
  5
43DD
102
{ACAD_REACTORS
330
43BF
102
}
330
43BF
100
AcDbXrecord
 10
0.0
 20
0.0
 30
0.0
  0
XRECORD
  5
43DE
102
{ACAD_REACTORS
330
43BF
102
}
330
43BF
100
AcDbXrecord
 10
0.0
 20
0.0
 30
0.0
  0
XRECORD
  5
43DF
102
{ACAD_REACTORS
330
43BF
102
}
330
43BF
100
AcDbXrecord
 10
0.0
 20
0.0
 30
0.0
  0
LAYER_INDEX
  5
43B6
102
{ACAD_REACTORS
330
43B5
102
}
330
43B5
100
AcDbIndex
 40
2453152.471220972
100
AcDbLayerIndex
  8
0
360
43B7
 90
        0
  8
AM_0
360
43B8
 90
       82
  8
AM_11
360
43B9
 90
        5
  8
AM_7
360
43BA
 90
        1
  8
AM_5
360
43BB
 90
        4
  8
Defpoints
360
43BC
 90
        0
  8
AM_6
360
43BD
 90
        1
  0
XRECORD
  5
2D
102
{ACAD_REACTORS
330
2C
102
}
330
2C
100
AcDbXrecord
  1
VERSION
140
15.0
  1
PRODUCT
  2
AutoCAD Mechanical 2000
  0
IDBUFFER
  5
43B7
330
0
100
AcDbIdBuffer
  0
IDBUFFER
  5
43B8
330
0
100
AcDbIdBuffer
330
4372
330
4373
330
4374
330
4375
330
4376
330
4377
330
4378
330
4379
330
437A
330
437B
330
437C
330
437D
330
437E
330
437F
330
4380
330
4381
330
4382
330
4383
330
4384
330
4385
330
4386
330
4387
330
4388
330
4389
330
438A
330
438B
330
438F
330
4390
330
4391
330
4394
330
4395
330
4397
330
4398
330
439B
330
3F20
330
3F23
330
3F24
330
3F32
330
3F3E
330
3F41
330
3F7C
330
3F9E
330
3F9F
330
3FA9
330
3FAA
330
3FAB
330
4347
330
434C
330
434D
330
434E
330
434F
330
4350
330
4351
330
4352
330
4353
330
4354
330
4355
330
4356
330
4357
330
4358
330
4359
330
435A
330
435B
330
435C
330
435E
330
435F
330
4360
330
4361
330
4362
330
4363
330
4364
330
4366
330
4367
330
4368
330
436A
330
436B
330
436C
330
436D
330
436E
330
436F
330
4370
330
4371
  0
IDBUFFER
  5
43B9
330
0
100
AcDbIdBuffer
330
3B7E
330
3B80
330
3C00
330
3F69
330
4369
  0
IDBUFFER
  5
43BA
330
0
100
AcDbIdBuffer
330
3B7D
  0
IDBUFFER
  5
43BB
330
0
100
AcDbIdBuffer
330
3CAC
330
3D34
330
3E27
330
3F25
  0
IDBUFFER
  5
43BC
330
0
100
AcDbIdBuffer
  0
IDBUFFER
  5
43BD
330
0
100
AcDbIdBuffer
330
1500
  0
ENDSEC
  0
EOF
