  0
SECTION
  2
HEADER
  9
$ACADVER
  1
AC1014
  9
$ACADMAINTVER
 70
     9
  9
$DWGCODEPAGE
  3
ANSI_932
  9
$INSBASE
 10
0.0
 20
0.0
 30
0.0
  9
$EXTMIN
 10
-72.04470045058475
 20
-28.25000100000012
 30
-0.00000001
  9
$EXTMAX
 10
12.05776903085518
 20
4.685233733064267
 30
0.00000001
  9
$LIMMIN
 10
-74.9509613519001
 20
-35.76676912794482
  9
$LIMMAX
 10
21.81686722036772
 20
19.20205843180781
  9
$ORTHOMODE
 70
     0
  9
$REGENMODE
 70
     1
  9
$FILLMODE
 70
     1
  9
$QTEXTMODE
 70
     0
  9
$MIRRTEXT
 70
     0
  9
$DRAGMODE
 70
     2
  9
$LTSCALE
 40
1.0
  9
$OSMODE
 70
    55
  9
$ATTMODE
 70
     1
  9
$TEXTSIZE
 40
2.5
  9
$TRACEWID
 40
1.0
  9
$TEXTSTYLE
  7
STANDARD
  9
$CLAYER
  8
AM_0
  9
$CELTYPE
  6
BYLAYER
  9
$CECOLOR
 62
   256
  9
$CELTSCALE
 40
1.0
  9
$DELOBJ
 70
     1
  9
$DISPSILH
 70
     0
  9
$DIMSCALE
 40
0.5
  9
$DIMASZ
 40
2.5
  9
$DIMEXO
 40
1.0
  9
$DIMDLI
 40
12.0
  9
$DIMRND
 40
0.0
  9
$DIMDLE
 40
0.0
  9
$DIMEXE
 40
1.0
  9
$DIMTP
 40
0.1
  9
$DIMTM
 40
0.1
  9
$DIMTXT
 40
3.2
  9
$DIMCEN
 40
0.0
  9
$DIMTSZ
 40
0.0
  9
$DIMTOL
 70
     0
  9
$DIMLIM
 70
     0
  9
$DIMTIH
 70
     0
  9
$DIMTOH
 70
     0
  9
$DIMSE1
 70
     0
  9
$DIMSE2
 70
     0
  9
$DIMTAD
 70
     3
  9
$DIMZIN
 70
     8
  9
$DIMBLK
  1
OPEN30
  9
$DIMASO
 70
     1
  9
$DIMSHO
 70
     1
  9
$DIMPOST
  1

  9
$DIMAPOST
  1
"
  9
$DIMALT
 70
     0
  9
$DIMALTD
 70
     2
  9
$DIMALTF
 40
0.0393701
  9
$DIMLFAC
 40
1.0
  9
$DIMTOFL
 70
     1
  9
$DIMTVP
 40
0.0
  9
$DIMTIX
 70
     0
  9
$DIMSOXD
 70
     0
  9
$DIMSAH
 70
     0
  9
$DIMBLK1
  1

  9
$DIMBLK2
  1

  9
$DIMSTYLE
  2
AM_JIS
  9
$DIMCLRD
 70
   256
  9
$DIMCLRE
 70
   256
  9
$DIMCLRT
 70
     2
  9
$DIMTFAC
 40
0.71
  9
$DIMGAP
 40
1.5
  9
$DIMJUST
 70
     0
  9
$DIMSD1
 70
     0
  9
$DIMSD2
 70
     0
  9
$DIMTOLJ
 70
     0
  9
$DIMTZIN
 70
     0
  9
$DIMALTZ
 70
     0
  9
$DIMALTTZ
 70
     0
  9
$DIMFIT
 70
     3
  9
$DIMUPT
 70
     0
  9
$DIMUNIT
 70
     2
  9
$DIMDEC
 70
     3
  9
$DIMTDEC
 70
     3
  9
$DIMALTU
 70
     2
  9
$DIMALTTD
 70
     2
  9
$DIMTXSTY
  7
ASAMI
  9
$DIMAUNIT
 70
     0
  9
$LUNITS
 70
     2
  9
$LUPREC
 70
     2
  9
$SKETCHINC
 40
1.0
  9
$FILLETRAD
 40
2.5
  9
$AUNITS
 70
     0
  9
$AUPREC
 70
     0
  9
$MENU
  1
.
  9
$ELEVATION
 40
0.0
  9
$PELEVATION
 40
0.0
  9
$THICKNESS
 40
0.0
  9
$LIMCHECK
 70
     0
  9
$BLIPMODE
 70
     0
  9
$CHAMFERA
 40
0.5
  9
$CHAMFERB
 40
0.5
  9
$CHAMFERC
 40
20.0
  9
$CHAMFERD
 40
0.0
  9
$SKPOLY
 70
     0
  9
$TDCREATE
 40
2452838.430434386
  9
$TDUPDATE
 40
2453152.469166874
  9
$TDINDWG
 40
0.1587977083
  9
$TDUSRTIMER
 40
0.1587977083
  9
$USRTIMER
 70
     1
  9
$ANGBASE
 50
0.0
  9
$ANGDIR
 70
     0
  9
$PDMODE
 70
     0
  9
$PDSIZE
 40
0.0
  9
$PLINEWID
 40
0.0
  9
$COORDS
 70
     1
  9
$SPLFRAME
 70
     0
  9
$SPLINETYPE
 70
     6
  9
$SPLINESEGS
 70
     8
  9
$ATTDIA
 70
     1
  9
$ATTREQ
 70
     1
  9
$HANDLING
 70
 12289
  9
$HANDSEED
  5
43DA
  9
$SURFTAB1
 70
     6
  9
$SURFTAB2
 70
     6
  9
$SURFTYPE
 70
     6
  9
$SURFU
 70
     6
  9
$SURFV
 70
     6
  9
$UCSNAME
  2

  9
$UCSORG
 10
0.0
 20
0.0
 30
0.0
  9
$UCSXDIR
 10
1.0
 20
0.0
 30
0.0
  9
$UCSYDIR
 10
0.0
 20
1.0
 30
0.0
  9
$PUCSNAME
  2

  9
$PUCSORG
 10
0.0
 20
0.0
 30
0.0
  9
$PUCSXDIR
 10
1.0
 20
0.0
 30
0.0
  9
$PUCSYDIR
 10
0.0
 20
1.0
 30
0.0
  9
$USERI1
 70
     0
  9
$USERI2
 70
     0
  9
$USERI3
 70
     0
  9
$USERI4
 70
     0
  9
$USERI5
 70
     0
  9
$USERR1
 40
0.0
  9
$USERR2
 40
0.0
  9
$USERR3
 40
0.0
  9
$USERR4
 40
0.0
  9
$USERR5
 40
0.0
  9
$WORLDVIEW
 70
     1
  9
$SHADEDGE
 70
     3
  9
$SHADEDIF
 70
    70
  9
$TILEMODE
 70
     1
  9
$MAXACTVP
 70
    64
  9
$PINSBASE
 10
0.0
 20
0.0
 30
0.0
  9
$PLIMCHECK
 70
     0
  9
$PEXTMIN
 10
1.000000000000000E+20
 20
1.000000000000000E+20
 30
1.000000000000000E+20
  9
$PEXTMAX
 10
-1.000000000000000E+20
 20
-1.000000000000000E+20
 30
-1.000000000000000E+20
  9
$PLIMMIN
 10
0.0
 20
0.0
  9
$PLIMMAX
 10
841.0
 20
594.0
  9
$UNITMODE
 70
     0
  9
$VISRETAIN
 70
     1
  9
$PLINEGEN
 70
     0
  9
$PSLTSCALE
 70
     0
  9
$TREEDEPTH
 70
  3020
  9
$PICKSTYLE
 70
     0
  9
$CMLSTYLE
  2
STANDARD
  9
$CMLJUST
 70
     0
  9
$CMLSCALE
 40
20.0
  9
$PROXYGRAPHICS
 70
     1
  9
$MEASUREMENT
 70
     1
  0
ENDSEC
  0
SECTION
  2
CLASSES
  0
CLASS
  1
ACDBDICTIONARYWDFLT
  2
AcDbDictionaryWithDefault
  3
AutoCAD 2000
 90
        0
280
     0
281
     0
  0
CLASS
  1
ACDBPLACEHOLDER
  2
AcDbPlaceHolder
  3
AutoCAD 2000
 90
        0
280
     0
281
     0
  0
CLASS
  1
LAYOUT
  2
AcDbLayout
  3
AutoCAD 2000
 90
        0
280
     0
281
     0
  0
CLASS
  1
AMGSETTINGSOBJ
  2
AmgSettingsObj
  3
"AcadM|Product Description: AutoCAD Mechanical 2000|Company: Autodesk"
 90
        0
280
     0
281
     0
  0
CLASS
  1
ACME_DOCUMENT
  2
AcMeDbDoc
  3
AcMeServices
 90
        0
280
     0
281
     0
  0
CLASS
  1
ACMESCOPE
  2
AcMeScope
  3
AcMeServices
 90
        0
280
     0
281
     0
  0
CLASS
  1
ACMECOMMANDHISTORY
  2
AcMeCommandHistory
  3
AcMeServices
 90
        0
280
     0
281
     0
  0
CLASS
  1
DICTIONARYVAR
  2
AcDbDictionaryVar
  3
AutoCAD 2000
 90
        0
280
     0
281
     0
  0
CLASS
  1
ACIMSYSVARMAN
  2
AcImSysVarManager
  3
AcMeServices
 90
        0
280
     0
281
     0
  0
CLASS
  1
ACIMREALSYSVAR
  2
AcImRealSysVar
  3
AcMeServices
 90
        0
280
     0
281
     0
  0
CLASS
  1
ACIMINTSYSVAR
  2
AcImIntSysVar
  3
AcMeServices
 90
        0
280
     0
281
     0
  0
CLASS
  1
ACMEDRAWINGMAN
  2
AcMeDrawingMan
  3
AcMeServices
 90
        0
280
     0
281
     0
  0
CLASS
  1
ACMEVIEW
  2
AcMeView
  3
AcMeServices
 90
        0
280
     0
281
     0
  0
CLASS
  1
ACDBENTITYCACHE
  2
AcMeEntityCache
  3
AcMeServices
 90
        0
280
     0
281
     0
  0
CLASS
  1
GSMANAGER
  2
AcMeGSManager
  3
AcMeServices
 90
        0
280
     0
281
     0
  0
CLASS
  1
AmdtInternalReactor
  2
AmdtInternalReactor
  3
AcMeServices
 90
        0
280
     0
281
     0
  0
CLASS
  1
ACMESTATEMGR
  2
AcMeStateMgr
  3
AcMeServices
 90
        0
280
     0
281
     0
  0
CLASS
  1
ACME_DATABASE
  2
AcMeDbDatabase
  3
AcMeServices
 90
        0
280
     0
281
     0
  0
CLASS
  1
ACRFINSADJUSTERMGR
  2
AcRfInsAdjusterMgr
  3
AcMeServices
 90
        0
280
     0
281
     0
  0
CLASS
  1
ACMDATADICTIONARY
  2
AcmDataDictionary
  3
"AcmSymBB|Product Description: AutoCAD Mechanical 2000|Company: Autodesk"
 90
        0
280
     0
281
     0
  0
CLASS
  1
ACMDATAENTRYBLOCK
  2
AcmDataEntryBlock
  3
"AcmSymBB|Product Description: AutoCAD Mechanical 2000|Company: Autodesk"
 90
        0
280
     0
281
     0
  0
CLASS
  1
AMGOBJPROPCFG
  2
AmgObjPropCfg
  3
"AmgLay|Product Description: AutoCAD Mechanical 2000|Company: Autodesk"
 90
        1
280
     0
281
     0
  0
CLASS
  1
ACAMGFILTERDAT
  2
AcAmgFilterDat
  3
"AcadM|Product Description: AutoCAD Mechanical 2000|Company: Autodesk"
 90
        0
280
     0
281
     0
  0
CLASS
  1
LAYER_INDEX
  2
AcDbLayerIndex
  3
AutoCAD 2000
 90
        0
280
     0
281
     0
  0
CLASS
  1
IDBUFFER
  2
AcDbIdBuffer
  3
AutoCAD 2000
 90
        0
280
     0
281
     0
  0
CLASS
  1
ACIMSTRSYSVAR
  2
AcImStrSysVar
  3
AcMeServices
 90
        0
280
     0
281
     0
  0
CLASS
  1
ACMSTANDARDJIS
  2
AcmStandardJIS
  3
"AcmSymBB|Product Description: AutoCAD Mechanical 2000|Company: Autodesk"
 90
        0
280
     0
281
     0
  0
CLASS
  1
ACMSURFSTANDARDJIS
  2
AcmSurfTextStdJIS
  3
"AcmSymBB|Product Description: AutoCAD Mechanical 2000|Company: Autodesk"
 90
        0
280
     0
281
     0
  0
CLASS
  1
ACMFCFSTANDARDJIS
  2
AcmFCFStdJIS
  3
"AcmSymBB|Product Description: AutoCAD Mechanical 2000|Company: Autodesk"
 90
        0
280
     0
281
     0
  0
CLASS
  1
ACMWELDSTANDARDJIS
  2
AcmWeldingStdJIS
  3
"AcmSymBB|Product Description: AutoCAD Mechanical 2000|Company: Autodesk"
 90
        0
280
     0
281
     0
  0
CLASS
  1
ACMIDSTANDARDJIS
  2
AcmIdStdJIS
  3
"AcmSymBB|Product Description: AutoCAD Mechanical 2000|Company: Autodesk"
 90
        0
280
     0
281
     0
  0
CLASS
  1
ACMDATUMSTANDARDJIS
  2
AcmDatumStdJIS
  3
"AcmSymBB|Product Description: AutoCAD Mechanical 2000|Company: Autodesk"
 90
        0
280
     0
281
     0
  0
CLASS
  1
ACMBOMSTANDARDJIS
  2
AcmBOMStdJIS
  3
"AcmSymBB|Product Description: AutoCAD Mechanical 2000|Company: Autodesk"
 90
        0
280
     0
281
     0
  0
CLASS
  1
ACMSTANDARDANSI
  2
AcmStandardANSI
  3
"AcmSymBB|Product Description: AutoCAD Mechanical 2000|Company: Autodesk"
 90
        0
280
     0
281
     0
  0
CLASS
  1
ACMSURFSTANDARDANSI
  2
AcmSurfTextStdANSI
  3
"AcmSymBB|Product Description: AutoCAD Mechanical 2000|Company: Autodesk"
 90
        0
280
     0
281
     0
  0
CLASS
  1
ACMFCFSTANDARDANSI
  2
AcmFCFStdANSI
  3
"AcmSymBB|Product Description: AutoCAD Mechanical 2000|Company: Autodesk"
 90
        0
280
     0
281
     0
  0
CLASS
  1
ACMWELDSTANDARDANSI
  2
AcmWeldingStdANSI
  3
"AcmSymBB|Product Description: AutoCAD Mechanical 2000|Company: Autodesk"
 90
        0
280
     0
281
     0
  0
CLASS
  1
ACMIDSTANDARDANSI
  2
AcmIdStdANSI
  3
"AcmSymBB|Product Description: AutoCAD Mechanical 2000|Company: Autodesk"
 90
        0
280
     0
281
     0
  0
CLASS
  1
ACMDATUMSTANDARDANSI
  2
AcmDatumStdANSI
  3
"AcmSymBB|Product Description: AutoCAD Mechanical 2000|Company: Autodesk"
 90
        0
280
     0
281
     0
  0
CLASS
  1
ACMBOMSTANDARDANSI
  2
AcmBOMStdANSI
  3
"AcmSymBB|Product Description: AutoCAD Mechanical 2000|Company: Autodesk"
 90
        0
280
     0
281
     0
  0
CLASS
  1
ACMSTANDARDBSI
  2
AcmStandardBSI
  3
"AcmSymBB|Product Description: AutoCAD Mechanical 2000|Company: Autodesk"
 90
        0
280
     0
281
     0
  0
CLASS
  1
ACMSURFSTANDARDBSI
  2
AcmSurfTextStdBSI
  3
"AcmSymBB|Product Description: AutoCAD Mechanical 2000|Company: Autodesk"
 90
        0
280
     0
281
     0
  0
CLASS
  1
ACMFCFSTANDARDBSI
  2
AcmFCFStdBSI
  3
"AcmSymBB|Product Description: AutoCAD Mechanical 2000|Company: Autodesk"
 90
        0
280
     0
281
     0
  0
CLASS
  1
ACMWELDSTANDARDBSI
  2
AcmWeldingStdBSI
  3
"AcmSymBB|Product Description: AutoCAD Mechanical 2000|Company: Autodesk"
 90
        0
280
     0
281
     0
  0
CLASS
  1
ACMIDSTANDARDBSI
  2
AcmIdStdBSI
  3
"AcmSymBB|Product Description: AutoCAD Mechanical 2000|Company: Autodesk"
 90
        0
280
     0
281
     0
  0
CLASS
  1
ACMDATUMSTANDARDBSI
  2
AcmDatumStdBSI
  3
"AcmSymBB|Product Description: AutoCAD Mechanical 2000|Company: Autodesk"
 90
        0
280
     0
281
     0
  0
CLASS
  1
ACMBOMSTANDARDBSI
  2
AcmBOMStdBSI
  3
"AcmSymBB|Product Description: AutoCAD Mechanical 2000|Company: Autodesk"
 90
        0
280
     0
281
     0
  0
CLASS
  1
LONG_TRANSACTION
  2
AcDbLongTransaction
  3
AutoCAD 2000
 90
        0
280
     0
281
     0
  0
CLASS
  1
LWPOLYLINE
  2
AcDbPolyline
  3
AutoCAD 2000
 90
        0
280
     0
281
     1
  0
CLASS
  1
HATCH
  2
AcDbHatch
  3
AutoCAD 2000
 90
        0
280
     0
281
     1
  0
CLASS
  1
XRECORD
  2
AcDbXrecord
  3
AutoCAD 2000
 90
        0
280
     0
281
     0
  0
ENDSEC
  0
SECTION
  2
TABLES
  0
TABLE
  2
VPORT
  5
8
330
0
100
AcDbSymbolTable
 70
     3
  0
VPORT
  5
43AF
330
8
100
AcDbSymbolTableRecord
100
AcDbViewportTableRecord
  2
*ACTIVE
 70
     0
 10
0.0
 20
0.0
 11
1.0
 21
1.0
 12
-19.86204532758598
 22
0.8471190968451551
 13
0.0
 23
0.0
 14
2.5
 24
2.5
 15
10.0
 25
10.0
 16
0.0
 26
0.0
 36
1.0
 17
0.0
 27
0.0
 37
0.0
 40
95.73301463691143
 41
1.56570841889117
 42
50.0
 43
0.0
 44
0.0
 50
0.0
 51
0.0
 71
     0
 72
   100
 73
     1
 74
     3
 75
     0
 76
     0
 77
     0
 78
     0
  0
ENDTAB
  0
TABLE
  2
LTYPE
  5
5
330
0
100
AcDbSymbolTable
 70
    10
  0
LTYPE
  5
14
330
5
100
AcDbSymbolTableRecord
100
AcDbLinetypeTableRecord
  2
BYBLOCK
 70
     0
  3

 72
    65
 73
     0
 40
0.0
  0
LTYPE
  5
15
330
5
100
AcDbSymbolTableRecord
100
AcDbLinetypeTableRecord
  2
BYLAYER
 70
     0
  3

 72
    65
 73
     0
 40
0.0
  0
LTYPE
  5
16
330
5
100
AcDbSymbolTableRecord
100
AcDbLinetypeTableRecord
  2
CONTINUOUS
 70
     0
  3
Solid line
 72
    65
 73
     0
 40
0.0
  0
LTYPE
  5
4B
330
5
100
AcDbSymbolTableRecord
100
AcDbLinetypeTableRecord
  2
AM_ISO02W050
 70
     0
  3
__ __ __ __ __ __ __ __ __ __ __ __ __ __ __
 72
    65
 73
     2
 40
7.5
 49
6.0
 74
     0
 49
-1.5
 74
     0
  0
LTYPE
  5
4C
330
5
100
AcDbSymbolTableRecord
100
AcDbLinetypeTableRecord
  2
AM_ISO08W050
 70
     0
  3
____ . ____ . ____ . ____ . ____ . ____ . ____
 72
    65
 73
     4
 40
18.0
 49
12.0
 74
     0
 49
-1.5
 74
     0
 49
3.0
 74
     0
 49
-1.5
 74
     0
  0
LTYPE
  5
4D
330
5
100
AcDbSymbolTableRecord
100
AcDbLinetypeTableRecord
  2
AM_ISO09W050
 70
     0
  3
_____ . . _____ . . _____ . . ____ .. ____
 72
    65
 73
     6
 40
22.5
 49
12.0
 74
     0
 49
-1.5
 74
     0
 49
3.0
 74
     0
 49
-1.5
 74
     0
 49
3.0
 74
     0
 49
-1.5
 74
     0
  0
LTYPE
  5
4E
330
5
100
AcDbSymbolTableRecord
100
AcDbLinetypeTableRecord
  2
AMCONSTR
 70
     0
  3
_______________________
 72
    65
 73
     2
 40
9999.0
 49
9999.0
 74
     0
 49
0.0
 74
     0
  0
LTYPE
  5
4F
330
5
100
AcDbSymbolTableRecord
100
AcDbLinetypeTableRecord
  2
AM_ISO02W050X2
 70
     0
  3
 _ _ _ _ _ _ _ _ _ _ _ _
 72
    65
 73
     2
 40
3.75
 49
3.0
 74
     0
 49
-0.75
 74
     0
  0
LTYPE
  5
50
330
5
100
AcDbSymbolTableRecord
100
AcDbLinetypeTableRecord
  2
AM_ISO08W050X2
 70
     0
  3
__ . __ . __ . __ . __ . __
 72
    65
 73
     4
 40
9.0
 49
6.0
 74
     0
 49
-0.75
 74
     0
 49
1.5
 74
     0
 49
-0.75
 74
     0
  0
LTYPE
  5
53
330
5
100
AcDbSymbolTableRecord
100
AcDbLinetypeTableRecord
  2
AMZIGZAG
 70
     0
  3
/\/-/\/-/\/-/\/-/\/-/\/
 72
    65
 73
     2
 40
11.00009999999999
 49
0.0001
 74
     4
 75
   135
340
52
 46
0.04
 50
0.0
 44
0.0
 45
0.0
 49
-11.0
 74
     0
  0
LTYPE
  5
166
330
5
100
AcDbSymbolTableRecord
100
AcDbLinetypeTableRecord
  2
ACJISTGL
 70
     0
  3
_ _ _ _ _
 72
    65
 73
     2
 40
3.0
 49
2.0
 74
     0
 49
-1.0
 74
     0
  0
LTYPE
  5
26A
330
5
100
AcDbSymbolTableRecord
100
AcDbLinetypeTableRecord
  2
ACJISTGB
 70
     0
  3
__ . . __ . .
 72
    65
 73
     6
 40
9.0
 49
4.0
 74
     0
 49
-1.0
 74
     0
 49
1.0
 74
     0
 49
-1.0
 74
     0
 49
1.0
 74
     0
 49
-1.0
 74
     0
  0
ENDTAB
  0
TABLE
  2
LAYER
  5
2
330
0
100
AcDbSymbolTable
 70
     7
  0
LAYER
  5
10
330
2
100
AcDbSymbolTableRecord
100
AcDbLayerTableRecord
  2
0
 70
     0
 62
     7
  6
CONTINUOUS
  0
LAYER
  5
3F9
330
2
100
AcDbSymbolTableRecord
100
AcDbLayerTableRecord
  2
AM_0
 70
     0
 62
     7
  6
CONTINUOUS
  0
LAYER
  5
BDD
330
2
100
AcDbSymbolTableRecord
100
AcDbLayerTableRecord
  2
AM_11
 70
     0
 62
     3
  6
AM_ISO09W050
  0
LAYER
  5
BDE
330
2
100
AcDbSymbolTableRecord
100
AcDbLayerTableRecord
  2
AM_7
 70
     0
 62
     4
  6
AM_ISO08W050
  0
LAYER
  5
BDF
330
2
100
AcDbSymbolTableRecord
100
AcDbLayerTableRecord
  2
AM_5
 70
     0
 62
     3
  6
CONTINUOUS
  0
LAYER
  5
BE0
330
2
100
AcDbSymbolTableRecord
100
AcDbLayerTableRecord
  2
DEFPOINTS
 70
     0
 62
     7
  6
CONTINUOUS
  0
LAYER
  5
14FF
330
2
100
AcDbSymbolTableRecord
100
AcDbLayerTableRecord
  2
AM_6
 70
     0
 62
     2
  6
CONTINUOUS
  0
ENDTAB
  0
TABLE
  2
STYLE
  5
3
330
0
100
AcDbSymbolTable
 70
     5
  0
STYLE
  5
11
330
3
100
AcDbSymbolTableRecord
100
AcDbTextStyleTableRecord
  2
STANDARD
 70
     0
 40
0.0
 41
1.0
 50
0.0
 71
     0
 42
2.5
  3
simplex.shx
  4
EXTFONT.SHX
  0
STYLE
  5
52
330
3
100
AcDbSymbolTableRecord
100
AcDbTextStyleTableRecord
  2

 70
     1
 40
0.0
 41
1.0
 50
0.0
 71
     0
 42
2.5
  3
ltypeshp.shx
  4

  0
STYLE
  5
6B
330
3
100
AcDbSymbolTableRecord
100
AcDbTextStyleTableRecord
  2
ASAMI
 70
     0
 40
0.0
 41
1.0
 50
0.0
 71
     0
 42
2.5
  3
simplex.shx
  4
EXTFONT.SHX
  0
STYLE
  5
262
330
3
100
AcDbSymbolTableRecord
100
AcDbTextStyleTableRecord
  2
ACJISTS
 70
     0
 40
1.0
 41
1.0
 50
0.0
 71
     0
 42
2.5
  3
simplex.shx
  4
bigfont.shx
  0
STYLE
  5
269
330
3
100
AcDbSymbolTableRecord
100
AcDbTextStyleTableRecord
  2
ACJISGDT
 70
     0
 40
0.0
 41
1.0
 50
0.0
 71
     0
 42
2.5
  3
amgdtans.shx
  4

  0
ENDTAB
  0
TABLE
  2
VIEW
  5
6
330
0
100
AcDbSymbolTable
 70
     0
  0
ENDTAB
  0
TABLE
  2
UCS
  5
7
330
0
100
AcDbSymbolTable
 70
     0
  0
ENDTAB
  0
TABLE
  2
APPID
  5
9
330
0
100
AcDbSymbolTable
 70
    14
  0
APPID
  5
12
330
9
100
AcDbSymbolTableRecord
100
AcDbRegAppTableRecord
  2
ACAD
 70
     0
  0
APPID
  5
30
330
9
100
AcDbSymbolTableRecord
100
AcDbRegAppTableRecord
  2
MCAD_NO_VIS
 70
     0
  0
APPID
  5
31
330
9
100
AcDbSymbolTableRecord
100
AcDbRegAppTableRecord
  2
ACAD_TEMP_GRAPHIC
 70
     0
  0
APPID
  5
2C2
330
9
100
AcDbSymbolTableRecord
100
AcDbRegAppTableRecord
  2
GENIUS_GENDTOL_13
 70
     0
  0
APPID
  5
339
330
9
100
AcDbSymbolTableRecord
100
AcDbRegAppTableRecord
  2
GENIUS_GENODEF_13
 70
     0
  0
APPID
  5
33A
330
9
100
AcDbSymbolTableRecord
100
AcDbRegAppTableRecord
  2
GENIUS_GENOBJ-N-RSBK_13
 70
     0
  0
APPID
  5
33B
330
9
100
AcDbSymbolTableRecord
100
AcDbRegAppTableRecord
  2
GENIUS_GENOBJ-N-LIB_13
 70
     0
  0
APPID
  5
33C
330
9
100
AcDbSymbolTableRecord
100
AcDbRegAppTableRecord
  2
GENIUS_GENSCALE_13
 70
     0
  0
APPID
  5
378
330
9
100
AcDbSymbolTableRecord
100
AcDbRegAppTableRecord
  2
GENIUS_GENDIMSH_14
 70
     0
  0
APPID
  5
BE1
330
9
100
AcDbSymbolTableRecord
100
AcDbRegAppTableRecord
  2
GENIUS_GENFIL_13
 70
     0
  0
APPID
  5
BE2
330
9
100
AcDbSymbolTableRecord
100
AcDbRegAppTableRecord
  2
GENIUS_GENOBJ-N-CHA_13
 70
     0
  0
APPID
  5
151B
330
9
100
AcDbSymbolTableRecord
100
AcDbRegAppTableRecord
  2
DCO15
 70
     0
  0
APPID
  5
1860
330
9
100
AcDbSymbolTableRecord
100
AcDbRegAppTableRecord
  2
GENIUS_GENOBJ-N-CEN_13
 70
     0
  0
APPID
  5
359C
330
9
100
AcDbSymbolTableRecord
100
AcDbRegAppTableRecord
  2
GENIUS_GENOBJ-N-FIL_13
 70
     0
  0
ENDTAB
  0
TABLE
  2
DIMSTYLE
  5
A
330
0
100
AcDbSymbolTable
 70
     8
  0
DIMSTYLE
105
58
102
{ACAD_REACTORS
330
42E5
330
42E7
330
42EC
330
4321
102
}
330
A
100
AcDbSymbolTableRecord
100
AcDbDimStyleTableRecord
  2
AM_JIS
 70
     0
  3

  4
"
  5
OPEN30
  6

  7

 40
0.5
 41
2.5
 42
1.0
 43
12.0
 44
1.0
 45
0.0
 46
0.0
 47
0.1
 48
0.1
140
3.2
141
0.0
142
0.0
143
0.0393701
144
1.0
145
0.0
146
0.71
147
1.5
 71
     0
 72
     0
 73
     0
 74
     0
 75
     0
 76
     0
 77
     3
 78
     8
170
     0
171
     2
172
     1
173
     0
174
     0
175
     0
176
   256
177
   256
178
     2
270
     2
271
     3
272
     3
273
     2
274
     2
340
6B
275
     0
280
     0
281
     0
282
     0
283
     0
284
     0
285
     0
286
     0
287
     3
288
     0
  0
DIMSTYLE
105
5F
330
A
100
AcDbSymbolTableRecord
100
AcDbDimStyleTableRecord
  2
AM_JIS$3
 70
     0
  3

  4
"
  5
OPEN30
  6

  7

 40
0.5
 41
2.5
 42
1.0
 43
10.0
 44
1.0
 45
0.0
 46
0.0
 47
0.1
 48
0.1
140
3.2
141
0.0
142
0.0
143
0.0393701
144
1.0
145
0.0
146
0.71
147
1.5
 71
     0
 72
     0
 73
     0
 74
     1
 75
     0
 76
     0
 77
     3
 78
     8
170
     0
171
     2
172
     0
173
     0
174
     0
175
     0
176
   256
177
   256
178
     2
270
     2
271
     2
272
     3
273
     2
274
     2
340
6B
275
     0
280
     0
281
     0
282
     0
283
     0
284
     0
285
     0
286
     0
287
     0
288
     1
  0
DIMSTYLE
105
60
330
A
100
AcDbSymbolTableRecord
100
AcDbDimStyleTableRecord
  2
AM_JIS$4
 70
     0
  3

  4
"
  5
OPEN30
  6

  7

 40
0.5
 41
2.5
 42
1.0
 43
10.0
 44
1.0
 45
0.0
 46
0.0
 47
0.1
 48
0.1
140
3.2
141
0.0
142
0.0
143
0.0393701
144
1.0
145
0.0
146
0.71
147
1.5
 71
     0
 72
     0
 73
     0
 74
     1
 75
     0
 76
     0
 77
     3
 78
     8
170
     0
171
     2
172
     0
173
     0
174
     0
175
     0
176
   256
177
   256
178
     2
270
     2
271
     2
272
     3
273
     2
274
     2
340
6B
275
     0
280
     0
281
     0
282
     0
283
     0
284
     0
285
     0
286
     0
287
     0
288
     1
  0
DIMSTYLE
105
61
330
A
100
AcDbSymbolTableRecord
100
AcDbDimStyleTableRecord
  2
AM_JIS$6
 70
     0
  3

  4
"
  5
OPEN30
  6

  7

 40
0.5
 41
2.5
 42
1.0
 43
10.0
 44
1.0
 45
0.0
 46
0.0
 47
0.1
 48
0.1
140
3.2
141
0.0
142
0.0
143
0.0393701
144
1.0
145
0.0
146
0.71
147
1.5
 71
     0
 72
     0
 73
     0
 74
     0
 75
     0
 76
     0
 77
     0
 78
     8
170
     0
171
     2
172
     1
173
     0
174
     0
175
     0
176
   256
177
   256
178
     2
270
     2
271
     2
272
     2
273
     2
274
     2
340
6B
275
     0
280
     0
281
     0
282
     0
283
     0
284
     0
285
     0
286
     0
287
     3
288
     0
  0
DIMSTYLE
105
62
330
A
100
AcDbSymbolTableRecord
100
AcDbDimStyleTableRecord
  2
AM_JIS$7
 70
     0
  3

  4
"
  5
OPEN30
  6

  7

 40
0.5
 41
2.5
 42
1.0
 43
10.0
 44
1.0
 45
0.0
 46
0.0
 47
0.1
 48
0.1
140
3.2
141
0.0
142
0.0
143
0.0393701
144
1.0
145
0.0
146
0.71
147
1.5
 71
     0
 72
     0
 73
     0
 74
     0
 75
     0
 76
     0
 77
     3
 78
     8
170
     0
171
     2
172
     1
173
     0
174
     0
175
     0
176
   256
177
   256
178
     2
270
     2
271
     2
272
     3
273
     2
274
     2
340
6B
275
     0
280
     0
281
     0
282
     0
283
     0
284
     0
285
     0
286
     0
287
     3
288
     0
  0
DIMSTYLE
105
63
330
A
100
AcDbSymbolTableRecord
100
AcDbDimStyleTableRecord
  2
AM_JIS$SF
 70
     0
  3

  4
"
  5
OPEN30
  6

  7

 40
0.5
 41
2.5
 42
1.0
 43
10.0
 44
1.0
 45
0.0
 46
0.0
 47
0.1
 48
0.1
140
3.2
141
0.0
142
0.0
143
0.0393701
144
1.0
145
0.0
146
0.71
147
1.5
 71
     0
 72
     0
 73
     0
 74
     0
 75
     1
 76
     1
 77
     3
 78
     8
170
     0
171
     2
172
     1
173
     0
174
     0
175
     0
176
   256
177
   256
178
     2
270
     2
271
     2
272
     2
273
     2
274
     2
340
6B
275
     0
280
     0
281
     0
282
     0
283
     0
284
     0
285
     0
286
     0
287
     3
288
     0
  0
DIMSTYLE
105
68
330
A
100
AcDbSymbolTableRecord
100
AcDbDimStyleTableRecord
  2
AM_JIS$SH
 70
     0
  3

  4
"
  5

  6
GENAXEH
  7
OPEN30
 40
0.5
 41
2.5
 42
1.0
 43
10.0
 44
1.0
 45
0.0
 46
0.0
 47
0.1
 48
0.1
140
3.2
141
0.0
142
0.0
143
0.0393701
144
2.0
145
0.0
146
0.71
147
1.5
 71
     0
 72
     0
 73
     0
 74
     0
 75
     1
 76
     1
 77
     3
 78
     8
170
     0
171
     2
172
     1
173
     1
174
     0
175
     0
176
   256
177
   256
178
     2
270
     2
271
     2
272
     2
273
     2
274
     2
340
6B
275
     0
280
     0
281
     0
282
     0
283
     0
284
     0
285
     0
286
     0
287
     3
288
     0
  0
DIMSTYLE
105
B34
330
A
100
AcDbSymbolTableRecord
100
AcDbDimStyleTableRecord
  2
AM_JIS$2
 70
     0
  3

  4
"
  5
OPEN30
  6

  7

 40
0.5
 41
2.5
 42
1.0
 43
12.0
 44
1.0
 45
0.0
 46
0.0
 47
0.1
 48
0.1
140
3.2
141
0.0
142
0.0
143
0.0393701
144
1.0
145
0.0
146
0.71
147
1.5
 71
     0
 72
     0
 73
     0
 74
     0
 75
     0
 76
     0
 77
     3
 78
     8
170
     0
171
     2
172
     1
173
     0
174
     0
175
     0
176
   256
177
   256
178
     2
270
     2
271
     3
272
     3
273
     2
274
     2
340
6B
275
     0
280
     0
281
     0
282
     0
283
     0
284
     0
285
     0
286
     0
287
     3
288
     0
  0
ENDTAB
  0
TABLE
  2
BLOCK_RECORD
  5
1
330
0
100
AcDbSymbolTable
 70
     9
  0
BLOCK_RECORD
  5
1F
102
{ACAD_XDICTIONARY
360
74
102
}
330
1
100
AcDbSymbolTableRecord
100
AcDbBlockTableRecord
  2
*MODEL_SPACE
  0
BLOCK_RECORD
  5
101
102
{ACAD_XDICTIONARY
360
43D8
102
}
330
1
100
AcDbSymbolTableRecord
100
AcDbBlockTableRecord
  2
*PAPER_SPACE
  0
BLOCK_RECORD
  5
59
330
1
100
AcDbSymbolTableRecord
100
AcDbBlockTableRecord
  2
_OPEN30
  0
BLOCK_RECORD
  5
64
330
1
100
AcDbSymbolTableRecord
100
AcDbBlockTableRecord
  2
GENAXEH
  0
BLOCK_RECORD
  5
4339
330
1
100
AcDbSymbolTableRecord
100
AcDbBlockTableRecord
  2
*D5
  0
BLOCK_RECORD
  5
4345
330
1
100
AcDbSymbolTableRecord
100
AcDbBlockTableRecord
  2
*D6
  0
BLOCK_RECORD
  5
4351
330
1
100
AcDbSymbolTableRecord
100
AcDbBlockTableRecord
  2
*D7
  0
BLOCK_RECORD
  5
435D
330
1
100
AcDbSymbolTableRecord
100
AcDbBlockTableRecord
  2
*D8
  0
ENDTAB
  0
ENDSEC
  0
SECTION
  2
BLOCKS
  0
BLOCK
  5
20
330
1F
100
AcDbEntity
  8
0
100
AcDbBlockBegin
  2
*MODEL_SPACE
 70
     0
 10
0.0
 20
0.0
 30
0.0
  3
*MODEL_SPACE
  1

  0
ENDBLK
  5
21
330
1F
100
AcDbEntity
  8
0
100
AcDbBlockEnd
  0
BLOCK
  5
103
330
101
100
AcDbEntity
 67
     1
  8
0
100
AcDbBlockBegin
  2
*PAPER_SPACE
 70
     0
 10
0.0
 20
0.0
 30
0.0
  3
*PAPER_SPACE
  1

  0
ENDBLK
  5
104
330
101
100
AcDbEntity
 67
     1
  8
0
100
AcDbBlockEnd
  0
BLOCK
  5
5D
330
59
100
AcDbEntity
  8
0
100
AcDbBlockBegin
  2
_OPEN30
 70
     0
 10
0.0
 20
0.0
 30
0.0
  3
_OPEN30
  1

  0
LINE
  5
5A
330
59
100
AcDbEntity
  8
0
 62
     0
100
AcDbLine
 10
-1.0
 20
0.26794919
 30
0.0
 11
0.0
 21
0.0
 31
0.0
  0
LINE
  5
5B
330
59
100
AcDbEntity
  8
0
 62
     0
100
AcDbLine
 10
0.0
 20
0.0
 30
0.0
 11
-1.0
 21
-0.26794919
 31
0.0
  0
LINE
  5
5C
330
59
100
AcDbEntity
  8
0
 62
     0
100
AcDbLine
 10
0.0
 20
0.0
 30
0.0
 11
-1.0
 21
0.0
 31
0.0
  0
ENDBLK
  5
5E
330
59
100
AcDbEntity
  8
0
100
AcDbBlockEnd
  0
BLOCK
  5
66
330
64
100
AcDbEntity
  8
0
100
AcDbBlockBegin
  2
GENAXEH
 70
     0
 10
0.0
 20
0.0
 30
0.0
  3
GENAXEH
  1

  0
LINE
  5
65
330
64
100
AcDbEntity
  8
0
100
AcDbLine
 10
-1.0
 20
0.0
 30
0.0
 11
1.0
 21
0.0
 31
0.0
  0
ENDBLK
  5
67
330
64
100
AcDbEntity
  8
0
100
AcDbBlockEnd
  0
BLOCK
  5
4343
330
4339
100
AcDbEntity
  8
0
100
AcDbBlockBegin
  2
*D5
 70
     1
 10
0.0
 20
0.0
 30
0.0
  3
*D5
  1

  0
LINE
  5
4369
330
4339
100
AcDbEntity
  8
AM_5
100
AcDbLine
 10
-0.0000000000000001
 20
-4.499999999999993
 30
0.0
 11
-0.0000000000000009
 21
-17.50000100000011
 31
0.0
  0
LINE
  5
436A
330
4339
100
AcDbEntity
  8
AM_5
100
AcDbLine
 10
-59.99999999999996
 20
-4.000000000000025
 30
0.0
 11
-59.99999999999996
 21
-17.50000100000011
 31
0.0
  0
LINE
  5
436B
330
4339
100
AcDbEntity
  8
AM_5
100
AcDbLine
 10
-1.25
 20
-17.00000100000011
 30
0.0
 11
-58.74999999999996
 21
-17.00000100000011
 31
0.0
  0
INSERT
  5
436C
330
4339
100
AcDbEntity
  8
AM_5
100
AcDbBlockReference
  2
_OPEN30
 10
-0.0000000000000009
 20
-17.00000100000011
 30
0.0
 41
1.25
 42
1.25
 43
1.25
  0
INSERT
  5
436D
330
4339
100
AcDbEntity
  8
AM_5
100
AcDbBlockReference
  2
_OPEN30
 10
-59.99999999999996
 20
-17.00000100000011
 30
0.0
 41
1.25
 42
1.25
 43
1.25
 50
180.0
  0
MTEXT
  5
436E
330
4339
100
AcDbEntity
  8
AM_5
 62
     2
100
AcDbMText
 10
-29.99999999999998
 20
-15.45000100000011
 30
0.0
 40
1.6
 41
0.0
 71
     5
 72
     1
  1
60
  7
ASAMI
1001
ACAD
1000
MTEXTBEGIN
1070
    73
1070
     1
1070
    44
1040
1.0
1070
    74
1070
     0
1000
MTEXTEND
  0
POINT
  5
436F
330
4339
100
AcDbEntity
  8
DEFPOINTS
 62
     0
100
AcDbPoint
 10
-0.0000000000000001
 20
-3.999999999999993
 30
0.0
  0
POINT
  5
4370
330
4339
100
AcDbEntity
  8
DEFPOINTS
 62
     0
100
AcDbPoint
 10
-59.99999999999996
 20
-3.500000000000025
 30
0.0
  0
POINT
  5
4371
330
4339
100
AcDbEntity
  8
DEFPOINTS
 62
     0
100
AcDbPoint
 10
-59.99999999999996
 20
-17.00000100000011
 30
0.0
  0
ENDBLK
  5
4344
330
4339
100
AcDbEntity
  8
0
100
AcDbBlockEnd
  0
BLOCK
  5
434F
330
4345
100
AcDbEntity
  8
0
100
AcDbBlockBegin
  2
*D6
 70
     1
 10
0.0
 20
0.0
 30
0.0
  3
*D6
  1

  0
LINE
  5
4372
330
4345
100
AcDbEntity
  8
AM_5
100
AcDbLine
 10
-59.75
 20
3.999999999999992
 30
0.0
 11
-70.19470045058476
 21
3.999999999999995
 31
0.0
  0
LINE
  5
4373
330
4345
100
AcDbEntity
  8
AM_5
100
AcDbLine
 10
-59.99999999999996
 20
-4.000000000000025
 30
0.0
 11
-70.19470045058476
 21
-4.000000000000022
 31
0.0
  0
LINE
  5
4374
330
4345
100
AcDbEntity
  8
AM_5
100
AcDbLine
 10
-69.69470045058476
 20
2.749999999999994
 30
0.0
 11
-69.69470045058476
 21
-2.750000000000022
 31
0.0
  0
INSERT
  5
4375
330
4345
100
AcDbEntity
  8
AM_5
100
AcDbBlockReference
  2
_OPEN30
 10
-69.69470045058476
 20
3.999999999999994
 30
0.0
 41
1.25
 42
1.25
 43
1.25
 50
90.0
  0
INSERT
  5
4376
330
4345
100
AcDbEntity
  8
AM_5
100
AcDbBlockReference
  2
_OPEN30
 10
-69.69470045058476
 20
-4.000000000000023
 30
0.0
 41
1.25
 42
1.25
 43
1.25
 50
270.0
  0
MTEXT
  5
4377
330
4345
100
AcDbEntity
  8
AM_5
 62
     2
100
AcDbMText
 10
-71.24470045058476
 20
-0.0000000000000251
 30
0.0
 40
1.6
 41
0.0
 71
     5
 72
     1
  1
%%c8
  7
ASAMI
 11
0.0000000000000001
 21
1.0
 31
0.0
1001
ACAD
1000
MTEXTBEGIN
1070
    73
1070
     1
1070
    44
1040
1.0
1070
    74
1070
     0
1000
MTEXTEND
  0
POINT
  5
4378
330
4345
100
AcDbEntity
  8
DEFPOINTS
 62
     0
100
AcDbPoint
 10
-59.25
 20
3.999999999999992
 30
0.0
  0
POINT
  5
4379
330
4345
100
AcDbEntity
  8
DEFPOINTS
 62
     0
100
AcDbPoint
 10
-59.49999999999996
 20
-4.000000000000025
 30
0.0
  0
POINT
  5
437A
330
4345
100
AcDbEntity
  8
DEFPOINTS
 62
     0
100
AcDbPoint
 10
-69.69470045058476
 20
-4.000000000000023
 30
0.0
  0
ENDBLK
  5
4350
330
4345
100
AcDbEntity
  8
0
100
AcDbBlockEnd
  0
BLOCK
  5
435B
330
4351
100
AcDbEntity
  8
0
100
AcDbBlockBegin
  2
*D7
 70
     1
 10
0.0
 20
0.0
 30
0.0
  3
*D7
  1

  0
LINE
  5
437B
330
4351
100
AcDbEntity
  8
AM_5
100
AcDbLine
 10
-0.0000000000000001
 20
-4.499999999999993
 30
0.0
 11
-0.0000000000000006
 21
-11.50000100000003
 31
0.0
  0
LINE
  5
437C
330
4351
100
AcDbEntity
  8
AM_5
100
AcDbLine
 10
-18.0
 20
-4.499999999999993
 30
0.0
 11
-18.0
 21
-11.50000100000003
 31
0.0
  0
LINE
  5
437D
330
4351
100
AcDbEntity
  8
AM_5
100
AcDbLine
 10
-1.25
 20
-11.00000100000003
 30
0.0
 11
-16.75
 21
-11.00000100000003
 31
0.0
  0
INSERT
  5
437E
330
4351
100
AcDbEntity
  8
AM_5
100
AcDbBlockReference
  2
_OPEN30
 10
-0.0000000000000005
 20
-11.00000100000003
 30
0.0
 41
1.25
 42
1.25
 43
1.25
  0
INSERT
  5
437F
330
4351
100
AcDbEntity
  8
AM_5
100
AcDbBlockReference
  2
_OPEN30
 10
-18.0
 20
-11.00000100000003
 30
0.0
 41
1.25
 42
1.25
 43
1.25
 50
180.0
  0
MTEXT
  5
4380
330
4351
100
AcDbEntity
  8
AM_5
 62
     2
100
AcDbMText
 10
-9.000000000000001
 20
-9.450001000000028
 30
0.0
 40
1.6
 41
0.0
 71
     5
 72
     1
  1
18
  7
ASAMI
1001
ACAD
1000
MTEXTBEGIN
1070
    73
1070
     1
1070
    44
1040
1.0
1070
    74
1070
     0
1000
MTEXTEND
  0
POINT
  5
4381
330
4351
100
AcDbEntity
  8
DEFPOINTS
 62
     0
100
AcDbPoint
 10
-0.0000000000000001
 20
-3.999999999999993
 30
0.0
  0
POINT
  5
4382
330
4351
100
AcDbEntity
  8
DEFPOINTS
 62
     0
100
AcDbPoint
 10
-18.0
 20
-3.999999999999993
 30
0.0
  0
POINT
  5
4383
330
4351
100
AcDbEntity
  8
DEFPOINTS
 62
     0
100
AcDbPoint
 10
-18.0
 20
-11.00000100000003
 30
0.0
  0
ENDBLK
  5
435C
330
4351
100
AcDbEntity
  8
0
100
AcDbBlockEnd
  0
BLOCK
  5
4367
330
435D
100
AcDbEntity
  8
0
100
AcDbBlockBegin
  2
*D8
 70
     1
 10
0.0
 20
0.0
 30
0.0
  3
*D8
  1

  0
LINE
  5
4384
330
435D
100
AcDbEntity
  8
AM_5
100
AcDbLine
 10
0.5
 20
4.000000000000006
 30
0.0
 11
12.05776903085518
 21
4.000000000000002
 31
0.0
  0
LINE
  5
4385
330
435D
100
AcDbEntity
  8
AM_5
100
AcDbLine
 10
0.5000000000000057
 20
-3.999999999999993
 30
0.0
 11
12.05776903085518
 21
-3.999999999999997
 31
0.0
  0
LINE
  5
4386
330
435D
100
AcDbEntity
  8
AM_5
100
AcDbLine
 10
11.55776903085518
 20
2.750000000000002
 30
0.0
 11
11.55776903085518
 21
-2.749999999999997
 31
0.0
  0
INSERT
  5
4387
330
435D
100
AcDbEntity
  8
AM_5
100
AcDbBlockReference
  2
_OPEN30
 10
11.55776903085518
 20
4.000000000000002
 30
0.0
 41
1.25
 42
1.25
 43
1.25
 50
90.0
  0
INSERT
  5
4388
330
435D
100
AcDbEntity
  8
AM_5
100
AcDbBlockReference
  2
_OPEN30
 10
11.55776903085518
 20
-3.999999999999997
 30
0.0
 41
1.25
 42
1.25
 43
1.25
 50
270.0
  0
MTEXT
  5
4389
330
435D
100
AcDbEntity
  8
AM_5
 62
     2
100
AcDbMText
 10
10.00776903085518
 20
0.0000000000000048
 30
0.0
 40
1.6
 41
0.0
 71
     5
 72
     1
  1
%%c8
  7
ASAMI
 11
0.0000000000000001
 21
1.0
 31
0.0
1001
ACAD
1000
MTEXTBEGIN
1070
    73
1070
     1
1070
    44
1040
1.0
1070
    74
1070
     0
1000
MTEXTEND
  0
POINT
  5
438A
330
435D
100
AcDbEntity
  8
DEFPOINTS
 62
     0
100
AcDbPoint
 10
0.0
 20
4.000000000000006
 30
0.0
  0
POINT
  5
438B
330
435D
100
AcDbEntity
  8
DEFPOINTS
 62
     0
100
AcDbPoint
 10
0.0000000000000057
 20
-3.999999999999993
 30
0.0
  0
POINT
  5
438C
330
435D
100
AcDbEntity
  8
DEFPOINTS
 62
     0
100
AcDbPoint
 10
11.55776903085518
 20
-3.999999999999997
 30
0.0
  0
ENDBLK
  5
4368
330
435D
100
AcDbEntity
  8
0
100
AcDbBlockEnd
  0
ENDSEC
  0
SECTION
  2
ENTITIES
  0
TEXT
  5
1500
330
1F
100
AcDbEntity
  8
AM_6
100
AcDbText
 10
-40.71428571428568
 20
-28.25000100000011
 30
0.0
 40
2.5
  1
HSM3080ZX
 72
     4
 11
-29.99999999999997
 21
-27.00000100000011
 31
0.0
100
AcDbText
  0
LINE
  5
42E3
330
1F
100
AcDbEntity
  8
AM_0
100
AcDbLine
 10
-21.34479773151412
 20
4.000000000000006
 30
0.0
 11
-59.50000000000001
 21
3.999999999999992
 31
0.0
  0
LINE
  5
42E4
330
1F
100
AcDbEntity
  8
AM_0
100
AcDbLine
 10
-18.58960776448889
 20
-3.999999999999988
 30
0.0
 11
-59.49999999999995
 21
-4.000000000000024
 31
0.0
  0
DIMENSION
  5
42E5
330
1F
100
AcDbEntity
  8
AM_5
100
AcDbDimension
  2
*D5
 10
-59.99999999999996
 20
-17.00000100000011
 30
0.0
 11
-29.99999999999998
 21
-15.45000100000011
 31
0.0
 70
    32
  1
<>
  3
AM_JIS
100
AcDbAlignedDimension
 13
-0.0000000000000001
 23
-3.999999999999993
 33
0.0
 14
-59.99999999999996
 24
-3.500000000000025
 34
0.0
 50
0.0000000000001132
100
AcDbRotatedDimension
1001
GENIUS_GENDTOL_13
1000

1000
h7
1000

1040
0.0
  0
LINE
  5
42E6
330
1F
100
AcDbEntity
  8
AM_7
  6
AM_ISO08W050X2
100
AcDbLine
 10
4.557768030855186
 20
0.0
 30
0.0
 11
-62.69469945058478
 21
-0.0000000000000249
 31
0.0
1001
GENIUS_GENODEF_13
1002
{
1000
HIER
1070
     0
1002
}
1002
{
1000
MANEDIT
1070
     0
1002
}
1002
{
1000
NOSEL
1070
     0
1002
}
1002
{
1000
BEHIND
1070
     0
1002
}
1002
{
1000
REACTOR
1002
}
1001
GENIUS_GENOBJ-N-CEN_13
1002
{
1000
OWNER
1000
GEN
1002
}
  0
DIMENSION
  5
42E7
330
1F
100
AcDbEntity
  8
AM_5
100
AcDbDimension
  2
*D6
 10
-69.69470045058476
 20
-4.000000000000023
 30
0.0
 11
-71.24470045058476
 21
-0.0000000000000251
 31
0.0
 70
    32
  1
%%c<>
  3
AM_JIS
100
AcDbAlignedDimension
 13
-59.25
 23
3.999999999999992
 33
0.0
 14
-59.49999999999996
 24
-4.000000000000025
 34
0.0
 50
270.0
100
AcDbRotatedDimension
1001
GENIUS_GENDTOL_13
1000

1000
h7
1000

1040
0.0
  0
LINE
  5
42E8
330
1F
100
AcDbEntity
  8
AM_0
100
AcDbLine
 10
-59.49999999999999
 20
3.999999999999992
 30
0.0
 11
-59.49999999999996
 21
-4.000000000000024
 31
0.0
  0
LINE
  5
42E9
330
1F
100
AcDbEntity
  8
AM_0
100
AcDbLine
 10
-60.0
 20
3.499999999999992
 30
0.0
 11
-59.99999999999996
 21
-3.500000000000025
 31
0.0
  0
LINE
  5
42EA
330
1F
100
AcDbEntity
  8
AM_0
100
AcDbLine
 10
-59.99999999999996
 20
-3.500000000000025
 30
0.0
 11
-59.49999999999995
 21
-4.000000000000024
 31
0.0
1001
GENIUS_GENFIL_13
1070
     0
1040
0.5
1040
0.5
1040
20.0
1040
0.0
1002
{
1002
}
1001
GENIUS_GENODEF_13
1002
{
1000
HIER
1070
     0
1002
}
1002
{
1000
MANEDIT
1070
     0
1002
}
1002
{
1000
NOSEL
1070
     0
1002
}
1002
{
1000
BEHIND
1070
     0
1002
}
1002
{
1000
REACTOR
1002
}
1001
GENIUS_GENOBJ-N-CHA_13
1002
{
1000
OWNER
1000
GEN
1002
}
  0
LINE
  5
42EB
330
1F
100
AcDbEntity
  8
AM_0
100
AcDbLine
 10
-59.50000000000001
 20
3.999999999999992
 30
0.0
 11
-60.0
 21
3.499999999999992
 31
0.0
1001
GENIUS_GENFIL_13
1070
     0
1040
0.5
1040
0.5
1040
20.0
1040
0.0
1002
{
1002
}
1001
GENIUS_GENODEF_13
1002
{
1000
HIER
1070
     0
1002
}
1002
{
1000
MANEDIT
1070
     0
1002
}
1002
{
1000
NOSEL
1070
     0
1002
}
1002
{
1000
BEHIND
1070
     0
1002
}
1002
{
1000
REACTOR
1002
}
1001
GENIUS_GENOBJ-N-CHA_13
1002
{
1000
OWNER
1000
GEN
1002
}
  0
DIMENSION
  5
42EC
330
1F
100
AcDbEntity
  8
AM_5
100
AcDbDimension
  2
*D7
 10
-18.0
 20
-11.00000100000003
 30
0.0
 11
-9.000000000000001
 21
-9.450001000000028
 31
0.0
 70
    32
  1
<>
  3
AM_JIS
100
AcDbAlignedDimension
 13
-0.0000000000000001
 23
-3.999999999999993
 33
0.0
 14
-18.0
 24
-3.999999999999993
 34
0.0
 50
0.0000000000001132
100
AcDbRotatedDimension
1001
GENIUS_GENDTOL_13
1000

1000
h7
1000

1040
0.0
  0
SPLINE
  5
42ED
330
1F
100
AcDbEntity
  8
AM_0
100
AcDbSpline
210
0.0
220
0.0
230
1.0
 70
     8
 71
     3
 72
     8
 73
     4
 74
     0
 42
0.0000000001
 43
0.0000000001
 40
0.157854605497133
 40
0.157854605497133
 40
0.157854605497133
 40
0.157854605497133
 40
6.616360992657454
 40
6.616360992657454
 40
6.616360992657454
 40
6.616360992657454
 10
-21.34479773151412
 20
4.000000000000006
 30
0.0
 10
-19.18144979750434
 20
3.936953988280606
 30
0.0
 10
-18.28552878099838
 20
1.893865301308501
 30
0.0
 10
-17.38960776449278
 20
0.0000000000004547
 30
0.0
  0
SPLINE
  5
42EE
330
1F
100
AcDbEntity
  8
AM_0
100
AcDbSpline
210
0.0
220
0.0
230
1.0
 70
     8
 71
     3
 72
     8
 73
     4
 74
     0
 42
0.0000000001
 43
0.0000000001
 40
4.033799950929969
 40
4.033799950929969
 40
4.033799950929969
 40
4.033799950929969
 40
5.381449618829727
 40
5.381449618829727
 40
5.381449618829727
 40
5.381449618829727
 10
-18.69245899374609
 20
1.471140507636517
 30
0.0
 10
-18.45231354243058
 20
1.001700109342332
 30
0.0
 10
-18.22615677121002
 20
0.5008500546714404
 30
0.0
 10
-17.99999999998947
 20
0.0000000000005471
 30
0.0
  0
SPLINE
  5
42EF
330
1F
100
AcDbEntity
  8
AM_0
100
AcDbSpline
210
0.0
220
0.0
230
1.0
 70
     8
 71
     3
 72
     8
 73
     4
 74
     2
 42
0.0000000001
 43
0.0000000001
 44
0.0000000001
 12
-1.0
 22
0.0000000000000001
 32
0.0
 40
0.0
 40
0.0
 40
0.0
 40
0.0
 40
4.906525957647765
 40
4.906525957647765
 40
4.906525957647765
 40
4.906525957647765
 10
-1.135999140479897
 20
-3.601384726403467
 30
0.0
 10
-2.771507793029153
 20
-3.601384726403467
 30
0.0
 10
-3.619888592239191
 20
-1.800692363201459
 30
0.0
 10
-4.468269391449228
 20
0.0000000000005471
 30
0.0
 11
-1.135999140479897
 21
-3.601384726403467
 31
0.0
 11
-4.468269391449228
 21
0.0000000000005471
 31
0.0
  0
SPLINE
  5
42F0
330
1F
100
AcDbEntity
  8
AM_0
100
AcDbSpline
210
0.0
220
0.0
230
1.0
 70
     8
 71
     3
 72
     8
 73
     4
 74
     0
 42
0.0000000001
 43
0.0000000001
 40
0.0
 40
0.0
 40
0.0
 40
0.0
 40
0.4556590281797062
 40
0.4556590281797062
 40
0.4556590281797062
 40
0.4556590281797062
 10
-1.135999140479897
 20
-3.601384726403467
 30
0.0
 10
-1.014490066298447
 20
-3.609527677743415
 30
0.0
 10
-0.8968753584001998
 20
-3.594943069619006
 30
0.0
 10
-0.6853622951505494
 20
-3.481541632370579
 30
0.0
  0
SPLINE
  5
42F1
330
1F
100
AcDbEntity
  8
AM_0
100
AcDbSpline
210
0.0
220
0.0
230
1.0
 70
     8
 71
     3
 72
     8
 73
     4
 74
     0
 42
0.0000000001
 43
0.0000000001
 40
0.0
 40
0.0
 40
0.0
 40
0.0
 40
3.138307834541913
 40
3.138307834541913
 40
3.138307834541913
 40
3.138307834541913
 10
-1.364758180269219
 20
-3.877021101953602
 30
0.0
 10
-1.352725675291746
 20
-3.88030784635621
 30
0.0
 10
-0.5153962889864943
 20
-3.598838475708163
 30
0.0
 10
-0.160000000006785
 20
-2.777839101302745
 30
0.0
  0
SPLINE
  5
42F2
330
1F
100
AcDbEntity
  8
AM_0
100
AcDbSpline
210
0.0
220
0.0
230
1.0
 70
     8
 71
     3
 72
     8
 73
     4
 74
     2
 42
0.0000000001
 43
0.0000000001
 44
0.0000000001
 12
-1.0
 22
0.0000000000000001
 32
0.0
 40
0.0
 40
0.0
 40
0.0
 40
0.0
 40
5.376411168255489
 40
5.376411168255489
 40
5.376411168255489
 40
5.376411168255489
 10
-1.364758180269219
 20
-3.877021101953602
 30
0.0
 10
-3.156895236354382
 20
-3.877021101953602
 30
0.0
 10
-4.123251500427216
 20
-1.938510550976527
 30
0.0
 10
-5.08960776450005
 20
0.0000000000005471
 30
0.0
 11
-1.364758180269219
 21
-3.877021101953602
 31
0.0
 11
-5.08960776450005
 21
0.0000000000005471
 31
0.0
  0
SPLINE
  5
42F3
330
1F
100
AcDbEntity
  8
AM_0
100
AcDbSpline
210
0.0
220
0.0
230
1.0
 70
     8
 71
     3
 72
     8
 73
     4
 74
     2
 42
0.0000000001
 43
0.0000000001
 44
0.0000000001
 12
1.0
 22
-0.0000000000000002
 32
0.0
 40
0.0
 40
0.0
 40
0.0
 40
0.0
 40
5.381449618829972
 40
5.381449618829972
 40
5.381449618829972
 40
5.381449618829972
 10
-5.199999999999653
 20
4.000000000000547
 30
0.0
 10
-3.406183460389663
 20
4.000000000000547
 30
0.0
 10
-2.503091730194293
 20
2.000000000000547
 30
0.0
 10
-1.599999999998924
 20
0.0000000000005471
 30
0.0
 11
-5.199999999999653
 21
4.000000000000547
 31
0.0
 11
-1.599999999998924
 21
0.0000000000005471
 31
0.0
  0
SPLINE
  5
42F4
330
1F
100
AcDbEntity
  8
AM_0
100
AcDbSpline
210
0.0
220
0.0
230
1.0
 70
     8
 71
     3
 72
     8
 73
     4
 74
     0
 42
0.0000000001
 43
0.0000000001
 40
0.157854605497133
 40
0.157854605497133
 40
0.157854605497133
 40
0.157854605497133
 40
6.616360992657454
 40
6.616360992657454
 40
6.616360992657454
 40
6.616360992657454
 10
-4.464758180268488
 20
3.877021101954596
 30
0.0
 10
-2.781449797513796
 20
3.787730602616647
 30
0.0
 10
-1.88552878100783
 20
1.893865301308501
 30
0.0
 10
-0.9896077645022344
 20
0.0000000000003624
 30
0.0
  0
SPLINE
  5
42F5
330
1F
100
AcDbEntity
  8
AM_0
100
AcDbSpline
210
0.0
220
0.0
230
1.0
 70
     8
 71
     3
 72
     8
 73
     4
 74
     0
 42
0.0000000001
 43
0.0000000001
 40
0.3982504941345976
 40
0.3982504941345976
 40
0.3982504941345976
 40
0.3982504941345976
 40
6.01848148651983
 40
6.01848148651983
 40
6.01848148651983
 40
6.01848148651983
 10
-3.658410013818154
 20
3.678302898013136
 30
0.0
 10
-2.241055218653872
 20
3.485557658136805
 30
0.0
 10
-1.379598979681776
 20
1.976083498438761
 30
0.0
 10
-0.5579570890218931
 20
0.372303096599353
 30
0.0
  0
SPLINE
  5
42F6
330
1F
100
AcDbEntity
  8
AM_0
100
AcDbSpline
210
0.0
220
0.0
230
1.0
 70
     8
 71
     3
 72
     9
 73
     5
 74
     3
 42
0.0000000001
 43
0.0000000001
 44
0.0000000001
 12
-0.7037104554506215
 22
-0.7104868717221163
 32
0.0
 13
-0.5728114391284047
 23
0.819687169110049
 33
0.0
 40
0.0
 40
0.0
 40
0.0
 40
0.0
 40
0.2773136962795497
 40
0.519227445538661
 40
0.519227445538661
 40
0.519227445538661
 40
0.519227445538661
 10
-0.1600000000053284
 20
-2.734461488221498
 30
0.0
 10
-0.2250495158425208
 20
-2.800137401739949
 30
0.0
 10
-0.3647388546489808
 20
-3.04201773103469
 30
0.0
 10
-0.4738096790474046
 20
-2.800559353654497
 30
0.0
 10
-0.5200000000000912
 20
-2.734461488221498
 30
0.0
 11
-0.1600000000053284
 21
-2.734461488221498
 31
0.0
 11
-0.3655286445358952
 21
-2.920635767921069
 31
0.0
 11
-0.5200000000000912
 21
-2.734461488221498
 31
0.0
  0
SPLINE
  5
42F7
330
1F
100
AcDbEntity
  8
AM_0
100
AcDbSpline
210
0.0
220
0.0
230
1.0
 70
     8
 71
     3
 72
     8
 73
     4
 74
     0
 42
0.0000000001
 43
0.0000000001
 40
4.32310436431184
 40
4.32310436431184
 40
4.32310436431184
 40
4.32310436431184
 40
6.616360992657454
 40
6.616360992657454
 40
6.616360992657454
 40
6.616360992657454
 10
0.0000000000003454
 20
-1.936608752538631
 30
0.0
 10
-0.3533687685445513
 20
-1.344929894023607
 30
0.0
 10
-0.6714882665233929
 20
-0.6724649470115765
 30
0.0
 10
-0.9896077645022344
 20
0.0000000000004547
 30
0.0
  0
SPLINE
  5
42F8
330
1F
100
AcDbEntity
  8
AM_0
100
AcDbSpline
210
0.0
220
0.0
230
1.0
 70
     8
 71
     3
 72
     8
 73
     4
 74
     2
 42
0.0000000001
 43
0.0000000001
 44
0.0000000001
 12
0.2563440340107919
 22
-0.9665856072935671
 32
0.0
 13
-1.0
 23
0.0000000000000001
 33
0.0
 40
0.0
 40
0.0
 40
0.0
 40
0.0
 40
1.955751451335612
 40
1.955751451335612
 40
1.955751451335612
 40
1.955751451335612
 10
-0.3999999999952868
 20
4.0
 30
0.0
 10
-0.2328849278093429
 20
3.36986626523183
 30
0.0
 10
-0.5632330886107608
 20
2.222222222222171
 30
0.0
 10
-1.215150239055964
 20
2.222222222222171
 30
0.0
 11
-0.3999999999952868
 21
4.0
 31
0.0
 11
-1.215150239055964
 21
2.222222222222171
 31
0.0
  0
SPLINE
  5
42F9
330
1F
100
AcDbEntity
  8
AM_0
100
AcDbSpline
210
0.0
220
0.0
230
1.0
 70
     8
 71
     3
 72
     9
 73
     5
 74
     3
 42
0.0000000001
 43
0.0000000001
 44
0.0000000001
 12
-0.3385048798911532
 22
0.9409646360463693
 32
0.0
 13
0.9630016908632651
 23
-0.2694953494858348
 33
0.0
 40
0.0
 40
0.0
 40
0.0
 40
0.0
 40
1.329162963100043
 40
1.662935565024672
 40
1.662935565024672
 40
1.662935565024672
 40
1.662935565024672
 10
-0.5200000000000912
 20
-2.734461488221498
 30
0.0
 10
-0.669976049726741
 20
-2.317563040281583
 30
0.0
 10
-1.677804615015823
 20
-1.840762051697347
 30
0.0
 10
-1.017169407282324
 20
-1.436292984574214
 30
0.0
 10
-0.9100282139432415
 20
-1.466276372575705
 30
0.0
 11
-0.5200000000000912
 21
-2.734461488221498
 31
0.0
 11
-1.215150239055964
 21
-1.601571234217409
 31
0.0
 11
-0.9100282139432415
 21
-1.466276372575705
 31
0.0
  0
SPLINE
  5
42FA
330
1F
100
AcDbEntity
  8
AM_0
100
AcDbSpline
210
0.0
220
0.0
230
1.0
 70
     8
 71
     3
 72
     8
 73
     4
 74
     0
 42
0.0000000001
 43
0.0000000001
 40
4.390614724758877
 40
4.390614724758877
 40
4.390614724758877
 40
4.390614724758877
 40
6.726812023537121
 40
6.726812023537121
 40
6.726812023537121
 40
6.726812023537121
 10
-0.6217669703870527
 20
-1.999999999989995
 30
0.0
 10
-0.9727190671445164
 20
-1.389185421327788
 30
0.0
 10
-1.286359533571903
 20
-0.6945927106636205
 30
0.0
 10
-1.599999999998924
 20
0.0000000000004547
 30
0.0
  0
SPLINE
  5
42FB
330
1F
100
AcDbEntity
  8
AM_0
100
AcDbSpline
210
0.0
220
0.0
230
1.0
 70
     8
 71
     3
 72
     8
 73
     4
 74
     0
 42
0.0000000001
 43
0.0000000001
 40
0.0
 40
0.0
 40
0.0
 40
0.0
 40
2.948331486770748
 40
2.948331486770748
 40
2.948331486770748
 40
2.948331486770748
 10
-0.3999999999974718
 20
4.000000000000632
 30
0.0
 10
-1.186221729802872
 20
4.000000000001001
 30
0.0
 10
-1.801332594735884
 20
3.615794096978788
 30
0.0
 10
-2.320329718079316
 20
3.015778012015836
 30
0.0
  0
SPLINE
  5
42FC
330
1F
100
AcDbEntity
  8
AM_0
100
AcDbSpline
210
0.0
220
0.0
230
1.0
 70
     8
 71
     3
 72
     8
 73
     4
 74
     2
 42
0.0000000001
 43
0.0000000001
 44
0.0000000001
 12
-1.0
 22
0.0000000000000001
 32
0.0
 40
0.0
 40
0.0
 40
0.0
 40
0.0
 40
5.381449618829727
 40
5.381449618829727
 40
5.381449618829727
 40
5.381449618829727
 10
-2.099999999996742
 20
-3.999999999999545
 30
0.0
 10
-3.893816539606651
 20
-3.999999999999545
 30
0.0
 10
-4.796908269801878
 20
-1.999999999999545
 30
0.0
 10
-5.699999999997106
 20
0.0000000000004547
 30
0.0
 11
-2.099999999996742
 21
-3.999999999999545
 31
0.0
 11
-5.699999999997106
 21
0.0000000000004547
 31
0.0
  0
SPLINE
  5
42FD
330
1F
100
AcDbEntity
  8
AM_0
100
AcDbSpline
210
0.0
220
0.0
230
1.0
 70
     8
 71
     3
 72
     8
 73
     4
 74
     2
 42
0.0000000001
 43
0.0000000001
 44
0.0000000001
 12
1.0
 22
-0.0000000000000002
 32
0.0
 40
0.0
 40
0.0
 40
0.0
 40
0.0
 40
5.381449618829483
 40
5.381449618829483
 40
5.381449618829483
 40
5.381449618829483
 10
-9.300000000001109
 20
4.000000000000454
 30
0.0
 10
-7.506183460391281
 20
4.000000000000454
 30
0.0
 10
-6.603091730196196
 20
2.000000000000454
 30
0.0
 10
-5.70000000000111
 20
0.0000000000004547
 30
0.0
 11
-9.300000000001109
 21
4.000000000000454
 31
0.0
 11
-5.70000000000111
 21
0.0000000000004547
 31
0.0
  0
SPLINE
  5
42FE
330
1F
100
AcDbEntity
  8
AM_0
100
AcDbSpline
210
0.0
220
0.0
230
1.0
 70
     8
 71
     3
 72
     8
 73
     4
 74
     0
 42
0.0000000001
 43
0.0000000001
 40
0.157854605497133
 40
0.157854605497133
 40
0.157854605497133
 40
0.157854605497133
 40
6.616360992657454
 40
6.616360992657454
 40
6.616360992657454
 40
6.616360992657454
 10
-8.564758180270313
 20
3.877021101954412
 30
0.0
 10
-6.881449797515613
 20
3.787730602616555
 30
0.0
 10
-5.985528781010017
 20
1.893865301308416
 30
0.0
 10
-5.089607764504051
 20
0.0000000000003624
 30
0.0
  0
SPLINE
  5
42FF
330
1F
100
AcDbEntity
  8
AM_0
100
AcDbSpline
210
0.0
220
0.0
230
1.0
 70
     8
 71
     3
 72
     8
 73
     4
 74
     0
 42
0.0000000001
 43
0.0000000001
 40
0.3982504941345976
 40
0.3982504941345976
 40
0.3982504941345976
 40
0.3982504941345976
 40
6.452065446090842
 40
6.452065446090842
 40
6.452065446090842
 40
6.452065446090842
 10
-7.758410013819616
 20
3.678302898012951
 30
0.0
 10
-6.231710548474455
 20
3.470687941143388
 30
0.0
 10
-5.349989969964027
 20
1.735343970571918
 30
0.0
 10
-4.468269391453232
 20
0.0000000000005471
 30
0.0
  0
SPLINE
  5
4300
330
1F
100
AcDbEntity
  8
AM_0
100
AcDbSpline
210
0.0
220
0.0
230
1.0
 70
     8
 71
     3
 72
     8
 73
     4
 74
     0
 42
0.0000000001
 43
0.0000000001
 40
0.0
 40
0.0
 40
0.0
 40
0.0
 40
0.9875149968653097
 40
0.9875149968653097
 40
0.9875149968653097
 40
0.9875149968653097
 10
-2.099999999999652
 20
-3.999999999999367
 30
0.0
 10
-1.836662667502259
 20
-3.999999999999367
 30
0.0
 10
-1.592521406769463
 20
-3.956897862141524
 30
0.0
 10
-1.364758180269219
 20
-3.877021101953602
 30
0.0
  0
SPLINE
  5
4301
330
1F
100
AcDbEntity
  8
AM_0
100
AcDbSpline
210
0.0
220
0.0
230
1.0
 70
     8
 71
     3
 72
     8
 73
     4
 74
     0
 42
0.0000000001
 43
0.0000000001
 40
0.3982504941345976
 40
0.3982504941345976
 40
0.3982504941345976
 40
0.3982504941345976
 40
6.452065446090842
 40
6.452065446090842
 40
6.452065446090842
 40
6.452065446090842
 10
-11.85841001381597
 20
3.678302898013043
 30
0.0
 10
-10.33171054847082
 20
3.470687941143474
 30
0.0
 10
-9.449989969960389
 20
1.73534397057201
 30
0.0
 10
-8.568269391449232
 20
0.0000000000005471
 30
0.0
  0
SPLINE
  5
4302
330
1F
100
AcDbEntity
  8
AM_0
100
AcDbSpline
210
0.0
220
0.0
230
1.0
 70
     8
 71
     3
 72
     8
 73
     4
 74
     0
 42
0.0000000001
 43
0.0000000001
 40
0.157854605497133
 40
0.157854605497133
 40
0.157854605497133
 40
0.157854605497133
 40
6.616360992657454
 40
6.616360992657454
 40
6.616360992657454
 40
6.616360992657454
 10
-12.66475818026631
 20
3.877021101954504
 30
0.0
 10
-10.98144979751198
 20
3.787730602616555
 30
0.0
 10
-10.08552878100638
 20
1.893865301308501
 30
0.0
 10
-9.189607764500051
 20
0.0000000000003624
 30
0.0
  0
SPLINE
  5
4303
330
1F
100
AcDbEntity
  8
AM_0
100
AcDbSpline
210
0.0
220
0.0
230
1.0
 70
     8
 71
     3
 72
     8
 73
     4
 74
     2
 42
0.0000000001
 43
0.0000000001
 44
0.0000000001
 12
1.0
 22
-0.0000000000000002
 32
0.0
 40
0.0
 40
0.0
 40
0.0
 40
0.0
 40
5.381449618829727
 40
5.381449618829727
 40
5.381449618829727
 40
5.381449618829727
 10
-13.39999999999747
 20
4.000000000000454
 30
0.0
 10
-11.60618346038756
 20
4.000000000000454
 30
0.0
 10
-10.70309173019233
 20
2.000000000000454
 30
0.0
 10
-9.79999999999711
 20
0.0000000000004547
 30
0.0
 11
-13.39999999999747
 21
4.000000000000454
 31
0.0
 11
-9.79999999999711
 21
0.0000000000004547
 31
0.0
  0
SPLINE
  5
4304
330
1F
100
AcDbEntity
  8
AM_0
100
AcDbSpline
210
0.0
220
0.0
230
1.0
 70
     8
 71
     3
 72
     8
 73
     4
 74
     2
 42
0.0000000001
 43
0.0000000001
 44
0.0000000001
 12
-1.0
 22
0.0000000000000001
 32
0.0
 40
0.0
 40
0.0
 40
0.0
 40
0.0
 40
5.161652356872412
 40
5.161652356872412
 40
5.161652356872412
 40
5.161652356872412
 10
-4.968269391449227
 20
-3.699007306454319
 30
0.0
 10
-6.688820177073364
 20
-3.699007306454319
 30
0.0
 10
-7.6285447842613
 20
-1.849503653226886
 30
0.0
 10
-8.568269391449232
 20
0.0000000000005471
 30
0.0
 11
-4.968269391449227
 21
-3.699007306454319
 31
0.0
 11
-8.568269391449232
 21
0.0000000000005471
 31
0.0
  0
SPLINE
  5
4305
330
1F
100
AcDbEntity
  8
AM_0
100
AcDbSpline
210
0.0
220
0.0
230
1.0
 70
     8
 71
     3
 72
     8
 73
     4
 74
     2
 42
0.0000000001
 43
0.0000000001
 44
0.0000000001
 12
-1.0
 22
0.0000000000000001
 32
0.0
 40
0.0
 40
0.0
 40
0.0
 40
0.0
 40
5.293088794125787
 40
5.293088794125787
 40
5.293088794125787
 40
5.293088794125787
 10
-5.589607764500049
 20
-3.880307846356487
 30
0.0
 10
-7.353970695875311
 20
-3.880307846356487
 30
0.0
 10
-8.27178923018768
 20
-1.94015392317797
 30
0.0
 10
-9.189607764500051
 20
0.0000000000005471
 30
0.0
 11
-5.589607764500049
 21
-3.880307846356487
 31
0.0
 11
-9.189607764500051
 21
0.0000000000005471
 31
0.0
  0
SPLINE
  5
4306
330
1F
100
AcDbEntity
  8
AM_0
100
AcDbSpline
210
0.0
220
0.0
230
1.0
 70
     8
 71
     3
 72
     8
 73
     4
 74
     2
 42
0.0000000001
 43
0.0000000001
 44
0.0000000001
 12
-1.0
 22
0.0000000000000001
 32
0.0
 40
0.0
 40
0.0
 40
0.0
 40
0.0
 40
5.38144961882973
 40
5.38144961882973
 40
5.38144961882973
 40
5.38144961882973
 10
-6.199999999996742
 20
-3.999999999999545
 30
0.0
 10
-7.993816539606652
 20
-3.999999999999545
 30
0.0
 10
-8.896908269801881
 20
-1.999999999999545
 30
0.0
 10
-9.79999999999711
 20
0.0000000000004547
 30
0.0
 11
-6.199999999996742
 21
-3.999999999999545
 31
0.0
 11
-9.79999999999711
 21
0.0000000000004547
 31
0.0
  0
SPLINE
  5
4307
330
1F
100
AcDbEntity
  8
AM_0
100
AcDbSpline
210
0.0
220
0.0
230
1.0
 70
     8
 71
     3
 72
     8
 73
     4
 74
     0
 42
0.0000000001
 43
0.0000000001
 40
0.0
 40
0.0
 40
0.0
 40
0.0
 40
0.9875149967633806
 40
0.9875149967633806
 40
0.9875149967633806
 40
0.9875149967633806
 10
-6.199999999997833
 20
-3.999999999999367
 30
0.0
 10
-5.936662667527358
 20
-3.999999999999367
 30
0.0
 10
-5.692521406817847
 20
-3.956897862150441
 30
0.0
 10
-5.464758180337974
 20
-3.877021101978336
 30
0.0
  0
SPLINE
  5
4308
330
1F
100
AcDbEntity
  8
AM_0
100
AcDbSpline
210
0.0
220
0.0
230
1.0
 70
     8
 71
     3
 72
     8
 73
     4
 74
     0
 42
0.0000000001
 43
0.0000000001
 40
0.0
 40
0.0
 40
0.0
 40
0.0
 40
1.274172826456642
 40
1.274172826456642
 40
1.274172826456642
 40
1.274172826456642
 10
-5.589607764500777
 20
-3.88030784635621
 30
0.0
 10
-5.249828344112409
 20
-3.88030784635621
 30
0.0
 10
-4.941444469148351
 20
-3.808353923045252
 30
0.0
 10
-4.658410013815971
 20
-3.678302898011864
 30
0.0
  0
SPLINE
  5
4309
330
1F
100
AcDbEntity
  8
AM_0
100
AcDbSpline
210
0.0
220
0.0
230
1.0
 70
     8
 71
     3
 72
     8
 73
     4
 74
     2
 42
0.0000000001
 43
0.0000000001
 44
0.0000000001
 12
-1.0
 22
0.0000000000000001
 32
0.0
 40
0.0
 40
0.0
 40
0.0
 40
0.0
 40
5.381449618829733
 40
5.381449618829733
 40
5.381449618829733
 40
5.381449618829733
 10
-10.2999999999931
 20
-3.999999999999459
 30
0.0
 10
-12.09381653960301
 20
-3.999999999999459
 30
0.0
 10
-12.99690826979824
 20
-1.999999999999456
 30
0.0
 10
-13.89999999999347
 20
0.0000000000005471
 30
0.0
 11
-10.2999999999931
 21
-3.999999999999459
 31
0.0
 11
-13.89999999999347
 21
0.0000000000005471
 31
0.0
  0
SPLINE
  5
430A
330
1F
100
AcDbEntity
  8
AM_0
100
AcDbSpline
210
0.0
220
0.0
230
1.0
 70
     8
 71
     3
 72
     8
 73
     4
 74
     0
 42
0.0000000001
 43
0.0000000001
 40
0.0
 40
0.0
 40
0.0
 40
0.0
 40
1.274172826456642
 40
1.274172826456642
 40
1.274172826456642
 40
1.274172826456642
 10
-9.689607764497141
 20
-3.880307846356117
 30
0.0
 10
-9.349828344108773
 20
-3.880307846356117
 30
0.0
 10
-9.041444469144716
 20
-3.808353923045252
 30
0.0
 10
-8.758410013812339
 20
-3.678302898011864
 30
0.0
  0
SPLINE
  5
430B
330
1F
100
AcDbEntity
  8
AM_0
100
AcDbSpline
210
0.0
220
0.0
230
1.0
 70
     8
 71
     3
 72
     8
 73
     4
 74
     0
 42
0.0000000001
 43
0.0000000001
 40
0.0
 40
0.0
 40
0.0
 40
0.0
 40
0.9875149967633806
 40
0.9875149967633806
 40
0.9875149967633806
 40
0.9875149967633806
 10
-10.29999999999383
 20
-3.999999999999275
 30
0.0
 10
-10.03666266752373
 20
-3.999999999999275
 30
0.0
 10
-9.792521406813849
 20
-3.956897862150348
 30
0.0
 10
-9.564758180334338
 20
-3.877021101978243
 30
0.0
  0
SPLINE
  5
430C
330
1F
100
AcDbEntity
  8
AM_0
100
AcDbSpline
210
0.0
220
0.0
230
1.0
 70
     8
 71
     3
 72
     8
 73
     4
 74
     2
 42
0.0000000001
 43
0.0000000001
 44
0.0000000001
 12
-1.0
 22
0.0000000000000001
 32
0.0
 40
0.0
 40
0.0
 40
0.0
 40
0.0
 40
5.16165235687247
 40
5.16165235687247
 40
5.16165235687247
 40
5.16165235687247
 10
-9.068269391445591
 20
-3.699007306454319
 30
0.0
 10
-10.78882017706974
 20
-3.699007306454319
 30
0.0
 10
-11.72854478425767
 20
-1.849503653226843
 30
0.0
 10
-12.66826939144559
 20
0.0000000000006324
 30
0.0
 11
-9.068269391445591
 21
-3.699007306454319
 31
0.0
 11
-12.66826939144559
 21
0.0000000000006324
 31
0.0
  0
SPLINE
  5
430D
330
1F
100
AcDbEntity
  8
AM_0
100
AcDbSpline
210
0.0
220
0.0
230
1.0
 70
     8
 71
     3
 72
     8
 73
     4
 74
     2
 42
0.0000000001
 43
0.0000000001
 44
0.0000000001
 12
-1.0
 22
0.0000000000000001
 32
0.0
 40
0.0
 40
0.0
 40
0.0
 40
0.0
 40
5.293088794125786
 40
5.293088794125786
 40
5.293088794125786
 40
5.293088794125786
 10
-9.689607764496416
 20
-3.880307846356487
 30
0.0
 10
-11.45397069587167
 20
-3.880307846356487
 30
0.0
 10
-12.37178923018404
 20
-1.94015392317797
 30
0.0
 10
-13.28960776449641
 20
0.0000000000005471
 30
0.0
 11
-9.689607764496416
 21
-3.880307846356487
 31
0.0
 11
-13.28960776449641
 21
0.0000000000005471
 31
0.0
  0
SPLINE
  5
430E
330
1F
100
AcDbEntity
  8
AM_0
100
AcDbSpline
210
0.0
220
0.0
230
1.0
 70
     8
 71
     3
 72
     8
 73
     4
 74
     0
 42
0.0000000001
 43
0.0000000001
 40
0.3982504941345976
 40
0.3982504941345976
 40
0.3982504941345976
 40
0.3982504941345976
 40
6.452065446090842
 40
6.452065446090842
 40
6.452065446090842
 40
6.452065446090842
 10
-15.95841001381234
 20
3.678302898013136
 30
0.0
 10
-14.43171054846718
 20
3.470687941143474
 30
0.0
 10
-13.54998996995638
 20
1.73534397057201
 30
0.0
 10
-12.66826939144559
 20
0.0000000000005471
 30
0.0
  0
SPLINE
  5
430F
330
1F
100
AcDbEntity
  8
AM_0
100
AcDbSpline
210
0.0
220
0.0
230
1.0
 70
     8
 71
     3
 72
     8
 73
     4
 74
     0
 42
0.0000000001
 43
0.0000000001
 40
0.157854605497133
 40
0.157854605497133
 40
0.157854605497133
 40
0.157854605497133
 40
6.616360992657454
 40
6.616360992657454
 40
6.616360992657454
 40
6.616360992657454
 10
-16.76475818026267
 20
3.877021101954596
 30
0.0
 10
-15.08144979750834
 20
3.787730602616647
 30
0.0
 10
-14.18552878100237
 20
1.893865301308501
 30
0.0
 10
-13.28960776449641
 20
0.0000000000003624
 30
0.0
  0
SPLINE
  5
4310
330
1F
100
AcDbEntity
  8
AM_0
100
AcDbSpline
210
0.0
220
0.0
230
1.0
 70
     8
 71
     3
 72
     8
 73
     4
 74
     2
 42
0.0000000001
 43
0.0000000001
 44
0.0000000001
 12
1.0
 22
-0.0000000000000002
 32
0.0
 40
0.0
 40
0.0
 40
0.0
 40
0.0
 40
5.381449618829733
 40
5.381449618829733
 40
5.381449618829733
 40
5.381449618829733
 10
-17.49999999999384
 20
4.000000000000547
 30
0.0
 10
-15.70618346038393
 20
4.000000000000547
 30
0.0
 10
-14.8030917301887
 20
2.000000000000547
 30
0.0
 10
-13.89999999999347
 20
0.0000000000005471
 30
0.0
 11
-17.49999999999384
 21
4.000000000000547
 31
0.0
 11
-13.89999999999347
 21
0.0000000000005471
 31
0.0
  0
SPLINE
  5
4311
330
1F
100
AcDbEntity
  8
AM_0
100
AcDbSpline
210
0.0
220
0.0
230
1.0
 70
     8
 71
     3
 72
     8
 73
     4
 74
     2
 42
0.0000000001
 43
0.0000000001
 44
0.0000000001
 12
-1.0
 22
0.0000000000000001
 32
0.0
 40
0.0
 40
0.0
 40
0.0
 40
0.0
 40
5.381449618829491
 40
5.381449618829491
 40
5.381449618829491
 40
5.381449618829491
 10
-14.39999999998947
 20
-3.999999999999459
 30
0.0
 10
-16.1938165395993
 20
-3.999999999999459
 30
0.0
 10
-17.09690826979439
 20
-1.999999999999456
 30
0.0
 10
-17.99999999998947
 20
0.0000000000005471
 30
0.0
 11
-14.39999999998947
 21
-3.999999999999459
 31
0.0
 11
-17.99999999998947
 21
0.0000000000005471
 31
0.0
  0
SPLINE
  5
4312
330
1F
100
AcDbEntity
  8
AM_0
100
AcDbSpline
210
0.0
220
0.0
230
1.0
 70
     8
 71
     3
 72
     8
 73
     4
 74
     2
 42
0.0000000001
 43
0.0000000001
 44
0.0000000001
 12
-1.0
 22
0.0000000000000001
 32
0.0
 40
0.0
 40
0.0
 40
0.0
 40
0.0
 40
5.293088794125966
 40
5.293088794125966
 40
5.293088794125966
 40
5.293088794125966
 10
-13.78960776449241
 20
-3.880307846356394
 30
0.0
 10
-15.55397069586773
 20
-3.880307846356394
 30
0.0
 10
-16.47178923018025
 20
-1.940153923177924
 30
0.0
 10
-17.38960776449278
 20
0.0000000000005471
 30
0.0
 11
-13.78960776449241
 21
-3.880307846356394
 31
0.0
 11
-17.38960776449278
 21
0.0000000000005471
 31
0.0
  0
SPLINE
  5
4313
330
1F
100
AcDbEntity
  8
AM_0
100
AcDbSpline
210
0.0
220
0.0
230
1.0
 70
     8
 71
     3
 72
     8
 73
     4
 74
     0
 42
0.0000000001
 43
0.0000000001
 40
0.0
 40
0.0
 40
0.0
 40
0.0
 40
0.9875149967633806
 40
0.9875149967633806
 40
0.9875149967633806
 40
0.9875149967633806
 10
-14.39999999999019
 20
-3.999999999999275
 30
0.0
 10
-14.13666266752009
 20
-3.999999999999275
 30
0.0
 10
-13.89252140681021
 20
-3.956897862150256
 30
0.0
 10
-13.66475818033034
 20
-3.877021101978243
 30
0.0
  0
SPLINE
  5
4314
330
1F
100
AcDbEntity
  8
AM_0
100
AcDbSpline
210
0.0
220
0.0
230
1.0
 70
     8
 71
     3
 72
     8
 73
     4
 74
     2
 42
0.0000000001
 43
0.0000000001
 44
0.0000000001
 12
-1.0
 22
0.0000000000000001
 32
0.0
 40
0.0
 40
0.0
 40
0.0
 40
0.0
 40
5.161652356872724
 40
5.161652356872724
 40
5.161652356872724
 40
5.161652356872724
 10
-13.16826939144159
 20
-3.699007306454227
 30
0.0
 10
-14.88882017706584
 20
-3.699007306454227
 30
0.0
 10
-15.8285447842539
 20
-1.849503653226751
 30
0.0
 10
-16.76826939144196
 20
0.0000000000007248
 30
0.0
 11
-13.16826939144159
 21
-3.699007306454227
 31
0.0
 11
-16.76826939144196
 21
0.0000000000007248
 31
0.0
  0
SPLINE
  5
4315
330
1F
100
AcDbEntity
  8
AM_0
100
AcDbSpline
210
0.0
220
0.0
230
1.0
 70
     8
 71
     3
 72
     8
 73
     4
 74
     0
 42
0.0000000001
 43
0.0000000001
 40
0.0
 40
0.0
 40
0.0
 40
0.0
 40
1.274172826456642
 40
1.274172826456642
 40
1.274172826456642
 40
1.274172826456642
 10
-13.78960776449351
 20
-3.880307846356117
 30
0.0
 10
-13.44982834410514
 20
-3.880307846356117
 30
0.0
 10
-13.14144446914108
 20
-3.808353923045252
 30
0.0
 10
-12.8584100138087
 20
-3.678302898011864
 30
0.0
  0
SPLINE
  5
4316
330
1F
100
AcDbEntity
  8
AM_0
100
AcDbSpline
210
0.0
220
0.0
230
1.0
 70
     8
 71
     3
 72
     8
 73
     4
 74
     0
 42
0.0000000001
 43
0.0000000001
 40
0.0
 40
0.0
 40
0.0
 40
0.0
 40
1.274172826456642
 40
1.274172826456642
 40
1.274172826456642
 40
1.274172826456642
 10
-18.58960776448889
 20
-4.000000000000632
 30
0.0
 10
-18.24982834410052
 20
-3.880307846356664
 30
0.0
 10
-17.94144446913647
 20
-3.808353923045707
 30
0.0
 10
-17.65841001380445
 20
-3.678302898012312
 30
0.0
  0
SPLINE
  5
4317
330
1F
100
AcDbEntity
  8
AM_0
100
AcDbSpline
210
0.0
220
0.0
230
1.0
 70
     8
 71
     3
 72
     8
 73
     4
 74
     2
 42
0.0000000001
 43
0.0000000001
 44
0.0000000001
 12
-1.0
 22
0.0000000000000001
 32
0.0
 40
0.0
 40
0.0
 40
0.0
 40
0.0
 40
3.543426492667482
 40
3.543426492667482
 40
3.543426492667482
 40
3.543426492667482
 10
-17.96826939143735
 20
-3.699007306454767
 30
0.0
 10
-19.14941155565984
 20
-3.699007306454767
 30
0.0
 10
-19.95286217537098
 20
-2.605539738539434
 30
0.0
 10
-20.75631279508211
 20
-1.512072170624101
 30
0.0
 11
-17.96826939143735
 21
-3.699007306454767
 31
0.0
 11
-20.75631279508211
 21
-1.512072170624101
 31
0.0
  0
SPLINE
  5
4318
330
1F
100
AcDbEntity
  8
AM_0
100
AcDbSpline
210
0.0
220
0.0
230
1.0
 70
     8
 71
     3
 72
     8
 73
     4
 74
     0
 42
0.0000000001
 43
0.0000000001
 40
0.0
 40
0.0
 40
0.0
 40
0.0
 40
2.420483029949796
 40
2.420483029949796
 40
2.420483029949796
 40
2.420483029949796
 10
-17.96826939143807
 20
-3.699007306454767
 30
0.0
 10
-17.3228072501182
 20
-3.699007306454767
 30
0.0
 10
-16.78723580419588
 20
-3.438714749409335
 30
0.0
 10
-16.32032971806598
 20
-3.015778012015012
 30
0.0
  0
SPLINE
  5
4319
330
1F
100
AcDbEntity
  8
AM_0
100
AcDbSpline
210
0.0
220
0.0
230
1.0
 70
     8
 71
     3
 72
     8
 73
     4
 74
     0
 42
0.0000000001
 43
0.0000000001
 40
0.3982504941345976
 40
0.3982504941345976
 40
0.3982504941345976
 40
0.3982504941345976
 40
6.452065446090842
 40
6.452065446090842
 40
6.452065446090842
 40
6.452065446090842
 10
-20.0584100138087
 20
3.678302898013136
 30
0.0
 10
-18.53171054846355
 20
3.470687941143474
 30
0.0
 10
-17.64998996995239
 20
1.735343970572102
 30
0.0
 10
-16.76826939144196
 20
0.0000000000006324
 30
0.0
  0
SPLINE
  5
431A
330
1F
100
AcDbEntity
  8
AM_0
100
AcDbSpline
210
0.0
220
0.0
230
1.0
 70
     8
 71
     3
 72
     8
 73
     4
 74
     0
 42
0.0000000001
 43
0.0000000001
 40
0.0
 40
0.0
 40
0.0
 40
0.0
 40
2.948331486770748
 40
2.948331486770748
 40
2.948331486770748
 40
2.948331486770748
 10
-17.49999999998801
 20
4.000000000000632
 30
0.0
 10
-18.28622172979342
 20
4.000000000001087
 30
0.0
 10
-18.90133259472643
 20
3.615794096978881
 30
0.0
 10
-19.12181852287916
 20
3.325677319896144
 30
0.0
  0
SPLINE
  5
431B
330
1F
100
AcDbEntity
  8
AM_0
100
AcDbSpline
210
0.0
220
0.0
230
1.0
 70
     8
 71
     3
 72
     8
 73
     4
 74
     0
 42
0.0000000001
 43
0.0000000001
 40
0.0
 40
0.0
 40
0.0
 40
0.0
 40
2.948331486770748
 40
2.948331486770748
 40
2.948331486770748
 40
2.948331486770748
 10
-13.39999999999165
 20
4.000000000000632
 30
0.0
 10
-14.18622172979742
 20
4.000000000001001
 30
0.0
 10
-14.80133259473043
 20
3.615794096978788
 30
0.0
 10
-15.021818522883
 20
3.325677319896236
 30
0.0
  0
SPLINE
  5
431C
330
1F
100
AcDbEntity
  8
AM_0
100
AcDbSpline
210
0.0
220
0.0
230
1.0
 70
     8
 71
     3
 72
     8
 73
     4
 74
     0
 42
0.0000000001
 43
0.0000000001
 40
0.0
 40
0.0
 40
0.0
 40
0.0
 40
2.948331486770748
 40
2.948331486770748
 40
2.948331486770748
 40
2.948331486770748
 10
-9.299999999995652
 20
4.000000000000547
 30
0.0
 10
-10.08622172980105
 20
4.000000000000909
 30
0.0
 10
-10.70133259473407
 20
3.615794096978788
 30
0.0
 10
-10.92181852288667
 20
3.3256773198962
 30
0.0
  0
SPLINE
  5
431D
330
1F
100
AcDbEntity
  8
AM_0
100
AcDbSpline
210
0.0
220
0.0
230
1.0
 70
     8
 71
     3
 72
     8
 73
     4
 74
     0
 42
0.0000000001
 43
0.0000000001
 40
0.0
 40
0.0
 40
0.0
 40
0.0
 40
2.948331486770748
 40
2.948331486770748
 40
2.948331486770748
 40
2.948331486770748
 10
-5.199999999999653
 20
4.000000000000547
 30
0.0
 10
-5.986221729805055
 20
4.000000000000909
 30
0.0
 10
-6.601332594737704
 20
3.615794096978788
 30
0.0
 10
-6.821818522890358
 20
3.325677319896136
 30
0.0
  0
SPLINE
  5
431E
330
1F
100
AcDbEntity
  8
AM_0
100
AcDbSpline
210
0.0
220
0.0
230
1.0
 70
     8
 71
     3
 72
     8
 73
     4
 74
     0
 42
0.0000000001
 43
0.0000000001
 40
0.0
 40
0.0
 40
0.0
 40
0.0
 40
2.420483029949796
 40
2.420483029949796
 40
2.420483029949796
 40
2.420483029949796
 10
-4.968269391449955
 20
-3.699007306454319
 30
0.0
 10
-4.32280725013008
 20
-3.699007306454319
 30
0.0
 10
-3.787235804207392
 20
-3.438714749408887
 30
0.0
 10
-3.72181852288537
 20
-3.325677319896328
 30
0.0
  0
SPLINE
  5
431F
330
1F
100
AcDbEntity
  8
AM_0
100
AcDbSpline
210
0.0
220
0.0
230
1.0
 70
     8
 71
     3
 72
     8
 73
     4
 74
     0
 42
0.0000000001
 43
0.0000000001
 40
0.0
 40
0.0
 40
0.0
 40
0.0
 40
2.420483029949796
 40
2.420483029949796
 40
2.420483029949796
 40
2.420483029949796
 10
-9.068269391446323
 20
-3.699007306454319
 30
0.0
 10
-8.422807250126448
 20
-3.699007306454319
 30
0.0
 10
-7.887235804203755
 20
-3.438714749408795
 30
0.0
 10
-7.821818522883929
 20
-3.325677319897664
 30
0.0
  0
SPLINE
  5
4320
330
1F
100
AcDbEntity
  8
AM_0
100
AcDbSpline
210
0.0
220
0.0
230
1.0
 70
     8
 71
     3
 72
     8
 73
     4
 74
     0
 42
0.0000000001
 43
0.0000000001
 40
0.0
 40
0.0
 40
0.0
 40
0.0
 40
2.420483029949796
 40
2.420483029949796
 40
2.420483029949796
 40
2.420483029949796
 10
-13.16826939144268
 20
-3.699007306454227
 30
0.0
 10
-12.52280725012244
 20
-3.699007306454227
 30
0.0
 10
-11.98723580420012
 20
-3.438714749408795
 30
0.0
 10
-11.92181852288022
 20
-3.325677319897636
 30
0.0
  0
DIMENSION
  5
4321
330
1F
100
AcDbEntity
  8
AM_5
100
AcDbDimension
  2
*D8
 10
11.55776903085518
 20
-3.999999999999997
 30
0.0
 11
10.00776903085518
 21
0.0000000000000048
 31
0.0
 70
    32
  1
%%c<>
  3
AM_JIS
100
AcDbAlignedDimension
 13
0.0
 23
4.000000000000006
 33
0.0
 14
0.0000000000000057
 24
-3.999999999999993
 34
0.0
 50
90.00000000000003
100
AcDbRotatedDimension
1001
GENIUS_GENDTOL_13
1000

1000
h7
1000

1040
0.0
  0
LINE
  5
4322
330
1F
100
AcDbEntity
  8
AM_11
100
AcDbLine
 10
0.0
 20
4.000000000000006
 30
0.0
 11
-18.0
 21
4.000000000000005
 31
0.0
  0
LINE
  5
4323
330
1F
100
AcDbEntity
  8
AM_11
100
AcDbLine
 10
-18.0
 20
-3.999999999999994
 30
0.0
 11
0.0
 21
-3.999999999999993
 31
0.0
  0
LINE
  5
4324
330
1F
100
AcDbEntity
  8
AM_0
100
AcDbLine
 10
-18.0
 20
2.178930836880195
 30
0.0
 11
-18.0
 21
0.0000000000238591
 31
0.0
  0
ARC
  5
4325
330
1F
100
AcDbEntity
  8
AM_0
100
AcDbCircle
 10
-19.38842354687963
 20
-0.6820848185204227
 30
0.0
 40
1.6
100
AcDbArc
 50
117.0923257436931
 51
211.2479114875233
  0
LINE
  5
4326
330
1F
100
AcDbEntity
  8
AM_11
100
AcDbLine
 10
-18.0
 20
4.000000000000006
 30
0.0
 11
-18.0
 21
-3.999999999999994
 31
0.0
  0
LINE
  5
4327
330
1F
100
AcDbEntity
  8
AM_0
100
AcDbLine
 10
-18.58960776448889
 20
-4.000000000000632
 30
0.0
 11
-25.85641368006851
 21
-4.000000000000632
 31
0.0
  0
LINE
  5
4328
330
1F
100
AcDbEntity
  8
AM_0
100
AcDbLine
 10
-20.11710461426933
 20
0.7423532819347259
 30
0.0
 11
-18.69245899374632
 21
1.471140507636398
 31
0.0
  0
LINE
  5
4329
330
1F
100
AcDbEntity
  8
AM_0
100
AcDbLine
 10
-0.1600000000002373
 20
0.0
 30
0.0
 11
-0.5200000000000912
 21
1.348820842165878
 31
0.0
  0
ARC
  5
432A
330
1F
100
AcDbEntity
  8
AM_0
100
AcDbCircle
 10
4.005089840152849
 20
0.6839347560217917
 30
0.0
 40
4.57367593615915
100
AcDbArc
 50
171.6411574078214
 51
204.4024896870891
  0
LINE
  5
432B
330
1F
100
AcDbEntity
  8
AM_0
100
AcDbLine
 10
-0.0000000000000169
 20
0.0
 30
0.0
 11
-0.0000000000003829
 21
3.8928203230289
 31
0.0
  0
LINE
  5
432C
330
1F
100
AcDbEntity
  8
AM_11
100
AcDbLine
 10
0.0
 20
4.000000000000006
 30
0.0
 11
0.0
 21
-3.999999999999993
 31
0.0
  0
LINE
  5
432D
330
1F
100
AcDbEntity
  8
AM_11
100
AcDbLine
 10
0.0000000000003454
 20
-4.0
 30
0.0
 11
0.0000000000003454
 21
-1.999999999997911
 31
0.0
  0
LINE
  5
432E
330
1F
100
AcDbEntity
  8
AM_0
100
AcDbLine
 10
-0.0000000000000169
 20
-0.6222895307441832
 30
0.0
 11
-0.1600000000002373
 21
0.0
 31
0.0
  0
LINE
  5
432F
330
1F
100
AcDbEntity
  8
AM_0
100
AcDbLine
 10
-0.6217669704030576
 20
-1.999999999975081
 30
0.0
 11
0.0000000000003454
 21
-1.999999999997911
 31
0.0
  0
LINE
  5
4330
330
1F
100
AcDbEntity
  8
AM_0
100
AcDbLine
 10
0.0000000000003454
 20
-1.999999999997911
 30
0.0
 11
-0.1599999999998714
 21
-2.777839101294375
 31
0.0
  0
LINE
  5
4331
330
1F
100
AcDbEntity
  8
AM_0
100
AcDbLine
 10
0.0000000000003454
 20
-1.999999999997911
 30
0.0
 11
-0.1599999999998714
 21
-1.205652022207502
 31
0.0
  0
LINE
  5
4332
330
1F
100
AcDbEntity
  8
AM_0
100
AcDbLine
 10
-0.5200000000000912
 20
-2.734461488221498
 30
0.0
 11
-0.3470509558956279
 21
-1.999999999985085
 31
0.0
  0
LINE
  5
4333
330
1F
100
AcDbEntity
  8
AM_0
100
AcDbLine
 10
-0.160000000006785
 20
-2.777839101327842
 30
0.0
 11
-0.1599999999780435
 21
-1.999999999991999
 31
0.0
  0
LINE
  5
4334
330
1F
100
AcDbEntity
  8
AM_0
100
AcDbLine
 10
-0.1599999999998714
 20
-1.205652022207502
 30
0.0
 11
-0.1600000000002373
 21
0.0
 31
0.0
  0
LINE
  5
4335
330
1F
100
AcDbEntity
  8
AM_0
100
AcDbLine
 10
0.0000000000003454
 20
-1.999999999997911
 30
0.0
 11
-0.0000000000000169
 21
-0.6222895307442755
 31
0.0
  0
LINE
  5
4336
330
1F
100
AcDbEntity
  8
AM_0
100
AcDbLine
 10
-0.0000000000000169
 20
0.0
 30
0.0
 11
-0.0816507159023053
 21
-0.3047246202211653
 31
0.0
  0
LINE
  5
4337
330
1F
100
AcDbEntity
  8
AM_0
100
AcDbLine
 10
-0.3999999999996531
 20
4.000000000001271
 30
0.0
 11
-0.0000000000003829
 21
3.8928203230289
 31
0.0
  0
LINE
  5
4338
330
1F
100
AcDbEntity
  8
AM_0
100
AcDbLine
 10
-0.5200000000000912
 20
1.348820842165878
 30
0.0
 11
-1.215150239055964
 21
2.222222222222171
 31
0.0
  0
VIEWPORT
  5
110
330
101
100
AcDbEntity
 67
     1
  8
0
100
AcDbViewport
 10
420.5
 20
297.0
 30
0.0
 40
948.9782706766916
 41
628.452
 68
     1
 69
     1
1001
ACAD
1000
MVIEW
1002
{
1070
    16
1010
0.0
1020
0.0
1030
0.0
1010
0.0
1020
0.0
1030
1.0
1040
0.0
1040
628.452
1040
420.5
1040
297.0
1040
50.0
1040
0.0
1040
0.0
1070
     0
1070
   100
1070
     1
1070
     1
1070
     0
1070
     0
1070
     0
1070
     0
1040
0.0
1040
0.0
1040
0.0
1040
10.0
1040
10.0
1040
10.0
1040
10.0
1070
     0
1002
{
1002
}
1002
}
  0
ENDSEC
  0
SECTION
  2
OBJECTS
  0
DICTIONARY
  5
C
330
0
100
AcDbDictionary
  3
ACAD_GROUP
350
D
  3
ACAD_LAYOUT
350
1A
  3
ACAD_MLINESTYLE
350
17
  3
ACAD_PLOTSETTINGS
350
19
  3
ACAD_PLOTSTYLENAME
350
E
  3
ACDBVARIABLEDICTIONARY
350
34
  3
ACMDICTIONARY
350
43
  3
AMG
350
2B
  3
AMGSNAPSETTINGS
350
6E
  3
ASE_INDEX_DICTIONARY
350
151A
  3
DWGPROPS
350
43A4
  3
ACDBHEADERROUNDTRIPXREC
350
43B0
  0
DICTIONARY
  5
74
330
1F
100
AcDbDictionary
280
     1
  3
ACAD_INDEX
360
43A6
  3
ACAD_LAYOUTSELFREF
360
43D3
  0
DICTIONARY
  5
43D8
330
101
100
AcDbDictionary
280
     1
  3
ACAD_LAYOUTSELFREF
360
43D9
  0
DICTIONARY
  5
D
102
{ACAD_REACTORS
330
C
102
}
330
C
100
AcDbDictionary
  0
DICTIONARY
  5
1A
102
{ACAD_REACTORS
330
C
102
}
330
C
100
AcDbDictionary
  0
DICTIONARY
  5
17
102
{ACAD_REACTORS
330
C
102
}
330
C
100
AcDbDictionary
  3
STANDARD
350
18
  0
DICTIONARY
  5
19
102
{ACAD_REACTORS
330
C
102
}
330
C
100
AcDbDictionary
  0
ACDBDICTIONARYWDFLT
  5
E
102
{ACAD_REACTORS
330
C
102
}
330
C
100
AcDbDictionary
281
     1
  3
Normal
350
F
100
AcDbDictionaryWithDefault
340
F
  0
DICTIONARY
  5
34
102
{ACAD_REACTORS
330
C
102
}
330
C
100
AcDbDictionary
  3
INDEXCTL
350
35
  3
SORTENTS
350
B5E
  0
DICTIONARY
  5
43
102
{ACAD_REACTORS
330
C
102
}
330
C
100
AcDbDictionary
  3
ACMSTDDICTIONARY
350
260
  0
DICTIONARY
  5
2B
102
{ACAD_REACTORS
330
C
102
}
330
C
100
AcDbDictionary
  3
ACMGSETTINGS
350
2C
  0
DICTIONARY
  5
6E
102
{ACAD_REACTORS
330
C
102
}
330
C
100
AcDbDictionary
  0
DICTIONARY
  5
151A
102
{ACAD_REACTORS
330
C
102
}
330
C
100
AcDbDictionary
  3
ASEBLOCKHIERARCHYINDEXRECORD
350
151C
1001
DCO15
1040
1471862535.906
  0
XRECORD
  5
43A4
102
{ACAD_REACTORS
330
C
102
}
330
C
100
AcDbXrecord
  1
DWGPROPS COOKIE
  2

  3

  4

  6

  7

  8

  9

300
AmdtFileType=82
301
=
302
=
303
=
304
=
305
=
306
=
307
=
308
=
309
=
 40
0.1586609953703704
 41
2452838.430434386
 42
2453045.643596076
  1

 90
        1
  0
DICTIONARY
  5
43B0
102
{ACAD_REACTORS
330
C
102
}
330
C
100
AcDbDictionary
  3
TSTACKALIGN
350
43B1
  3
TSTACKSIZE
350
43B2
  3
HYPERLINKBASE
350
43B3
  3
STYLESHEET
350
43B4
  3
LAYOUTDICT
350
43B5
  3
PLOTSETDICT
350
43B6
  3
PLOTSTYLNAMDICT
350
43B7
  3
LWETCUNION
350
43B8
  3
INSUNITS
350
43B9
  3
CEPSNTYPE
350
43BA
  3
FINGERPRINTGUID
350
43BB
  3
VERSIONGUID
350
43BC
  3
PSVPSCALE
350
43BD
  3
DIMSTYLEDATA
350
43BE
  3
PUCSORTHOREF
350
43BF
  3
PUCSORTHOVIEW
350
43C0
  3
PUCSBASE
350
43C1
  3
PUCSORGTOP
350
43C2
  3
PUCSORGBOTTOM
350
43C3
  3
PUCSORGLEFT
350
43C4
  3
PUCSORGRIGHT
350
43C5
  3
PUCSORGFRONT
350
43C6
  3
PUCSORGBACK
350
43C7
  3
UCSORTHOREF
350
43C8
  3
UCSORTHOVIEW
350
43C9
  3
UCSBASE
350
43CA
  3
UCSORGTOP
350
43CB
  3
UCSORGBOTTOM
350
43CC
  3
UCSORGLEFT
350
43CD
  3
UCSORGRIGHT
350
43CE
  3
UCSORGFRONT
350
43CF
  3
UCSORGBACK
350
43D0
  0
DICTIONARY
  5
43A6
102
{ACAD_REACTORS
330
74
102
}
330
74
100
AcDbDictionary
  3
*A1
350
43A7
  0
XRECORD
  5
43D3
102
{ACAD_REACTORS
330
74
102
}
330
74
100
AcDbXrecord
340
1F
  0
XRECORD
  5
43D9
102
{ACAD_REACTORS
330
43D8
102
}
330
43D8
100
AcDbXrecord
340
101
  0
MLINESTYLE
  5
18
102
{ACAD_REACTORS
330
17
102
}
330
17
100
AcDbMlineStyle
  2
STANDARD
 70
     0
  3

 62
   256
 51
90.0
 52
90.0
 71
     2
 49
0.5
 62
   256
  6
BYLAYER
 49
-0.5
 62
   256
  6
BYLAYER
  0
ACDBPLACEHOLDER
  5
F
102
{ACAD_REACTORS
330
E
102
}
330
E
100
AcDbPlaceHolder
280
     0
  0
DICTIONARYVAR
  5
35
102
{ACAD_REACTORS
330
34
102
}
330
34
100
DictionaryVariables
280
     0
  1
1
  0
DICTIONARYVAR
  5
B5E
102
{ACAD_REACTORS
330
34
102
}
330
34
100
DictionaryVariables
280
     0
  1
96
  0
DICTIONARY
  5
260
102
{ACAD_REACTORS
330
43
102
}
330
43
100
AcDbDictionary
  0
DICTIONARY
  5
2C
102
{ACAD_REACTORS
330
2B
102
}
330
2B
100
AcDbDictionary
  3
DWGSETTINGS
350
2D
  0
XRECORD
  5
151C
102
{ACAD_REACTORS
330
151A
102
}
330
151A
100
AcDbXrecord
330
0
330
0
330
0
330
0
330
0
330
0
330
0
330
0
  0
XRECORD
  5
43B1
102
{ACAD_REACTORS
330
43B0
102
}
330
43B0
100
AcDbXrecord
 90
        1
  0
XRECORD
  5
43B2
102
{ACAD_REACTORS
330
43B0
102
}
330
43B0
100
AcDbXrecord
 90
       70
  0
XRECORD
  5
43B3
102
{ACAD_REACTORS
330
43B0
102
}
330
43B0
100
AcDbXrecord
  1

  0
XRECORD
  5
43B4
102
{ACAD_REACTORS
330
43B0
102
}
330
43B0
100
AcDbXrecord
  1
ASAMI.ctb
  0
XRECORD
  5
43B5
102
{ACAD_REACTORS
330
43B0
102
}
330
43B0
100
AcDbXrecord
340
1A
  0
XRECORD
  5
43B6
102
{ACAD_REACTORS
330
43B0
102
}
330
43B0
100
AcDbXrecord
340
19
  0
XRECORD
  5
43B7
102
{ACAD_REACTORS
330
43B0
102
}
330
43B0
100
AcDbXrecord
340
E
  0
XRECORD
  5
43B8
102
{ACAD_REACTORS
330
43B0
102
}
330
43B0
100
AcDbXrecord
 90
    10781
  0
XRECORD
  5
43B9
102
{ACAD_REACTORS
330
43B0
102
}
330
43B0
100
AcDbXrecord
 90
        4
  0
XRECORD
  5
43BA
102
{ACAD_REACTORS
330
43B0
102
}
330
43B0
100
AcDbXrecord
 90
        0
  0
XRECORD
  5
43BB
102
{ACAD_REACTORS
330
43B0
102
}
330
43B0
100
AcDbXrecord
  1
{AFB28963-8C59-40AE-9337-C84526B81ACE}
  0
XRECORD
  5
43BC
102
{ACAD_REACTORS
330
43B0
102
}
330
43B0
100
AcDbXrecord
  1
{6589C429-A368-461F-8F0E-767284DC85FF}
  0
XRECORD
  5
43BD
102
{ACAD_REACTORS
330
43B0
102
}
330
43B0
100
AcDbXrecord
 40
0.0
  0
XRECORD
  5
43BE
102
{ACAD_REACTORS
330
43B0
102
}
330
43B0
100
AcDbXrecord
1000
DSTYLE
1002
{
1070
    79
 70
     2
1070
   341
340
59
1070
   342
340
59
1070
   371
 70
    -1
1070
   372
 70
    -1
1002
}
  0
XRECORD
  5
43BF
102
{ACAD_REACTORS
330
43B0
102
}
330
43B0
100
AcDbXrecord
340
0
  0
XRECORD
  5
43C0
102
{ACAD_REACTORS
330
43B0
102
}
330
43B0
100
AcDbXrecord
 70
     0
  0
XRECORD
  5
43C1
102
{ACAD_REACTORS
330
43B0
102
}
330
43B0
100
AcDbXrecord
340
0
  0
XRECORD
  5
43C2
102
{ACAD_REACTORS
330
43B0
102
}
330
43B0
100
AcDbXrecord
 10
0.0
 20
0.0
 30
0.0
  0
XRECORD
  5
43C3
102
{ACAD_REACTORS
330
43B0
102
}
330
43B0
100
AcDbXrecord
 10
0.0
 20
0.0
 30
0.0
  0
XRECORD
  5
43C4
102
{ACAD_REACTORS
330
43B0
102
}
330
43B0
100
AcDbXrecord
 10
0.0
 20
0.0
 30
0.0
  0
XRECORD
  5
43C5
102
{ACAD_REACTORS
330
43B0
102
}
330
43B0
100
AcDbXrecord
 10
0.0
 20
0.0
 30
0.0
  0
XRECORD
  5
43C6
102
{ACAD_REACTORS
330
43B0
102
}
330
43B0
100
AcDbXrecord
 10
0.0
 20
0.0
 30
0.0
  0
XRECORD
  5
43C7
102
{ACAD_REACTORS
330
43B0
102
}
330
43B0
100
AcDbXrecord
 10
0.0
 20
0.0
 30
0.0
  0
XRECORD
  5
43C8
102
{ACAD_REACTORS
330
43B0
102
}
330
43B0
100
AcDbXrecord
340
0
  0
XRECORD
  5
43C9
102
{ACAD_REACTORS
330
43B0
102
}
330
43B0
100
AcDbXrecord
 70
     0
  0
XRECORD
  5
43CA
102
{ACAD_REACTORS
330
43B0
102
}
330
43B0
100
AcDbXrecord
340
0
  0
XRECORD
  5
43CB
102
{ACAD_REACTORS
330
43B0
102
}
330
43B0
100
AcDbXrecord
 10
0.0
 20
0.0
 30
0.0
  0
XRECORD
  5
43CC
102
{ACAD_REACTORS
330
43B0
102
}
330
43B0
100
AcDbXrecord
 10
0.0
 20
0.0
 30
0.0
  0
XRECORD
  5
43CD
102
{ACAD_REACTORS
330
43B0
102
}
330
43B0
100
AcDbXrecord
 10
0.0
 20
0.0
 30
0.0
  0
XRECORD
  5
43CE
102
{ACAD_REACTORS
330
43B0
102
}
330
43B0
100
AcDbXrecord
 10
0.0
 20
0.0
 30
0.0
  0
XRECORD
  5
43CF
102
{ACAD_REACTORS
330
43B0
102
}
330
43B0
100
AcDbXrecord
 10
0.0
 20
0.0
 30
0.0
  0
XRECORD
  5
43D0
102
{ACAD_REACTORS
330
43B0
102
}
330
43B0
100
AcDbXrecord
 10
0.0
 20
0.0
 30
0.0
  0
LAYER_INDEX
  5
43A7
102
{ACAD_REACTORS
330
43A6
102
}
330
43A6
100
AcDbIndex
 40
2453152.469166874
100
AcDbLayerIndex
  8
0
360
43A8
 90
        0
  8
AM_0
360
43A9
 90
       76
  8
AM_11
360
43AA
 90
        5
  8
AM_7
360
43AB
 90
        1
  8
AM_5
360
43AC
 90
        4
  8
Defpoints
360
43AD
 90
        0
  8
AM_6
360
43AE
 90
        1
  0
XRECORD
  5
2D
102
{ACAD_REACTORS
330
2C
102
}
330
2C
100
AcDbXrecord
  1
VERSION
140
15.0
  1
PRODUCT
  2
AutoCAD Mechanical 2000
  0
IDBUFFER
  5
43A8
330
0
100
AcDbIdBuffer
  0
IDBUFFER
  5
43A9
330
0
100
AcDbIdBuffer
330
4317
330
4318
330
4319
330
431A
330
431B
330
431C
330
431D
330
431E
330
431F
330
4320
330
4324
330
4325
330
4327
330
4328
330
4329
330
432A
330
432B
330
432E
330
432F
330
4330
330
4331
330
4332
330
4333
330
4334
330
4335
330
4336
330
4337
330
4338
330
42E3
330
42E4
330
42E8
330
42E9
330
42EA
330
42EB
330
42ED
330
42EE
330
42EF
330
42F0
330
42F1
330
42F2
330
42F3
330
42F4
330
42F5
330
42F6
330
42F7
330
42F8
330
42F9
330
42FA
330
42FB
330
42FC
330
42FD
330
42FE
330
42FF
330
4300
330
4301
330
4302
330
4303
330
4304
330
4305
330
4306
330
4307
330
4308
330
4309
330
430A
330
430B
330
430C
330
430D
330
430E
330
430F
330
4310
330
4311
330
4312
330
4313
330
4314
330
4315
330
4316
  0
IDBUFFER
  5
43AA
330
0
100
AcDbIdBuffer
330
4322
330
4323
330
4326
330
432C
330
432D
  0
IDBUFFER
  5
43AB
330
0
100
AcDbIdBuffer
330
42E6
  0
IDBUFFER
  5
43AC
330
0
100
AcDbIdBuffer
330
42E5
330
42E7
330
42EC
330
4321
  0
IDBUFFER
  5
43AD
330
0
100
AcDbIdBuffer
  0
IDBUFFER
  5
43AE
330
0
100
AcDbIdBuffer
330
1500
  0
ENDSEC
  0
EOF
