  0
SECTION
  2
HEADER
  9
$ACADVER
  1
AC1014
  9
$ACADMAINTVER
 70
     9
  9
$DWGCODEPAGE
  3
ANSI_932
  9
$INSBASE
 10
0.0
 20
0.0
 30
0.0
  9
$EXTMIN
 10
-77.04470045058475
 20
-91.73755872864045
 30
-0.00000001
  9
$EXTMAX
 10
12.05776903085518
 20
5.209133784460056
 30
0.00000001
  9
$LIMMIN
 10
-80.56422172313778
 20
-40.33699775203664
  9
$LIMMAX
 10
18.8470805143454
 20
19.40696118605075
  9
$ORTHOMODE
 70
     0
  9
$REGENMODE
 70
     1
  9
$FILLMODE
 70
     1
  9
$QTEXTMODE
 70
     0
  9
$MIRRTEXT
 70
     0
  9
$DRAGMODE
 70
     2
  9
$LTSCALE
 40
1.0
  9
$OSMODE
 70
    55
  9
$ATTMODE
 70
     1
  9
$TEXTSIZE
 40
2.5
  9
$TRACEWID
 40
1.0
  9
$TEXTSTYLE
  7
STANDARD
  9
$CLAYER
  8
AM_5
  9
$CELTYPE
  6
BYLAYER
  9
$CECOLOR
 62
   256
  9
$CELTSCALE
 40
1.0
  9
$DELOBJ
 70
     1
  9
$DISPSILH
 70
     0
  9
$DIMSCALE
 40
0.5
  9
$DIMASZ
 40
2.5
  9
$DIMEXO
 40
1.0
  9
$DIMDLI
 40
12.0
  9
$DIMRND
 40
0.0
  9
$DIMDLE
 40
0.0
  9
$DIMEXE
 40
1.0
  9
$DIMTP
 40
0.1
  9
$DIMTM
 40
0.1
  9
$DIMTXT
 40
3.2
  9
$DIMCEN
 40
0.0
  9
$DIMTSZ
 40
0.0
  9
$DIMTOL
 70
     0
  9
$DIMLIM
 70
     0
  9
$DIMTIH
 70
     0
  9
$DIMTOH
 70
     0
  9
$DIMSE1
 70
     0
  9
$DIMSE2
 70
     0
  9
$DIMTAD
 70
     3
  9
$DIMZIN
 70
     8
  9
$DIMBLK
  1
OPEN30
  9
$DIMASO
 70
     1
  9
$DIMSHO
 70
     1
  9
$DIMPOST
  1

  9
$DIMAPOST
  1
"
  9
$DIMALT
 70
     0
  9
$DIMALTD
 70
     2
  9
$DIMALTF
 40
0.0393701
  9
$DIMLFAC
 40
1.0
  9
$DIMTOFL
 70
     1
  9
$DIMTVP
 40
0.0
  9
$DIMTIX
 70
     0
  9
$DIMSOXD
 70
     0
  9
$DIMSAH
 70
     0
  9
$DIMBLK1
  1

  9
$DIMBLK2
  1

  9
$DIMSTYLE
  2
AM_JIS
  9
$DIMCLRD
 70
   256
  9
$DIMCLRE
 70
   256
  9
$DIMCLRT
 70
     2
  9
$DIMTFAC
 40
0.71
  9
$DIMGAP
 40
1.5
  9
$DIMJUST
 70
     0
  9
$DIMSD1
 70
     0
  9
$DIMSD2
 70
     0
  9
$DIMTOLJ
 70
     0
  9
$DIMTZIN
 70
     0
  9
$DIMALTZ
 70
     0
  9
$DIMALTTZ
 70
     0
  9
$DIMFIT
 70
     3
  9
$DIMUPT
 70
     0
  9
$DIMUNIT
 70
     2
  9
$DIMDEC
 70
     3
  9
$DIMTDEC
 70
     3
  9
$DIMALTU
 70
     2
  9
$DIMALTTD
 70
     2
  9
$DIMTXSTY
  7
ASAMI
  9
$DIMAUNIT
 70
     0
  9
$LUNITS
 70
     2
  9
$LUPREC
 70
     2
  9
$SKETCHINC
 40
1.0
  9
$FILLETRAD
 40
2.5
  9
$AUNITS
 70
     0
  9
$AUPREC
 70
     0
  9
$MENU
  1
.
  9
$ELEVATION
 40
0.0
  9
$PELEVATION
 40
0.0
  9
$THICKNESS
 40
0.0
  9
$LIMCHECK
 70
     0
  9
$BLIPMODE
 70
     0
  9
$CHAMFERA
 40
0.75
  9
$CHAMFERB
 40
0.75
  9
$CHAMFERC
 40
20.0
  9
$CHAMFERD
 40
0.0
  9
$SKPOLY
 70
     0
  9
$TDCREATE
 40
2452838.430434386
  9
$TDUPDATE
 40
2453152.471565485
  9
$TDINDWG
 40
0.2005784954
  9
$TDUSRTIMER
 40
0.2005784954
  9
$USRTIMER
 70
     1
  9
$ANGBASE
 50
0.0
  9
$ANGDIR
 70
     0
  9
$PDMODE
 70
     0
  9
$PDSIZE
 40
0.0
  9
$PLINEWID
 40
0.0
  9
$COORDS
 70
     1
  9
$SPLFRAME
 70
     0
  9
$SPLINETYPE
 70
     6
  9
$SPLINESEGS
 70
     8
  9
$ATTDIA
 70
     1
  9
$ATTREQ
 70
     1
  9
$HANDLING
 70
 12289
  9
$HANDSEED
  5
4797
  9
$SURFTAB1
 70
     6
  9
$SURFTAB2
 70
     6
  9
$SURFTYPE
 70
     6
  9
$SURFU
 70
     6
  9
$SURFV
 70
     6
  9
$UCSNAME
  2

  9
$UCSORG
 10
0.0
 20
0.0
 30
0.0
  9
$UCSXDIR
 10
1.0
 20
0.0
 30
0.0
  9
$UCSYDIR
 10
0.0
 20
1.0
 30
0.0
  9
$PUCSNAME
  2

  9
$PUCSORG
 10
0.0
 20
0.0
 30
0.0
  9
$PUCSXDIR
 10
1.0
 20
0.0
 30
0.0
  9
$PUCSYDIR
 10
0.0
 20
1.0
 30
0.0
  9
$USERI1
 70
     0
  9
$USERI2
 70
     0
  9
$USERI3
 70
     0
  9
$USERI4
 70
     0
  9
$USERI5
 70
     0
  9
$USERR1
 40
0.0
  9
$USERR2
 40
0.0
  9
$USERR3
 40
0.0
  9
$USERR4
 40
0.0
  9
$USERR5
 40
0.0
  9
$WORLDVIEW
 70
     1
  9
$SHADEDGE
 70
     3
  9
$SHADEDIF
 70
    70
  9
$TILEMODE
 70
     1
  9
$MAXACTVP
 70
    64
  9
$PINSBASE
 10
0.0
 20
0.0
 30
0.0
  9
$PLIMCHECK
 70
     0
  9
$PEXTMIN
 10
1.000000000000000E+20
 20
1.000000000000000E+20
 30
1.000000000000000E+20
  9
$PEXTMAX
 10
-1.000000000000000E+20
 20
-1.000000000000000E+20
 30
-1.000000000000000E+20
  9
$PLIMMIN
 10
0.0
 20
0.0
  9
$PLIMMAX
 10
841.0
 20
594.0
  9
$UNITMODE
 70
     0
  9
$VISRETAIN
 70
     1
  9
$PLINEGEN
 70
     0
  9
$PSLTSCALE
 70
     0
  9
$TREEDEPTH
 70
  3020
  9
$PICKSTYLE
 70
     0
  9
$CMLSTYLE
  2
STANDARD
  9
$CMLJUST
 70
     0
  9
$CMLSCALE
 40
20.0
  9
$PROXYGRAPHICS
 70
     1
  9
$MEASUREMENT
 70
     1
  0
ENDSEC
  0
SECTION
  2
CLASSES
  0
CLASS
  1
ACDBDICTIONARYWDFLT
  2
AcDbDictionaryWithDefault
  3
AutoCAD 2000
 90
        0
280
     0
281
     0
  0
CLASS
  1
ACDBPLACEHOLDER
  2
AcDbPlaceHolder
  3
AutoCAD 2000
 90
        0
280
     0
281
     0
  0
CLASS
  1
LAYOUT
  2
AcDbLayout
  3
AutoCAD 2000
 90
        0
280
     0
281
     0
  0
CLASS
  1
AMGSETTINGSOBJ
  2
AmgSettingsObj
  3
"AcadM|Product Description: AutoCAD Mechanical 2000|Company: Autodesk"
 90
        0
280
     0
281
     0
  0
CLASS
  1
ACME_DOCUMENT
  2
AcMeDbDoc
  3
AcMeServices
 90
        0
280
     0
281
     0
  0
CLASS
  1
ACMESCOPE
  2
AcMeScope
  3
AcMeServices
 90
        0
280
     0
281
     0
  0
CLASS
  1
ACMECOMMANDHISTORY
  2
AcMeCommandHistory
  3
AcMeServices
 90
        0
280
     0
281
     0
  0
CLASS
  1
DICTIONARYVAR
  2
AcDbDictionaryVar
  3
AutoCAD 2000
 90
        0
280
     0
281
     0
  0
CLASS
  1
ACIMSYSVARMAN
  2
AcImSysVarManager
  3
AcMeServices
 90
        0
280
     0
281
     0
  0
CLASS
  1
ACIMREALSYSVAR
  2
AcImRealSysVar
  3
AcMeServices
 90
        0
280
     0
281
     0
  0
CLASS
  1
ACIMINTSYSVAR
  2
AcImIntSysVar
  3
AcMeServices
 90
        0
280
     0
281
     0
  0
CLASS
  1
ACMEDRAWINGMAN
  2
AcMeDrawingMan
  3
AcMeServices
 90
        0
280
     0
281
     0
  0
CLASS
  1
ACMEVIEW
  2
AcMeView
  3
AcMeServices
 90
        0
280
     0
281
     0
  0
CLASS
  1
ACDBENTITYCACHE
  2
AcMeEntityCache
  3
AcMeServices
 90
        0
280
     0
281
     0
  0
CLASS
  1
GSMANAGER
  2
AcMeGSManager
  3
AcMeServices
 90
        0
280
     0
281
     0
  0
CLASS
  1
AmdtInternalReactor
  2
AmdtInternalReactor
  3
AcMeServices
 90
        0
280
     0
281
     0
  0
CLASS
  1
ACMESTATEMGR
  2
AcMeStateMgr
  3
AcMeServices
 90
        0
280
     0
281
     0
  0
CLASS
  1
ACME_DATABASE
  2
AcMeDbDatabase
  3
AcMeServices
 90
        0
280
     0
281
     0
  0
CLASS
  1
ACRFINSADJUSTERMGR
  2
AcRfInsAdjusterMgr
  3
AcMeServices
 90
        0
280
     0
281
     0
  0
CLASS
  1
ACMDATADICTIONARY
  2
AcmDataDictionary
  3
"AcmSymBB|Product Description: AutoCAD Mechanical 2000|Company: Autodesk"
 90
        0
280
     0
281
     0
  0
CLASS
  1
ACMDATAENTRYBLOCK
  2
AcmDataEntryBlock
  3
"AcmSymBB|Product Description: AutoCAD Mechanical 2000|Company: Autodesk"
 90
        0
280
     0
281
     0
  0
CLASS
  1
AMGOBJPROPCFG
  2
AmgObjPropCfg
  3
"AmgLay|Product Description: AutoCAD Mechanical 2000|Company: Autodesk"
 90
        1
280
     0
281
     0
  0
CLASS
  1
ACAMGFILTERDAT
  2
AcAmgFilterDat
  3
"AcadM|Product Description: AutoCAD Mechanical 2000|Company: Autodesk"
 90
        0
280
     0
281
     0
  0
CLASS
  1
LAYER_INDEX
  2
AcDbLayerIndex
  3
AutoCAD 2000
 90
        0
280
     0
281
     0
  0
CLASS
  1
IDBUFFER
  2
AcDbIdBuffer
  3
AutoCAD 2000
 90
        0
280
     0
281
     0
  0
CLASS
  1
ACIMSTRSYSVAR
  2
AcImStrSysVar
  3
AcMeServices
 90
        0
280
     0
281
     0
  0
CLASS
  1
ACMSTANDARDJIS
  2
AcmStandardJIS
  3
"AcmSymBB|Product Description: AutoCAD Mechanical 2000|Company: Autodesk"
 90
        0
280
     0
281
     0
  0
CLASS
  1
ACMSURFSTANDARDJIS
  2
AcmSurfTextStdJIS
  3
"AcmSymBB|Product Description: AutoCAD Mechanical 2000|Company: Autodesk"
 90
        0
280
     0
281
     0
  0
CLASS
  1
ACMFCFSTANDARDJIS
  2
AcmFCFStdJIS
  3
"AcmSymBB|Product Description: AutoCAD Mechanical 2000|Company: Autodesk"
 90
        0
280
     0
281
     0
  0
CLASS
  1
ACMWELDSTANDARDJIS
  2
AcmWeldingStdJIS
  3
"AcmSymBB|Product Description: AutoCAD Mechanical 2000|Company: Autodesk"
 90
        0
280
     0
281
     0
  0
CLASS
  1
ACMIDSTANDARDJIS
  2
AcmIdStdJIS
  3
"AcmSymBB|Product Description: AutoCAD Mechanical 2000|Company: Autodesk"
 90
        0
280
     0
281
     0
  0
CLASS
  1
ACMDATUMSTANDARDJIS
  2
AcmDatumStdJIS
  3
"AcmSymBB|Product Description: AutoCAD Mechanical 2000|Company: Autodesk"
 90
        0
280
     0
281
     0
  0
CLASS
  1
ACMBOMSTANDARDJIS
  2
AcmBOMStdJIS
  3
"AcmSymBB|Product Description: AutoCAD Mechanical 2000|Company: Autodesk"
 90
        0
280
     0
281
     0
  0
CLASS
  1
ACMSTANDARDANSI
  2
AcmStandardANSI
  3
"AcmSymBB|Product Description: AutoCAD Mechanical 2000|Company: Autodesk"
 90
        0
280
     0
281
     0
  0
CLASS
  1
ACMSURFSTANDARDANSI
  2
AcmSurfTextStdANSI
  3
"AcmSymBB|Product Description: AutoCAD Mechanical 2000|Company: Autodesk"
 90
        0
280
     0
281
     0
  0
CLASS
  1
ACMFCFSTANDARDANSI
  2
AcmFCFStdANSI
  3
"AcmSymBB|Product Description: AutoCAD Mechanical 2000|Company: Autodesk"
 90
        0
280
     0
281
     0
  0
CLASS
  1
ACMWELDSTANDARDANSI
  2
AcmWeldingStdANSI
  3
"AcmSymBB|Product Description: AutoCAD Mechanical 2000|Company: Autodesk"
 90
        0
280
     0
281
     0
  0
CLASS
  1
ACMIDSTANDARDANSI
  2
AcmIdStdANSI
  3
"AcmSymBB|Product Description: AutoCAD Mechanical 2000|Company: Autodesk"
 90
        0
280
     0
281
     0
  0
CLASS
  1
ACMDATUMSTANDARDANSI
  2
AcmDatumStdANSI
  3
"AcmSymBB|Product Description: AutoCAD Mechanical 2000|Company: Autodesk"
 90
        0
280
     0
281
     0
  0
CLASS
  1
ACMBOMSTANDARDANSI
  2
AcmBOMStdANSI
  3
"AcmSymBB|Product Description: AutoCAD Mechanical 2000|Company: Autodesk"
 90
        0
280
     0
281
     0
  0
CLASS
  1
ACMSTANDARDBSI
  2
AcmStandardBSI
  3
"AcmSymBB|Product Description: AutoCAD Mechanical 2000|Company: Autodesk"
 90
        0
280
     0
281
     0
  0
CLASS
  1
ACMSURFSTANDARDBSI
  2
AcmSurfTextStdBSI
  3
"AcmSymBB|Product Description: AutoCAD Mechanical 2000|Company: Autodesk"
 90
        0
280
     0
281
     0
  0
CLASS
  1
ACMFCFSTANDARDBSI
  2
AcmFCFStdBSI
  3
"AcmSymBB|Product Description: AutoCAD Mechanical 2000|Company: Autodesk"
 90
        0
280
     0
281
     0
  0
CLASS
  1
ACMWELDSTANDARDBSI
  2
AcmWeldingStdBSI
  3
"AcmSymBB|Product Description: AutoCAD Mechanical 2000|Company: Autodesk"
 90
        0
280
     0
281
     0
  0
CLASS
  1
ACMIDSTANDARDBSI
  2
AcmIdStdBSI
  3
"AcmSymBB|Product Description: AutoCAD Mechanical 2000|Company: Autodesk"
 90
        0
280
     0
281
     0
  0
CLASS
  1
ACMDATUMSTANDARDBSI
  2
AcmDatumStdBSI
  3
"AcmSymBB|Product Description: AutoCAD Mechanical 2000|Company: Autodesk"
 90
        0
280
     0
281
     0
  0
CLASS
  1
ACMBOMSTANDARDBSI
  2
AcmBOMStdBSI
  3
"AcmSymBB|Product Description: AutoCAD Mechanical 2000|Company: Autodesk"
 90
        0
280
     0
281
     0
  0
CLASS
  1
LONG_TRANSACTION
  2
AcDbLongTransaction
  3
AutoCAD 2000
 90
        0
280
     0
281
     0
  0
CLASS
  1
LWPOLYLINE
  2
AcDbPolyline
  3
AutoCAD 2000
 90
        0
280
     0
281
     1
  0
CLASS
  1
HATCH
  2
AcDbHatch
  3
AutoCAD 2000
 90
        0
280
     0
281
     1
  0
CLASS
  1
XRECORD
  2
AcDbXrecord
  3
AutoCAD 2000
 90
        0
280
     0
281
     0
  0
ENDSEC
  0
SECTION
  2
TABLES
  0
TABLE
  2
VPORT
  5
8
330
0
100
AcDbSymbolTable
 70
     3
  0
VPORT
  5
476C
330
8
100
AcDbSymbolTableRecord
100
AcDbViewportTableRecord
  2
*ACTIVE
 70
     0
 10
0.0
 20
0.0
 11
1.0
 21
1.0
 12
-25.33120678969068
 22
-8.136958372897929
 13
0.0
 23
0.0
 14
2.5
 24
2.5
 15
10.0
 25
10.0
 16
0.0
 26
0.0
 36
1.0
 17
0.0
 27
0.0
 37
0.0
 40
84.80901719485677
 41
1.56570841889117
 42
50.0
 43
0.0
 44
0.0
 50
0.0
 51
0.0
 71
     0
 72
   100
 73
     1
 74
     3
 75
     0
 76
     0
 77
     0
 78
     0
  0
ENDTAB
  0
TABLE
  2
LTYPE
  5
5
330
0
100
AcDbSymbolTable
 70
    10
  0
LTYPE
  5
14
330
5
100
AcDbSymbolTableRecord
100
AcDbLinetypeTableRecord
  2
BYBLOCK
 70
     0
  3

 72
    65
 73
     0
 40
0.0
  0
LTYPE
  5
15
330
5
100
AcDbSymbolTableRecord
100
AcDbLinetypeTableRecord
  2
BYLAYER
 70
     0
  3

 72
    65
 73
     0
 40
0.0
  0
LTYPE
  5
16
330
5
100
AcDbSymbolTableRecord
100
AcDbLinetypeTableRecord
  2
CONTINUOUS
 70
     0
  3
Solid line
 72
    65
 73
     0
 40
0.0
  0
LTYPE
  5
4B
330
5
100
AcDbSymbolTableRecord
100
AcDbLinetypeTableRecord
  2
AM_ISO02W050
 70
     0
  3
__ __ __ __ __ __ __ __ __ __ __ __ __ __ __
 72
    65
 73
     2
 40
7.5
 49
6.0
 74
     0
 49
-1.5
 74
     0
  0
LTYPE
  5
4C
330
5
100
AcDbSymbolTableRecord
100
AcDbLinetypeTableRecord
  2
AM_ISO08W050
 70
     0
  3
____ . ____ . ____ . ____ . ____ . ____ . ____
 72
    65
 73
     4
 40
18.0
 49
12.0
 74
     0
 49
-1.5
 74
     0
 49
3.0
 74
     0
 49
-1.5
 74
     0
  0
LTYPE
  5
4D
330
5
100
AcDbSymbolTableRecord
100
AcDbLinetypeTableRecord
  2
AM_ISO09W050
 70
     0
  3
_____ . . _____ . . _____ . . ____ .. ____
 72
    65
 73
     6
 40
22.5
 49
12.0
 74
     0
 49
-1.5
 74
     0
 49
3.0
 74
     0
 49
-1.5
 74
     0
 49
3.0
 74
     0
 49
-1.5
 74
     0
  0
LTYPE
  5
4E
330
5
100
AcDbSymbolTableRecord
100
AcDbLinetypeTableRecord
  2
AMCONSTR
 70
     0
  3
_______________________
 72
    65
 73
     2
 40
9999.0
 49
9999.0
 74
     0
 49
0.0
 74
     0
  0
LTYPE
  5
4F
330
5
100
AcDbSymbolTableRecord
100
AcDbLinetypeTableRecord
  2
AM_ISO02W050X2
 70
     0
  3
 _ _ _ _ _ _ _ _ _ _ _ _
 72
    65
 73
     2
 40
3.75
 49
3.0
 74
     0
 49
-0.75
 74
     0
  0
LTYPE
  5
50
330
5
100
AcDbSymbolTableRecord
100
AcDbLinetypeTableRecord
  2
AM_ISO08W050X2
 70
     0
  3
__ . __ . __ . __ . __ . __
 72
    65
 73
     4
 40
9.0
 49
6.0
 74
     0
 49
-0.75
 74
     0
 49
1.5
 74
     0
 49
-0.75
 74
     0
  0
LTYPE
  5
53
330
5
100
AcDbSymbolTableRecord
100
AcDbLinetypeTableRecord
  2
AMZIGZAG
 70
     0
  3
/\/-/\/-/\/-/\/-/\/-/\/
 72
    65
 73
     2
 40
11.00009999999999
 49
0.0001
 74
     4
 75
   135
340
52
 46
0.04
 50
0.0
 44
0.0
 45
0.0
 49
-11.0
 74
     0
  0
LTYPE
  5
166
330
5
100
AcDbSymbolTableRecord
100
AcDbLinetypeTableRecord
  2
ACJISTGL
 70
     0
  3
_ _ _ _ _
 72
    65
 73
     2
 40
3.0
 49
2.0
 74
     0
 49
-1.0
 74
     0
  0
LTYPE
  5
26A
330
5
100
AcDbSymbolTableRecord
100
AcDbLinetypeTableRecord
  2
ACJISTGB
 70
     0
  3
__ . . __ . .
 72
    65
 73
     6
 40
9.0
 49
4.0
 74
     0
 49
-1.0
 74
     0
 49
1.0
 74
     0
 49
-1.0
 74
     0
 49
1.0
 74
     0
 49
-1.0
 74
     0
  0
ENDTAB
  0
TABLE
  2
LAYER
  5
2
330
0
100
AcDbSymbolTable
 70
     7
  0
LAYER
  5
10
330
2
100
AcDbSymbolTableRecord
100
AcDbLayerTableRecord
  2
0
 70
     0
 62
     7
  6
CONTINUOUS
  0
LAYER
  5
3F9
330
2
100
AcDbSymbolTableRecord
100
AcDbLayerTableRecord
  2
AM_0
 70
     0
 62
     7
  6
CONTINUOUS
  0
LAYER
  5
BDD
330
2
100
AcDbSymbolTableRecord
100
AcDbLayerTableRecord
  2
AM_11
 70
     0
 62
     3
  6
AM_ISO09W050
  0
LAYER
  5
BDE
330
2
100
AcDbSymbolTableRecord
100
AcDbLayerTableRecord
  2
AM_7
 70
     0
 62
     4
  6
AM_ISO08W050
  0
LAYER
  5
BDF
330
2
100
AcDbSymbolTableRecord
100
AcDbLayerTableRecord
  2
AM_5
 70
     0
 62
     3
  6
CONTINUOUS
  0
LAYER
  5
BE0
330
2
100
AcDbSymbolTableRecord
100
AcDbLayerTableRecord
  2
DEFPOINTS
 70
     0
 62
     7
  6
CONTINUOUS
  0
LAYER
  5
14FF
330
2
100
AcDbSymbolTableRecord
100
AcDbLayerTableRecord
  2
AM_6
 70
     0
 62
     2
  6
CONTINUOUS
  0
ENDTAB
  0
TABLE
  2
STYLE
  5
3
330
0
100
AcDbSymbolTable
 70
     5
  0
STYLE
  5
11
330
3
100
AcDbSymbolTableRecord
100
AcDbTextStyleTableRecord
  2
STANDARD
 70
     0
 40
0.0
 41
1.0
 50
0.0
 71
     0
 42
2.5
  3
simplex.shx
  4
EXTFONT.SHX
  0
STYLE
  5
52
330
3
100
AcDbSymbolTableRecord
100
AcDbTextStyleTableRecord
  2

 70
     1
 40
0.0
 41
1.0
 50
0.0
 71
     0
 42
2.5
  3
ltypeshp.shx
  4

  0
STYLE
  5
6B
330
3
100
AcDbSymbolTableRecord
100
AcDbTextStyleTableRecord
  2
ASAMI
 70
     0
 40
0.0
 41
1.0
 50
0.0
 71
     0
 42
2.5
  3
simplex.shx
  4
EXTFONT.SHX
  0
STYLE
  5
262
330
3
100
AcDbSymbolTableRecord
100
AcDbTextStyleTableRecord
  2
ACJISTS
 70
     0
 40
1.0
 41
1.0
 50
0.0
 71
     0
 42
2.5
  3
simplex.shx
  4
bigfont.shx
  0
STYLE
  5
269
330
3
100
AcDbSymbolTableRecord
100
AcDbTextStyleTableRecord
  2
ACJISGDT
 70
     0
 40
0.0
 41
1.0
 50
0.0
 71
     0
 42
2.5
  3
amgdtans.shx
  4

  0
ENDTAB
  0
TABLE
  2
VIEW
  5
6
330
0
100
AcDbSymbolTable
 70
     0
  0
ENDTAB
  0
TABLE
  2
UCS
  5
7
330
0
100
AcDbSymbolTable
 70
     0
  0
ENDTAB
  0
TABLE
  2
APPID
  5
9
330
0
100
AcDbSymbolTable
 70
    14
  0
APPID
  5
12
330
9
100
AcDbSymbolTableRecord
100
AcDbRegAppTableRecord
  2
ACAD
 70
     0
  0
APPID
  5
30
330
9
100
AcDbSymbolTableRecord
100
AcDbRegAppTableRecord
  2
MCAD_NO_VIS
 70
     0
  0
APPID
  5
31
330
9
100
AcDbSymbolTableRecord
100
AcDbRegAppTableRecord
  2
ACAD_TEMP_GRAPHIC
 70
     0
  0
APPID
  5
2C2
330
9
100
AcDbSymbolTableRecord
100
AcDbRegAppTableRecord
  2
GENIUS_GENDTOL_13
 70
     0
  0
APPID
  5
339
330
9
100
AcDbSymbolTableRecord
100
AcDbRegAppTableRecord
  2
GENIUS_GENODEF_13
 70
     0
  0
APPID
  5
33A
330
9
100
AcDbSymbolTableRecord
100
AcDbRegAppTableRecord
  2
GENIUS_GENOBJ-N-RSBK_13
 70
     0
  0
APPID
  5
33B
330
9
100
AcDbSymbolTableRecord
100
AcDbRegAppTableRecord
  2
GENIUS_GENOBJ-N-LIB_13
 70
     0
  0
APPID
  5
33C
330
9
100
AcDbSymbolTableRecord
100
AcDbRegAppTableRecord
  2
GENIUS_GENSCALE_13
 70
     0
  0
APPID
  5
378
330
9
100
AcDbSymbolTableRecord
100
AcDbRegAppTableRecord
  2
GENIUS_GENDIMSH_14
 70
     0
  0
APPID
  5
BE1
330
9
100
AcDbSymbolTableRecord
100
AcDbRegAppTableRecord
  2
GENIUS_GENFIL_13
 70
     0
  0
APPID
  5
BE2
330
9
100
AcDbSymbolTableRecord
100
AcDbRegAppTableRecord
  2
GENIUS_GENOBJ-N-CHA_13
 70
     0
  0
APPID
  5
151B
330
9
100
AcDbSymbolTableRecord
100
AcDbRegAppTableRecord
  2
DCO15
 70
     0
  0
APPID
  5
1860
330
9
100
AcDbSymbolTableRecord
100
AcDbRegAppTableRecord
  2
GENIUS_GENOBJ-N-CEN_13
 70
     0
  0
APPID
  5
359C
330
9
100
AcDbSymbolTableRecord
100
AcDbRegAppTableRecord
  2
GENIUS_GENOBJ-N-FIL_13
 70
     0
  0
ENDTAB
  0
TABLE
  2
DIMSTYLE
  5
A
330
0
100
AcDbSymbolTable
 70
     8
  0
DIMSTYLE
105
58
102
{ACAD_REACTORS
330
3CAC
330
3D34
330
3E27
330
422B
102
}
330
A
100
AcDbSymbolTableRecord
100
AcDbDimStyleTableRecord
  2
AM_JIS
 70
     0
  3

  4
"
  5
OPEN30
  6

  7

 40
0.5
 41
2.5
 42
1.0
 43
12.0
 44
1.0
 45
0.0
 46
0.0
 47
0.1
 48
0.1
140
3.2
141
0.0
142
0.0
143
0.0393701
144
1.0
145
0.0
146
0.71
147
1.5
 71
     0
 72
     0
 73
     0
 74
     0
 75
     0
 76
     0
 77
     3
 78
     8
170
     0
171
     2
172
     1
173
     0
174
     0
175
     0
176
   256
177
   256
178
     2
270
     2
271
     3
272
     3
273
     2
274
     2
340
6B
275
     0
280
     0
281
     0
282
     0
283
     0
284
     0
285
     0
286
     0
287
     3
288
     0
  0
DIMSTYLE
105
5F
330
A
100
AcDbSymbolTableRecord
100
AcDbDimStyleTableRecord
  2
AM_JIS$3
 70
     0
  3

  4
"
  5
OPEN30
  6

  7

 40
0.5
 41
2.5
 42
1.0
 43
10.0
 44
1.0
 45
0.0
 46
0.0
 47
0.1
 48
0.1
140
3.2
141
0.0
142
0.0
143
0.0393701
144
1.0
145
0.0
146
0.71
147
1.5
 71
     0
 72
     0
 73
     0
 74
     1
 75
     0
 76
     0
 77
     3
 78
     8
170
     0
171
     2
172
     0
173
     0
174
     0
175
     0
176
   256
177
   256
178
     2
270
     2
271
     2
272
     3
273
     2
274
     2
340
6B
275
     0
280
     0
281
     0
282
     0
283
     0
284
     0
285
     0
286
     0
287
     0
288
     1
  0
DIMSTYLE
105
60
330
A
100
AcDbSymbolTableRecord
100
AcDbDimStyleTableRecord
  2
AM_JIS$4
 70
     0
  3

  4
"
  5
OPEN30
  6

  7

 40
0.5
 41
2.5
 42
1.0
 43
10.0
 44
1.0
 45
0.0
 46
0.0
 47
0.1
 48
0.1
140
3.2
141
0.0
142
0.0
143
0.0393701
144
1.0
145
0.0
146
0.71
147
1.5
 71
     0
 72
     0
 73
     0
 74
     1
 75
     0
 76
     0
 77
     3
 78
     8
170
     0
171
     2
172
     0
173
     0
174
     0
175
     0
176
   256
177
   256
178
     2
270
     2
271
     2
272
     3
273
     2
274
     2
340
6B
275
     0
280
     0
281
     0
282
     0
283
     0
284
     0
285
     0
286
     0
287
     0
288
     1
  0
DIMSTYLE
105
61
330
A
100
AcDbSymbolTableRecord
100
AcDbDimStyleTableRecord
  2
AM_JIS$6
 70
     0
  3

  4
"
  5
OPEN30
  6

  7

 40
0.5
 41
2.5
 42
1.0
 43
10.0
 44
1.0
 45
0.0
 46
0.0
 47
0.1
 48
0.1
140
3.2
141
0.0
142
0.0
143
0.0393701
144
1.0
145
0.0
146
0.71
147
1.5
 71
     0
 72
     0
 73
     0
 74
     0
 75
     0
 76
     0
 77
     0
 78
     8
170
     0
171
     2
172
     1
173
     0
174
     0
175
     0
176
   256
177
   256
178
     2
270
     2
271
     2
272
     2
273
     2
274
     2
340
6B
275
     0
280
     0
281
     0
282
     0
283
     0
284
     0
285
     0
286
     0
287
     3
288
     0
  0
DIMSTYLE
105
62
330
A
100
AcDbSymbolTableRecord
100
AcDbDimStyleTableRecord
  2
AM_JIS$7
 70
     0
  3

  4
"
  5
OPEN30
  6

  7

 40
0.5
 41
2.5
 42
1.0
 43
10.0
 44
1.0
 45
0.0
 46
0.0
 47
0.1
 48
0.1
140
3.2
141
0.0
142
0.0
143
0.0393701
144
1.0
145
0.0
146
0.71
147
1.5
 71
     0
 72
     0
 73
     0
 74
     0
 75
     0
 76
     0
 77
     3
 78
     8
170
     0
171
     2
172
     1
173
     0
174
     0
175
     0
176
   256
177
   256
178
     2
270
     2
271
     2
272
     3
273
     2
274
     2
340
6B
275
     0
280
     0
281
     0
282
     0
283
     0
284
     0
285
     0
286
     0
287
     3
288
     0
  0
DIMSTYLE
105
63
330
A
100
AcDbSymbolTableRecord
100
AcDbDimStyleTableRecord
  2
AM_JIS$SF
 70
     0
  3

  4
"
  5
OPEN30
  6

  7

 40
0.5
 41
2.5
 42
1.0
 43
10.0
 44
1.0
 45
0.0
 46
0.0
 47
0.1
 48
0.1
140
3.2
141
0.0
142
0.0
143
0.0393701
144
1.0
145
0.0
146
0.71
147
1.5
 71
     0
 72
     0
 73
     0
 74
     0
 75
     1
 76
     1
 77
     3
 78
     8
170
     0
171
     2
172
     1
173
     0
174
     0
175
     0
176
   256
177
   256
178
     2
270
     2
271
     2
272
     2
273
     2
274
     2
340
6B
275
     0
280
     0
281
     0
282
     0
283
     0
284
     0
285
     0
286
     0
287
     3
288
     0
  0
DIMSTYLE
105
68
330
A
100
AcDbSymbolTableRecord
100
AcDbDimStyleTableRecord
  2
AM_JIS$SH
 70
     0
  3

  4
"
  5

  6
GENAXEH
  7
OPEN30
 40
0.5
 41
2.5
 42
1.0
 43
10.0
 44
1.0
 45
0.0
 46
0.0
 47
0.1
 48
0.1
140
3.2
141
0.0
142
0.0
143
0.0393701
144
2.0
145
0.0
146
0.71
147
1.5
 71
     0
 72
     0
 73
     0
 74
     0
 75
     1
 76
     1
 77
     3
 78
     8
170
     0
171
     2
172
     1
173
     1
174
     0
175
     0
176
   256
177
   256
178
     2
270
     2
271
     2
272
     2
273
     2
274
     2
340
6B
275
     0
280
     0
281
     0
282
     0
283
     0
284
     0
285
     0
286
     0
287
     3
288
     0
  0
DIMSTYLE
105
B34
330
A
100
AcDbSymbolTableRecord
100
AcDbDimStyleTableRecord
  2
AM_JIS$2
 70
     0
  3

  4
"
  5
OPEN30
  6

  7

 40
0.5
 41
2.5
 42
1.0
 43
12.0
 44
1.0
 45
0.0
 46
0.0
 47
0.1
 48
0.1
140
3.2
141
0.0
142
0.0
143
0.0393701
144
1.0
145
0.0
146
0.71
147
1.5
 71
     0
 72
     0
 73
     0
 74
     0
 75
     0
 76
     0
 77
     3
 78
     8
170
     0
171
     2
172
     1
173
     0
174
     0
175
     0
176
   256
177
   256
178
     2
270
     2
271
     3
272
     3
273
     2
274
     2
340
6B
275
     0
280
     0
281
     0
282
     0
283
     0
284
     0
285
     0
286
     0
287
     3
288
     0
  0
ENDTAB
  0
TABLE
  2
BLOCK_RECORD
  5
1
330
0
100
AcDbSymbolTable
 70
     9
  0
BLOCK_RECORD
  5
1F
102
{ACAD_XDICTIONARY
360
74
102
}
330
1
100
AcDbSymbolTableRecord
100
AcDbBlockTableRecord
  2
*MODEL_SPACE
  0
BLOCK_RECORD
  5
101
102
{ACAD_XDICTIONARY
360
4795
102
}
330
1
100
AcDbSymbolTableRecord
100
AcDbBlockTableRecord
  2
*PAPER_SPACE
  0
BLOCK_RECORD
  5
59
330
1
100
AcDbSymbolTableRecord
100
AcDbBlockTableRecord
  2
_OPEN30
  0
BLOCK_RECORD
  5
64
330
1
100
AcDbSymbolTableRecord
100
AcDbBlockTableRecord
  2
GENAXEH
  0
BLOCK_RECORD
  5
3CAD
330
1
100
AcDbSymbolTableRecord
100
AcDbBlockTableRecord
  2
*D5
  0
BLOCK_RECORD
  5
3D35
330
1
100
AcDbSymbolTableRecord
100
AcDbBlockTableRecord
  2
*D6
  0
BLOCK_RECORD
  5
3E28
330
1
100
AcDbSymbolTableRecord
100
AcDbBlockTableRecord
  2
*D7
  0
BLOCK_RECORD
  5
422C
330
1
100
AcDbSymbolTableRecord
100
AcDbBlockTableRecord
  2
*D8
  0
ENDTAB
  0
ENDSEC
  0
SECTION
  2
BLOCKS
  0
BLOCK
  5
20
330
1F
100
AcDbEntity
  8
0
100
AcDbBlockBegin
  2
*MODEL_SPACE
 70
     0
 10
0.0
 20
0.0
 30
0.0
  3
*MODEL_SPACE
  1

  0
ENDBLK
  5
21
330
1F
100
AcDbEntity
  8
0
100
AcDbBlockEnd
  0
BLOCK
  5
103
330
101
100
AcDbEntity
 67
     1
  8
0
100
AcDbBlockBegin
  2
*PAPER_SPACE
 70
     0
 10
0.0
 20
0.0
 30
0.0
  3
*PAPER_SPACE
  1

  0
ENDBLK
  5
104
330
101
100
AcDbEntity
 67
     1
  8
0
100
AcDbBlockEnd
  0
BLOCK
  5
5D
330
59
100
AcDbEntity
  8
0
100
AcDbBlockBegin
  2
_OPEN30
 70
     0
 10
0.0
 20
0.0
 30
0.0
  3
_OPEN30
  1

  0
LINE
  5
5A
330
59
100
AcDbEntity
  8
0
 62
     0
100
AcDbLine
 10
-1.0
 20
0.26794919
 30
0.0
 11
0.0
 21
0.0
 31
0.0
  0
LINE
  5
5B
330
59
100
AcDbEntity
  8
0
 62
     0
100
AcDbLine
 10
0.0
 20
0.0
 30
0.0
 11
-1.0
 21
-0.26794919
 31
0.0
  0
LINE
  5
5C
330
59
100
AcDbEntity
  8
0
 62
     0
100
AcDbLine
 10
0.0
 20
0.0
 30
0.0
 11
-1.0
 21
0.0
 31
0.0
  0
ENDBLK
  5
5E
330
59
100
AcDbEntity
  8
0
100
AcDbBlockEnd
  0
BLOCK
  5
66
330
64
100
AcDbEntity
  8
0
100
AcDbBlockBegin
  2
GENAXEH
 70
     0
 10
0.0
 20
0.0
 30
0.0
  3
GENAXEH
  1

  0
LINE
  5
65
330
64
100
AcDbEntity
  8
0
100
AcDbLine
 10
-1.0
 20
0.0
 30
0.0
 11
1.0
 21
0.0
 31
0.0
  0
ENDBLK
  5
67
330
64
100
AcDbEntity
  8
0
100
AcDbBlockEnd
  0
BLOCK
  5
3CB7
330
3CAD
100
AcDbEntity
  8
0
100
AcDbBlockBegin
  2
*D5
 70
     1
 10
0.0
 20
0.0
 30
0.0
  3
*D5
  1

  0
LINE
  5
445D
330
3CAD
100
AcDbEntity
  8
AM_5
100
AcDbLine
 10
-0.0000000000000002
 20
-4.999999999999993
 30
0.0
 11
-0.000000000000001
 21
-18.50000100000006
 31
0.0
  0
LINE
  5
445E
330
3CAD
100
AcDbEntity
  8
AM_5
100
AcDbLine
 10
-64.99999999999996
 20
-4.75000000000001
 30
0.0
 11
-64.99999999999996
 21
-18.50000100000006
 31
0.0
  0
LINE
  5
445F
330
3CAD
100
AcDbEntity
  8
AM_5
100
AcDbLine
 10
-1.25
 20
-18.00000100000006
 30
0.0
 11
-63.74999999999996
 21
-18.00000100000006
 31
0.0
  0
INSERT
  5
4460
330
3CAD
100
AcDbEntity
  8
AM_5
100
AcDbBlockReference
  2
_OPEN30
 10
-0.0000000000000009
 20
-18.00000100000006
 30
0.0
 41
1.25
 42
1.25
 43
1.25
  0
INSERT
  5
4461
330
3CAD
100
AcDbEntity
  8
AM_5
100
AcDbBlockReference
  2
_OPEN30
 10
-64.99999999999996
 20
-18.00000100000006
 30
0.0
 41
1.25
 42
1.25
 43
1.25
 50
180.0
  0
MTEXT
  5
4462
330
3CAD
100
AcDbEntity
  8
AM_5
 62
     2
100
AcDbMText
 10
-32.49999999999998
 20
-16.45000100000006
 30
0.0
 40
1.6
 41
0.0
 71
     5
 72
     1
  1
65
  7
ASAMI
1001
ACAD
1000
MTEXTBEGIN
1070
    73
1070
     1
1070
    44
1040
1.0
1070
    74
1070
     0
1000
MTEXTEND
  0
POINT
  5
4463
330
3CAD
100
AcDbEntity
  8
DEFPOINTS
 62
     0
100
AcDbPoint
 10
-0.0000000000000001
 20
-4.499999999999993
 30
0.0
  0
POINT
  5
4464
330
3CAD
100
AcDbEntity
  8
DEFPOINTS
 62
     0
100
AcDbPoint
 10
-64.99999999999996
 20
-4.25000000000001
 30
0.0
  0
POINT
  5
4465
330
3CAD
100
AcDbEntity
  8
DEFPOINTS
 62
     0
100
AcDbPoint
 10
-64.99999999999996
 20
-18.00000100000006
 30
0.0
  0
ENDBLK
  5
3CB8
330
3CAD
100
AcDbEntity
  8
0
100
AcDbBlockEnd
  0
BLOCK
  5
3D3F
330
3D35
100
AcDbEntity
  8
0
100
AcDbBlockBegin
  2
*D6
 70
     1
 10
0.0
 20
0.0
 30
0.0
  3
*D6
  1

  0
LINE
  5
4454
330
3D35
100
AcDbEntity
  8
AM_5
100
AcDbLine
 10
-0.0000000000000002
 20
-4.999999999999993
 30
0.0
 11
-0.0000000000000006
 21
-12.50000099999997
 31
0.0
  0
LINE
  5
4455
330
3D35
100
AcDbEntity
  8
AM_5
100
AcDbLine
 10
-20.0
 20
-4.999999999999993
 30
0.0
 11
-20.0
 21
-12.50000099999997
 31
0.0
  0
LINE
  5
4456
330
3D35
100
AcDbEntity
  8
AM_5
100
AcDbLine
 10
-1.25
 20
-12.00000099999997
 30
0.0
 11
-18.75
 21
-12.00000099999997
 31
0.0
  0
INSERT
  5
4457
330
3D35
100
AcDbEntity
  8
AM_5
100
AcDbBlockReference
  2
_OPEN30
 10
-0.0000000000000006
 20
-12.00000099999997
 30
0.0
 41
1.25
 42
1.25
 43
1.25
  0
INSERT
  5
4458
330
3D35
100
AcDbEntity
  8
AM_5
100
AcDbBlockReference
  2
_OPEN30
 10
-20.0
 20
-12.00000099999997
 30
0.0
 41
1.25
 42
1.25
 43
1.25
 50
180.0
  0
MTEXT
  5
4459
330
3D35
100
AcDbEntity
  8
AM_5
 62
     2
100
AcDbMText
 10
-10.0
 20
-10.45000099999997
 30
0.0
 40
1.6
 41
0.0
 71
     5
 72
     1
  1
20
  7
ASAMI
1001
ACAD
1000
MTEXTBEGIN
1070
    73
1070
     1
1070
    44
1040
1.0
1070
    74
1070
     0
1000
MTEXTEND
  0
POINT
  5
445A
330
3D35
100
AcDbEntity
  8
DEFPOINTS
 62
     0
100
AcDbPoint
 10
-0.0000000000000001
 20
-4.499999999999993
 30
0.0
  0
POINT
  5
445B
330
3D35
100
AcDbEntity
  8
DEFPOINTS
 62
     0
100
AcDbPoint
 10
-20.0
 20
-4.499999999999993
 30
0.0
  0
POINT
  5
445C
330
3D35
100
AcDbEntity
  8
DEFPOINTS
 62
     0
100
AcDbPoint
 10
-20.0
 20
-12.00000099999997
 30
0.0
  0
ENDBLK
  5
3D40
330
3D35
100
AcDbEntity
  8
0
100
AcDbBlockEnd
  0
BLOCK
  5
3E32
330
3E28
100
AcDbEntity
  8
0
100
AcDbBlockBegin
  2
*D7
 70
     1
 10
0.0
 20
0.0
 30
0.0
  3
*D7
  1

  0
LINE
  5
4385
330
3E28
100
AcDbEntity
  8
AM_5
100
AcDbLine
 10
0.5
 20
4.500000000000007
 30
0.0
 11
12.05776903085518
 21
4.500000000000003
 31
0.0
  0
LINE
  5
4386
330
3E28
100
AcDbEntity
  8
AM_5
100
AcDbLine
 10
0.5000000000000064
 20
-4.499999999999992
 30
0.0
 11
12.05776903085518
 21
-4.499999999999996
 31
0.0
  0
LINE
  5
4387
330
3E28
100
AcDbEntity
  8
AM_5
100
AcDbLine
 10
11.55776903085518
 20
3.250000000000003
 30
0.0
 11
11.55776903085518
 21
-3.249999999999996
 31
0.0
  0
INSERT
  5
4388
330
3E28
100
AcDbEntity
  8
AM_5
100
AcDbBlockReference
  2
_OPEN30
 10
11.55776903085518
 20
4.500000000000003
 30
0.0
 41
1.25
 42
1.25
 43
1.25
 50
90.0
  0
INSERT
  5
4389
330
3E28
100
AcDbEntity
  8
AM_5
100
AcDbBlockReference
  2
_OPEN30
 10
11.55776903085518
 20
-4.499999999999996
 30
0.0
 41
1.25
 42
1.25
 43
1.25
 50
270.0
  0
MTEXT
  5
438A
330
3E28
100
AcDbEntity
  8
AM_5
 62
     2
100
AcDbMText
 10
10.00776903085518
 20
0.0000000000000057
 30
0.0
 40
1.6
 41
0.0
 71
     5
 72
     1
  1
%%c9
  7
ASAMI
 11
0.0000000000000001
 21
1.0
 31
0.0
1001
ACAD
1000
MTEXTBEGIN
1070
    73
1070
     1
1070
    44
1040
1.0
1070
    74
1070
     0
1000
MTEXTEND
  0
POINT
  5
438B
330
3E28
100
AcDbEntity
  8
DEFPOINTS
 62
     0
100
AcDbPoint
 10
0.0
 20
4.500000000000007
 30
0.0
  0
POINT
  5
438C
330
3E28
100
AcDbEntity
  8
DEFPOINTS
 62
     0
100
AcDbPoint
 10
0.0000000000000064
 20
-4.499999999999992
 30
0.0
  0
POINT
  5
438D
330
3E28
100
AcDbEntity
  8
DEFPOINTS
 62
     0
100
AcDbPoint
 10
11.55776903085518
 20
-4.499999999999996
 30
0.0
  0
ENDBLK
  5
3E33
330
3E28
100
AcDbEntity
  8
0
100
AcDbBlockEnd
  0
BLOCK
  5
4236
330
422C
100
AcDbEntity
  8
0
100
AcDbBlockBegin
  2
*D8
 70
     1
 10
0.0
 20
0.0
 30
0.0
  3
*D8
  1

  0
LINE
  5
4249
330
422C
100
AcDbEntity
  8
AM_5
100
AcDbLine
 10
-64.75
 20
4.999999999999995
 30
0.0
 11
-75.19470045058476
 21
4.999999999999999
 31
0.0
  0
LINE
  5
424A
330
422C
100
AcDbEntity
  8
AM_5
100
AcDbLine
 10
-64.74999999999997
 20
-4.999999999999994
 30
0.0
 11
-75.19470045058476
 21
-4.999999999999991
 31
0.0
  0
LINE
  5
424B
330
422C
100
AcDbEntity
  8
AM_5
100
AcDbLine
 10
-74.69470045058476
 20
3.749999999999998
 30
0.0
 11
-74.69470045058476
 21
-3.749999999999991
 31
0.0
  0
INSERT
  5
424C
330
422C
100
AcDbEntity
  8
AM_5
100
AcDbBlockReference
  2
_OPEN30
 10
-74.69470045058476
 20
4.999999999999999
 30
0.0
 41
1.25
 42
1.25
 43
1.25
 50
90.0
  0
INSERT
  5
424D
330
422C
100
AcDbEntity
  8
AM_5
100
AcDbBlockReference
  2
_OPEN30
 10
-74.69470045058476
 20
-4.999999999999991
 30
0.0
 41
1.25
 42
1.25
 43
1.25
 50
270.0
  0
MTEXT
  5
424E
330
422C
100
AcDbEntity
  8
AM_5
 62
     2
100
AcDbMText
 10
-76.24470045058476
 20
-0.0000000000000081
 30
0.0
 40
1.6
 41
0.0
 71
     5
 72
     1
  1
%%c10
  7
ASAMI
 11
0.0000000000000001
 21
1.0
 31
0.0
1001
ACAD
1000
MTEXTBEGIN
1070
    73
1070
     1
1070
    44
1040
1.0
1070
    74
1070
     0
1000
MTEXTEND
  0
POINT
  5
424F
330
422C
100
AcDbEntity
  8
DEFPOINTS
 62
     0
100
AcDbPoint
 10
-64.25
 20
4.999999999999995
 30
0.0
  0
POINT
  5
4250
330
422C
100
AcDbEntity
  8
DEFPOINTS
 62
     0
100
AcDbPoint
 10
-64.24999999999997
 20
-4.999999999999994
 30
0.0
  0
POINT
  5
4251
330
422C
100
AcDbEntity
  8
DEFPOINTS
 62
     0
100
AcDbPoint
 10
-74.69470045058476
 20
-4.999999999999991
 30
0.0
  0
ENDBLK
  5
4237
330
422C
100
AcDbEntity
  8
0
100
AcDbBlockEnd
  0
ENDSEC
  0
SECTION
  2
ENTITIES
  0
TEXT
  5
1500
330
1F
100
AcDbEntity
  8
AM_6
100
AcDbText
 10
-40.8333333333333
 20
-29.25000100000006
 30
0.0
 40
2.5
  1
HSM3090
 72
     4
 11
-32.49999999999997
 21
-28.00000100000006
 31
0.0
100
AcDbText
  0
LINE
  5
3B7D
330
1F
100
AcDbEntity
  8
AM_7
  6
AM_ISO08W050X2
100
AcDbLine
 10
4.557768030855186
 20
0.0
 30
0.0
 11
-67.69469945058478
 21
-0.0000000000000249
 31
0.0
1001
GENIUS_GENODEF_13
1002
{
1000
HIER
1070
     0
1002
}
1002
{
1000
MANEDIT
1070
     0
1002
}
1002
{
1000
NOSEL
1070
     0
1002
}
1002
{
1000
BEHIND
1070
     0
1002
}
1002
{
1000
REACTOR
1002
}
1001
GENIUS_GENOBJ-N-CEN_13
1002
{
1000
OWNER
1000
GEN
1002
}
  0
DIMENSION
  5
3CAC
330
1F
100
AcDbEntity
  8
AM_5
100
AcDbDimension
  2
*D5
 10
-64.99999999999996
 20
-18.00000100000006
 30
0.0
 11
-32.49999999999998
 21
-16.45000100000006
 31
0.0
 70
    32
  1
<>
  3
AM_JIS
100
AcDbAlignedDimension
 13
-0.0000000000000001
 23
-4.499999999999993
 33
0.0
 14
-64.99999999999996
 24
-4.25000000000001
 34
0.0
 50
0.0000000000001132
100
AcDbRotatedDimension
1001
GENIUS_GENDTOL_13
1000

1000
h7
1000

1040
0.0
  0
DIMENSION
  5
3D34
330
1F
100
AcDbEntity
  8
AM_5
100
AcDbDimension
  2
*D6
 10
-20.0
 20
-12.00000099999997
 30
0.0
 11
-10.0
 21
-10.45000099999997
 31
0.0
 70
    32
  1
<>
  3
AM_JIS
100
AcDbAlignedDimension
 13
-0.0000000000000001
 23
-4.499999999999993
 33
0.0
 14
-20.0
 24
-4.499999999999993
 34
0.0
 50
0.0000000000001132
100
AcDbRotatedDimension
1001
GENIUS_GENDTOL_13
1000

1000
h7
1000

1040
0.0
  0
DIMENSION
  5
3E27
330
1F
100
AcDbEntity
  8
AM_5
100
AcDbDimension
  2
*D7
 10
11.55776903085518
 20
-4.499999999999996
 30
0.0
 11
10.00776903085518
 21
0.0000000000000057
 31
0.0
 70
    32
  1
%%c<>
  3
AM_JIS
100
AcDbAlignedDimension
 13
0.0
 23
4.500000000000007
 33
0.0
 14
0.0000000000000064
 24
-4.499999999999992
 34
0.0
 50
90.00000000000003
100
AcDbRotatedDimension
1001
GENIUS_GENDTOL_13
1000

1000
h7
1000

1040
0.0
  0
LINE
  5
4226
330
1F
100
AcDbEntity
  8
AM_0
100
AcDbLine
 10
-23.99999999999993
 20
-4.999999999999984
 30
0.0
 11
-64.24999999999994
 21
-5.000000000000023
 31
0.0
  0
LINE
  5
4229
330
1F
100
AcDbEntity
  8
AM_0
100
AcDbLine
 10
-64.25
 20
4.999999999999994
 30
0.0
 11
-64.24999999999997
 21
-5.000000000000026
 31
0.0
  0
LINE
  5
422A
330
1F
100
AcDbEntity
  8
AM_0
100
AcDbLine
 10
-65.0
 20
4.249999999999994
 30
0.0
 11
-64.99999999999994
 21
-4.250000000000024
 31
0.0
  0
DIMENSION
  5
422B
330
1F
100
AcDbEntity
  8
AM_5
100
AcDbDimension
  2
*D8
 10
-74.69470045058476
 20
-4.999999999999991
 30
0.0
 11
-76.24470045058476
 21
-0.0000000000000081
 31
0.0
 70
    32
  1
%%c<>
  3
AM_JIS
100
AcDbAlignedDimension
 13
-64.25
 23
4.999999999999995
 33
0.0
 14
-64.24999999999997
 24
-4.999999999999994
 34
0.0
 50
270.0
100
AcDbRotatedDimension
1001
GENIUS_GENDTOL_13
1000

1000
h7
1000

1040
0.0
  0
LINE
  5
4238
330
1F
100
AcDbEntity
  8
AM_0
100
AcDbLine
 10
-24.0
 20
5.000000000000011
 30
0.0
 11
-64.25
 21
4.999999999999994
 31
0.0
  0
LINE
  5
4244
330
1F
100
AcDbEntity
  8
AM_0
100
AcDbLine
 10
-64.25
 20
4.999999999999994
 30
0.0
 11
-65.0
 21
4.249999999999994
 31
0.0
1001
GENIUS_GENFIL_13
1070
     0
1040
0.75
1040
0.75
1040
20.0
1040
0.0
1002
{
1002
}
1001
GENIUS_GENODEF_13
1002
{
1000
HIER
1070
     0
1002
}
1002
{
1000
MANEDIT
1070
     0
1002
}
1002
{
1000
NOSEL
1070
     0
1002
}
1002
{
1000
BEHIND
1070
     0
1002
}
1002
{
1000
REACTOR
1002
}
1001
GENIUS_GENOBJ-N-CHA_13
1002
{
1000
OWNER
1000
GEN
1002
}
  0
LINE
  5
4247
330
1F
100
AcDbEntity
  8
AM_0
100
AcDbLine
 10
-64.99999999999994
 20
-4.250000000000024
 30
0.0
 11
-64.24999999999994
 21
-5.000000000000023
 31
0.0
1001
GENIUS_GENFIL_13
1070
     0
1040
0.75
1040
0.75
1040
20.0
1040
0.0
1002
{
1002
}
1001
GENIUS_GENODEF_13
1002
{
1000
HIER
1070
     0
1002
}
1002
{
1000
MANEDIT
1070
     0
1002
}
1002
{
1000
NOSEL
1070
     0
1002
}
1002
{
1000
BEHIND
1070
     0
1002
}
1002
{
1000
REACTOR
1002
}
1001
GENIUS_GENOBJ-N-CHA_13
1002
{
1000
OWNER
1000
GEN
1002
}
  0
LINE
  5
4274
330
1F
100
AcDbEntity
  8
AM_0
100
AcDbLine
 10
-24.0
 20
5.000000000000012
 30
0.0
 11
-23.99999999999993
 21
-4.999999999999984
 31
0.0
  0
LINE
  5
428D
330
1F
100
AcDbEntity
  8
AM_0
100
AcDbLine
 10
-22.62626129027267
 20
4.500000000000003
 30
0.0
 11
-24.0
 21
5.000000000000012
 31
0.0
  0
LINE
  5
428E
330
1F
100
AcDbEntity
  8
AM_0
100
AcDbLine
 10
-20.18234357786218
 20
-4.499999999999995
 30
0.0
 11
-22.62626129027265
 21
-4.499999999999995
 31
0.0
  0
LINE
  5
428F
330
1F
100
AcDbEntity
  8
AM_0
100
AcDbLine
 10
-22.62626129027265
 20
-4.499999999999995
 30
0.0
 11
-23.99999999999993
 21
-4.999999999999984
 31
0.0
  0
LINE
  5
4290
330
1F
100
AcDbEntity
  8
AM_0
100
AcDbLine
 10
-22.62626129027265
 20
-4.499999999999995
 30
0.0
 11
-22.62626129027267
 21
4.500000000000003
 31
0.0
  0
LINE
  5
42DE
330
1F
100
AcDbEntity
  8
AM_11
100
AcDbLine
 10
0.0
 20
4.500000000000007
 30
0.0
 11
0.0
 21
-4.499999999999992
 31
0.0
  0
LINE
  5
42E1
330
1F
100
AcDbEntity
  8
AM_11
100
AcDbLine
 10
-20.0
 20
4.500000000000007
 30
0.0
 11
-20.0
 21
-4.499999999999993
 31
0.0
  0
LINE
  5
42E4
330
1F
100
AcDbEntity
  8
AM_11
100
AcDbLine
 10
0.0
 20
4.500000000000007
 30
0.0
 11
-20.0
 21
4.500000000000006
 31
0.0
  0
LINE
  5
42E5
330
1F
100
AcDbEntity
  8
AM_11
100
AcDbLine
 10
-20.0
 20
-4.499999999999993
 30
0.0
 11
0.0
 21
-4.499999999999992
 31
0.0
  0
SPLINE
  5
46FB
330
1F
100
AcDbEntity
  8
AM_0
100
AcDbSpline
210
0.0
220
0.0
230
1.0
 70
     8
 71
     3
 72
     8
 73
     4
 74
     2
 42
0.0000000001
 43
0.0000000001
 44
0.0000000001
 12
1.0
 22
-0.0000000000000002
 32
0.0
 40
0.0
 40
0.0
 40
0.0
 40
0.0
 40
6.054130821183719
 40
6.054130821183719
 40
6.054130821183719
 40
6.054130821183719
 10
-5.849999999999594
 20
4.500000000000596
 30
0.0
 10
-3.831956392938355
 20
4.500000000000595
 30
0.0
 10
-2.815978196468564
 20
2.250000000000596
 30
0.0
 10
-1.799999999998773
 20
0.0000000000005969
 30
0.0
 11
-5.849999999999594
 21
4.500000000000596
 31
0.0
 11
-1.799999999998773
 21
0.0000000000005969
 31
0.0
  0
SPLINE
  5
46FC
330
1F
100
AcDbEntity
  8
AM_0
100
AcDbSpline
210
0.0
220
0.0
230
1.0
 70
     8
 71
     3
 72
     8
 73
     4
 74
     0
 42
0.0000000001
 43
0.0000000001
 40
0.157854605497133
 40
0.157854605497133
 40
0.157854605497133
 40
0.157854605497133
 40
6.616360992657454
 40
6.616360992657454
 40
6.616360992657454
 40
6.616360992657454
 10
-5.022852952802034
 20
4.361648739698907
 30
0.0
 10
-3.129131022203005
 20
4.261196927943714
 30
0.0
 10
-2.121219878633793
 20
2.130598463972049
 30
0.0
 10
-1.113308735064997
 20
0.0000000000003837
 30
0.0
  0
SPLINE
  5
46FD
330
1F
100
AcDbEntity
  8
AM_0
100
AcDbSpline
210
0.0
220
0.0
230
1.0
 70
     8
 71
     3
 72
     8
 73
     4
 74
     0
 42
0.0000000001
 43
0.0000000001
 40
0.3982504941345976
 40
0.3982504941345976
 40
0.3982504941345976
 40
0.3982504941345976
 40
6.01848148651983
 40
6.01848148651983
 40
6.01848148651983
 40
6.01848148651983
 10
-4.115711265545408
 20
4.138090760264759
 30
0.0
 10
-2.52118712098559
 20
3.921252365403887
 30
0.0
 10
-1.552048852141982
 20
2.223093935743591
 30
0.0
 10
-0.6277017251496138
 20
0.418840983674258
 30
0.0
  0
SPLINE
  5
46FE
330
1F
100
AcDbEntity
  8
AM_0
100
AcDbSpline
210
0.0
220
0.0
230
1.0
 70
     8
 71
     3
 72
     9
 73
     5
 74
     3
 42
0.0000000001
 43
0.0000000001
 44
0.0000000001
 12
-0.7037104554506214
 22
-0.7104868717221163
 32
0.0
 13
-0.5728114391284047
 23
0.819687169110049
 33
0.0
 40
0.0
 40
0.0
 40
0.0
 40
0.0
 40
0.3119779083144934
 40
0.5841308762309936
 40
0.5841308762309936
 40
0.5841308762309936
 40
0.5841308762309936
 10
-0.1800000000059785
 20
-3.07626917424919
 30
0.0
 10
-0.2531807053228199
 20
-3.150154576957449
 30
0.0
 10
-0.4103312114800876
 20
-3.422269947414031
 30
0.0
 10
-0.5330358889283142
 20
-3.150629272861315
 30
0.0
 10
-0.5850000000000866
 20
-3.07626917424919
 30
0.0
 11
-0.1800000000059785
 21
-3.07626917424919
 31
0.0
 11
-0.4112197251028662
 21
-3.285715238911208
 31
0.0
 11
-0.5850000000000866
 21
-3.07626917424919
 31
0.0
  0
SPLINE
  5
46FF
330
1F
100
AcDbEntity
  8
AM_0
100
AcDbSpline
210
0.0
220
0.0
230
1.0
 70
     8
 71
     3
 72
     8
 73
     4
 74
     0
 42
0.0000000001
 43
0.0000000001
 40
4.32310436431184
 40
4.32310436431184
 40
4.32310436431184
 40
4.32310436431184
 40
6.616360992657454
 40
6.616360992657454
 40
6.616360992657454
 40
6.616360992657454
 10
0.0000000000004046
 20
-2.178684846605975
 30
0.0
 10
-0.3975398646126043
 20
-1.513046130776572
 30
0.0
 10
-0.755424299838801
 20
-0.7565230653880377
 30
0.0
 10
-1.113308735064997
 20
0.0000000000004974
 30
0.0
  0
SPLINE
  5
4700
330
1F
100
AcDbEntity
  8
AM_0
100
AcDbSpline
210
0.0
220
0.0
230
1.0
 70
     8
 71
     3
 72
     8
 73
     4
 74
     2
 42
0.0000000001
 43
0.0000000001
 44
0.0000000001
 12
0.2563440340107919
 22
-0.9665856072935671
 32
0.0
 13
-1.0
 23
0.0000000000000001
 33
0.0
 40
0.0
 40
0.0
 40
0.0
 40
0.0
 40
2.200220382752563
 40
2.200220382752563
 40
2.200220382752563
 40
2.200220382752563
 10
-0.4499999999946818
 20
4.499999999999985
 30
0.0
 10
-0.2619955437854948
 20
3.791099548385795
 30
0.0
 10
-0.63363722468709
 20
2.499999999999928
 30
0.0
 10
-1.367044018937944
 20
2.499999999999928
 30
0.0
 11
-0.4499999999946818
 21
4.499999999999985
 31
0.0
 11
-1.367044018937944
 21
2.499999999999928
 31
0.0
  0
SPLINE
  5
4701
330
1F
100
AcDbEntity
  8
AM_0
100
AcDbSpline
210
0.0
220
0.0
230
1.0
 70
     8
 71
     3
 72
     9
 73
     5
 74
     3
 42
0.0000000001
 43
0.0000000001
 44
0.0000000001
 12
-0.3385048798911532
 22
0.9409646360463691
 32
0.0
 13
0.9630016908632653
 23
-0.2694953494858349
 33
0.0
 40
0.0
 40
0.0
 40
0.0
 40
0.0
 40
1.495308333487532
 40
1.870802510652748
 40
1.870802510652748
 40
1.870802510652748
 40
1.870802510652748
 10
-0.5850000000000866
 20
-3.07626917424919
 30
0.0
 10
-0.7537230559425659
 20
-2.607258420316791
 30
0.0
 10
-1.887530191892769
 20
-2.070857308159566
 30
0.0
 10
-1.144315583192601
 20
-1.615829607645995
 30
0.0
 10
-1.02378174068613
 20
-1.649560919147674
 30
0.0
 11
-0.5850000000000866
 21
-3.07626917424919
 31
0.0
 11
-1.367044018937944
 21
-1.801767638494609
 31
0.0
 11
-1.02378174068613
 21
-1.649560919147674
 31
0.0
  0
SPLINE
  5
4702
330
1F
100
AcDbEntity
  8
AM_0
100
AcDbSpline
210
0.0
220
0.0
230
1.0
 70
     8
 71
     3
 72
     8
 73
     4
 74
     0
 42
0.0000000001
 43
0.0000000001
 40
0.0
 40
0.0
 40
0.0
 40
0.0
 40
3.138307834541913
 40
3.138307834541913
 40
3.138307834541913
 40
3.138307834541913
 10
-1.59353647414331
 20
-4.370680301610477
 30
0.0
 10
-1.59353647414331
 20
-4.370680301610477
 30
0.0
 10
-0.684898110443271
 20
-4.328791891787133
 30
0.0
 10
-0.1800000000076172
 20
-3.125068988965594
 30
0.0
  0
SPLINE
  5
4703
330
1F
100
AcDbEntity
  8
AM_0
100
AcDbSpline
210
0.0
220
0.0
230
1.0
 70
     8
 71
     3
 72
     8
 73
     4
 74
     0
 42
0.0000000001
 43
0.0000000001
 40
0.0
 40
0.0
 40
0.0
 40
0.0
 40
0.4556590281797062
 40
0.4556590281797062
 40
0.4556590281797062
 40
0.4556590281797062
 10
-1.124054866724407
 20
-4.014293833526664
 30
0.0
 10
-0.9873571582702759
 20
-4.014293833526664
 30
0.0
 10
-0.8550406118847465
 20
-4.003916395532428
 30
0.0
 10
-0.7795931878133724
 20
-3.991559525204905
 30
0.0
  0
SPLINE
  5
4704
330
1F
100
AcDbEntity
  8
AM_0
100
AcDbSpline
210
0.0
220
0.0
230
1.0
 70
     8
 71
     3
 72
     8
 73
     4
 74
     0
 42
0.0000000001
 43
0.0000000001
 40
4.390614724758877
 40
4.390614724758877
 40
4.390614724758877
 40
4.390614724758877
 40
6.726812023537121
 40
6.726812023537121
 40
6.726812023537121
 40
6.726812023537121
 10
-0.6994878416854183
 20
-2.249999999988759
 30
0.0
 10
-1.094308950537564
 20
-1.562833598993776
 30
0.0
 10
-1.447154475268375
 20
-0.7814167994965971
 30
0.0
 10
-1.799999999998773
 20
0.0000000000004974
 30
0.0
  0
SPLINE
  5
4705
330
1F
100
AcDbEntity
  8
AM_0
100
AcDbSpline
210
0.0
220
0.0
230
1.0
 70
     8
 71
     3
 72
     8
 73
     4
 74
     0
 42
0.0000000001
 43
0.0000000001
 40
0.0
 40
0.0
 40
0.0
 40
0.0
 40
2.948331486770748
 40
2.948331486770748
 40
2.948331486770748
 40
2.948331486770748
 10
-0.4499999999971398
 20
4.500000000000696
 30
0.0
 10
-1.334499446028216
 20
4.500000000001108
 30
0.0
 10
-2.026499169077854
 20
4.067768359101123
 30
0.0
 10
-2.610370932839215
 20
3.392750263517797
 30
0.0
  0
SPLINE
  5
4706
330
1F
100
AcDbEntity
  8
AM_0
100
AcDbSpline
210
0.0
220
0.0
230
1.0
 70
     8
 71
     3
 72
     8
 73
     4
 74
     2
 42
0.0000000001
 43
0.0000000001
 44
0.0000000001
 12
-1.0
 22
0.0000000000000001
 32
0.0
 40
0.0
 40
0.0
 40
0.0
 40
0.0
 40
6.054130821183443
 40
6.054130821183443
 40
6.054130821183443
 40
6.054130821183443
 10
-2.362499999996319
 20
-4.499999999999502
 30
0.0
 10
-4.380543607057466
 20
-4.499999999999502
 30
0.0
 10
-5.396521803527098
 20
-2.249999999999502
 30
0.0
 10
-6.412499999996729
 20
0.0000000000004974
 30
0.0
 11
-2.362499999996319
 21
-4.499999999999502
 31
0.0
 11
-6.412499999996729
 21
0.0000000000004974
 31
0.0
  0
SPLINE
  5
4707
330
1F
100
AcDbEntity
  8
AM_0
100
AcDbSpline
210
0.0
220
0.0
230
1.0
 70
     8
 71
     3
 72
     8
 73
     4
 74
     2
 42
0.0000000001
 43
0.0000000001
 44
0.0000000001
 12
-1.0
 22
0.0000000000000001
 32
0.0
 40
0.0
 40
0.0
 40
0.0
 40
0.0
 40
6.014858297354444
 40
6.014858297354444
 40
6.014858297354444
 40
6.014858297354444
 10
-1.59353647414331
 20
-4.370680301610477
 30
0.0
 10
-3.598489239928125
 20
-4.370680301610477
 30
0.0
 10
-4.662148987495332
 20
-2.18534015080494
 30
0.0
 10
-5.725808735062541
 20
0.0000000000005969
 30
0.0
 11
-1.59353647414331
 21
-4.370680301610477
 31
0.0
 11
-5.725808735062541
 21
0.0000000000005969
 31
0.0
  0
SPLINE
  5
4708
330
1F
100
AcDbEntity
  8
AM_0
100
AcDbSpline
210
0.0
220
0.0
230
1.0
 70
     8
 71
     3
 72
     8
 73
     4
 74
     2
 42
0.0000000001
 43
0.0000000001
 44
0.0000000001
 12
-1.0
 22
0.0000000000000001
 32
0.0
 40
0.0
 40
0.0
 40
0.0
 40
0.0
 40
5.59874972507321
 40
5.59874972507321
 40
5.59874972507321
 40
5.59874972507321
 10
-1.124054866724407
 20
-4.014293833526664
 30
0.0
 10
-2.990304775082143
 20
-4.014293833526664
 30
0.0
 10
-4.008553920231255
 20
-2.007146916763034
 30
0.0
 10
-5.026803065380367
 20
0.0000000000005969
 30
0.0
 11
-1.124054866724407
 21
-4.014293833526664
 31
0.0
 11
-5.026803065380367
 21
0.0000000000005969
 31
0.0
  0
SPLINE
  5
4709
330
1F
100
AcDbEntity
  8
AM_0
100
AcDbSpline
210
0.0
220
0.0
230
1.0
 70
     8
 71
     3
 72
     8
 73
     4
 74
     2
 42
0.0000000001
 43
0.0000000001
 44
0.0000000001
 12
1.0
 22
-0.0000000000000002
 32
0.0
 40
0.0
 40
0.0
 40
0.0
 40
0.0
 40
6.054130821183166
 40
6.054130821183166
 40
6.054130821183166
 40
6.054130821183166
 10
-10.46250000000122
 20
4.500000000000497
 30
0.0
 10
-8.444456392940175
 20
4.500000000000496
 30
0.0
 10
-7.428478196470703
 20
2.250000000000496
 30
0.0
 10
-6.412500000001234
 20
0.0000000000004974
 30
0.0
 11
-10.46250000000122
 21
4.500000000000497
 31
0.0
 11
-6.412500000001234
 21
0.0000000000004974
 31
0.0
  0
SPLINE
  5
470A
330
1F
100
AcDbEntity
  8
AM_0
100
AcDbSpline
210
0.0
220
0.0
230
1.0
 70
     8
 71
     3
 72
     8
 73
     4
 74
     0
 42
0.0000000001
 43
0.0000000001
 40
0.157854605497133
 40
0.157854605497133
 40
0.157854605497133
 40
0.157854605497133
 40
6.616360992657454
 40
6.616360992657454
 40
6.616360992657454
 40
6.616360992657454
 10
-9.635352952804085
 20
4.361648739698708
 30
0.0
 10
-7.74163102220505
 20
4.261196927943601
 30
0.0
 10
-6.733719878636254
 20
2.130598463971949
 30
0.0
 10
-5.725808735067042
 20
0.0000000000003837
 30
0.0
  0
SPLINE
  5
470B
330
1F
100
AcDbEntity
  8
AM_0
100
AcDbSpline
210
0.0
220
0.0
230
1.0
 70
     8
 71
     3
 72
     8
 73
     4
 74
     0
 42
0.0000000001
 43
0.0000000001
 40
0.3982504941345976
 40
0.3982504941345976
 40
0.3982504941345976
 40
0.3982504941345976
 40
6.452065446090842
 40
6.452065446090842
 40
6.452065446090842
 40
6.452065446090842
 10
-8.728211265547052
 20
4.138090760264546
 30
0.0
 10
-7.010674367033747
 20
3.904523933786293
 30
0.0
 10
-6.018738716209515
 20
1.952261966893402
 30
0.0
 10
-5.026803065384871
 20
0.0000000000005969
 30
0.0
  0
SPLINE
  5
470C
330
1F
100
AcDbEntity
  8
AM_0
100
AcDbSpline
210
0.0
220
0.0
230
1.0
 70
     8
 71
     3
 72
     8
 73
     4
 74
     0
 42
0.0000000001
 43
0.0000000001
 40
0.0
 40
0.0
 40
0.0
 40
0.0
 40
0.9875149968653097
 40
0.9875149968653097
 40
0.9875149968653097
 40
0.9875149968653097
 10
-2.362499999999593
 20
-4.499999999999303
 30
0.0
 10
-2.066245500940025
 20
-4.499999999999303
 30
0.0
 10
-1.79158658261563
 20
-4.451510094909238
 30
0.0
 10
-1.59353647414331
 20
-4.370680301610477
 30
0.0
  0
SPLINE
  5
470D
330
1F
100
AcDbEntity
  8
AM_0
100
AcDbSpline
210
0.0
220
0.0
230
1.0
 70
     8
 71
     3
 72
     8
 73
     4
 74
     0
 42
0.0000000001
 43
0.0000000001
 40
0.3982504941345976
 40
0.3982504941345976
 40
0.3982504941345976
 40
0.3982504941345976
 40
6.452065446090842
 40
6.452065446090842
 40
6.452065446090842
 40
6.452065446090842
 10
-13.04071126554295
 20
4.13809076026466
 30
0.0
 10
-11.32317436702965
 20
3.904523933786393
 30
0.0
 10
-10.33123871620542
 20
1.952261966893487
 30
0.0
 10
-9.33930306538037
 20
0.0000000000005969
 30
0.0
  0
SPLINE
  5
470E
330
1F
100
AcDbEntity
  8
AM_0
100
AcDbSpline
210
0.0
220
0.0
230
1.0
 70
     8
 71
     3
 72
     8
 73
     4
 74
     0
 42
0.0000000001
 43
0.0000000001
 40
0.157854605497133
 40
0.157854605497133
 40
0.157854605497133
 40
0.157854605497133
 40
6.616360992657454
 40
6.616360992657454
 40
6.616360992657454
 40
6.616360992657454
 10
-13.94785295279958
 20
4.361648739698793
 30
0.0
 10
-12.05413102220096
 20
4.261196927943601
 30
0.0
 10
-11.04621987863215
 20
2.130598463972049
 30
0.0
 10
-10.03830873506254
 20
0.0000000000003837
 30
0.0
  0
SPLINE
  5
470F
330
1F
100
AcDbEntity
  8
AM_0
100
AcDbSpline
210
0.0
220
0.0
230
1.0
 70
     8
 71
     3
 72
     8
 73
     4
 74
     2
 42
0.0000000001
 43
0.0000000001
 44
0.0000000001
 12
1.0
 22
-0.0000000000000002
 32
0.0
 40
0.0
 40
0.0
 40
0.0
 40
0.0
 40
6.054130821183443
 40
6.054130821183443
 40
6.054130821183443
 40
6.054130821183443
 10
-14.77499999999714
 20
4.500000000000497
 30
0.0
 10
-12.75695639293599
 20
4.500000000000496
 30
0.0
 10
-11.74097819646636
 20
2.250000000000496
 30
0.0
 10
-10.72499999999673
 20
0.0000000000004974
 30
0.0
 11
-14.77499999999714
 21
4.500000000000497
 31
0.0
 11
-10.72499999999673
 21
0.0000000000004974
 31
0.0
  0
SPLINE
  5
4710
330
1F
100
AcDbEntity
  8
AM_0
100
AcDbSpline
210
0.0
220
0.0
230
1.0
 70
     8
 71
     3
 72
     8
 73
     4
 74
     2
 42
0.0000000001
 43
0.0000000001
 44
0.0000000001
 12
-1.0
 22
0.0000000000000001
 32
0.0
 40
0.0
 40
0.0
 40
0.0
 40
0.0
 40
5.806858901481459
 40
5.806858901481459
 40
5.806858901481459
 40
5.806858901481459
 10
-5.289303065380362
 20
-4.16138321976112
 30
0.0
 10
-7.224922699207516
 20
-4.16138321976112
 30
0.0
 10
-8.282112882293942
 20
-2.080691609880261
 30
0.0
 10
-9.33930306538037
 20
0.0000000000005969
 30
0.0
 11
-5.289303065380362
 21
-4.16138321976112
 31
0.0
 11
-9.33930306538037
 21
0.0000000000005969
 31
0.0
  0
SPLINE
  5
4711
330
1F
100
AcDbEntity
  8
AM_0
100
AcDbSpline
210
0.0
220
0.0
230
1.0
 70
     8
 71
     3
 72
     8
 73
     4
 74
     2
 42
0.0000000001
 43
0.0000000001
 44
0.0000000001
 12
-1.0
 22
0.0000000000000001
 32
0.0
 40
0.0
 40
0.0
 40
0.0
 40
0.0
 40
5.954724893391506
 40
5.954724893391506
 40
5.954724893391506
 40
5.954724893391506
 10
-5.988308735062537
 20
-4.365346327151058
 30
0.0
 10
-7.973217032859706
 20
-4.365346327151058
 30
0.0
 10
-9.005762883961123
 20
-2.182673163575231
 30
0.0
 10
-10.03830873506254
 20
0.0000000000005969
 30
0.0
 11
-5.988308735062537
 21
-4.365346327151058
 31
0.0
 11
-10.03830873506254
 21
0.0000000000005969
 31
0.0
  0
SPLINE
  5
4712
330
1F
100
AcDbEntity
  8
AM_0
100
AcDbSpline
210
0.0
220
0.0
230
1.0
 70
     8
 71
     3
 72
     8
 73
     4
 74
     2
 42
0.0000000001
 43
0.0000000001
 44
0.0000000001
 12
-1.0
 22
0.0000000000000001
 32
0.0
 40
0.0
 40
0.0
 40
0.0
 40
0.0
 40
6.054130821183448
 40
6.054130821183448
 40
6.054130821183448
 40
6.054130821183448
 10
-6.674999999996316
 20
-4.499999999999502
 30
0.0
 10
-8.693043607057465
 20
-4.499999999999502
 30
0.0
 10
-9.709021803527098
 20
-2.249999999999502
 30
0.0
 10
-10.72499999999673
 20
0.0000000000004974
 30
0.0
 11
-6.674999999996316
 21
-4.499999999999502
 31
0.0
 11
-10.72499999999673
 21
0.0000000000004974
 31
0.0
  0
SPLINE
  5
4713
330
1F
100
AcDbEntity
  8
AM_0
100
AcDbSpline
210
0.0
220
0.0
230
1.0
 70
     8
 71
     3
 72
     8
 73
     4
 74
     0
 42
0.0000000001
 43
0.0000000001
 40
0.0
 40
0.0
 40
0.0
 40
0.0
 40
0.9875149967633806
 40
0.9875149967633806
 40
0.9875149967633806
 40
0.9875149967633806
 10
-6.674999999997544
 20
-4.499999999999303
 30
0.0
 10
-6.37874550096826
 20
-4.499999999999303
 30
0.0
 10
-6.10408658267006
 20
-4.451510094919257
 30
0.0
 10
-5.847852952880202
 20
-4.361648739725652
 30
0.0
  0
SPLINE
  5
4714
330
1F
100
AcDbEntity
  8
AM_0
100
AcDbSpline
210
0.0
220
0.0
230
1.0
 70
     8
 71
     3
 72
     8
 73
     4
 74
     0
 42
0.0000000001
 43
0.0000000001
 40
0.0
 40
0.0
 40
0.0
 40
0.0
 40
1.274172826456642
 40
1.274172826456642
 40
1.274172826456642
 40
1.274172826456642
 10
-5.988308735063355
 20
-4.36534632715076
 30
0.0
 10
-5.606056887126442
 20
-4.36534632715076
 30
0.0
 10
-5.259125027791878
 20
-4.284398163425933
 30
0.0
 10
-4.940711265542949
 20
-4.138090760263352
 30
0.0
  0
SPLINE
  5
4715
330
1F
100
AcDbEntity
  8
AM_0
100
AcDbSpline
210
0.0
220
0.0
230
1.0
 70
     8
 71
     3
 72
     8
 73
     4
 74
     2
 42
0.0000000001
 43
0.0000000001
 44
0.0000000001
 12
-1.0
 22
0.0000000000000001
 32
0.0
 40
0.0
 40
0.0
 40
0.0
 40
0.0
 40
6.054130821183443
 40
6.054130821183443
 40
6.054130821183443
 40
6.054130821183443
 10
-10.98749999999222
 20
-4.499999999999403
 30
0.0
 10
-13.00554360705337
 20
-4.499999999999403
 30
0.0
 10
-14.021521803523
 20
-2.249999999999403
 30
0.0
 10
-15.03749999999263
 20
0.0000000000005969
 30
0.0
 11
-10.98749999999222
 21
-4.499999999999403
 31
0.0
 11
-15.03749999999263
 21
0.0000000000005969
 31
0.0
  0
SPLINE
  5
4716
330
1F
100
AcDbEntity
  8
AM_0
100
AcDbSpline
210
0.0
220
0.0
230
1.0
 70
     8
 71
     3
 72
     8
 73
     4
 74
     0
 42
0.0000000001
 43
0.0000000001
 40
0.0
 40
0.0
 40
0.0
 40
0.0
 40
1.274172826456642
 40
1.274172826456642
 40
1.274172826456642
 40
1.274172826456642
 10
-10.30080873505926
 20
-4.365346327150646
 30
0.0
 10
-9.918556887122351
 20
-4.365346327150646
 30
0.0
 10
-9.571625027787785
 20
-4.284398163425933
 30
0.0
 10
-9.253211265538862
 20
-4.138090760263352
 30
0.0
  0
SPLINE
  5
4717
330
1F
100
AcDbEntity
  8
AM_0
100
AcDbSpline
210
0.0
220
0.0
230
1.0
 70
     8
 71
     3
 72
     8
 73
     4
 74
     0
 42
0.0000000001
 43
0.0000000001
 40
0.0
 40
0.0
 40
0.0
 40
0.0
 40
0.9875149967633806
 40
0.9875149967633806
 40
0.9875149967633806
 40
0.9875149967633806
 10
-11.58749999999304
 20
-4.499999999999189
 30
0.0
 10
-11.29124550096417
 20
-4.499999999999189
 30
0.0
 10
-11.01658658266556
 20
-4.451510094919157
 30
0.0
 10
-10.76035295287611
 20
-4.361648739725538
 30
0.0
  0
SPLINE
  5
4718
330
1F
100
AcDbEntity
  8
AM_0
100
AcDbSpline
210
0.0
220
0.0
230
1.0
 70
     8
 71
     3
 72
     8
 73
     4
 74
     2
 42
0.0000000001
 43
0.0000000001
 44
0.0000000001
 12
-1.0
 22
0.0000000000000001
 32
0.0
 40
0.0
 40
0.0
 40
0.0
 40
0.0
 40
5.806858901481526
 40
5.806858901481526
 40
5.806858901481526
 40
5.806858901481526
 10
-9.60180306537627
 20
-4.16138321976112
 30
0.0
 10
-11.53742269920344
 20
-4.16138321976112
 30
0.0
 10
-12.59461288228985
 20
-2.080691609880211
 30
0.0
 10
-13.65180306537627
 20
0.0000000000006963
 30
0.0
 11
-9.60180306537627
 21
-4.16138321976112
 31
0.0
 11
-13.65180306537627
 21
0.0000000000006963
 31
0.0
  0
SPLINE
  5
4719
330
1F
100
AcDbEntity
  8
AM_0
100
AcDbSpline
210
0.0
220
0.0
230
1.0
 70
     8
 71
     3
 72
     8
 73
     4
 74
     2
 42
0.0000000001
 43
0.0000000001
 44
0.0000000001
 12
-1.0
 22
0.0000000000000001
 32
0.0
 40
0.0
 40
0.0
 40
0.0
 40
0.0
 40
5.954724893391503
 40
5.954724893391503
 40
5.954724893391503
 40
5.954724893391503
 10
-10.30080873505845
 20
-4.365346327151058
 30
0.0
 10
-12.28571703285561
 20
-4.365346327151058
 30
0.0
 10
-13.31826288395703
 20
-2.182673163575231
 30
0.0
 10
-14.35080873505845
 20
0.0000000000005969
 30
0.0
 11
-10.30080873505845
 21
-4.365346327151058
 31
0.0
 11
-14.35080873505845
 21
0.0000000000005969
 31
0.0
  0
SPLINE
  5
471A
330
1F
100
AcDbEntity
  8
AM_0
100
AcDbSpline
210
0.0
220
0.0
230
1.0
 70
     8
 71
     3
 72
     8
 73
     4
 74
     0
 42
0.0000000001
 43
0.0000000001
 40
0.3982504941345976
 40
0.3982504941345976
 40
0.3982504941345976
 40
0.3982504941345976
 40
6.452065446090842
 40
6.452065446090842
 40
6.452065446090842
 40
6.452065446090842
 10
-17.35321126553886
 20
4.138090760264759
 30
0.0
 10
-15.63567436702556
 20
3.904523933786393
 30
0.0
 10
-14.64373871620091
 20
1.952261966893487
 30
0.0
 10
-13.65180306537627
 20
0.0000000000005969
 30
0.0
  0
SPLINE
  5
471B
330
1F
100
AcDbEntity
  8
AM_0
100
AcDbSpline
210
0.0
220
0.0
230
1.0
 70
     8
 71
     3
 72
     8
 73
     4
 74
     0
 42
0.0000000001
 43
0.0000000001
 40
0.157854605497133
 40
0.157854605497133
 40
0.157854605497133
 40
0.157854605497133
 40
6.616360992657454
 40
6.616360992657454
 40
6.616360992657454
 40
6.616360992657454
 10
-18.2603529527955
 20
4.361648739698907
 30
0.0
 10
-16.36663102219687
 20
4.261196927943714
 30
0.0
 10
-15.35871987862765
 20
2.130598463972049
 30
0.0
 10
-14.35080873505845
 20
0.0000000000003837
 30
0.0
  0
SPLINE
  5
471C
330
1F
100
AcDbEntity
  8
AM_0
100
AcDbSpline
210
0.0
220
0.0
230
1.0
 70
     8
 71
     3
 72
     8
 73
     4
 74
     2
 42
0.0000000001
 43
0.0000000001
 44
0.0000000001
 12
1.0
 22
-0.0000000000000002
 32
0.0
 40
0.0
 40
0.0
 40
0.0
 40
0.0
 40
6.054130821183451
 40
6.054130821183451
 40
6.054130821183451
 40
6.054130821183451
 10
-19.08749999999305
 20
4.500000000000596
 30
0.0
 10
-17.0694563929319
 20
4.500000000000595
 30
0.0
 10
-16.05347819646226
 20
2.250000000000596
 30
0.0
 10
-15.03749999999263
 20
0.0000000000005969
 30
0.0
 11
-19.08749999999305
 21
4.500000000000596
 31
0.0
 11
-15.03749999999263
 21
0.0000000000005969
 31
0.0
  0
SPLINE
  5
471D
330
1F
100
AcDbEntity
  8
AM_0
100
AcDbSpline
210
0.0
220
0.0
230
1.0
 70
     8
 71
     3
 72
     8
 73
     4
 74
     2
 42
0.0000000001
 43
0.0000000001
 44
0.0000000001
 12
-1.0
 22
0.0000000000000001
 32
0.0
 40
0.0
 40
0.0
 40
0.0
 40
0.0
 40
6.054130821183168
 40
6.054130821183168
 40
6.054130821183168
 40
6.054130821183168
 10
-15.29999999998814
 20
-4.499999999999403
 30
0.0
 10
-17.31804360704919
 20
-4.499999999999403
 30
0.0
 10
-18.33402180351867
 20
-2.249999999999403
 30
0.0
 10
-19.34999999998814
 20
0.0000000000005969
 30
0.0
 11
-15.29999999998814
 21
-4.499999999999403
 31
0.0
 11
-19.34999999998814
 21
0.0000000000005969
 31
0.0
  0
SPLINE
  5
471E
330
1F
100
AcDbEntity
  8
AM_0
100
AcDbSpline
210
0.0
220
0.0
230
1.0
 70
     8
 71
     3
 72
     8
 73
     4
 74
     2
 42
0.0000000001
 43
0.0000000001
 44
0.0000000001
 12
-1.0
 22
0.0000000000000001
 32
0.0
 40
0.0
 40
0.0
 40
0.0
 40
0.0
 40
5.954724893391707
 40
5.954724893391707
 40
5.954724893391707
 40
5.954724893391707
 10
-14.61330873505395
 20
-4.365346327150959
 30
0.0
 10
-16.59821703285118
 20
-4.365346327150959
 30
0.0
 10
-17.63076288395277
 20
-2.182673163575181
 30
0.0
 10
-18.66330873505435
 20
0.0000000000005969
 30
0.0
 11
-14.61330873505395
 21
-4.365346327150959
 31
0.0
 11
-18.66330873505435
 21
0.0000000000005969
 31
0.0
  0
SPLINE
  5
471F
330
1F
100
AcDbEntity
  8
AM_0
100
AcDbSpline
210
0.0
220
0.0
230
1.0
 70
     8
 71
     3
 72
     8
 73
     4
 74
     0
 42
0.0000000001
 43
0.0000000001
 40
0.0
 40
0.0
 40
0.0
 40
0.0
 40
0.9875149967633806
 40
0.9875149967633806
 40
0.9875149967633806
 40
0.9875149967633806
 10
-15.29999999998895
 20
-4.499999999999189
 30
0.0
 10
-15.00374550096008
 20
-4.499999999999189
 30
0.0
 10
-14.72908658266147
 20
-4.451510094919044
 30
0.0
 10
-14.47285295287161
 20
-4.361648739725538
 30
0.0
  0
SPLINE
  5
4720
330
1F
100
AcDbEntity
  8
AM_0
100
AcDbSpline
210
0.0
220
0.0
230
1.0
 70
     8
 71
     3
 72
     8
 73
     4
 74
     2
 42
0.0000000001
 43
0.0000000001
 44
0.0000000001
 12
-1.0
 22
0.0000000000000001
 32
0.0
 40
0.0
 40
0.0
 40
0.0
 40
0.0
 40
5.806858901481823
 40
5.806858901481823
 40
5.806858901481823
 40
5.806858901481823
 10
-13.91430306537178
 20
-4.16138321976102
 30
0.0
 10
-15.84992269919905
 20
-4.16138321976102
 30
0.0
 10
-16.90711288228562
 20
-2.080691609880105
 30
0.0
 10
-17.96430306537219
 20
0.00000000000081
 30
0.0
 11
-13.91430306537178
 21
-4.16138321976102
 31
0.0
 11
-17.96430306537219
 21
0.00000000000081
 31
0.0
  0
SPLINE
  5
4721
330
1F
100
AcDbEntity
  8
AM_0
100
AcDbSpline
210
0.0
220
0.0
230
1.0
 70
     8
 71
     3
 72
     8
 73
     4
 74
     0
 42
0.0000000001
 43
0.0000000001
 40
0.0
 40
0.0
 40
0.0
 40
0.0
 40
1.274172826456642
 40
1.274172826456642
 40
1.274172826456642
 40
1.274172826456642
 10
-14.61330873505518
 20
-4.365346327150646
 30
0.0
 10
-14.23105688711826
 20
-4.365346327150646
 30
0.0
 10
-13.8841250277837
 20
-4.284398163425933
 30
0.0
 10
-13.56571126553477
 20
-4.138090760263352
 30
0.0
  0
SPLINE
  5
4722
330
1F
100
AcDbEntity
  8
AM_0
100
AcDbSpline
210
0.0
220
0.0
230
1.0
 70
     8
 71
     3
 72
     8
 73
     4
 74
     0
 42
0.0000000001
 43
0.0000000001
 40
0.0
 40
0.0
 40
0.0
 40
0.0
 40
1.274172826456642
 40
1.274172826456642
 40
1.274172826456642
 40
1.274172826456642
 10
-20.18234357786218
 20
-4.500000000000724
 30
0.0
 10
-19.63105688711307
 20
-4.365346327151272
 30
0.0
 10
-19.28412502777852
 20
-4.284398163426445
 30
0.0
 10
-18.96571126552999
 20
-4.138090760263864
 30
0.0
  0
SPLINE
  5
4723
330
1F
100
AcDbEntity
  8
AM_0
100
AcDbSpline
210
0.0
220
0.0
230
1.0
 70
     8
 71
     3
 72
     8
 73
     4
 74
     2
 42
0.0000000001
 43
0.0000000001
 44
0.0000000001
 12
-1.0
 22
0.0000000000000001
 32
0.0
 40
0.0
 40
0.0
 40
0.0
 40
0.0
 40
3.906453813775905
 40
3.906453813775905
 40
3.906453813775905
 40
3.906453813775905
 10
-19.314303065367
 20
-4.161383219761631
 30
0.0
 10
-20.61645433662564
 20
-4.161383219761631
 30
0.0
 10
-21.48255497051156
 20
-2.931232205856879
 30
0.0
 10
-22.34865560439749
 20
-1.701081191952127
 30
0.0
 11
-19.314303065367
 21
-4.161383219761631
 31
0.0
 11
-22.34865560439749
 21
-1.701081191952127
 31
0.0
  0
SPLINE
  5
4724
330
1F
100
AcDbEntity
  8
AM_0
100
AcDbSpline
210
0.0
220
0.0
230
1.0
 70
     8
 71
     3
 72
     8
 73
     4
 74
     0
 42
0.0000000001
 43
0.0000000001
 40
0.0
 40
0.0
 40
0.0
 40
0.0
 40
2.420483029949796
 40
2.420483029949796
 40
2.420483029949796
 40
2.420483029949796
 10
-19.31430306536782
 20
-4.161383219761631
 30
0.0
 10
-18.58815815638296
 20
-4.161383219761631
 30
0.0
 10
-17.98564027972035
 20
-3.868554093085521
 30
0.0
 10
-17.46037093282422
 20
-3.392750263516902
 30
0.0
  0
SPLINE
  5
4725
330
1F
100
AcDbEntity
  8
AM_0
100
AcDbSpline
210
0.0
220
0.0
230
1.0
 70
     8
 71
     3
 72
     8
 73
     4
 74
     0
 42
0.0000000001
 43
0.0000000001
 40
0.7267593649453764
 40
0.7267593649453764
 40
0.7267593649453764
 40
0.7267593649453764
 40
0.7815968399277902
 40
0.7815968399277902
 40
0.7815968399277902
 40
0.7815968399277902
 10
-22.62626129027266
 20
4.497841496191877
 30
0.0
 10
-22.61012631500681
 20
4.493162011939461
 30
0.0
 10
-22.59406707763185
 20
4.488317236637953
 30
0.0
 10
-22.57808279997498
 20
4.483308868578601
 30
0.0
  0
SPLINE
  5
4726
330
1F
100
AcDbEntity
  8
AM_0
100
AcDbSpline
210
0.0
220
0.0
230
1.0
 70
     8
 71
     3
 72
     8
 73
     4
 74
     0
 42
0.0000000001
 43
0.0000000001
 40
0.157854605497133
 40
0.157854605497133
 40
0.157854605497133
 40
0.157854605497133
 40
6.616360992657454
 40
6.616360992657454
 40
6.616360992657454
 40
6.616360992657454
 10
-22.5728529527914
 20
4.500000000000003
 30
0.0
 10
-20.67913102219236
 20
4.261196927943714
 30
0.0
 10
-19.67121987862316
 20
2.130598463972049
 30
0.0
 10
-18.66330873505435
 20
0.0000000000004974
 30
0.0
  0
SPLINE
  5
4727
330
1F
100
AcDbEntity
  8
AM_0
100
AcDbSpline
210
0.0
220
0.0
230
1.0
 70
     8
 71
     3
 72
     8
 73
     4
 74
     0
 42
0.0000000001
 43
0.0000000001
 40
0.3982504941345976
 40
0.3982504941345976
 40
0.3982504941345976
 40
0.3982504941345976
 40
6.452065446090842
 40
6.452065446090842
 40
6.452065446090842
 40
6.452065446090842
 10
-21.63305070189107
 20
4.199198641084111
 30
0.0
 10
-19.94817436702147
 20
3.904523933786393
 30
0.0
 10
-18.95623871619642
 20
1.952261966893601
 30
0.0
 10
-17.96430306537219
 20
0.0000000000006963
 30
0.0
  0
SPLINE
  5
4728
330
1F
100
AcDbEntity
  8
AM_0
100
AcDbSpline
210
0.0
220
0.0
230
1.0
 70
     8
 71
     3
 72
     8
 73
     4
 74
     0
 42
0.0000000001
 43
0.0000000001
 40
0.0
 40
0.0
 40
0.0
 40
0.0
 40
2.948331486770748
 40
2.948331486770748
 40
2.948331486770748
 40
2.948331486770748
 10
-19.0874999999865
 20
4.500000000000696
 30
0.0
 10
-19.97199944601758
 20
4.500000000001207
 30
0.0
 10
-20.66399916906722
 20
4.067768359101222
 30
0.0
 10
-20.78043212472285
 20
3.885110105330613
 30
0.0
  0
SPLINE
  5
4729
330
1F
100
AcDbEntity
  8
AM_0
100
AcDbSpline
210
0.0
220
0.0
230
1.0
 70
     8
 71
     3
 72
     8
 73
     4
 74
     0
 42
0.0000000001
 43
0.0000000001
 40
0.0
 40
0.0
 40
0.0
 40
0.0
 40
2.948331486770748
 40
2.948331486770748
 40
2.948331486770748
 40
2.948331486770748
 10
-14.77499999999059
 20
4.500000000000696
 30
0.0
 10
-15.65949944602208
 20
4.500000000001108
 30
0.0
 10
-16.35149916907171
 20
4.067768359101123
 30
0.0
 10
-16.59954583824336
 20
3.741386984883249
 30
0.0
  0
SPLINE
  5
472A
330
1F
100
AcDbEntity
  8
AM_0
100
AcDbSpline
210
0.0
220
0.0
230
1.0
 70
     8
 71
     3
 72
     8
 73
     4
 74
     0
 42
0.0000000001
 43
0.0000000001
 40
0.0
 40
0.0
 40
0.0
 40
0.0
 40
2.948331486770748
 40
2.948331486770748
 40
2.948331486770748
 40
2.948331486770748
 10
-10.46249999999509
 20
4.500000000000596
 30
0.0
 10
-11.34699944602617
 20
4.500000000001008
 30
0.0
 10
-12.03899916907581
 20
4.067768359101123
 30
0.0
 10
-12.28704583824749
 20
3.74138698488322
 30
0.0
  0
SPLINE
  5
472B
330
1F
100
AcDbEntity
  8
AM_0
100
AcDbSpline
210
0.0
220
0.0
230
1.0
 70
     8
 71
     3
 72
     8
 73
     4
 74
     0
 42
0.0000000001
 43
0.0000000001
 40
0.0
 40
0.0
 40
0.0
 40
0.0
 40
2.948331486770748
 40
2.948331486770748
 40
2.948331486770748
 40
2.948331486770748
 10
-5.849999999999594
 20
4.500000000000596
 30
0.0
 10
-6.734499446030671
 20
4.500000000001008
 30
0.0
 10
-7.426499169079901
 20
4.067768359101123
 30
0.0
 10
-7.674545838251635
 20
3.741386984883135
 30
0.0
  0
SPLINE
  5
472C
330
1F
100
AcDbEntity
  8
AM_0
100
AcDbSpline
210
0.0
220
0.0
230
1.0
 70
     8
 71
     3
 72
     8
 73
     4
 74
     0
 42
0.0000000001
 43
0.0000000001
 40
0.0
 40
0.0
 40
0.0
 40
0.0
 40
2.420483029949796
 40
2.420483029949796
 40
2.420483029949796
 40
2.420483029949796
 10
-5.289303065381181
 20
-4.16138321976112
 30
0.0
 10
-4.563158156396321
 20
-4.16138321976112
 30
0.0
 10
-3.960640279733297
 20
-3.868554093085009
 30
0.0
 10
-3.887045838246026
 20
-3.741386984883376
 30
0.0
  0
SPLINE
  5
472D
330
1F
100
AcDbEntity
  8
AM_0
100
AcDbSpline
210
0.0
220
0.0
230
1.0
 70
     8
 71
     3
 72
     8
 73
     4
 74
     0
 42
0.0000000001
 43
0.0000000001
 40
0.0
 40
0.0
 40
0.0
 40
0.0
 40
2.420483029949796
 40
2.420483029949796
 40
2.420483029949796
 40
2.420483029949796
 10
-9.601803065377094
 20
-4.16138321976112
 30
0.0
 10
-8.875658156392233
 20
-4.16138321976112
 30
0.0
 10
-8.273140279729206
 20
-3.86855409308491
 30
0.0
 10
-8.199545838244404
 20
-3.741386984884883
 30
0.0
  0
SPLINE
  5
472E
330
1F
100
AcDbEntity
  8
AM_0
100
AcDbSpline
210
0.0
220
0.0
230
1.0
 70
     8
 71
     3
 72
     8
 73
     4
 74
     0
 42
0.0000000001
 43
0.0000000001
 40
0.0
 40
0.0
 40
0.0
 40
0.0
 40
2.420483029949796
 40
2.420483029949796
 40
2.420483029949796
 40
2.420483029949796
 10
-13.914303065373
 20
-4.16138321976102
 30
0.0
 10
-13.18815815638773
 20
-4.16138321976102
 30
0.0
 10
-12.58564027972512
 20
-3.86855409308491
 30
0.0
 10
-12.51204583824024
 20
-3.741386984884854
 30
0.0
  0
LINE
  5
4731
330
1F
100
AcDbEntity
  8
AM_0
100
AcDbLine
 10
-20.0
 20
3.239550409294548
 30
0.0
 11
-20.0
 21
1.397988617426967
 31
0.0
  0
ARC
  5
4732
330
1F
100
AcDbEntity
  8
AM_0
100
AcDbCircle
 10
-20.66439604156156
 20
-0.767617580660509
 30
0.0
 40
1.925638748210544
100
AcDbArc
 50
123.6612661205614
 51
208.996442332125
  0
LINE
  5
4734
330
1F
100
AcDbEntity
  8
AM_0
100
AcDbLine
 10
-21.73174269105298
 20
0.835147442176563
 30
0.0
 11
-20.1290163679646
 21
1.655033071090926
 31
0.0
  0
LINE
  5
4735
330
1F
100
AcDbEntity
  8
AM_0
100
AcDbLine
 10
-0.1800000000002511
 20
-0.0000000000000142
 30
0.0
 11
-0.5850000000000866
 21
1.517423447436598
 31
0.0
  0
ARC
  5
4736
330
1F
100
AcDbEntity
  8
AM_0
100
AcDbCircle
 10
4.505726070171971
 20
0.769426600524497
 30
0.0
 40
5.145385428179044
100
AcDbArc
 50
171.6411574078215
 51
204.4024896870891
  0
LINE
  5
4737
330
1F
100
AcDbEntity
  8
AM_0
100
AcDbLine
 10
-0.0000000000000031
 20
-0.0000000000000142
 30
0.0
 11
-0.0000000000004148
 21
4.379422863407498
 31
0.0
  0
LINE
  5
473A
330
1F
100
AcDbEntity
  8
AM_0
100
AcDbLine
 10
-0.0000000000000031
 20
-0.7000757220872203
 30
0.0
 11
-0.1800000000002511
 21
-0.0000000000000142
 31
0.0
  0
LINE
  5
473B
330
1F
100
AcDbEntity
  8
AM_0
100
AcDbLine
 10
-0.6994878417034239
 20
-2.24999999997199
 30
0.0
 11
0.0000000000004046
 21
-2.249999999997655
 31
0.0
  0
LINE
  5
473C
330
1F
100
AcDbEntity
  8
AM_0
100
AcDbLine
 10
0.0000000000004046
 20
-2.249999999997655
 30
0.0
 11
-0.1799999999998394
 21
-3.125068988956186
 31
0.0
  0
LINE
  5
473D
330
1F
100
AcDbEntity
  8
AM_0
100
AcDbLine
 10
0.0000000000004046
 20
-2.249999999997655
 30
0.0
 11
-0.1799999999998394
 21
-1.356358524983448
 31
0.0
  0
LINE
  5
473E
330
1F
100
AcDbEntity
  8
AM_0
100
AcDbLine
 10
-0.5850000000000866
 20
-3.07626917424919
 30
0.0
 11
-0.3904323253825655
 21
-2.249999999983245
 31
0.0
  0
LINE
  5
473F
330
1F
100
AcDbEntity
  8
AM_0
100
AcDbLine
 10
-0.1800000000076172
 20
-3.125068988993831
 30
0.0
 11
-0.179999999975283
 21
-2.249999999991004
 31
0.0
  0
LINE
  5
4740
330
1F
100
AcDbEntity
  8
AM_0
100
AcDbLine
 10
-0.1799999999998394
 20
-1.356358524983448
 30
0.0
 11
-0.1800000000002511
 21
-0.0000000000000142
 31
0.0
  0
LINE
  5
4741
330
1F
100
AcDbEntity
  8
AM_0
100
AcDbLine
 10
0.0000000000004046
 20
-2.249999999997655
 30
0.0
 11
-0.0000000000000031
 21
-0.700075722087334
 31
0.0
  0
LINE
  5
4742
330
1F
100
AcDbEntity
  8
AM_0
100
AcDbLine
 10
-0.0000000000000031
 20
-0.0000000000000142
 30
0.0
 11
-0.0918570553900775
 21
-0.3428151977488198
 31
0.0
  0
LINE
  5
4743
330
1F
100
AcDbEntity
  8
AM_0
100
AcDbLine
 10
-0.4499999999995939
 20
4.500000000001406
 30
0.0
 11
-0.0000000000004148
 21
4.379422863407498
 31
0.0
  0
LINE
  5
4744
330
1F
100
AcDbEntity
  8
AM_0
100
AcDbLine
 10
-0.5850000000000866
 20
1.517423447436598
 30
0.0
 11
-1.367044018937944
 21
2.499999999999928
 31
0.0
  0
LINE
  5
4745
330
1F
100
AcDbEntity
  8
AM_7
  6
AM_ISO08W050X2
100
AcDbLine
 10
4.557768030855203
 20
-91.73755872864042
 30
0.0
 11
-62.69469945058476
 21
-91.73755872864045
 31
0.0
1001
GENIUS_GENODEF_13
1002
{
1000
HIER
1070
     0
1002
}
1002
{
1000
MANEDIT
1070
     0
1002
}
1002
{
1000
NOSEL
1070
     0
1002
}
1002
{
1000
BEHIND
1070
     0
1002
}
1002
{
1000
REACTOR
1002
}
1001
GENIUS_GENOBJ-N-CEN_13
1002
{
1000
OWNER
1000
GEN
1002
}
  0
SPLINE
  5
474A
330
1F
100
AcDbEntity
  8
AM_0
100
AcDbSpline
210
0.0
220
0.0
230
1.0
 70
     8
 71
     3
 72
     8
 73
     4
 74
     0
 42
0.0000000001
 43
0.0000000001
 40
4.558843340409243
 40
4.558843340409243
 40
4.558843340409243
 40
4.558843340409243
 40
6.063973322189577
 40
6.063973322189577
 40
6.063973322189577
 40
6.063973322189577
 10
-20.08769414440177
 20
1.674858821510736
 30
0.0
 10
-19.83106919071105
 20
1.139983042099624
 30
0.0
 10
-19.5905345953496
 20
0.5699915210501107
 30
0.0
 10
-19.34999999998814
 20
0.0000000000005969
 30
0.0
  0
VIEWPORT
  5
110
330
101
100
AcDbEntity
 67
     1
  8
0
100
AcDbViewport
 10
420.5
 20
297.0
 30
0.0
 40
948.9782706766916
 41
628.452
 68
     1
 69
     1
1001
ACAD
1000
MVIEW
1002
{
1070
    16
1010
0.0
1020
0.0
1030
0.0
1010
0.0
1020
0.0
1030
1.0
1040
0.0
1040
628.452
1040
420.5
1040
297.0
1040
50.0
1040
0.0
1040
0.0
1070
     0
1070
   100
1070
     1
1070
     1
1070
     0
1070
     0
1070
     0
1070
     0
1040
0.0
1040
0.0
1040
0.0
1040
10.0
1040
10.0
1040
10.0
1040
10.0
1070
     0
1002
{
1002
}
1002
}
  0
ENDSEC
  0
SECTION
  2
OBJECTS
  0
DICTIONARY
  5
C
330
0
100
AcDbDictionary
  3
ACAD_GROUP
350
D
  3
ACAD_LAYOUT
350
1A
  3
ACAD_MLINESTYLE
350
17
  3
ACAD_PLOTSETTINGS
350
19
  3
ACAD_PLOTSTYLENAME
350
E
  3
ACDBVARIABLEDICTIONARY
350
34
  3
ACMDICTIONARY
350
43
  3
AMG
350
2B
  3
AMGSNAPSETTINGS
350
6E
  3
ASE_INDEX_DICTIONARY
350
151A
  3
DWGPROPS
350
4761
  3
ACDBHEADERROUNDTRIPXREC
350
476D
  0
DICTIONARY
  5
74
330
1F
100
AcDbDictionary
280
     1
  3
ACAD_INDEX
360
4763
  3
ACAD_LAYOUTSELFREF
360
4790
  0
DICTIONARY
  5
4795
330
101
100
AcDbDictionary
280
     1
  3
ACAD_LAYOUTSELFREF
360
4796
  0
DICTIONARY
  5
D
102
{ACAD_REACTORS
330
C
102
}
330
C
100
AcDbDictionary
  0
DICTIONARY
  5
1A
102
{ACAD_REACTORS
330
C
102
}
330
C
100
AcDbDictionary
  0
DICTIONARY
  5
17
102
{ACAD_REACTORS
330
C
102
}
330
C
100
AcDbDictionary
  3
STANDARD
350
18
  0
DICTIONARY
  5
19
102
{ACAD_REACTORS
330
C
102
}
330
C
100
AcDbDictionary
  0
ACDBDICTIONARYWDFLT
  5
E
102
{ACAD_REACTORS
330
C
102
}
330
C
100
AcDbDictionary
281
     1
  3
Normal
350
F
100
AcDbDictionaryWithDefault
340
F
  0
DICTIONARY
  5
34
102
{ACAD_REACTORS
330
C
102
}
330
C
100
AcDbDictionary
  3
INDEXCTL
350
35
  3
SORTENTS
350
B5E
  0
DICTIONARY
  5
43
102
{ACAD_REACTORS
330
C
102
}
330
C
100
AcDbDictionary
  3
ACMSTDDICTIONARY
350
260
  0
DICTIONARY
  5
2B
102
{ACAD_REACTORS
330
C
102
}
330
C
100
AcDbDictionary
  3
ACMGSETTINGS
350
2C
  0
DICTIONARY
  5
6E
102
{ACAD_REACTORS
330
C
102
}
330
C
100
AcDbDictionary
  0
DICTIONARY
  5
151A
102
{ACAD_REACTORS
330
C
102
}
330
C
100
AcDbDictionary
  3
ASEBLOCKHIERARCHYINDEXRECORD
350
151C
1001
DCO15
1040
1471862535.906
  0
XRECORD
  5
4761
102
{ACAD_REACTORS
330
C
102
}
330
C
100
AcDbXrecord
  1
DWGPROPS COOKIE
  2

  3

  4

  6

  7

  8

  9

300
AmdtFileType=82
301
=
302
=
303
=
304
=
305
=
306
=
307
=
308
=
309
=
 40
0.2004381597222222
 41
2452838.430434386
 42
2453045.475289606
  1

 90
        1
  0
DICTIONARY
  5
476D
102
{ACAD_REACTORS
330
C
102
}
330
C
100
AcDbDictionary
  3
TSTACKALIGN
350
476E
  3
TSTACKSIZE
350
476F
  3
HYPERLINKBASE
350
4770
  3
STYLESHEET
350
4771
  3
LAYOUTDICT
350
4772
  3
PLOTSETDICT
350
4773
  3
PLOTSTYLNAMDICT
350
4774
  3
LWETCUNION
350
4775
  3
INSUNITS
350
4776
  3
CEPSNTYPE
350
4777
  3
FINGERPRINTGUID
350
4778
  3
VERSIONGUID
350
4779
  3
PSVPSCALE
350
477A
  3
DIMSTYLEDATA
350
477B
  3
PUCSORTHOREF
350
477C
  3
PUCSORTHOVIEW
350
477D
  3
PUCSBASE
350
477E
  3
PUCSORGTOP
350
477F
  3
PUCSORGBOTTOM
350
4780
  3
PUCSORGLEFT
350
4781
  3
PUCSORGRIGHT
350
4782
  3
PUCSORGFRONT
350
4783
  3
PUCSORGBACK
350
4784
  3
UCSORTHOREF
350
4785
  3
UCSORTHOVIEW
350
4786
  3
UCSBASE
350
4787
  3
UCSORGTOP
350
4788
  3
UCSORGBOTTOM
350
4789
  3
UCSORGLEFT
350
478A
  3
UCSORGRIGHT
350
478B
  3
UCSORGFRONT
350
478C
  3
UCSORGBACK
350
478D
  0
DICTIONARY
  5
4763
102
{ACAD_REACTORS
330
74
102
}
330
74
100
AcDbDictionary
  3
*A1
350
4764
  0
XRECORD
  5
4790
102
{ACAD_REACTORS
330
74
102
}
330
74
100
AcDbXrecord
340
1F
  0
XRECORD
  5
4796
102
{ACAD_REACTORS
330
4795
102
}
330
4795
100
AcDbXrecord
340
101
  0
MLINESTYLE
  5
18
102
{ACAD_REACTORS
330
17
102
}
330
17
100
AcDbMlineStyle
  2
STANDARD
 70
     0
  3

 62
   256
 51
90.0
 52
90.0
 71
     2
 49
0.5
 62
   256
  6
BYLAYER
 49
-0.5
 62
   256
  6
BYLAYER
  0
ACDBPLACEHOLDER
  5
F
102
{ACAD_REACTORS
330
E
102
}
330
E
100
AcDbPlaceHolder
280
     0
  0
DICTIONARYVAR
  5
35
102
{ACAD_REACTORS
330
34
102
}
330
34
100
DictionaryVariables
280
     0
  1
1
  0
DICTIONARYVAR
  5
B5E
102
{ACAD_REACTORS
330
34
102
}
330
34
100
DictionaryVariables
280
     0
  1
96
  0
DICTIONARY
  5
260
102
{ACAD_REACTORS
330
43
102
}
330
43
100
AcDbDictionary
  0
DICTIONARY
  5
2C
102
{ACAD_REACTORS
330
2B
102
}
330
2B
100
AcDbDictionary
  3
DWGSETTINGS
350
2D
  0
XRECORD
  5
151C
102
{ACAD_REACTORS
330
151A
102
}
330
151A
100
AcDbXrecord
330
0
330
0
330
0
330
0
330
0
330
0
330
0
330
0
  0
XRECORD
  5
476E
102
{ACAD_REACTORS
330
476D
102
}
330
476D
100
AcDbXrecord
 90
        1
  0
XRECORD
  5
476F
102
{ACAD_REACTORS
330
476D
102
}
330
476D
100
AcDbXrecord
 90
       70
  0
XRECORD
  5
4770
102
{ACAD_REACTORS
330
476D
102
}
330
476D
100
AcDbXrecord
  1

  0
XRECORD
  5
4771
102
{ACAD_REACTORS
330
476D
102
}
330
476D
100
AcDbXrecord
  1
ASAMI.ctb
  0
XRECORD
  5
4772
102
{ACAD_REACTORS
330
476D
102
}
330
476D
100
AcDbXrecord
340
1A
  0
XRECORD
  5
4773
102
{ACAD_REACTORS
330
476D
102
}
330
476D
100
AcDbXrecord
340
19
  0
XRECORD
  5
4774
102
{ACAD_REACTORS
330
476D
102
}
330
476D
100
AcDbXrecord
340
E
  0
XRECORD
  5
4775
102
{ACAD_REACTORS
330
476D
102
}
330
476D
100
AcDbXrecord
 90
    10781
  0
XRECORD
  5
4776
102
{ACAD_REACTORS
330
476D
102
}
330
476D
100
AcDbXrecord
 90
        4
  0
XRECORD
  5
4777
102
{ACAD_REACTORS
330
476D
102
}
330
476D
100
AcDbXrecord
 90
        0
  0
XRECORD
  5
4778
102
{ACAD_REACTORS
330
476D
102
}
330
476D
100
AcDbXrecord
  1
{AFB28963-8C59-40AE-9337-C84526B81ACE}
  0
XRECORD
  5
4779
102
{ACAD_REACTORS
330
476D
102
}
330
476D
100
AcDbXrecord
  1
{557816AA-C568-43D7-9B2F-D6801D540056}
  0
XRECORD
  5
477A
102
{ACAD_REACTORS
330
476D
102
}
330
476D
100
AcDbXrecord
 40
0.0
  0
XRECORD
  5
477B
102
{ACAD_REACTORS
330
476D
102
}
330
476D
100
AcDbXrecord
1000
DSTYLE
1002
{
1070
    79
 70
     2
1070
   341
340
59
1070
   342
340
59
1070
   371
 70
    -1
1070
   372
 70
    -1
1002
}
  0
XRECORD
  5
477C
102
{ACAD_REACTORS
330
476D
102
}
330
476D
100
AcDbXrecord
340
0
  0
XRECORD
  5
477D
102
{ACAD_REACTORS
330
476D
102
}
330
476D
100
AcDbXrecord
 70
     0
  0
XRECORD
  5
477E
102
{ACAD_REACTORS
330
476D
102
}
330
476D
100
AcDbXrecord
340
0
  0
XRECORD
  5
477F
102
{ACAD_REACTORS
330
476D
102
}
330
476D
100
AcDbXrecord
 10
0.0
 20
0.0
 30
0.0
  0
XRECORD
  5
4780
102
{ACAD_REACTORS
330
476D
102
}
330
476D
100
AcDbXrecord
 10
0.0
 20
0.0
 30
0.0
  0
XRECORD
  5
4781
102
{ACAD_REACTORS
330
476D
102
}
330
476D
100
AcDbXrecord
 10
0.0
 20
0.0
 30
0.0
  0
XRECORD
  5
4782
102
{ACAD_REACTORS
330
476D
102
}
330
476D
100
AcDbXrecord
 10
0.0
 20
0.0
 30
0.0
  0
XRECORD
  5
4783
102
{ACAD_REACTORS
330
476D
102
}
330
476D
100
AcDbXrecord
 10
0.0
 20
0.0
 30
0.0
  0
XRECORD
  5
4784
102
{ACAD_REACTORS
330
476D
102
}
330
476D
100
AcDbXrecord
 10
0.0
 20
0.0
 30
0.0
  0
XRECORD
  5
4785
102
{ACAD_REACTORS
330
476D
102
}
330
476D
100
AcDbXrecord
340
0
  0
XRECORD
  5
4786
102
{ACAD_REACTORS
330
476D
102
}
330
476D
100
AcDbXrecord
 70
     0
  0
XRECORD
  5
4787
102
{ACAD_REACTORS
330
476D
102
}
330
476D
100
AcDbXrecord
340
0
  0
XRECORD
  5
4788
102
{ACAD_REACTORS
330
476D
102
}
330
476D
100
AcDbXrecord
 10
0.0
 20
0.0
 30
0.0
  0
XRECORD
  5
4789
102
{ACAD_REACTORS
330
476D
102
}
330
476D
100
AcDbXrecord
 10
0.0
 20
0.0
 30
0.0
  0
XRECORD
  5
478A
102
{ACAD_REACTORS
330
476D
102
}
330
476D
100
AcDbXrecord
 10
0.0
 20
0.0
 30
0.0
  0
XRECORD
  5
478B
102
{ACAD_REACTORS
330
476D
102
}
330
476D
100
AcDbXrecord
 10
0.0
 20
0.0
 30
0.0
  0
XRECORD
  5
478C
102
{ACAD_REACTORS
330
476D
102
}
330
476D
100
AcDbXrecord
 10
0.0
 20
0.0
 30
0.0
  0
XRECORD
  5
478D
102
{ACAD_REACTORS
330
476D
102
}
330
476D
100
AcDbXrecord
 10
0.0
 20
0.0
 30
0.0
  0
LAYER_INDEX
  5
4764
102
{ACAD_REACTORS
330
4763
102
}
330
4763
100
AcDbIndex
 40
2453152.471565485
100
AcDbLayerIndex
  8
0
360
4765
 90
        0
  8
AM_0
360
4766
 90
       81
  8
AM_11
360
4767
 90
        4
  8
AM_7
360
4768
 90
        2
  8
AM_5
360
4769
 90
        4
  8
Defpoints
360
476A
 90
        0
  8
AM_6
360
476B
 90
        1
  0
XRECORD
  5
2D
102
{ACAD_REACTORS
330
2C
102
}
330
2C
100
AcDbXrecord
  1
VERSION
140
15.0
  1
PRODUCT
  2
AutoCAD Mechanical 2000
  0
IDBUFFER
  5
4765
330
0
100
AcDbIdBuffer
  0
IDBUFFER
  5
4766
330
0
100
AcDbIdBuffer
330
4720
330
4721
330
4722
330
4723
330
4724
330
4725
330
4726
330
4727
330
4728
330
4729
330
472A
330
472B
330
472C
330
472D
330
472E
330
4731
330
4732
330
4734
330
4735
330
4736
330
4737
330
473A
330
473B
330
473C
330
473D
330
473E
330
473F
330
4740
330
4741
330
4742
330
4743
330
4744
330
474A
330
4226
330
4229
330
422A
330
4238
330
4244
330
4247
330
4274
330
428D
330
428E
330
428F
330
4290
330
46FB
330
46FC
330
46FD
330
46FE
330
46FF
330
4700
330
4701
330
4702
330
4703
330
4704
330
4705
330
4706
330
4707
330
4708
330
4709
330
470A
330
470B
330
470C
330
470D
330
470E
330
470F
330
4710
330
4711
330
4712
330
4713
330
4714
330
4715
330
4716
330
4717
330
4718
330
4719
330
471A
330
471B
330
471C
330
471D
330
471E
330
471F
  0
IDBUFFER
  5
4767
330
0
100
AcDbIdBuffer
330
42DE
330
42E1
330
42E4
330
42E5
  0
IDBUFFER
  5
4768
330
0
100
AcDbIdBuffer
330
3B7D
330
4745
  0
IDBUFFER
  5
4769
330
0
100
AcDbIdBuffer
330
3CAC
330
3D34
330
3E27
330
422B
  0
IDBUFFER
  5
476A
330
0
100
AcDbIdBuffer
  0
IDBUFFER
  5
476B
330
0
100
AcDbIdBuffer
330
1500
  0
ENDSEC
  0
EOF
