  0
SECTION
  2
HEADER
  9
$ACADVER
  1
AC1014
  9
$ACADMAINTVER
 70
     9
  9
$DWGCODEPAGE
  3
ANSI_932
  9
$INSBASE
 10
0.0
 20
0.0
 30
0.0
  9
$EXTMIN
 10
-87.04470045058476
 20
-30.25000100000008
 30
-0.00000001
  9
$EXTMAX
 10
12.05776903085518
 20
6.366719066765265
 30
0.00000001
  9
$LIMMIN
 10
-90.3065733543343
 20
-40.02832259968596
  9
$LIMMAX
 10
15.53175531418003
 20
19.55976252615988
  9
$ORTHOMODE
 70
     0
  9
$REGENMODE
 70
     1
  9
$FILLMODE
 70
     1
  9
$QTEXTMODE
 70
     0
  9
$MIRRTEXT
 70
     0
  9
$DRAGMODE
 70
     2
  9
$LTSCALE
 40
1.0
  9
$OSMODE
 70
    55
  9
$ATTMODE
 70
     1
  9
$TEXTSIZE
 40
2.5
  9
$TRACEWID
 40
1.0
  9
$TEXTSTYLE
  7
STANDARD
  9
$CLAYER
  8
AM_0
  9
$CELTYPE
  6
BYLAYER
  9
$CECOLOR
 62
   256
  9
$CELTSCALE
 40
1.0
  9
$DELOBJ
 70
     1
  9
$DISPSILH
 70
     0
  9
$DIMSCALE
 40
0.5
  9
$DIMASZ
 40
2.5
  9
$DIMEXO
 40
1.0
  9
$DIMDLI
 40
12.0
  9
$DIMRND
 40
0.0
  9
$DIMDLE
 40
0.0
  9
$DIMEXE
 40
1.0
  9
$DIMTP
 40
0.1
  9
$DIMTM
 40
0.1
  9
$DIMTXT
 40
3.2
  9
$DIMCEN
 40
0.0
  9
$DIMTSZ
 40
0.0
  9
$DIMTOL
 70
     0
  9
$DIMLIM
 70
     0
  9
$DIMTIH
 70
     0
  9
$DIMTOH
 70
     0
  9
$DIMSE1
 70
     0
  9
$DIMSE2
 70
     0
  9
$DIMTAD
 70
     3
  9
$DIMZIN
 70
     8
  9
$DIMBLK
  1
OPEN30
  9
$DIMASO
 70
     1
  9
$DIMSHO
 70
     1
  9
$DIMPOST
  1

  9
$DIMAPOST
  1
"
  9
$DIMALT
 70
     0
  9
$DIMALTD
 70
     2
  9
$DIMALTF
 40
0.0393701
  9
$DIMLFAC
 40
1.0
  9
$DIMTOFL
 70
     1
  9
$DIMTVP
 40
0.0
  9
$DIMTIX
 70
     0
  9
$DIMSOXD
 70
     0
  9
$DIMSAH
 70
     0
  9
$DIMBLK1
  1

  9
$DIMBLK2
  1

  9
$DIMSTYLE
  2
AM_JIS
  9
$DIMCLRD
 70
   256
  9
$DIMCLRE
 70
   256
  9
$DIMCLRT
 70
     2
  9
$DIMTFAC
 40
0.71
  9
$DIMGAP
 40
1.5
  9
$DIMJUST
 70
     0
  9
$DIMSD1
 70
     0
  9
$DIMSD2
 70
     0
  9
$DIMTOLJ
 70
     0
  9
$DIMTZIN
 70
     0
  9
$DIMALTZ
 70
     0
  9
$DIMALTTZ
 70
     0
  9
$DIMFIT
 70
     3
  9
$DIMUPT
 70
     0
  9
$DIMUNIT
 70
     2
  9
$DIMDEC
 70
     3
  9
$DIMTDEC
 70
     3
  9
$DIMALTU
 70
     2
  9
$DIMALTTD
 70
     2
  9
$DIMTXSTY
  7
ASAMI
  9
$DIMAUNIT
 70
     0
  9
$LUNITS
 70
     2
  9
$LUPREC
 70
     2
  9
$SKETCHINC
 40
1.0
  9
$FILLETRAD
 40
2.5
  9
$AUNITS
 70
     0
  9
$AUPREC
 70
     0
  9
$MENU
  1
.
  9
$ELEVATION
 40
0.0
  9
$PELEVATION
 40
0.0
  9
$THICKNESS
 40
0.0
  9
$LIMCHECK
 70
     0
  9
$BLIPMODE
 70
     0
  9
$CHAMFERA
 40
1.0
  9
$CHAMFERB
 40
1.0
  9
$CHAMFERC
 40
20.0
  9
$CHAMFERD
 40
0.0
  9
$SKPOLY
 70
     0
  9
$TDCREATE
 40
2452838.430434386
  9
$TDUPDATE
 40
2453152.469675613
  9
$TDINDWG
 40
0.1768231134
  9
$TDUSRTIMER
 40
0.1768231134
  9
$USRTIMER
 70
     1
  9
$ANGBASE
 50
0.0
  9
$ANGDIR
 70
     0
  9
$PDMODE
 70
     0
  9
$PDSIZE
 40
0.0
  9
$PLINEWID
 40
0.0
  9
$COORDS
 70
     1
  9
$SPLFRAME
 70
     0
  9
$SPLINETYPE
 70
     6
  9
$SPLINESEGS
 70
     8
  9
$ATTDIA
 70
     1
  9
$ATTREQ
 70
     1
  9
$HANDLING
 70
 12289
  9
$HANDSEED
  5
4A02
  9
$SURFTAB1
 70
     6
  9
$SURFTAB2
 70
     6
  9
$SURFTYPE
 70
     6
  9
$SURFU
 70
     6
  9
$SURFV
 70
     6
  9
$UCSNAME
  2

  9
$UCSORG
 10
0.0
 20
0.0
 30
0.0
  9
$UCSXDIR
 10
1.0
 20
0.0
 30
0.0
  9
$UCSYDIR
 10
0.0
 20
1.0
 30
0.0
  9
$PUCSNAME
  2

  9
$PUCSORG
 10
0.0
 20
0.0
 30
0.0
  9
$PUCSXDIR
 10
1.0
 20
0.0
 30
0.0
  9
$PUCSYDIR
 10
0.0
 20
1.0
 30
0.0
  9
$USERI1
 70
     0
  9
$USERI2
 70
     0
  9
$USERI3
 70
     0
  9
$USERI4
 70
     0
  9
$USERI5
 70
     0
  9
$USERR1
 40
0.0
  9
$USERR2
 40
0.0
  9
$USERR3
 40
0.0
  9
$USERR4
 40
0.0
  9
$USERR5
 40
0.0
  9
$WORLDVIEW
 70
     1
  9
$SHADEDGE
 70
     3
  9
$SHADEDIF
 70
    70
  9
$TILEMODE
 70
     1
  9
$MAXACTVP
 70
    64
  9
$PINSBASE
 10
0.0
 20
0.0
 30
0.0
  9
$PLIMCHECK
 70
     0
  9
$PEXTMIN
 10
1.000000000000000E+20
 20
1.000000000000000E+20
 30
1.000000000000000E+20
  9
$PEXTMAX
 10
-1.000000000000000E+20
 20
-1.000000000000000E+20
 30
-1.000000000000000E+20
  9
$PLIMMIN
 10
0.0
 20
0.0
  9
$PLIMMAX
 10
841.0
 20
594.0
  9
$UNITMODE
 70
     0
  9
$VISRETAIN
 70
     1
  9
$PLINEGEN
 70
     0
  9
$PSLTSCALE
 70
     0
  9
$TREEDEPTH
 70
  3020
  9
$PICKSTYLE
 70
     0
  9
$CMLSTYLE
  2
STANDARD
  9
$CMLJUST
 70
     0
  9
$CMLSCALE
 40
20.0
  9
$PROXYGRAPHICS
 70
     1
  9
$MEASUREMENT
 70
     1
  0
ENDSEC
  0
SECTION
  2
CLASSES
  0
CLASS
  1
ACDBDICTIONARYWDFLT
  2
AcDbDictionaryWithDefault
  3
AutoCAD 2000
 90
        0
280
     0
281
     0
  0
CLASS
  1
ACDBPLACEHOLDER
  2
AcDbPlaceHolder
  3
AutoCAD 2000
 90
        0
280
     0
281
     0
  0
CLASS
  1
LAYOUT
  2
AcDbLayout
  3
AutoCAD 2000
 90
        0
280
     0
281
     0
  0
CLASS
  1
AMGSETTINGSOBJ
  2
AmgSettingsObj
  3
"AcadM|Product Description: AutoCAD Mechanical 2000|Company: Autodesk"
 90
        0
280
     0
281
     0
  0
CLASS
  1
ACME_DOCUMENT
  2
AcMeDbDoc
  3
AcMeServices
 90
        0
280
     0
281
     0
  0
CLASS
  1
ACMESCOPE
  2
AcMeScope
  3
AcMeServices
 90
        0
280
     0
281
     0
  0
CLASS
  1
ACMECOMMANDHISTORY
  2
AcMeCommandHistory
  3
AcMeServices
 90
        0
280
     0
281
     0
  0
CLASS
  1
DICTIONARYVAR
  2
AcDbDictionaryVar
  3
AutoCAD 2000
 90
        0
280
     0
281
     0
  0
CLASS
  1
ACIMSYSVARMAN
  2
AcImSysVarManager
  3
AcMeServices
 90
        0
280
     0
281
     0
  0
CLASS
  1
ACIMREALSYSVAR
  2
AcImRealSysVar
  3
AcMeServices
 90
        0
280
     0
281
     0
  0
CLASS
  1
ACIMINTSYSVAR
  2
AcImIntSysVar
  3
AcMeServices
 90
        0
280
     0
281
     0
  0
CLASS
  1
ACMEDRAWINGMAN
  2
AcMeDrawingMan
  3
AcMeServices
 90
        0
280
     0
281
     0
  0
CLASS
  1
ACMEVIEW
  2
AcMeView
  3
AcMeServices
 90
        0
280
     0
281
     0
  0
CLASS
  1
ACDBENTITYCACHE
  2
AcMeEntityCache
  3
AcMeServices
 90
        0
280
     0
281
     0
  0
CLASS
  1
GSMANAGER
  2
AcMeGSManager
  3
AcMeServices
 90
        0
280
     0
281
     0
  0
CLASS
  1
AmdtInternalReactor
  2
AmdtInternalReactor
  3
AcMeServices
 90
        0
280
     0
281
     0
  0
CLASS
  1
ACMESTATEMGR
  2
AcMeStateMgr
  3
AcMeServices
 90
        0
280
     0
281
     0
  0
CLASS
  1
ACME_DATABASE
  2
AcMeDbDatabase
  3
AcMeServices
 90
        0
280
     0
281
     0
  0
CLASS
  1
ACRFINSADJUSTERMGR
  2
AcRfInsAdjusterMgr
  3
AcMeServices
 90
        0
280
     0
281
     0
  0
CLASS
  1
ACMDATADICTIONARY
  2
AcmDataDictionary
  3
"AcmSymBB|Product Description: AutoCAD Mechanical 2000|Company: Autodesk"
 90
        0
280
     0
281
     0
  0
CLASS
  1
ACMDATAENTRYBLOCK
  2
AcmDataEntryBlock
  3
"AcmSymBB|Product Description: AutoCAD Mechanical 2000|Company: Autodesk"
 90
        0
280
     0
281
     0
  0
CLASS
  1
AMGOBJPROPCFG
  2
AmgObjPropCfg
  3
"AmgLay|Product Description: AutoCAD Mechanical 2000|Company: Autodesk"
 90
        1
280
     0
281
     0
  0
CLASS
  1
ACAMGFILTERDAT
  2
AcAmgFilterDat
  3
"AcadM|Product Description: AutoCAD Mechanical 2000|Company: Autodesk"
 90
        0
280
     0
281
     0
  0
CLASS
  1
LAYER_INDEX
  2
AcDbLayerIndex
  3
AutoCAD 2000
 90
        0
280
     0
281
     0
  0
CLASS
  1
IDBUFFER
  2
AcDbIdBuffer
  3
AutoCAD 2000
 90
        0
280
     0
281
     0
  0
CLASS
  1
ACIMSTRSYSVAR
  2
AcImStrSysVar
  3
AcMeServices
 90
        0
280
     0
281
     0
  0
CLASS
  1
ACMSTANDARDJIS
  2
AcmStandardJIS
  3
"AcmSymBB|Product Description: AutoCAD Mechanical 2000|Company: Autodesk"
 90
        0
280
     0
281
     0
  0
CLASS
  1
ACMSURFSTANDARDJIS
  2
AcmSurfTextStdJIS
  3
"AcmSymBB|Product Description: AutoCAD Mechanical 2000|Company: Autodesk"
 90
        0
280
     0
281
     0
  0
CLASS
  1
ACMFCFSTANDARDJIS
  2
AcmFCFStdJIS
  3
"AcmSymBB|Product Description: AutoCAD Mechanical 2000|Company: Autodesk"
 90
        0
280
     0
281
     0
  0
CLASS
  1
ACMWELDSTANDARDJIS
  2
AcmWeldingStdJIS
  3
"AcmSymBB|Product Description: AutoCAD Mechanical 2000|Company: Autodesk"
 90
        0
280
     0
281
     0
  0
CLASS
  1
ACMIDSTANDARDJIS
  2
AcmIdStdJIS
  3
"AcmSymBB|Product Description: AutoCAD Mechanical 2000|Company: Autodesk"
 90
        0
280
     0
281
     0
  0
CLASS
  1
ACMDATUMSTANDARDJIS
  2
AcmDatumStdJIS
  3
"AcmSymBB|Product Description: AutoCAD Mechanical 2000|Company: Autodesk"
 90
        0
280
     0
281
     0
  0
CLASS
  1
ACMBOMSTANDARDJIS
  2
AcmBOMStdJIS
  3
"AcmSymBB|Product Description: AutoCAD Mechanical 2000|Company: Autodesk"
 90
        0
280
     0
281
     0
  0
CLASS
  1
ACMSTANDARDANSI
  2
AcmStandardANSI
  3
"AcmSymBB|Product Description: AutoCAD Mechanical 2000|Company: Autodesk"
 90
        0
280
     0
281
     0
  0
CLASS
  1
ACMSURFSTANDARDANSI
  2
AcmSurfTextStdANSI
  3
"AcmSymBB|Product Description: AutoCAD Mechanical 2000|Company: Autodesk"
 90
        0
280
     0
281
     0
  0
CLASS
  1
ACMFCFSTANDARDANSI
  2
AcmFCFStdANSI
  3
"AcmSymBB|Product Description: AutoCAD Mechanical 2000|Company: Autodesk"
 90
        0
280
     0
281
     0
  0
CLASS
  1
ACMWELDSTANDARDANSI
  2
AcmWeldingStdANSI
  3
"AcmSymBB|Product Description: AutoCAD Mechanical 2000|Company: Autodesk"
 90
        0
280
     0
281
     0
  0
CLASS
  1
ACMIDSTANDARDANSI
  2
AcmIdStdANSI
  3
"AcmSymBB|Product Description: AutoCAD Mechanical 2000|Company: Autodesk"
 90
        0
280
     0
281
     0
  0
CLASS
  1
ACMDATUMSTANDARDANSI
  2
AcmDatumStdANSI
  3
"AcmSymBB|Product Description: AutoCAD Mechanical 2000|Company: Autodesk"
 90
        0
280
     0
281
     0
  0
CLASS
  1
ACMBOMSTANDARDANSI
  2
AcmBOMStdANSI
  3
"AcmSymBB|Product Description: AutoCAD Mechanical 2000|Company: Autodesk"
 90
        0
280
     0
281
     0
  0
CLASS
  1
ACMSTANDARDBSI
  2
AcmStandardBSI
  3
"AcmSymBB|Product Description: AutoCAD Mechanical 2000|Company: Autodesk"
 90
        0
280
     0
281
     0
  0
CLASS
  1
ACMSURFSTANDARDBSI
  2
AcmSurfTextStdBSI
  3
"AcmSymBB|Product Description: AutoCAD Mechanical 2000|Company: Autodesk"
 90
        0
280
     0
281
     0
  0
CLASS
  1
ACMFCFSTANDARDBSI
  2
AcmFCFStdBSI
  3
"AcmSymBB|Product Description: AutoCAD Mechanical 2000|Company: Autodesk"
 90
        0
280
     0
281
     0
  0
CLASS
  1
ACMWELDSTANDARDBSI
  2
AcmWeldingStdBSI
  3
"AcmSymBB|Product Description: AutoCAD Mechanical 2000|Company: Autodesk"
 90
        0
280
     0
281
     0
  0
CLASS
  1
ACMIDSTANDARDBSI
  2
AcmIdStdBSI
  3
"AcmSymBB|Product Description: AutoCAD Mechanical 2000|Company: Autodesk"
 90
        0
280
     0
281
     0
  0
CLASS
  1
ACMDATUMSTANDARDBSI
  2
AcmDatumStdBSI
  3
"AcmSymBB|Product Description: AutoCAD Mechanical 2000|Company: Autodesk"
 90
        0
280
     0
281
     0
  0
CLASS
  1
ACMBOMSTANDARDBSI
  2
AcmBOMStdBSI
  3
"AcmSymBB|Product Description: AutoCAD Mechanical 2000|Company: Autodesk"
 90
        0
280
     0
281
     0
  0
CLASS
  1
LONG_TRANSACTION
  2
AcDbLongTransaction
  3
AutoCAD 2000
 90
        0
280
     0
281
     0
  0
CLASS
  1
LWPOLYLINE
  2
AcDbPolyline
  3
AutoCAD 2000
 90
        0
280
     0
281
     1
  0
CLASS
  1
HATCH
  2
AcDbHatch
  3
AutoCAD 2000
 90
        0
280
     0
281
     1
  0
CLASS
  1
XRECORD
  2
AcDbXrecord
  3
AutoCAD 2000
 90
        0
280
     0
281
     0
  0
ENDSEC
  0
SECTION
  2
TABLES
  0
TABLE
  2
VPORT
  5
8
330
0
100
AcDbSymbolTable
 70
     3
  0
VPORT
  5
49D7
330
8
100
AcDbSymbolTableRecord
100
AcDbViewportTableRecord
  2
*ACTIVE
 70
     0
 10
0.0
 20
0.0
 11
1.0
 21
1.0
 12
-26.91642048701038
 22
5.209974856744238
 13
0.0
 23
0.0
 14
2.5
 24
2.5
 15
10.0
 25
10.0
 16
0.0
 26
0.0
 36
1.0
 17
0.0
 27
0.0
 37
0.0
 40
112.7835099424582
 41
1.56570841889117
 42
50.0
 43
0.0
 44
0.0
 50
0.0
 51
0.0
 71
     0
 72
   100
 73
     1
 74
     3
 75
     0
 76
     0
 77
     0
 78
     0
  0
ENDTAB
  0
TABLE
  2
LTYPE
  5
5
330
0
100
AcDbSymbolTable
 70
    10
  0
LTYPE
  5
14
330
5
100
AcDbSymbolTableRecord
100
AcDbLinetypeTableRecord
  2
BYBLOCK
 70
     0
  3

 72
    65
 73
     0
 40
0.0
  0
LTYPE
  5
15
330
5
100
AcDbSymbolTableRecord
100
AcDbLinetypeTableRecord
  2
BYLAYER
 70
     0
  3

 72
    65
 73
     0
 40
0.0
  0
LTYPE
  5
16
330
5
100
AcDbSymbolTableRecord
100
AcDbLinetypeTableRecord
  2
CONTINUOUS
 70
     0
  3
Solid line
 72
    65
 73
     0
 40
0.0
  0
LTYPE
  5
4B
330
5
100
AcDbSymbolTableRecord
100
AcDbLinetypeTableRecord
  2
AM_ISO02W050
 70
     0
  3
__ __ __ __ __ __ __ __ __ __ __ __ __ __ __
 72
    65
 73
     2
 40
7.5
 49
6.0
 74
     0
 49
-1.5
 74
     0
  0
LTYPE
  5
4C
330
5
100
AcDbSymbolTableRecord
100
AcDbLinetypeTableRecord
  2
AM_ISO08W050
 70
     0
  3
____ . ____ . ____ . ____ . ____ . ____ . ____
 72
    65
 73
     4
 40
18.0
 49
12.0
 74
     0
 49
-1.5
 74
     0
 49
3.0
 74
     0
 49
-1.5
 74
     0
  0
LTYPE
  5
4D
330
5
100
AcDbSymbolTableRecord
100
AcDbLinetypeTableRecord
  2
AM_ISO09W050
 70
     0
  3
_____ . . _____ . . _____ . . ____ .. ____
 72
    65
 73
     6
 40
22.5
 49
12.0
 74
     0
 49
-1.5
 74
     0
 49
3.0
 74
     0
 49
-1.5
 74
     0
 49
3.0
 74
     0
 49
-1.5
 74
     0
  0
LTYPE
  5
4E
330
5
100
AcDbSymbolTableRecord
100
AcDbLinetypeTableRecord
  2
AMCONSTR
 70
     0
  3
_______________________
 72
    65
 73
     2
 40
9999.0
 49
9999.0
 74
     0
 49
0.0
 74
     0
  0
LTYPE
  5
4F
330
5
100
AcDbSymbolTableRecord
100
AcDbLinetypeTableRecord
  2
AM_ISO02W050X2
 70
     0
  3
 _ _ _ _ _ _ _ _ _ _ _ _
 72
    65
 73
     2
 40
3.75
 49
3.0
 74
     0
 49
-0.75
 74
     0
  0
LTYPE
  5
50
330
5
100
AcDbSymbolTableRecord
100
AcDbLinetypeTableRecord
  2
AM_ISO08W050X2
 70
     0
  3
__ . __ . __ . __ . __ . __
 72
    65
 73
     4
 40
9.0
 49
6.0
 74
     0
 49
-0.75
 74
     0
 49
1.5
 74
     0
 49
-0.75
 74
     0
  0
LTYPE
  5
53
330
5
100
AcDbSymbolTableRecord
100
AcDbLinetypeTableRecord
  2
AMZIGZAG
 70
     0
  3
/\/-/\/-/\/-/\/-/\/-/\/
 72
    65
 73
     2
 40
11.00009999999999
 49
0.0001
 74
     4
 75
   135
340
52
 46
0.04
 50
0.0
 44
0.0
 45
0.0
 49
-11.0
 74
     0
  0
LTYPE
  5
166
330
5
100
AcDbSymbolTableRecord
100
AcDbLinetypeTableRecord
  2
ACJISTGL
 70
     0
  3
_ _ _ _ _
 72
    65
 73
     2
 40
3.0
 49
2.0
 74
     0
 49
-1.0
 74
     0
  0
LTYPE
  5
26A
330
5
100
AcDbSymbolTableRecord
100
AcDbLinetypeTableRecord
  2
ACJISTGB
 70
     0
  3
__ . . __ . .
 72
    65
 73
     6
 40
9.0
 49
4.0
 74
     0
 49
-1.0
 74
     0
 49
1.0
 74
     0
 49
-1.0
 74
     0
 49
1.0
 74
     0
 49
-1.0
 74
     0
  0
ENDTAB
  0
TABLE
  2
LAYER
  5
2
330
0
100
AcDbSymbolTable
 70
     7
  0
LAYER
  5
10
330
2
100
AcDbSymbolTableRecord
100
AcDbLayerTableRecord
  2
0
 70
     0
 62
     7
  6
CONTINUOUS
  0
LAYER
  5
3F9
330
2
100
AcDbSymbolTableRecord
100
AcDbLayerTableRecord
  2
AM_0
 70
     0
 62
     7
  6
CONTINUOUS
  0
LAYER
  5
BDD
330
2
100
AcDbSymbolTableRecord
100
AcDbLayerTableRecord
  2
AM_11
 70
     0
 62
     3
  6
AM_ISO09W050
  0
LAYER
  5
BDE
330
2
100
AcDbSymbolTableRecord
100
AcDbLayerTableRecord
  2
AM_7
 70
     0
 62
     4
  6
AM_ISO08W050
  0
LAYER
  5
BDF
330
2
100
AcDbSymbolTableRecord
100
AcDbLayerTableRecord
  2
AM_5
 70
     0
 62
     3
  6
CONTINUOUS
  0
LAYER
  5
BE0
330
2
100
AcDbSymbolTableRecord
100
AcDbLayerTableRecord
  2
DEFPOINTS
 70
     0
 62
     7
  6
CONTINUOUS
  0
LAYER
  5
14FF
330
2
100
AcDbSymbolTableRecord
100
AcDbLayerTableRecord
  2
AM_6
 70
     0
 62
     2
  6
CONTINUOUS
  0
ENDTAB
  0
TABLE
  2
STYLE
  5
3
330
0
100
AcDbSymbolTable
 70
     5
  0
STYLE
  5
11
330
3
100
AcDbSymbolTableRecord
100
AcDbTextStyleTableRecord
  2
STANDARD
 70
     0
 40
0.0
 41
1.0
 50
0.0
 71
     0
 42
2.5
  3
simplex.shx
  4
EXTFONT.SHX
  0
STYLE
  5
52
330
3
100
AcDbSymbolTableRecord
100
AcDbTextStyleTableRecord
  2

 70
     1
 40
0.0
 41
1.0
 50
0.0
 71
     0
 42
2.5
  3
ltypeshp.shx
  4

  0
STYLE
  5
6B
330
3
100
AcDbSymbolTableRecord
100
AcDbTextStyleTableRecord
  2
ASAMI
 70
     0
 40
0.0
 41
1.0
 50
0.0
 71
     0
 42
2.5
  3
simplex.shx
  4
EXTFONT.SHX
  0
STYLE
  5
262
330
3
100
AcDbSymbolTableRecord
100
AcDbTextStyleTableRecord
  2
ACJISTS
 70
     0
 40
1.0
 41
1.0
 50
0.0
 71
     0
 42
2.5
  3
simplex.shx
  4
bigfont.shx
  0
STYLE
  5
269
330
3
100
AcDbSymbolTableRecord
100
AcDbTextStyleTableRecord
  2
ACJISGDT
 70
     0
 40
0.0
 41
1.0
 50
0.0
 71
     0
 42
2.5
  3
amgdtans.shx
  4

  0
ENDTAB
  0
TABLE
  2
VIEW
  5
6
330
0
100
AcDbSymbolTable
 70
     0
  0
ENDTAB
  0
TABLE
  2
UCS
  5
7
330
0
100
AcDbSymbolTable
 70
     0
  0
ENDTAB
  0
TABLE
  2
APPID
  5
9
330
0
100
AcDbSymbolTable
 70
    14
  0
APPID
  5
12
330
9
100
AcDbSymbolTableRecord
100
AcDbRegAppTableRecord
  2
ACAD
 70
     0
  0
APPID
  5
30
330
9
100
AcDbSymbolTableRecord
100
AcDbRegAppTableRecord
  2
MCAD_NO_VIS
 70
     0
  0
APPID
  5
31
330
9
100
AcDbSymbolTableRecord
100
AcDbRegAppTableRecord
  2
ACAD_TEMP_GRAPHIC
 70
     0
  0
APPID
  5
2C2
330
9
100
AcDbSymbolTableRecord
100
AcDbRegAppTableRecord
  2
GENIUS_GENDTOL_13
 70
     0
  0
APPID
  5
339
330
9
100
AcDbSymbolTableRecord
100
AcDbRegAppTableRecord
  2
GENIUS_GENODEF_13
 70
     0
  0
APPID
  5
33A
330
9
100
AcDbSymbolTableRecord
100
AcDbRegAppTableRecord
  2
GENIUS_GENOBJ-N-RSBK_13
 70
     0
  0
APPID
  5
33B
330
9
100
AcDbSymbolTableRecord
100
AcDbRegAppTableRecord
  2
GENIUS_GENOBJ-N-LIB_13
 70
     0
  0
APPID
  5
33C
330
9
100
AcDbSymbolTableRecord
100
AcDbRegAppTableRecord
  2
GENIUS_GENSCALE_13
 70
     0
  0
APPID
  5
378
330
9
100
AcDbSymbolTableRecord
100
AcDbRegAppTableRecord
  2
GENIUS_GENDIMSH_14
 70
     0
  0
APPID
  5
BE1
330
9
100
AcDbSymbolTableRecord
100
AcDbRegAppTableRecord
  2
GENIUS_GENFIL_13
 70
     0
  0
APPID
  5
BE2
330
9
100
AcDbSymbolTableRecord
100
AcDbRegAppTableRecord
  2
GENIUS_GENOBJ-N-CHA_13
 70
     0
  0
APPID
  5
151B
330
9
100
AcDbSymbolTableRecord
100
AcDbRegAppTableRecord
  2
DCO15
 70
     0
  0
APPID
  5
1860
330
9
100
AcDbSymbolTableRecord
100
AcDbRegAppTableRecord
  2
GENIUS_GENOBJ-N-CEN_13
 70
     0
  0
APPID
  5
359C
330
9
100
AcDbSymbolTableRecord
100
AcDbRegAppTableRecord
  2
GENIUS_GENOBJ-N-FIL_13
 70
     0
  0
ENDTAB
  0
TABLE
  2
DIMSTYLE
  5
A
330
0
100
AcDbSymbolTable
 70
     8
  0
DIMSTYLE
105
58
102
{ACAD_REACTORS
330
490A
330
490C
330
4911
330
4956
102
}
330
A
100
AcDbSymbolTableRecord
100
AcDbDimStyleTableRecord
  2
AM_JIS
 70
     0
  3

  4
"
  5
OPEN30
  6

  7

 40
0.5
 41
2.5
 42
1.0
 43
12.0
 44
1.0
 45
0.0
 46
0.0
 47
0.1
 48
0.1
140
3.2
141
0.0
142
0.0
143
0.0393701
144
1.0
145
0.0
146
0.71
147
1.5
 71
     0
 72
     0
 73
     0
 74
     0
 75
     0
 76
     0
 77
     3
 78
     8
170
     0
171
     2
172
     1
173
     0
174
     0
175
     0
176
   256
177
   256
178
     2
270
     2
271
     3
272
     3
273
     2
274
     2
340
6B
275
     0
280
     0
281
     0
282
     0
283
     0
284
     0
285
     0
286
     0
287
     3
288
     0
  0
DIMSTYLE
105
5F
330
A
100
AcDbSymbolTableRecord
100
AcDbDimStyleTableRecord
  2
AM_JIS$3
 70
     0
  3

  4
"
  5
OPEN30
  6

  7

 40
0.5
 41
2.5
 42
1.0
 43
10.0
 44
1.0
 45
0.0
 46
0.0
 47
0.1
 48
0.1
140
3.2
141
0.0
142
0.0
143
0.0393701
144
1.0
145
0.0
146
0.71
147
1.5
 71
     0
 72
     0
 73
     0
 74
     1
 75
     0
 76
     0
 77
     3
 78
     8
170
     0
171
     2
172
     0
173
     0
174
     0
175
     0
176
   256
177
   256
178
     2
270
     2
271
     2
272
     3
273
     2
274
     2
340
6B
275
     0
280
     0
281
     0
282
     0
283
     0
284
     0
285
     0
286
     0
287
     0
288
     1
  0
DIMSTYLE
105
60
330
A
100
AcDbSymbolTableRecord
100
AcDbDimStyleTableRecord
  2
AM_JIS$4
 70
     0
  3

  4
"
  5
OPEN30
  6

  7

 40
0.5
 41
2.5
 42
1.0
 43
10.0
 44
1.0
 45
0.0
 46
0.0
 47
0.1
 48
0.1
140
3.2
141
0.0
142
0.0
143
0.0393701
144
1.0
145
0.0
146
0.71
147
1.5
 71
     0
 72
     0
 73
     0
 74
     1
 75
     0
 76
     0
 77
     3
 78
     8
170
     0
171
     2
172
     0
173
     0
174
     0
175
     0
176
   256
177
   256
178
     2
270
     2
271
     2
272
     3
273
     2
274
     2
340
6B
275
     0
280
     0
281
     0
282
     0
283
     0
284
     0
285
     0
286
     0
287
     0
288
     1
  0
DIMSTYLE
105
61
330
A
100
AcDbSymbolTableRecord
100
AcDbDimStyleTableRecord
  2
AM_JIS$6
 70
     0
  3

  4
"
  5
OPEN30
  6

  7

 40
0.5
 41
2.5
 42
1.0
 43
10.0
 44
1.0
 45
0.0
 46
0.0
 47
0.1
 48
0.1
140
3.2
141
0.0
142
0.0
143
0.0393701
144
1.0
145
0.0
146
0.71
147
1.5
 71
     0
 72
     0
 73
     0
 74
     0
 75
     0
 76
     0
 77
     0
 78
     8
170
     0
171
     2
172
     1
173
     0
174
     0
175
     0
176
   256
177
   256
178
     2
270
     2
271
     2
272
     2
273
     2
274
     2
340
6B
275
     0
280
     0
281
     0
282
     0
283
     0
284
     0
285
     0
286
     0
287
     3
288
     0
  0
DIMSTYLE
105
62
330
A
100
AcDbSymbolTableRecord
100
AcDbDimStyleTableRecord
  2
AM_JIS$7
 70
     0
  3

  4
"
  5
OPEN30
  6

  7

 40
0.5
 41
2.5
 42
1.0
 43
10.0
 44
1.0
 45
0.0
 46
0.0
 47
0.1
 48
0.1
140
3.2
141
0.0
142
0.0
143
0.0393701
144
1.0
145
0.0
146
0.71
147
1.5
 71
     0
 72
     0
 73
     0
 74
     0
 75
     0
 76
     0
 77
     3
 78
     8
170
     0
171
     2
172
     1
173
     0
174
     0
175
     0
176
   256
177
   256
178
     2
270
     2
271
     2
272
     3
273
     2
274
     2
340
6B
275
     0
280
     0
281
     0
282
     0
283
     0
284
     0
285
     0
286
     0
287
     3
288
     0
  0
DIMSTYLE
105
63
330
A
100
AcDbSymbolTableRecord
100
AcDbDimStyleTableRecord
  2
AM_JIS$SF
 70
     0
  3

  4
"
  5
OPEN30
  6

  7

 40
0.5
 41
2.5
 42
1.0
 43
10.0
 44
1.0
 45
0.0
 46
0.0
 47
0.1
 48
0.1
140
3.2
141
0.0
142
0.0
143
0.0393701
144
1.0
145
0.0
146
0.71
147
1.5
 71
     0
 72
     0
 73
     0
 74
     0
 75
     1
 76
     1
 77
     3
 78
     8
170
     0
171
     2
172
     1
173
     0
174
     0
175
     0
176
   256
177
   256
178
     2
270
     2
271
     2
272
     2
273
     2
274
     2
340
6B
275
     0
280
     0
281
     0
282
     0
283
     0
284
     0
285
     0
286
     0
287
     3
288
     0
  0
DIMSTYLE
105
68
330
A
100
AcDbSymbolTableRecord
100
AcDbDimStyleTableRecord
  2
AM_JIS$SH
 70
     0
  3

  4
"
  5

  6
GENAXEH
  7
OPEN30
 40
0.5
 41
2.5
 42
1.0
 43
10.0
 44
1.0
 45
0.0
 46
0.0
 47
0.1
 48
0.1
140
3.2
141
0.0
142
0.0
143
0.0393701
144
2.0
145
0.0
146
0.71
147
1.5
 71
     0
 72
     0
 73
     0
 74
     0
 75
     1
 76
     1
 77
     3
 78
     8
170
     0
171
     2
172
     1
173
     1
174
     0
175
     0
176
   256
177
   256
178
     2
270
     2
271
     2
272
     2
273
     2
274
     2
340
6B
275
     0
280
     0
281
     0
282
     0
283
     0
284
     0
285
     0
286
     0
287
     3
288
     0
  0
DIMSTYLE
105
B34
330
A
100
AcDbSymbolTableRecord
100
AcDbDimStyleTableRecord
  2
AM_JIS$2
 70
     0
  3

  4
"
  5
OPEN30
  6

  7

 40
0.5
 41
2.5
 42
1.0
 43
12.0
 44
1.0
 45
0.0
 46
0.0
 47
0.1
 48
0.1
140
3.2
141
0.0
142
0.0
143
0.0393701
144
1.0
145
0.0
146
0.71
147
1.5
 71
     0
 72
     0
 73
     0
 74
     0
 75
     0
 76
     0
 77
     3
 78
     8
170
     0
171
     2
172
     1
173
     0
174
     0
175
     0
176
   256
177
   256
178
     2
270
     2
271
     3
272
     3
273
     2
274
     2
340
6B
275
     0
280
     0
281
     0
282
     0
283
     0
284
     0
285
     0
286
     0
287
     3
288
     0
  0
ENDTAB
  0
TABLE
  2
BLOCK_RECORD
  5
1
330
0
100
AcDbSymbolTable
 70
     9
  0
BLOCK_RECORD
  5
1F
102
{ACAD_XDICTIONARY
360
74
102
}
330
1
100
AcDbSymbolTableRecord
100
AcDbBlockTableRecord
  2
*MODEL_SPACE
  0
BLOCK_RECORD
  5
101
102
{ACAD_XDICTIONARY
360
4A00
102
}
330
1
100
AcDbSymbolTableRecord
100
AcDbBlockTableRecord
  2
*PAPER_SPACE
  0
BLOCK_RECORD
  5
59
330
1
100
AcDbSymbolTableRecord
100
AcDbBlockTableRecord
  2
_OPEN30
  0
BLOCK_RECORD
  5
64
330
1
100
AcDbSymbolTableRecord
100
AcDbBlockTableRecord
  2
GENAXEH
  0
BLOCK_RECORD
  5
4962
330
1
100
AcDbSymbolTableRecord
100
AcDbBlockTableRecord
  2
*D5
  0
BLOCK_RECORD
  5
496E
330
1
100
AcDbSymbolTableRecord
100
AcDbBlockTableRecord
  2
*D6
  0
BLOCK_RECORD
  5
497A
330
1
100
AcDbSymbolTableRecord
100
AcDbBlockTableRecord
  2
*D7
  0
BLOCK_RECORD
  5
4986
330
1
100
AcDbSymbolTableRecord
100
AcDbBlockTableRecord
  2
*D8
  0
ENDTAB
  0
ENDSEC
  0
SECTION
  2
BLOCKS
  0
BLOCK
  5
20
330
1F
100
AcDbEntity
  8
0
100
AcDbBlockBegin
  2
*MODEL_SPACE
 70
     0
 10
0.0
 20
0.0
 30
0.0
  3
*MODEL_SPACE
  1

  0
ENDBLK
  5
21
330
1F
100
AcDbEntity
  8
0
100
AcDbBlockEnd
  0
BLOCK
  5
103
330
101
100
AcDbEntity
 67
     1
  8
0
100
AcDbBlockBegin
  2
*PAPER_SPACE
 70
     0
 10
0.0
 20
0.0
 30
0.0
  3
*PAPER_SPACE
  1

  0
ENDBLK
  5
104
330
101
100
AcDbEntity
 67
     1
  8
0
100
AcDbBlockEnd
  0
BLOCK
  5
5D
330
59
100
AcDbEntity
  8
0
100
AcDbBlockBegin
  2
_OPEN30
 70
     0
 10
0.0
 20
0.0
 30
0.0
  3
_OPEN30
  1

  0
LINE
  5
5A
330
59
100
AcDbEntity
  8
0
 62
     0
100
AcDbLine
 10
-1.0
 20
0.26794919
 30
0.0
 11
0.0
 21
0.0
 31
0.0
  0
LINE
  5
5B
330
59
100
AcDbEntity
  8
0
 62
     0
100
AcDbLine
 10
0.0
 20
0.0
 30
0.0
 11
-1.0
 21
-0.26794919
 31
0.0
  0
LINE
  5
5C
330
59
100
AcDbEntity
  8
0
 62
     0
100
AcDbLine
 10
0.0
 20
0.0
 30
0.0
 11
-1.0
 21
0.0
 31
0.0
  0
ENDBLK
  5
5E
330
59
100
AcDbEntity
  8
0
100
AcDbBlockEnd
  0
BLOCK
  5
66
330
64
100
AcDbEntity
  8
0
100
AcDbBlockBegin
  2
GENAXEH
 70
     0
 10
0.0
 20
0.0
 30
0.0
  3
GENAXEH
  1

  0
LINE
  5
65
330
64
100
AcDbEntity
  8
0
100
AcDbLine
 10
-1.0
 20
0.0
 30
0.0
 11
1.0
 21
0.0
 31
0.0
  0
ENDBLK
  5
67
330
64
100
AcDbEntity
  8
0
100
AcDbBlockEnd
  0
BLOCK
  5
496C
330
4962
100
AcDbEntity
  8
0
100
AcDbBlockBegin
  2
*D5
 70
     1
 10
0.0
 20
0.0
 30
0.0
  3
*D5
  1

  0
LINE
  5
4992
330
4962
100
AcDbEntity
  8
AM_5
100
AcDbLine
 10
0.0
 20
-5.999999999999992
 30
0.0
 11
-0.0000000000000009
 21
-19.50000100000007
 31
0.0
  0
LINE
  5
4993
330
4962
100
AcDbEntity
  8
AM_5
100
AcDbLine
 10
-74.99999999999996
 20
-5.50000000000001
 30
0.0
 11
-74.99999999999996
 21
-19.50000100000007
 31
0.0
  0
LINE
  5
4994
330
4962
100
AcDbEntity
  8
AM_5
100
AcDbLine
 10
-1.25
 20
-19.00000100000007
 30
0.0
 11
-73.74999999999996
 21
-19.00000100000007
 31
0.0
  0
INSERT
  5
4995
330
4962
100
AcDbEntity
  8
AM_5
100
AcDbBlockReference
  2
_OPEN30
 10
-0.0000000000000008
 20
-19.00000100000007
 30
0.0
 41
1.25
 42
1.25
 43
1.25
  0
INSERT
  5
4996
330
4962
100
AcDbEntity
  8
AM_5
100
AcDbBlockReference
  2
_OPEN30
 10
-74.99999999999996
 20
-19.00000100000007
 30
0.0
 41
1.25
 42
1.25
 43
1.25
 50
180.0
  0
MTEXT
  5
4997
330
4962
100
AcDbEntity
  8
AM_5
 62
     2
100
AcDbMText
 10
-37.49999999999998
 20
-17.45000100000007
 30
0.0
 40
1.6
 41
0.0
 71
     5
 72
     1
  1
75
  7
ASAMI
1001
ACAD
1000
MTEXTBEGIN
1070
    73
1070
     1
1070
    44
1040
1.0
1070
    74
1070
     0
1000
MTEXTEND
  0
POINT
  5
4998
330
4962
100
AcDbEntity
  8
DEFPOINTS
 62
     0
100
AcDbPoint
 10
0.0
 20
-5.499999999999992
 30
0.0
  0
POINT
  5
4999
330
4962
100
AcDbEntity
  8
DEFPOINTS
 62
     0
100
AcDbPoint
 10
-74.99999999999996
 20
-5.00000000000001
 30
0.0
  0
POINT
  5
499A
330
4962
100
AcDbEntity
  8
DEFPOINTS
 62
     0
100
AcDbPoint
 10
-74.99999999999996
 20
-19.00000100000007
 30
0.0
  0
ENDBLK
  5
496D
330
4962
100
AcDbEntity
  8
0
100
AcDbBlockEnd
  0
BLOCK
  5
4978
330
496E
100
AcDbEntity
  8
0
100
AcDbBlockBegin
  2
*D6
 70
     1
 10
0.0
 20
0.0
 30
0.0
  3
*D6
  1

  0
LINE
  5
499B
330
496E
100
AcDbEntity
  8
AM_5
100
AcDbLine
 10
-74.5
 20
5.999999999999999
 30
0.0
 11
-85.19470045058476
 21
6.000000000000001
 31
0.0
  0
LINE
  5
499C
330
496E
100
AcDbEntity
  8
AM_5
100
AcDbLine
 10
-74.49999999999997
 20
-6.000000000000025
 30
0.0
 11
-85.19470045058476
 21
-6.000000000000023
 31
0.0
  0
LINE
  5
499D
330
496E
100
AcDbEntity
  8
AM_5
100
AcDbLine
 10
-84.69470045058477
 20
4.750000000000001
 30
0.0
 11
-84.69470045058477
 21
-4.750000000000023
 31
0.0
  0
INSERT
  5
499E
330
496E
100
AcDbEntity
  8
AM_5
100
AcDbBlockReference
  2
_OPEN30
 10
-84.69470045058477
 20
6.000000000000001
 30
0.0
 41
1.25
 42
1.25
 43
1.25
 50
90.0
  0
INSERT
  5
499F
330
496E
100
AcDbEntity
  8
AM_5
100
AcDbBlockReference
  2
_OPEN30
 10
-84.69470045058477
 20
-6.000000000000023
 30
0.0
 41
1.25
 42
1.25
 43
1.25
 50
270.0
  0
MTEXT
  5
49A0
330
496E
100
AcDbEntity
  8
AM_5
 62
     2
100
AcDbMText
 10
-86.24470045058476
 20
-0.0000000000000239
 30
0.0
 40
1.6
 41
0.0
 71
     5
 72
     1
  1
%%c12
  7
ASAMI
 11
0.0000000000000001
 21
1.0
 31
0.0
1001
ACAD
1000
MTEXTBEGIN
1070
    73
1070
     1
1070
    44
1040
1.0
1070
    74
1070
     0
1000
MTEXTEND
  0
POINT
  5
49A1
330
496E
100
AcDbEntity
  8
DEFPOINTS
 62
     0
100
AcDbPoint
 10
-74.0
 20
5.999999999999998
 30
0.0
  0
POINT
  5
49A2
330
496E
100
AcDbEntity
  8
DEFPOINTS
 62
     0
100
AcDbPoint
 10
-73.99999999999997
 20
-6.000000000000026
 30
0.0
  0
POINT
  5
49A3
330
496E
100
AcDbEntity
  8
DEFPOINTS
 62
     0
100
AcDbPoint
 10
-84.69470045058477
 20
-6.000000000000023
 30
0.0
  0
ENDBLK
  5
4979
330
496E
100
AcDbEntity
  8
0
100
AcDbBlockEnd
  0
BLOCK
  5
4984
330
497A
100
AcDbEntity
  8
0
100
AcDbBlockBegin
  2
*D7
 70
     1
 10
0.0
 20
0.0
 30
0.0
  3
*D7
  1

  0
LINE
  5
49A4
330
497A
100
AcDbEntity
  8
AM_5
100
AcDbLine
 10
0.0
 20
-5.999999999999992
 30
0.0
 11
-0.0000000000000005
 21
-13.50000099999997
 31
0.0
  0
LINE
  5
49A5
330
497A
100
AcDbEntity
  8
AM_5
100
AcDbLine
 10
-25.0
 20
-5.999999999999992
 30
0.0
 11
-25.0
 21
-13.50000099999997
 31
0.0
  0
LINE
  5
49A6
330
497A
100
AcDbEntity
  8
AM_5
100
AcDbLine
 10
-1.25
 20
-13.00000099999997
 30
0.0
 11
-23.75
 21
-13.00000099999997
 31
0.0
  0
INSERT
  5
49A7
330
497A
100
AcDbEntity
  8
AM_5
100
AcDbBlockReference
  2
_OPEN30
 10
-0.0000000000000005
 20
-13.00000099999997
 30
0.0
 41
1.25
 42
1.25
 43
1.25
  0
INSERT
  5
49A8
330
497A
100
AcDbEntity
  8
AM_5
100
AcDbBlockReference
  2
_OPEN30
 10
-25.0
 20
-13.00000099999997
 30
0.0
 41
1.25
 42
1.25
 43
1.25
 50
180.0
  0
MTEXT
  5
49A9
330
497A
100
AcDbEntity
  8
AM_5
 62
     2
100
AcDbMText
 10
-12.5
 20
-11.45000099999997
 30
0.0
 40
1.6
 41
0.0
 71
     5
 72
     1
  1
25
  7
ASAMI
1001
ACAD
1000
MTEXTBEGIN
1070
    73
1070
     1
1070
    44
1040
1.0
1070
    74
1070
     0
1000
MTEXTEND
  0
POINT
  5
49AA
330
497A
100
AcDbEntity
  8
DEFPOINTS
 62
     0
100
AcDbPoint
 10
0.0
 20
-5.499999999999992
 30
0.0
  0
POINT
  5
49AB
330
497A
100
AcDbEntity
  8
DEFPOINTS
 62
     0
100
AcDbPoint
 10
-25.0
 20
-5.499999999999992
 30
0.0
  0
POINT
  5
49AC
330
497A
100
AcDbEntity
  8
DEFPOINTS
 62
     0
100
AcDbPoint
 10
-25.0
 20
-13.00000099999997
 30
0.0
  0
ENDBLK
  5
4985
330
497A
100
AcDbEntity
  8
0
100
AcDbBlockEnd
  0
BLOCK
  5
4990
330
4986
100
AcDbEntity
  8
0
100
AcDbBlockBegin
  2
*D8
 70
     1
 10
0.0
 20
0.0
 30
0.0
  3
*D8
  1

  0
LINE
  5
49AD
330
4986
100
AcDbEntity
  8
AM_5
100
AcDbLine
 10
0.5
 20
5.500000000000008
 30
0.0
 11
12.05776903085518
 21
5.500000000000005
 31
0.0
  0
LINE
  5
49AE
330
4986
100
AcDbEntity
  8
AM_5
100
AcDbLine
 10
0.5000000000000079
 20
-5.499999999999992
 30
0.0
 11
12.05776903085517
 21
-5.499999999999995
 31
0.0
  0
LINE
  5
49AF
330
4986
100
AcDbEntity
  8
AM_5
100
AcDbLine
 10
11.55776903085518
 20
4.250000000000005
 30
0.0
 11
11.55776903085517
 21
-4.249999999999995
 31
0.0
  0
INSERT
  5
49B0
330
4986
100
AcDbEntity
  8
AM_5
100
AcDbBlockReference
  2
_OPEN30
 10
11.55776903085518
 20
5.500000000000005
 30
0.0
 41
1.25
 42
1.25
 43
1.25
 50
90.0
  0
INSERT
  5
49B1
330
4986
100
AcDbEntity
  8
AM_5
100
AcDbBlockReference
  2
_OPEN30
 10
11.55776903085517
 20
-5.499999999999995
 30
0.0
 41
1.25
 42
1.25
 43
1.25
 50
270.0
  0
MTEXT
  5
49B2
330
4986
100
AcDbEntity
  8
AM_5
 62
     2
100
AcDbMText
 10
10.00776903085518
 20
0.000000000000007
 30
0.0
 40
1.6
 41
0.0
 71
     5
 72
     1
  1
%%c11
  7
ASAMI
 11
0.0000000000000001
 21
1.0
 31
0.0
1001
ACAD
1000
MTEXTBEGIN
1070
    73
1070
     1
1070
    44
1040
1.0
1070
    74
1070
     0
1000
MTEXTEND
  0
POINT
  5
49B3
330
4986
100
AcDbEntity
  8
DEFPOINTS
 62
     0
100
AcDbPoint
 10
0.0
 20
5.500000000000008
 30
0.0
  0
POINT
  5
49B4
330
4986
100
AcDbEntity
  8
DEFPOINTS
 62
     0
100
AcDbPoint
 10
0.0000000000000078
 20
-5.499999999999992
 30
0.0
  0
POINT
  5
49B5
330
4986
100
AcDbEntity
  8
DEFPOINTS
 62
     0
100
AcDbPoint
 10
11.55776903085517
 20
-5.499999999999995
 30
0.0
  0
ENDBLK
  5
4991
330
4986
100
AcDbEntity
  8
0
100
AcDbBlockEnd
  0
ENDSEC
  0
SECTION
  2
ENTITIES
  0
TEXT
  5
1500
330
1F
100
AcDbEntity
  8
AM_6
100
AcDbText
 10
-47.73809523809521
 20
-30.25000100000007
 30
0.0
 40
2.5
  1
HSM3110ZX
 72
     4
 11
-37.49999999999997
 21
-29.00000100000007
 31
0.0
100
AcDbText
  0
LINE
  5
4908
330
1F
100
AcDbEntity
  8
AM_0
100
AcDbLine
 10
-28.99999999999993
 20
-5.999999999999982
 30
0.0
 11
-73.99999999999995
 21
-6.000000000000023
 31
0.0
  0
LINE
  5
4909
330
1F
100
AcDbEntity
  8
AM_0
100
AcDbLine
 10
-29.00000000000001
 20
6.000000000000015
 30
0.0
 11
-74.0
 21
5.999999999999998
 31
0.0
  0
DIMENSION
  5
490A
330
1F
100
AcDbEntity
  8
AM_5
100
AcDbDimension
  2
*D5
 10
-74.99999999999996
 20
-19.00000100000007
 30
0.0
 11
-37.49999999999998
 21
-17.45000100000007
 31
0.0
 70
    32
  1
<>
  3
AM_JIS
100
AcDbAlignedDimension
 13
0.0
 23
-5.499999999999992
 33
0.0
 14
-74.99999999999996
 24
-5.00000000000001
 34
0.0
 50
0.0000000000001132
100
AcDbRotatedDimension
1001
GENIUS_GENDTOL_13
1000

1000
h7
1000

1040
0.0
  0
LINE
  5
490B
330
1F
100
AcDbEntity
  8
AM_7
  6
AM_ISO08W050X2
100
AcDbLine
 10
4.557768030855186
 20
0.0
 30
0.0
 11
-77.69469945058478
 21
-0.0000000000000249
 31
0.0
1001
GENIUS_GENODEF_13
1002
{
1000
HIER
1070
     0
1002
}
1002
{
1000
MANEDIT
1070
     0
1002
}
1002
{
1000
NOSEL
1070
     0
1002
}
1002
{
1000
BEHIND
1070
     0
1002
}
1002
{
1000
REACTOR
1002
}
1001
GENIUS_GENOBJ-N-CEN_13
1002
{
1000
OWNER
1000
GEN
1002
}
  0
DIMENSION
  5
490C
330
1F
100
AcDbEntity
  8
AM_5
100
AcDbDimension
  2
*D6
 10
-84.69470045058477
 20
-6.000000000000023
 30
0.0
 11
-86.24470045058476
 21
-0.0000000000000239
 31
0.0
 70
    32
  1
%%c<>
  3
AM_JIS
100
AcDbAlignedDimension
 13
-74.0
 23
5.999999999999998
 33
0.0
 14
-73.99999999999997
 24
-6.000000000000026
 34
0.0
 50
270.0
100
AcDbRotatedDimension
1001
GENIUS_GENDTOL_13
1000

1000
h7
1000

1040
0.0
  0
LINE
  5
490D
330
1F
100
AcDbEntity
  8
AM_0
100
AcDbLine
 10
-75.0
 20
4.999999999999998
 30
0.0
 11
-74.99999999999994
 21
-5.000000000000024
 31
0.0
  0
LINE
  5
490E
330
1F
100
AcDbEntity
  8
AM_0
100
AcDbLine
 10
-74.0
 20
5.999999999999998
 30
0.0
 11
-73.99999999999997
 21
-6.000000000000026
 31
0.0
  0
LINE
  5
490F
330
1F
100
AcDbEntity
  8
AM_0
100
AcDbLine
 10
-74.99999999999994
 20
-5.000000000000024
 30
0.0
 11
-73.99999999999995
 21
-6.000000000000023
 31
0.0
1001
GENIUS_GENFIL_13
1070
     0
1040
1.0
1040
1.0
1040
20.0
1040
0.0
1002
{
1002
}
1001
GENIUS_GENODEF_13
1002
{
1000
HIER
1070
     0
1002
}
1002
{
1000
MANEDIT
1070
     0
1002
}
1002
{
1000
NOSEL
1070
     0
1002
}
1002
{
1000
BEHIND
1070
     0
1002
}
1002
{
1000
REACTOR
1002
}
1001
GENIUS_GENOBJ-N-CHA_13
1002
{
1000
OWNER
1000
GEN
1002
}
  0
LINE
  5
4910
330
1F
100
AcDbEntity
  8
AM_0
100
AcDbLine
 10
-74.0
 20
5.999999999999998
 30
0.0
 11
-75.0
 21
4.999999999999998
 31
0.0
1001
GENIUS_GENFIL_13
1070
     0
1040
1.0
1040
1.0
1040
20.0
1040
0.0
1002
{
1002
}
1001
GENIUS_GENODEF_13
1002
{
1000
HIER
1070
     0
1002
}
1002
{
1000
MANEDIT
1070
     0
1002
}
1002
{
1000
NOSEL
1070
     0
1002
}
1002
{
1000
BEHIND
1070
     0
1002
}
1002
{
1000
REACTOR
1002
}
1001
GENIUS_GENOBJ-N-CHA_13
1002
{
1000
OWNER
1000
GEN
1002
}
  0
DIMENSION
  5
4911
330
1F
100
AcDbEntity
  8
AM_5
100
AcDbDimension
  2
*D7
 10
-25.0
 20
-13.00000099999997
 30
0.0
 11
-12.5
 21
-11.45000099999997
 31
0.0
 70
    32
  1
<>
  3
AM_JIS
100
AcDbAlignedDimension
 13
0.0
 23
-5.499999999999992
 33
0.0
 14
-25.0
 24
-5.499999999999992
 34
0.0
 50
0.0000000000001132
100
AcDbRotatedDimension
1001
GENIUS_GENDTOL_13
1000

1000
h7
1000

1040
0.0
  0
SPLINE
  5
4912
330
1F
100
AcDbEntity
  8
AM_0
100
AcDbSpline
210
0.0
220
0.0
230
1.0
 70
     8
 71
     3
 72
     8
 73
     4
 74
     0
 42
0.0000000001
 43
0.0000000001
 40
0.157854605497133
 40
0.157854605497133
 40
0.157854605497133
 40
0.157854605497133
 40
6.616360992657454
 40
6.616360992657454
 40
6.616360992657454
 40
6.616360992657454
 10
-28.06071090038371
 20
5.658126726368983
 30
0.0
 10
-26.62116650707435
 20
5.20812957859789
 30
0.0
 10
-25.14260207387275
 20
2.604064789299172
 30
0.0
 10
-23.91071067617754
 20
0.0000000000006253
 30
0.0
  0
SPLINE
  5
4913
330
1F
100
AcDbEntity
  8
AM_0
100
AcDbSpline
210
0.0
220
0.0
230
1.0
 70
     8
 71
     3
 72
     8
 73
     4
 74
     0
 42
0.0000000001
 43
0.0000000001
 40
0.0
 40
0.0
 40
0.0
 40
0.0
 40
2.948331486770748
 40
2.948331486770748
 40
2.948331486770748
 40
2.948331486770748
 10
-24.0624999999835
 20
5.500000000000852
 30
0.0
 10
-25.14355487846593
 20
5.500000000001477
 30
0.0
 10
-25.98933231774883
 20
4.971716883345948
 30
0.0
 10
-26.22304279910481
 20
4.655971096836268
 30
0.0
  0
SPLINE
  5
4914
330
1F
100
AcDbEntity
  8
AM_0
100
AcDbSpline
210
0.0
220
0.0
230
1.0
 70
     8
 71
     3
 72
     8
 73
     4
 74
     0
 42
0.0000000001
 43
0.0000000001
 40
5.956415856828278
 40
5.956415856828278
 40
5.956415856828278
 40
5.956415856828278
 40
7.778335297478264
 40
7.778335297478264
 40
7.778335297478264
 40
7.778335297478264
 10
-25.59637107057126
 20
2.069517792182052
 30
0.0
 10
-25.30213199680932
 20
1.405379972170695
 30
0.0
 10
-25.02606599839741
 20
0.7026899860857175
 30
0.0
 10
-24.74999999998551
 20
0.000000000000739
 30
0.0
  0
SPLINE
  5
4915
330
1F
100
AcDbEntity
  8
AM_0
100
AcDbSpline
210
0.0
220
0.0
230
1.0
 70
     8
 71
     3
 72
     8
 73
     4
 74
     0
 42
0.0000000001
 43
0.0000000001
 40
0.3982504941345976
 40
0.3982504941345976
 40
0.3982504941345976
 40
0.3982504941345976
 40
6.452065446090842
 40
6.452065446090842
 40
6.452065446090842
 40
6.452065446090842
 10
-26.91730581704456
 20
4.88952120661104
 30
0.0
 10
-25.48110200413736
 20
4.77219591907226
 30
0.0
 10
-24.26873620868452
 20
2.386097959536641
 30
0.0
 10
-23.05637041323267
 20
0.0000000000008527
 30
0.0
  0
SPLINE
  5
4916
330
1F
100
AcDbEntity
  8
AM_0
100
AcDbSpline
210
0.0
220
0.0
230
1.0
 70
     8
 71
     3
 72
     8
 73
     4
 74
     0
 42
0.0000000001
 43
0.0000000001
 40
0.3982504941345976
 40
0.3982504941345976
 40
0.3982504941345976
 40
0.3982504941345976
 40
6.452065446090842
 40
6.452065446090842
 40
6.452065446090842
 40
6.452065446090842
 10
-16.30531376899694
 20
5.057666484767935
 30
0.0
 10
-14.20610200414735
 20
4.77219591907226
 30
0.0
 10
-12.99373620869551
 20
2.386097959536499
 30
0.0
 10
-11.78137041324267
 20
0.000000000000739
 30
0.0
  0
SPLINE
  5
4917
330
1F
100
AcDbEntity
  8
AM_0
100
AcDbSpline
210
0.0
220
0.0
230
1.0
 70
     8
 71
     3
 72
     8
 73
     4
 74
     0
 42
0.0000000001
 43
0.0000000001
 40
0.157854605497133
 40
0.157854605497133
 40
0.157854605497133
 40
0.157854605497133
 40
6.616360992657454
 40
6.616360992657454
 40
6.616360992657454
 40
6.616360992657454
 10
-17.41404249786615
 20
5.330904015187428
 30
0.0
 10
-15.09949347157895
 20
5.208129578597748
 30
0.0
 10
-13.86760207388374
 20
2.604064789299172
 30
0.0
 10
-12.63571067618754
 20
0.0000000000004832
 30
0.0
  0
SPLINE
  5
4918
330
1F
100
AcDbEntity
  8
AM_0
100
AcDbSpline
210
0.0
220
0.0
230
1.0
 70
     8
 71
     3
 72
     8
 73
     4
 74
     2
 42
0.0000000001
 43
0.0000000001
 44
0.0000000001
 12
1.0
 22
-0.0000000000000002
 32
0.0
 40
0.0
 40
0.0
 40
0.0
 40
0.0
 40
7.399493225890875
 40
7.399493225890875
 40
7.399493225890875
 40
7.399493225890875
 10
-18.4249999999965
 20
5.500000000000625
 30
0.0
 10
-15.95850225803288
 20
5.500000000000624
 30
0.0
 10
-14.71675112901444
 20
2.750000000000624
 30
0.0
 10
-13.474999999996
 20
0.0000000000006253
 30
0.0
 11
-18.4249999999965
 21
5.500000000000625
 31
0.0
 11
-13.474999999996
 21
0.0000000000006253
 31
0.0
  0
SPLINE
  5
4919
330
1F
100
AcDbEntity
  8
AM_0
100
AcDbSpline
210
0.0
220
0.0
230
1.0
 70
     8
 71
     3
 72
     8
 73
     4
 74
     2
 42
0.0000000001
 43
0.0000000001
 44
0.0000000001
 12
-1.0
 22
0.0000000000000001
 32
0.0
 40
0.0
 40
0.0
 40
0.0
 40
0.0
 40
7.399493225890875
 40
7.399493225890875
 40
7.399493225890875
 40
7.399493225890875
 10
-14.16249999999049
 20
-5.499999999999261
 30
0.0
 10
-16.62899774195411
 20
-5.499999999999261
 30
0.0
 10
-17.87074887097255
 20
-2.749999999999261
 30
0.0
 10
-19.11249999999099
 20
0.000000000000739
 30
0.0
 11
-14.16249999999049
 21
-5.499999999999261
 31
0.0
 11
-19.11249999999099
 21
0.000000000000739
 31
0.0
  0
SPLINE
  5
491A
330
1F
100
AcDbEntity
  8
AM_0
100
AcDbSpline
210
0.0
220
0.0
230
1.0
 70
     8
 71
     3
 72
     8
 73
     4
 74
     2
 42
0.0000000001
 43
0.0000000001
 44
0.0000000001
 12
-1.0
 22
0.0000000000000001
 32
0.0
 40
0.0
 40
0.0
 40
0.0
 40
0.0
 40
7.097271990699632
 40
7.097271990699632
 40
7.097271990699632
 40
7.097271990699632
 10
-12.46887041323766
 20
-5.086135046374693
 30
0.0
 10
-14.83462774347087
 20
-5.086135046374693
 30
0.0
 10
-16.12674907835426
 20
-2.54306752318692
 30
0.0
 10
-17.41887041323765
 20
0.0000000000008527
 30
0.0
 11
-12.46887041323766
 21
-5.086135046374693
 31
0.0
 11
-17.41887041323765
 21
0.0000000000008527
 31
0.0
  0
SPLINE
  5
491B
330
1F
100
AcDbEntity
  8
AM_0
100
AcDbSpline
210
0.0
220
0.0
230
1.0
 70
     8
 71
     3
 72
     8
 73
     4
 74
     2
 42
0.0000000001
 43
0.0000000001
 44
0.0000000001
 12
-1.0
 22
0.0000000000000001
 32
0.0
 40
0.0
 40
0.0
 40
0.0
 40
0.0
 40
7.27799709192295
 40
7.27799709192295
 40
7.27799709192295
 40
7.27799709192295
 10
-13.32321067618254
 20
-5.335423288740173
 30
0.0
 10
-15.74920970682352
 20
-5.335423288740173
 30
0.0
 10
-17.01121019150303
 20
-2.667711644369716
 30
0.0
 10
-18.27321067618254
 20
0.000000000000739
 30
0.0
 11
-13.32321067618254
 21
-5.335423288740173
 31
0.0
 11
-18.27321067618254
 21
0.000000000000739
 31
0.0
  0
SPLINE
  5
491C
330
1F
100
AcDbEntity
  8
AM_0
100
AcDbSpline
210
0.0
220
0.0
230
1.0
 70
     8
 71
     3
 72
     8
 73
     4
 74
     0
 42
0.0000000001
 43
0.0000000001
 40
0.3982504941345976
 40
0.3982504941345976
 40
0.3982504941345976
 40
0.3982504941345976
 40
6.452065446090842
 40
6.452065446090842
 40
6.452065446090842
 40
6.452065446090842
 10
-21.94281376899194
 20
5.057666484768049
 30
0.0
 10
-19.84360200414234
 20
4.77219591907226
 30
0.0
 10
-18.63123620869
 20
2.386097959536499
 30
0.0
 10
-17.41887041323765
 20
0.000000000000739
 30
0.0
  0
SPLINE
  5
491D
330
1F
100
AcDbEntity
  8
AM_0
100
AcDbSpline
210
0.0
220
0.0
230
1.0
 70
     8
 71
     3
 72
     8
 73
     4
 74
     0
 42
0.0000000001
 43
0.0000000001
 40
0.157854605497133
 40
0.157854605497133
 40
0.157854605497133
 40
0.157854605497133
 40
6.616360992657454
 40
6.616360992657454
 40
6.616360992657454
 40
6.616360992657454
 10
-23.05154249786115
 20
5.33090401518757
 30
0.0
 10
-20.73699347157394
 20
5.20812957859789
 30
0.0
 10
-19.50510207387823
 20
2.604064789299172
 30
0.0
 10
-18.27321067618254
 20
0.0000000000004832
 30
0.0
  0
SPLINE
  5
491E
330
1F
100
AcDbEntity
  8
AM_0
100
AcDbSpline
210
0.0
220
0.0
230
1.0
 70
     8
 71
     3
 72
     8
 73
     4
 74
     0
 42
0.0000000001
 43
0.0000000001
 40
0.0
 40
0.0
 40
0.0
 40
0.0
 40
0.9875149967633806
 40
0.9875149967633806
 40
0.9875149967633806
 40
0.9875149967633806
 10
-19.7999999999865
 20
-5.499999999999005
 30
0.0
 10
-19.4379111678401
 20
-5.499999999999005
 30
0.0
 10
-19.10221693436402
 20
-5.440734560456604
 30
0.0
 10
-18.7890424979542
 20
-5.330904015220085
 30
0.0
  0
SPLINE
  5
491F
330
1F
100
AcDbEntity
  8
AM_0
100
AcDbSpline
210
0.0
220
0.0
230
1.0
 70
     8
 71
     3
 72
     8
 73
     4
 74
     2
 42
0.0000000001
 43
0.0000000001
 44
0.0000000001
 12
-1.0
 22
0.0000000000000001
 32
0.0
 40
0.0
 40
0.0
 40
0.0
 40
0.0
 40
7.097271990700005
 40
7.097271990700005
 40
7.097271990700005
 40
7.097271990700005
 10
-18.10637041323217
 20
-5.086135046374579
 30
0.0
 10
-20.4721277434655
 20
-5.086135046374579
 30
0.0
 10
-21.76424907834909
 20
-2.543067523186791
 30
0.0
 10
-23.05637041323267
 20
0.0000000000009948
 30
0.0
 11
-18.10637041323217
 21
-5.086135046374579
 31
0.0
 11
-23.05637041323267
 21
0.0000000000009948
 31
0.0
  0
SPLINE
  5
4920
330
1F
100
AcDbEntity
  8
AM_0
100
AcDbSpline
210
0.0
220
0.0
230
1.0
 70
     8
 71
     3
 72
     8
 73
     4
 74
     0
 42
0.0000000001
 43
0.0000000001
 40
0.0
 40
0.0
 40
0.0
 40
0.0
 40
1.274172826456642
 40
1.274172826456642
 40
1.274172826456642
 40
1.274172826456642
 10
-18.96071067617855
 20
-5.335423288739661
 30
0.0
 10
-18.49351397314454
 20
-5.335423288739661
 30
0.0
 10
-18.06948614506896
 20
-5.236486644187237
 30
0.0
 10
-17.68031376898693
 20
-5.057666484766315
 30
0.0
  0
SPLINE
  5
4921
330
1F
100
AcDbEntity
  8
AM_0
100
AcDbSpline
210
0.0
220
0.0
230
1.0
 70
     8
 71
     3
 72
     8
 73
     4
 74
     0
 42
0.0000000001
 43
0.0000000001
 40
0.0
 40
0.0
 40
0.0
 40
0.0
 40
2.948331486770748
 40
2.948331486770748
 40
2.948331486770748
 40
2.948331486770748
 10
-18.4249999999885
 20
5.500000000000852
 30
0.0
 10
-19.50605487847143
 20
5.500000000001364
 30
0.0
 10
-20.35183231775432
 20
4.971716883345834
 30
0.0
 10
-20.65500046896409
 20
4.572806314857302
 30
0.0
  0
SPLINE
  5
4922
330
1F
100
AcDbEntity
  8
AM_0
100
AcDbSpline
210
0.0
220
0.0
230
1.0
 70
     8
 71
     3
 72
     8
 73
     4
 74
     0
 42
0.0000000001
 43
0.0000000001
 40
0.0
 40
0.0
 40
0.0
 40
0.0
 40
2.420483029949796
 40
2.420483029949796
 40
2.420483029949796
 40
2.420483029949796
 10
-18.10637041323366
 20
-5.086135046374579
 30
0.0
 10
-17.21885996891834
 20
-5.086135046374579
 30
0.0
 10
-16.48244923077514
 20
-4.72823278043711
 30
0.0
 10
-16.39250046896028
 20
-4.572806314859263
 30
0.0
  0
SPLINE
  5
4923
330
1F
100
AcDbEntity
  8
AM_0
100
AcDbSpline
210
0.0
220
0.0
230
1.0
 70
     8
 71
     3
 72
     8
 73
     4
 74
     0
 42
0.0000000001
 43
0.0000000001
 40
0.0
 40
0.0
 40
0.0
 40
0.0
 40
1.274172826456642
 40
1.274172826456642
 40
1.274172826456642
 40
1.274172826456642
 10
-25.56071067617221
 20
-5.500000000000881
 30
0.0
 10
-25.0935139731382
 20
-5.335423288740429
 30
0.0
 10
-24.66948614506263
 20
-5.236486644187863
 30
0.0
 10
-24.2803137689811
 20
-5.05766648476694
 30
0.0
  0
SPLINE
  5
4924
330
1F
100
AcDbEntity
  8
AM_0
100
AcDbSpline
210
0.0
220
0.0
230
1.0
 70
     8
 71
     3
 72
     8
 73
     4
 74
     2
 42
0.0000000001
 43
0.0000000001
 44
0.0000000001
 12
-1.0
 22
0.0000000000000001
 32
0.0
 40
0.0
 40
0.0
 40
0.0
 40
0.0
 40
4.872211427417791
 40
4.872211427417791
 40
4.872211427417791
 40
4.872211427417791
 10
-24.70637041322633
 20
-5.086135046375318
 30
0.0
 10
-26.33044088903226
 20
-5.086135046375318
 30
0.0
 10
-27.43518549113507
 20
-3.582617140491734
 30
0.0
 10
-28.53993009323788
 20
-2.07909923460815
 30
0.0
 11
-24.70637041322633
 21
-5.086135046375318
 31
0.0
 11
-28.53993009323788
 21
-2.07909923460815
 31
0.0
  0
SPLINE
  5
4925
330
1F
100
AcDbEntity
  8
AM_0
100
AcDbSpline
210
0.0
220
0.0
230
1.0
 70
     8
 71
     3
 72
     8
 73
     4
 74
     2
 42
0.0000000001
 43
0.0000000001
 44
0.0000000001
 12
1.0
 22
-0.0000000000000002
 32
0.0
 40
0.0
 40
0.0
 40
0.0
 40
0.0
 40
7.399493225890889
 40
7.399493225890889
 40
7.399493225890889
 40
7.399493225890889
 10
-24.06249999999151
 20
5.500000000000738
 30
0.0
 10
-21.59600225802788
 20
5.500000000000738
 30
0.0
 10
-20.35425112900944
 20
2.750000000000738
 30
0.0
 10
-19.11249999999099
 20
0.000000000000739
 30
0.0
 11
-24.06249999999151
 21
5.500000000000738
 31
0.0
 11
-19.11249999999099
 21
0.000000000000739
 31
0.0
  0
SPLINE
  5
4926
330
1F
100
AcDbEntity
  8
AM_0
100
AcDbSpline
210
0.0
220
0.0
230
1.0
 70
     8
 71
     3
 72
     8
 73
     4
 74
     2
 42
0.0000000001
 43
0.0000000001
 44
0.0000000001
 12
-1.0
 22
0.0000000000000001
 32
0.0
 40
0.0
 40
0.0
 40
0.0
 40
0.0
 40
7.399493225890542
 40
7.399493225890542
 40
7.399493225890542
 40
7.399493225890542
 10
-19.7999999999855
 20
-5.499999999999261
 30
0.0
 10
-22.26649774194902
 20
-5.499999999999261
 30
0.0
 10
-23.50824887096726
 20
-2.749999999999261
 30
0.0
 10
-24.74999999998551
 20
0.000000000000739
 30
0.0
 11
-19.7999999999855
 21
-5.499999999999261
 31
0.0
 11
-24.74999999998551
 21
0.000000000000739
 31
0.0
  0
SPLINE
  5
4927
330
1F
100
AcDbEntity
  8
AM_0
100
AcDbSpline
210
0.0
220
0.0
230
1.0
 70
     8
 71
     3
 72
     8
 73
     4
 74
     2
 42
0.0000000001
 43
0.0000000001
 44
0.0000000001
 12
-1.0
 22
0.0000000000000001
 32
0.0
 40
0.0
 40
0.0
 40
0.0
 40
0.0
 40
7.277997091923205
 40
7.277997091923205
 40
7.277997091923205
 40
7.277997091923205
 10
-18.96071067617704
 20
-5.335423288740059
 30
0.0
 10
-21.38670970681811
 20
-5.335423288740059
 30
0.0
 10
-22.64871019149782
 20
-2.66771164436966
 30
0.0
 10
-23.91071067617754
 20
0.000000000000739
 30
0.0
 11
-18.96071067617704
 21
-5.335423288740059
 31
0.0
 11
-23.91071067617754
 21
0.000000000000739
 31
0.0
  0
SPLINE
  5
4928
330
1F
100
AcDbEntity
  8
AM_0
100
AcDbSpline
210
0.0
220
0.0
230
1.0
 70
     8
 71
     3
 72
     8
 73
     4
 74
     0
 42
0.0000000001
 43
0.0000000001
 40
0.0
 40
0.0
 40
0.0
 40
0.0
 40
2.420483029949796
 40
2.420483029949796
 40
2.420483029949796
 40
2.420483029949796
 10
-24.70637041322733
 20
-5.086135046375318
 30
0.0
 10
-23.8188599689125
 20
-5.086135046375318
 30
0.0
 10
-23.08244923076931
 20
-4.728232780437849
 30
0.0
 10
-22.4404533623407
 20
-4.146694766520653
 30
0.0
  0
SPLINE
  5
4929
330
1F
100
AcDbEntity
  8
AM_0
100
AcDbSpline
210
0.0
220
0.0
230
1.0
 70
     8
 71
     3
 72
     8
 73
     4
 74
     2
 42
0.0000000001
 43
0.0000000001
 44
0.0000000001
 12
-1.0
 22
0.0000000000000001
 32
0.0
 40
0.0
 40
0.0
 40
0.0
 40
0.0
 40
6.746473191765668
 40
6.746473191765668
 40
6.746473191765668
 40
6.746473191765668
 10
-1.561998818159832
 20
-4.951903998804766
 30
0.0
 10
-3.810823215415054
 20
-4.951903998804766
 30
0.0
 10
-4.977346814328858
 20
-2.475951999402013
 30
0.0
 10
-6.143870413242662
 20
0.000000000000739
 30
0.0
 11
-1.561998818159832
 21
-4.951903998804766
 31
0.0
 11
-6.143870413242662
 21
0.000000000000739
 31
0.0
  0
SPLINE
  5
492A
330
1F
100
AcDbEntity
  8
AM_0
100
AcDbSpline
210
0.0
220
0.0
230
1.0
 70
     8
 71
     3
 72
     8
 73
     4
 74
     0
 42
0.0000000001
 43
0.0000000001
 40
0.0
 40
0.0
 40
0.0
 40
0.0
 40
0.4556590281797062
 40
0.4556590281797062
 40
0.4556590281797062
 40
0.4556590281797062
 10
-1.561998818159832
 20
-4.951903998804766
 30
0.0
 10
-1.394923841160345
 20
-4.963100556897188
 30
0.0
 10
-1.233203617800253
 20
-4.94304672072613
 30
0.0
 10
-0.9423731558319836
 20
-4.787119744509539
 30
0.0
  0
SPLINE
  5
492B
330
1F
100
AcDbEntity
  8
AM_0
100
AcDbSpline
210
0.0
220
0.0
230
1.0
 70
     8
 71
     3
 72
     8
 73
     4
 74
     0
 42
0.0000000001
 43
0.0000000001
 40
0.0
 40
0.0
 40
0.0
 40
0.0
 40
3.138307834541913
 40
3.138307834541913
 40
3.138307834541913
 40
3.138307834541913
 10
-1.876542497870151
 20
-5.330904015186206
 30
0.0
 10
-1.859997803526127
 20
-5.335423288739804
 30
0.0
 10
-0.7086698973564048
 20
-4.948402904098713
 30
0.0
 10
-0.220000000009307
 20
-3.819528764291277
 30
0.0
  0
SPLINE
  5
492C
330
1F
100
AcDbEntity
  8
AM_0
100
AcDbSpline
210
0.0
220
0.0
230
1.0
 70
     8
 71
     3
 72
     8
 73
     4
 74
     2
 42
0.0000000001
 43
0.0000000001
 44
0.0000000001
 12
-1.0
 22
0.0000000000000001
 32
0.0
 40
0.0
 40
0.0
 40
0.0
 40
0.0
 40
7.39256535635129
 40
7.39256535635129
 40
7.39256535635129
 40
7.39256535635129
 10
-1.876542497870151
 20
-5.330904015186206
 30
0.0
 10
-4.340730949987247
 20
-5.330904015186206
 30
0.0
 10
-5.669470813087396
 20
-2.665452007592733
 30
0.0
 10
-6.998210676187543
 20
0.000000000000739
 30
0.0
 11
-1.876542497870151
 21
-5.330904015186206
 31
0.0
 11
-6.998210676187543
 21
0.000000000000739
 31
0.0
  0
SPLINE
  5
492D
330
1F
100
AcDbEntity
  8
AM_0
100
AcDbSpline
210
0.0
220
0.0
230
1.0
 70
     8
 71
     3
 72
     8
 73
     4
 74
     2
 42
0.0000000001
 43
0.0000000001
 44
0.0000000001
 12
1.0
 22
-0.0000000000000002
 32
0.0
 40
0.0
 40
0.0
 40
0.0
 40
0.0
 40
7.39949322589121
 40
7.39949322589121
 40
7.39949322589121
 40
7.39949322589121
 10
-7.149999999999497
 20
5.500000000000738
 30
0.0
 10
-4.68350225803576
 20
5.500000000000738
 30
0.0
 10
-3.441751129017128
 20
2.750000000000738
 30
0.0
 10
-2.199999999998496
 20
0.000000000000739
 30
0.0
 11
-7.149999999999497
 21
5.500000000000738
 31
0.0
 11
-2.199999999998496
 21
0.000000000000739
 31
0.0
  0
SPLINE
  5
492E
330
1F
100
AcDbEntity
  8
AM_0
100
AcDbSpline
210
0.0
220
0.0
230
1.0
 70
     8
 71
     3
 72
     8
 73
     4
 74
     0
 42
0.0000000001
 43
0.0000000001
 40
0.157854605497133
 40
0.157854605497133
 40
0.157854605497133
 40
0.157854605497133
 40
6.616360992657454
 40
6.616360992657454
 40
6.616360992657454
 40
6.616360992657454
 10
-6.139042497869144
 20
5.33090401518757
 30
0.0
 10
-3.824493471581448
 20
5.20812957859789
 30
0.0
 10
-2.592602073885743
 20
2.604064789299172
 30
0.0
 10
-1.360710676190549
 20
0.0000000000004832
 30
0.0
  0
SPLINE
  5
492F
330
1F
100
AcDbEntity
  8
AM_0
100
AcDbSpline
210
0.0
220
0.0
230
1.0
 70
     8
 71
     3
 72
     8
 73
     4
 74
     0
 42
0.0000000001
 43
0.0000000001
 40
0.3982504941345976
 40
0.3982504941345976
 40
0.3982504941345976
 40
0.3982504941345976
 40
6.01848148651983
 40
6.01848148651983
 40
6.01848148651983
 40
6.01848148651983
 10
-5.030313768999935
 20
5.057666484768049
 30
0.0
 10
-3.08145092564905
 20
4.792641779938094
 30
0.0
 10
-1.896948597062419
 20
2.71711481035328
 30
0.0
 10
-0.7671909974050806
 20
0.5119167578241104
 30
0.0
  0
SPLINE
  5
4930
330
1F
100
AcDbEntity
  8
AM_0
100
AcDbSpline
210
0.0
220
0.0
230
1.0
 70
     8
 71
     3
 72
     9
 73
     5
 74
     3
 42
0.0000000001
 43
0.0000000001
 44
0.0000000001
 12
-0.7037104554506215
 22
-0.7104868717221163
 32
0.0
 13
-0.5728114391284047
 23
0.819687169110049
 33
0.0
 40
0.0
 40
0.0
 40
0.0
 40
0.0
 40
0.3813063323843802
 40
0.7139377376156594
 40
0.7139377376156594
 40
0.7139377376156594
 40
0.7139377376156594
 10
-0.2200000000073032
 20
-3.759884546304562
 30
0.0
 10
-0.3094430842834426
 20
-3.850188927392432
 30
0.0
 10
-0.5015159251423242
 20
-4.1827743801727
 30
0.0
 10
-0.6514883086901588
 20
-3.850769111274937
 30
0.0
 10
-0.7150000000001029
 20
-3.759884546304562
 30
0.0
 11
-0.2200000000073032
 21
-3.759884546304562
 31
0.0
 11
-0.5026018862368318
 21
-4.015874180891472
 31
0.0
 11
-0.7150000000001029
 21
-3.759884546304562
 31
0.0
  0
SPLINE
  5
4931
330
1F
100
AcDbEntity
  8
AM_0
100
AcDbSpline
210
0.0
220
0.0
230
1.0
 70
     8
 71
     3
 72
     8
 73
     4
 74
     0
 42
0.0000000001
 43
0.0000000001
 40
4.32310436431184
 40
4.32310436431184
 40
4.32310436431184
 40
4.32310436431184
 40
6.616360992657454
 40
6.616360992657454
 40
6.616360992657454
 40
6.616360992657454
 10
0.0000000000004974
 20
-2.662837034740618
 30
0.0
 10
-0.4858820567487357
 20
-1.84927860428246
 30
0.0
 10
-0.9232963664696427
 20
-0.9246393021409176
 30
0.0
 10
-1.360710676190549
 20
0.0000000000006253
 30
0.0
  0
SPLINE
  5
4932
330
1F
100
AcDbEntity
  8
AM_0
100
AcDbSpline
210
0.0
220
0.0
230
1.0
 70
     8
 71
     3
 72
     8
 73
     4
 74
     2
 42
0.0000000001
 43
0.0000000001
 44
0.0000000001
 12
0.2563440340107919
 22
-0.9665856072935671
 32
0.0
 13
-1.0
 23
0.0000000000000001
 33
0.0
 40
0.0
 40
0.0
 40
0.0
 40
0.0
 40
2.689158245586467
 40
2.689158245586467
 40
2.689158245586467
 40
2.689158245586467
 10
-0.5499999999934957
 20
5.5
 30
0.0
 10
-0.3202167757378227
 20
4.633566114693766
 30
0.0
 10
-0.774445496839773
 20
3.055555555555486
 30
0.0
 10
-1.670831578701928
 20
3.055555555555486
 30
0.0
 11
-0.5499999999934957
 21
5.5
 31
0.0
 11
-1.670831578701928
 21
3.055555555555486
 31
0.0
  0
SPLINE
  5
4933
330
1F
100
AcDbEntity
  8
AM_0
100
AcDbSpline
210
0.0
220
0.0
230
1.0
 70
     8
 71
     3
 72
     9
 73
     5
 74
     3
 42
0.0000000001
 43
0.0000000001
 44
0.0000000001
 12
-0.3385048798911532
 22
0.9409646360463693
 32
0.0
 13
0.9630016908632651
 23
-0.2694953494858348
 33
0.0
 40
0.0
 40
0.0
 40
0.0
 40
0.0
 40
1.827599074262547
 40
2.286536401908918
 40
2.286536401908918
 40
2.286536401908918
 40
2.286536401908918
 10
-0.7150000000001029
 20
-3.759884546304562
 30
0.0
 10
-0.9212170683742449
 20
-3.186649180387182
 30
0.0
 10
-2.306981345646723
 20
-2.531047821083885
 30
0.0
 10
-1.398607935013175
 20
-1.974902853789546
 30
0.0
 10
-1.251288794171934
 20
-2.016130012291597
 30
0.0
 11
-0.7150000000001029
 21
-3.759884546304562
 31
0.0
 11
-1.670831578701928
 21
-2.202160447048953
 31
0.0
 11
-1.251288794171934
 21
-2.016130012291597
 31
0.0
  0
SPLINE
  5
4934
330
1F
100
AcDbEntity
  8
AM_0
100
AcDbSpline
210
0.0
220
0.0
230
1.0
 70
     8
 71
     3
 72
     8
 73
     4
 74
     0
 42
0.0000000001
 43
0.0000000001
 40
4.390614724758877
 40
4.390614724758877
 40
4.390614724758877
 40
4.390614724758877
 40
6.726812023537121
 40
6.726812023537121
 40
6.726812023537121
 40
6.726812023537121
 10
-0.8549295842821749
 20
-2.749999999986243
 30
0.0
 10
-1.337488717323687
 20
-1.910129954325725
 30
0.0
 10
-1.768744358661344
 20
-0.9550649771624932
 30
0.0
 10
-2.199999999998496
 20
0.0000000000006253
 30
0.0
  0
SPLINE
  5
4935
330
1F
100
AcDbEntity
  8
AM_0
100
AcDbSpline
210
0.0
220
0.0
230
1.0
 70
     8
 71
     3
 72
     8
 73
     4
 74
     0
 42
0.0000000001
 43
0.0000000001
 40
0.0
 40
0.0
 40
0.0
 40
0.0
 40
2.948331486770748
 40
2.948331486770748
 40
2.948331486770748
 40
2.948331486770748
 10
-0.5499999999965013
 20
5.500000000000852
 30
0.0
 10
-1.631054878478927
 20
5.500000000001364
 30
0.0
 10
-2.476832317761818
 20
4.971716883345834
 30
0.0
 10
-3.190453362359036
 20
4.146694766521761
 30
0.0
  0
SPLINE
  5
4936
330
1F
100
AcDbEntity
  8
AM_0
100
AcDbSpline
210
0.0
220
0.0
230
1.0
 70
     8
 71
     3
 72
     8
 73
     4
 74
     2
 42
0.0000000001
 43
0.0000000001
 44
0.0000000001
 12
-1.0
 22
0.0000000000000001
 32
0.0
 40
0.0
 40
0.0
 40
0.0
 40
0.0
 40
7.399493225890872
 40
7.399493225890872
 40
7.399493225890872
 40
7.399493225890872
 10
-2.887499999995498
 20
-5.499999999999374
 30
0.0
 10
-5.353997741959122
 20
-5.499999999999374
 30
0.0
 10
-6.595748870977558
 20
-2.749999999999374
 30
0.0
 10
-7.837499999995994
 20
0.0000000000006253
 30
0.0
 11
-2.887499999995498
 21
-5.499999999999374
 31
0.0
 11
-7.837499999995994
 21
0.0000000000006253
 31
0.0
  0
SPLINE
  5
4937
330
1F
100
AcDbEntity
  8
AM_0
100
AcDbSpline
210
0.0
220
0.0
230
1.0
 70
     8
 71
     3
 72
     8
 73
     4
 74
     2
 42
0.0000000001
 43
0.0000000001
 44
0.0000000001
 12
1.0
 22
-0.0000000000000002
 32
0.0
 40
0.0
 40
0.0
 40
0.0
 40
0.0
 40
7.399493225890537
 40
7.399493225890537
 40
7.399493225890537
 40
7.399493225890537
 10
-12.78750000000149
 20
5.500000000000625
 30
0.0
 10
-10.32100225803798
 20
5.500000000000624
 30
0.0
 10
-9.079251129019743
 20
2.750000000000624
 30
0.0
 10
-7.837500000001501
 20
0.0000000000006253
 30
0.0
 11
-12.78750000000149
 21
5.500000000000625
 31
0.0
 11
-7.837500000001501
 21
0.0000000000006253
 31
0.0
  0
SPLINE
  5
4938
330
1F
100
AcDbEntity
  8
AM_0
100
AcDbSpline
210
0.0
220
0.0
230
1.0
 70
     8
 71
     3
 72
     8
 73
     4
 74
     0
 42
0.0000000001
 43
0.0000000001
 40
0.157854605497133
 40
0.157854605497133
 40
0.157854605497133
 40
0.157854605497133
 40
6.616360992657454
 40
6.616360992657454
 40
6.616360992657454
 40
6.616360992657454
 10
-11.77654249787165
 20
5.330904015187314
 30
0.0
 10
-9.461993471583941
 20
5.208129578597748
 30
0.0
 10
-8.230102073888748
 20
2.604064789299059
 30
0.0
 10
-6.998210676193043
 20
0.0000000000004832
 30
0.0
  0
SPLINE
  5
4939
330
1F
100
AcDbEntity
  8
AM_0
100
AcDbSpline
210
0.0
220
0.0
230
1.0
 70
     8
 71
     3
 72
     8
 73
     4
 74
     0
 42
0.0000000001
 43
0.0000000001
 40
0.3982504941345976
 40
0.3982504941345976
 40
0.3982504941345976
 40
0.3982504941345976
 40
6.452065446090842
 40
6.452065446090842
 40
6.452065446090842
 40
6.452065446090842
 10
-10.66781376900195
 20
5.057666484767793
 30
0.0
 10
-8.568602004152349
 20
4.772195919072146
 30
0.0
 10
-7.356236208700511
 20
2.386097959536385
 30
0.0
 10
-6.143870413248169
 20
0.000000000000739
 30
0.0
  0
SPLINE
  5
493A
330
1F
100
AcDbEntity
  8
AM_0
100
AcDbSpline
210
0.0
220
0.0
230
1.0
 70
     8
 71
     3
 72
     8
 73
     4
 74
     0
 42
0.0000000001
 43
0.0000000001
 40
0.0
 40
0.0
 40
0.0
 40
0.0
 40
0.9875149968653097
 40
0.9875149968653097
 40
0.9875149968653097
 40
0.9875149968653097
 10
-2.887499999999498
 20
-5.499999999999147
 30
0.0
 10
-2.525411167815583
 20
-5.499999999999147
 30
0.0
 10
-2.189716934307988
 20
-5.44073456044461
 30
0.0
 10
-1.876542497870151
 20
-5.330904015186206
 30
0.0
  0
SPLINE
  5
493B
330
1F
100
AcDbEntity
  8
AM_0
100
AcDbSpline
210
0.0
220
0.0
230
1.0
 70
     8
 71
     3
 72
     8
 73
     4
 74
     2
 42
0.0000000001
 43
0.0000000001
 44
0.0000000001
 12
-1.0
 22
0.0000000000000001
 32
0.0
 40
0.0
 40
0.0
 40
0.0
 40
0.0
 40
7.097271990699561
 40
7.097271990699561
 40
7.097271990699561
 40
7.097271990699561
 10
-6.831370413242662
 20
-5.086135046374693
 30
0.0
 10
-9.197127743475849
 20
-5.086135046374693
 30
0.0
 10
-10.48924907835926
 20
-2.543067523186977
 30
0.0
 10
-11.78137041324267
 20
0.000000000000739
 30
0.0
 11
-6.831370413242662
 21
-5.086135046374693
 31
0.0
 11
-11.78137041324267
 21
0.000000000000739
 31
0.0
  0
SPLINE
  5
493C
330
1F
100
AcDbEntity
  8
AM_0
100
AcDbSpline
210
0.0
220
0.0
230
1.0
 70
     8
 71
     3
 72
     8
 73
     4
 74
     2
 42
0.0000000001
 43
0.0000000001
 44
0.0000000001
 12
-1.0
 22
0.0000000000000001
 32
0.0
 40
0.0
 40
0.0
 40
0.0
 40
0.0
 40
7.27799709192295
 40
7.27799709192295
 40
7.27799709192295
 40
7.27799709192295
 10
-7.685710676187543
 20
-5.335423288740173
 30
0.0
 10
-10.11170970682852
 20
-5.335423288740173
 30
0.0
 10
-11.37371019150803
 20
-2.667711644369716
 30
0.0
 10
-12.63571067618754
 20
0.000000000000739
 30
0.0
 11
-7.685710676187543
 21
-5.335423288740173
 31
0.0
 11
-12.63571067618754
 21
0.000000000000739
 31
0.0
  0
SPLINE
  5
493D
330
1F
100
AcDbEntity
  8
AM_0
100
AcDbSpline
210
0.0
220
0.0
230
1.0
 70
     8
 71
     3
 72
     8
 73
     4
 74
     2
 42
0.0000000001
 43
0.0000000001
 44
0.0000000001
 12
-1.0
 22
0.0000000000000001
 32
0.0
 40
0.0
 40
0.0
 40
0.0
 40
0.0
 40
7.399493225890879
 40
7.399493225890879
 40
7.399493225890879
 40
7.399493225890879
 10
-8.524999999995497
 20
-5.499999999999374
 30
0.0
 10
-10.99149774195912
 20
-5.499999999999374
 30
0.0
 10
-12.23324887097756
 20
-2.749999999999375
 30
0.0
 10
-13.474999999996
 20
0.0000000000006253
 30
0.0
 11
-8.524999999995497
 21
-5.499999999999374
 31
0.0
 11
-13.474999999996
 21
0.0000000000006253
 31
0.0
  0
SPLINE
  5
493E
330
1F
100
AcDbEntity
  8
AM_0
100
AcDbSpline
210
0.0
220
0.0
230
1.0
 70
     8
 71
     3
 72
     8
 73
     4
 74
     0
 42
0.0000000001
 43
0.0000000001
 40
0.0
 40
0.0
 40
0.0
 40
0.0
 40
0.9875149967633806
 40
0.9875149967633806
 40
0.9875149967633806
 40
0.9875149967633806
 10
-8.524999999996996
 20
-5.499999999999147
 30
0.0
 10
-8.162911167850094
 20
-5.499999999999147
 30
0.0
 10
-7.827216934374515
 20
-5.44073456045686
 30
0.0
 10
-7.514042497964691
 20
-5.330904015220227
 30
0.0
  0
SPLINE
  5
493F
330
1F
100
AcDbEntity
  8
AM_0
100
AcDbSpline
210
0.0
220
0.0
230
1.0
 70
     8
 71
     3
 72
     8
 73
     4
 74
     0
 42
0.0000000001
 43
0.0000000001
 40
0.0
 40
0.0
 40
0.0
 40
0.0
 40
1.274172826456642
 40
1.274172826456642
 40
1.274172826456642
 40
1.274172826456642
 10
-7.685710676188545
 20
-5.335423288739804
 30
0.0
 10
-7.218513973154539
 20
-5.335423288739804
 30
0.0
 10
-6.794486145078959
 20
-5.236486644187237
 30
0.0
 10
-6.405313768996936
 20
-5.057666484766315
 30
0.0
  0
SPLINE
  5
4940
330
1F
100
AcDbEntity
  8
AM_0
100
AcDbSpline
210
0.0
220
0.0
230
1.0
 70
     8
 71
     3
 72
     8
 73
     4
 74
     0
 42
0.0000000001
 43
0.0000000001
 40
0.0
 40
0.0
 40
0.0
 40
0.0
 40
1.274172826456642
 40
1.274172826456642
 40
1.274172826456642
 40
1.274172826456642
 10
-13.32321067618353
 20
-5.335423288739661
 30
0.0
 10
-12.85601397314953
 20
-5.335423288739661
 30
0.0
 10
-12.43198614507396
 20
-5.236486644187237
 30
0.0
 10
-12.04281376899193
 20
-5.057666484766315
 30
0.0
  0
SPLINE
  5
4941
330
1F
100
AcDbEntity
  8
AM_0
100
AcDbSpline
210
0.0
220
0.0
230
1.0
 70
     8
 71
     3
 72
     8
 73
     4
 74
     0
 42
0.0000000001
 43
0.0000000001
 40
0.0
 40
0.0
 40
0.0
 40
0.0
 40
0.9875149967633806
 40
0.9875149967633806
 40
0.9875149967633806
 40
0.9875149967633806
 10
-14.16249999999149
 20
-5.499999999999005
 30
0.0
 10
-13.8004111678451
 20
-5.499999999999005
 30
0.0
 10
-13.46471693436901
 20
-5.440734560456746
 30
0.0
 10
-13.15154249795968
 20
-5.330904015220085
 30
0.0
  0
SPLINE
  5
4942
330
1F
100
AcDbEntity
  8
AM_0
100
AcDbSpline
210
0.0
220
0.0
230
1.0
 70
     8
 71
     3
 72
     8
 73
     4
 74
     0
 42
0.0000000001
 43
0.0000000001
 40
0.0
 40
0.0
 40
0.0
 40
0.0
 40
2.948331486770748
 40
2.948331486770748
 40
2.948331486770748
 40
2.948331486770748
 10
-12.78749999999399
 20
5.500000000000738
 30
0.0
 10
-13.86855487847642
 20
5.50000000000125
 30
0.0
 10
-14.71433231775932
 20
4.971716883345834
 30
0.0
 10
-15.01750046896916
 20
4.572806314857274
 30
0.0
  0
SPLINE
  5
4943
330
1F
100
AcDbEntity
  8
AM_0
100
AcDbSpline
210
0.0
220
0.0
230
1.0
 70
     8
 71
     3
 72
     8
 73
     4
 74
     0
 42
0.0000000001
 43
0.0000000001
 40
0.0
 40
0.0
 40
0.0
 40
0.0
 40
2.948331486770748
 40
2.948331486770748
 40
2.948331486770748
 40
2.948331486770748
 10
-7.149999999999497
 20
5.500000000000738
 30
0.0
 10
-8.231054878481923
 20
5.50000000000125
 30
0.0
 10
-9.076832317764317
 20
4.971716883345834
 30
0.0
 10
-9.380000468974213
 20
4.572806314857189
 30
0.0
  0
SPLINE
  5
4944
330
1F
100
AcDbEntity
  8
AM_0
100
AcDbSpline
210
0.0
220
0.0
230
1.0
 70
     8
 71
     3
 72
     8
 73
     4
 74
     0
 42
0.0000000001
 43
0.0000000001
 40
0.0
 40
0.0
 40
0.0
 40
0.0
 40
2.420483029949796
 40
2.420483029949796
 40
2.420483029949796
 40
2.420483029949796
 10
-6.831370413243664
 20
-5.086135046374693
 30
0.0
 10
-5.943859968928837
 20
-5.086135046374693
 30
0.0
 10
-5.20744923078514
 20
-4.728232780437224
 30
0.0
 10
-5.11750046896736
 20
-4.572806314857444
 30
0.0
  0
SPLINE
  5
4945
330
1F
100
AcDbEntity
  8
AM_0
100
AcDbSpline
210
0.0
220
0.0
230
1.0
 70
     8
 71
     3
 72
     8
 73
     4
 74
     0
 42
0.0000000001
 43
0.0000000001
 40
0.0
 40
0.0
 40
0.0
 40
0.0
 40
2.420483029949796
 40
2.420483029949796
 40
2.420483029949796
 40
2.420483029949796
 10
-12.46887041323866
 20
-5.086135046374693
 30
0.0
 10
-11.58135996892383
 20
-5.086135046374693
 30
0.0
 10
-10.84494923078013
 20
-4.72823278043711
 30
0.0
 10
-10.75500046896538
 20
-4.572806314859292
 30
0.0
  0
LINE
  5
4946
330
1F
100
AcDbEntity
  8
AM_11
100
AcDbLine
 10
0.0
 20
5.500000000000008
 30
0.0
 11
-25.0
 21
5.500000000000007
 31
0.0
  0
LINE
  5
4947
330
1F
100
AcDbEntity
  8
AM_11
100
AcDbLine
 10
-25.0
 20
-5.499999999999992
 30
0.0
 11
0.0
 21
-5.499999999999992
 31
0.0
  0
ARC
  5
4948
330
1F
100
AcDbEntity
  8
AM_0
100
AcDbCircle
 10
-26.65908237695948
 20
-0.9378666254655882
 30
0.0
 40
2.2
100
AcDbArc
 50
117.0923257436931
 51
211.2479114875231
  0
LINE
  5
4949
330
1F
100
AcDbEntity
  8
AM_11
100
AcDbLine
 10
-25.0
 20
5.500000000000008
 30
0.0
 11
-25.0
 21
-5.499999999999992
 31
0.0
  0
LINE
  5
494A
330
1F
100
AcDbEntity
  8
AM_0
100
AcDbLine
 10
-29.0
 20
6.000000000000015
 30
0.0
 11
-28.99999999999993
 21
-5.999999999999982
 31
0.0
  0
LINE
  5
494B
330
1F
100
AcDbEntity
  8
AM_0
100
AcDbLine
 10
-27.62626129027265
 20
-5.499999999999995
 30
0.0
 11
-28.99999999999993
 21
-5.999999999999982
 31
0.0
  0
LINE
  5
494C
330
1F
100
AcDbEntity
  8
AM_0
100
AcDbLine
 10
-25.56071067617221
 20
-5.499999999999992
 30
0.0
 11
-27.62626129027265
 21
-5.499999999999994
 31
0.0
  0
LINE
  5
494D
330
1F
100
AcDbEntity
  8
AM_0
100
AcDbLine
 10
-27.62626129027265
 20
-5.499999999999994
 30
0.0
 11
-27.62626129027264
 21
-3.277840191716704
 31
0.0
  0
LINE
  5
494E
330
1F
100
AcDbEntity
  8
AM_0
100
AcDbLine
 10
-27.62626129027265
 20
1.020735762660251
 30
0.0
 11
-27.62626129027265
 21
5.42972769408956
 31
0.0
  0
LINE
  5
494F
330
1F
100
AcDbEntity
  8
AM_0
100
AcDbLine
 10
-27.66101884462031
 20
1.020735762660251
 30
0.0
 11
-25.59642921113452
 21
2.069649022347118
 31
0.0
  0
LINE
  5
4950
330
1F
100
AcDbEntity
  8
AM_0
100
AcDbLine
 10
-25.0
 20
3.334974555305876
 30
0.0
 11
-25.0
 21
0.5520099636751184
 31
0.0
  0
LINE
  5
4951
330
1F
100
AcDbEntity
  8
AM_0
100
AcDbLine
 10
-28.06071090038371
 20
5.658126726368983
 30
0.0
 11
-29.0
 21
6.000000000000015
 31
0.0
  0
LINE
  5
4952
330
1F
100
AcDbEntity
  8
AM_0
100
AcDbLine
 10
-0.2199999999997999
 20
-1.657771530535313
 30
0.0
 11
-0.2200000000003008
 21
0.0
 31
0.0
  0
ARC
  5
4953
330
1F
100
AcDbEntity
  8
AM_0
100
AcDbCircle
 10
5.506998530210193
 20
0.9404102895299502
 30
0.0
 40
6.288804412218832
100
AcDbArc
 50
171.6411574078215
 51
204.4024896870891
  0
LINE
  5
4954
330
1F
100
AcDbEntity
  8
AM_0
100
AcDbLine
 10
0.0000000000005009
 20
-2.749999999997129
 30
0.0
 11
0.0
 21
-0.8556481047733939
 31
0.0
  0
LINE
  5
4955
330
1F
100
AcDbEntity
  8
AM_11
100
AcDbLine
 10
0.0
 20
5.500000000000008
 30
0.0
 11
0.0
 21
-5.499999999999992
 31
0.0
  0
DIMENSION
  5
4956
330
1F
100
AcDbEntity
  8
AM_5
100
AcDbDimension
  2
*D8
 10
11.55776903085517
 20
-5.499999999999995
 30
0.0
 11
10.00776903085518
 21
0.000000000000007
 31
0.0
 70
    32
  1
%%c<>
  3
AM_JIS
100
AcDbAlignedDimension
 13
0.0
 23
5.500000000000008
 33
0.0
 14
0.0000000000000078
 24
-5.499999999999992
 34
0.0
 50
90.00000000000003
100
AcDbRotatedDimension
1001
GENIUS_GENDTOL_13
1000

1000
h7
1000

1040
0.0
  0
LINE
  5
4957
330
1F
100
AcDbEntity
  8
AM_0
100
AcDbLine
 10
0.0000000000005009
 20
-2.749999999997129
 30
0.0
 11
-0.2199999999997999
 21
-3.819528764279766
 31
0.0
  0
LINE
  5
4958
330
1F
100
AcDbEntity
  8
AM_0
100
AcDbLine
 10
0.0000000000005009
 20
-2.749999999997129
 30
0.0
 11
-0.2199999999997999
 21
-1.657771530535313
 31
0.0
  0
LINE
  5
4959
330
1F
100
AcDbEntity
  8
AM_0
100
AcDbLine
 10
-0.8549295843041804
 20
-2.749999999965751
 30
0.0
 11
0.0000000000005009
 21
-2.749999999997129
 31
0.0
  0
LINE
  5
495A
330
1F
100
AcDbEntity
  8
AM_0
100
AcDbLine
 10
-0.7150000000000994
 20
-3.759884546304562
 30
0.0
 11
-0.4771950643564651
 21
-2.749999999979507
 31
0.0
  0
LINE
  5
495B
330
1F
100
AcDbEntity
  8
AM_0
100
AcDbLine
 10
-0.2200000000093034
 20
-3.819528764325781
 30
0.0
 11
-0.2199999999697866
 21
-2.749999999989
 31
0.0
  0
LINE
  5
495C
330
1F
100
AcDbEntity
  8
AM_0
100
AcDbLine
 10
0.0
 20
0.0
 30
0.0
 11
-0.0000000000005009
 21
5.352627944164737
 31
0.0
  0
LINE
  5
495D
330
1F
100
AcDbEntity
  8
AM_0
100
AcDbLine
 10
0.0
 20
-0.8556481047732518
 30
0.0
 11
-0.2200000000003008
 21
0.0
 31
0.0
  0
LINE
  5
495E
330
1F
100
AcDbEntity
  8
AM_0
100
AcDbLine
 10
-0.2200000000003008
 20
0.0
 30
0.0
 11
-0.7150000000000994
 21
1.854628657978082
 31
0.0
  0
LINE
  5
495F
330
1F
100
AcDbEntity
  8
AM_0
100
AcDbLine
 10
-0.7150000000000994
 20
1.854628657978082
 30
0.0
 11
-1.670831578701928
 21
3.055555555555486
 31
0.0
  0
LINE
  5
4960
330
1F
100
AcDbEntity
  8
AM_0
100
AcDbLine
 10
0.0
 20
0.0
 30
0.0
 11
-0.1122697343656469
 21
-0.4189963528041006
 31
0.0
  0
LINE
  5
4961
330
1F
100
AcDbEntity
  8
AM_0
100
AcDbLine
 10
-0.5499999999994998
 20
5.500000000001733
 30
0.0
 11
-0.0000000000005009
 21
5.352627944164737
 31
0.0
  0
VIEWPORT
  5
110
330
101
100
AcDbEntity
 67
     1
  8
0
100
AcDbViewport
 10
420.5
 20
297.0
 30
0.0
 40
948.9782706766916
 41
628.452
 68
     1
 69
     1
1001
ACAD
1000
MVIEW
1002
{
1070
    16
1010
0.0
1020
0.0
1030
0.0
1010
0.0
1020
0.0
1030
1.0
1040
0.0
1040
628.452
1040
420.5
1040
297.0
1040
50.0
1040
0.0
1040
0.0
1070
     0
1070
   100
1070
     1
1070
     1
1070
     0
1070
     0
1070
     0
1070
     0
1040
0.0
1040
0.0
1040
0.0
1040
10.0
1040
10.0
1040
10.0
1040
10.0
1070
     0
1002
{
1002
}
1002
}
  0
ENDSEC
  0
SECTION
  2
OBJECTS
  0
DICTIONARY
  5
C
330
0
100
AcDbDictionary
  3
ACAD_GROUP
350
D
  3
ACAD_LAYOUT
350
1A
  3
ACAD_MLINESTYLE
350
17
  3
ACAD_PLOTSETTINGS
350
19
  3
ACAD_PLOTSTYLENAME
350
E
  3
ACDBVARIABLEDICTIONARY
350
34
  3
ACMDICTIONARY
350
43
  3
AMG
350
2B
  3
AMGSNAPSETTINGS
350
6E
  3
ASE_INDEX_DICTIONARY
350
151A
  3
DWGPROPS
350
49CC
  3
ACDBHEADERROUNDTRIPXREC
350
49D8
  0
DICTIONARY
  5
74
330
1F
100
AcDbDictionary
280
     1
  3
ACAD_INDEX
360
49CE
  3
ACAD_LAYOUTSELFREF
360
49FB
  0
DICTIONARY
  5
4A00
330
101
100
AcDbDictionary
280
     1
  3
ACAD_LAYOUTSELFREF
360
4A01
  0
DICTIONARY
  5
D
102
{ACAD_REACTORS
330
C
102
}
330
C
100
AcDbDictionary
  0
DICTIONARY
  5
1A
102
{ACAD_REACTORS
330
C
102
}
330
C
100
AcDbDictionary
  0
DICTIONARY
  5
17
102
{ACAD_REACTORS
330
C
102
}
330
C
100
AcDbDictionary
  3
STANDARD
350
18
  0
DICTIONARY
  5
19
102
{ACAD_REACTORS
330
C
102
}
330
C
100
AcDbDictionary
  0
ACDBDICTIONARYWDFLT
  5
E
102
{ACAD_REACTORS
330
C
102
}
330
C
100
AcDbDictionary
281
     1
  3
Normal
350
F
100
AcDbDictionaryWithDefault
340
F
  0
DICTIONARY
  5
34
102
{ACAD_REACTORS
330
C
102
}
330
C
100
AcDbDictionary
  3
INDEXCTL
350
35
  3
SORTENTS
350
B5E
  0
DICTIONARY
  5
43
102
{ACAD_REACTORS
330
C
102
}
330
C
100
AcDbDictionary
  3
ACMSTDDICTIONARY
350
260
  0
DICTIONARY
  5
2B
102
{ACAD_REACTORS
330
C
102
}
330
C
100
AcDbDictionary
  3
ACMGSETTINGS
350
2C
  0
DICTIONARY
  5
6E
102
{ACAD_REACTORS
330
C
102
}
330
C
100
AcDbDictionary
  0
DICTIONARY
  5
151A
102
{ACAD_REACTORS
330
C
102
}
330
C
100
AcDbDictionary
  3
ASEBLOCKHIERARCHYINDEXRECORD
350
151C
1001
DCO15
1040
1471862535.906
  0
XRECORD
  5
49CC
102
{ACAD_REACTORS
330
C
102
}
330
C
100
AcDbXrecord
  1
DWGPROPS COOKIE
  2

  3

  4

  6

  7

  8

  9

300
AmdtFileType=82
301
=
302
=
303
=
304
=
305
=
306
=
307
=
308
=
309
=
 40
0.1766858449074074
 41
2452838.430434386
 42
2453045.643641053
  1

 90
        1
  0
DICTIONARY
  5
49D8
102
{ACAD_REACTORS
330
C
102
}
330
C
100
AcDbDictionary
  3
TSTACKALIGN
350
49D9
  3
TSTACKSIZE
350
49DA
  3
HYPERLINKBASE
350
49DB
  3
STYLESHEET
350
49DC
  3
LAYOUTDICT
350
49DD
  3
PLOTSETDICT
350
49DE
  3
PLOTSTYLNAMDICT
350
49DF
  3
LWETCUNION
350
49E0
  3
INSUNITS
350
49E1
  3
CEPSNTYPE
350
49E2
  3
FINGERPRINTGUID
350
49E3
  3
VERSIONGUID
350
49E4
  3
PSVPSCALE
350
49E5
  3
DIMSTYLEDATA
350
49E6
  3
PUCSORTHOREF
350
49E7
  3
PUCSORTHOVIEW
350
49E8
  3
PUCSBASE
350
49E9
  3
PUCSORGTOP
350
49EA
  3
PUCSORGBOTTOM
350
49EB
  3
PUCSORGLEFT
350
49EC
  3
PUCSORGRIGHT
350
49ED
  3
PUCSORGFRONT
350
49EE
  3
PUCSORGBACK
350
49EF
  3
UCSORTHOREF
350
49F0
  3
UCSORTHOVIEW
350
49F1
  3
UCSBASE
350
49F2
  3
UCSORGTOP
350
49F3
  3
UCSORGBOTTOM
350
49F4
  3
UCSORGLEFT
350
49F5
  3
UCSORGRIGHT
350
49F6
  3
UCSORGFRONT
350
49F7
  3
UCSORGBACK
350
49F8
  0
DICTIONARY
  5
49CE
102
{ACAD_REACTORS
330
74
102
}
330
74
100
AcDbDictionary
  3
*A1
350
49CF
  0
XRECORD
  5
49FB
102
{ACAD_REACTORS
330
74
102
}
330
74
100
AcDbXrecord
340
1F
  0
XRECORD
  5
4A01
102
{ACAD_REACTORS
330
4A00
102
}
330
4A00
100
AcDbXrecord
340
101
  0
MLINESTYLE
  5
18
102
{ACAD_REACTORS
330
17
102
}
330
17
100
AcDbMlineStyle
  2
STANDARD
 70
     0
  3

 62
   256
 51
90.0
 52
90.0
 71
     2
 49
0.5
 62
   256
  6
BYLAYER
 49
-0.5
 62
   256
  6
BYLAYER
  0
ACDBPLACEHOLDER
  5
F
102
{ACAD_REACTORS
330
E
102
}
330
E
100
AcDbPlaceHolder
280
     0
  0
DICTIONARYVAR
  5
35
102
{ACAD_REACTORS
330
34
102
}
330
34
100
DictionaryVariables
280
     0
  1
1
  0
DICTIONARYVAR
  5
B5E
102
{ACAD_REACTORS
330
34
102
}
330
34
100
DictionaryVariables
280
     0
  1
96
  0
DICTIONARY
  5
260
102
{ACAD_REACTORS
330
43
102
}
330
43
100
AcDbDictionary
  0
DICTIONARY
  5
2C
102
{ACAD_REACTORS
330
2B
102
}
330
2B
100
AcDbDictionary
  3
DWGSETTINGS
350
2D
  0
XRECORD
  5
151C
102
{ACAD_REACTORS
330
151A
102
}
330
151A
100
AcDbXrecord
330
0
330
0
330
0
330
0
330
0
330
0
330
0
330
0
  0
XRECORD
  5
49D9
102
{ACAD_REACTORS
330
49D8
102
}
330
49D8
100
AcDbXrecord
 90
        1
  0
XRECORD
  5
49DA
102
{ACAD_REACTORS
330
49D8
102
}
330
49D8
100
AcDbXrecord
 90
       70
  0
XRECORD
  5
49DB
102
{ACAD_REACTORS
330
49D8
102
}
330
49D8
100
AcDbXrecord
  1

  0
XRECORD
  5
49DC
102
{ACAD_REACTORS
330
49D8
102
}
330
49D8
100
AcDbXrecord
  1
ASAMI.ctb
  0
XRECORD
  5
49DD
102
{ACAD_REACTORS
330
49D8
102
}
330
49D8
100
AcDbXrecord
340
1A
  0
XRECORD
  5
49DE
102
{ACAD_REACTORS
330
49D8
102
}
330
49D8
100
AcDbXrecord
340
19
  0
XRECORD
  5
49DF
102
{ACAD_REACTORS
330
49D8
102
}
330
49D8
100
AcDbXrecord
340
E
  0
XRECORD
  5
49E0
102
{ACAD_REACTORS
330
49D8
102
}
330
49D8
100
AcDbXrecord
 90
    10781
  0
XRECORD
  5
49E1
102
{ACAD_REACTORS
330
49D8
102
}
330
49D8
100
AcDbXrecord
 90
        4
  0
XRECORD
  5
49E2
102
{ACAD_REACTORS
330
49D8
102
}
330
49D8
100
AcDbXrecord
 90
        0
  0
XRECORD
  5
49E3
102
{ACAD_REACTORS
330
49D8
102
}
330
49D8
100
AcDbXrecord
  1
{AFB28963-8C59-40AE-9337-C84526B81ACE}
  0
XRECORD
  5
49E4
102
{ACAD_REACTORS
330
49D8
102
}
330
49D8
100
AcDbXrecord
  1
{EC0A8EB9-C842-4E0F-8BB0-5C8F277F4719}
  0
XRECORD
  5
49E5
102
{ACAD_REACTORS
330
49D8
102
}
330
49D8
100
AcDbXrecord
 40
0.0
  0
XRECORD
  5
49E6
102
{ACAD_REACTORS
330
49D8
102
}
330
49D8
100
AcDbXrecord
1000
DSTYLE
1002
{
1070
    79
 70
     2
1070
   341
340
59
1070
   342
340
59
1070
   371
 70
    -1
1070
   372
 70
    -1
1002
}
  0
XRECORD
  5
49E7
102
{ACAD_REACTORS
330
49D8
102
}
330
49D8
100
AcDbXrecord
340
0
  0
XRECORD
  5
49E8
102
{ACAD_REACTORS
330
49D8
102
}
330
49D8
100
AcDbXrecord
 70
     0
  0
XRECORD
  5
49E9
102
{ACAD_REACTORS
330
49D8
102
}
330
49D8
100
AcDbXrecord
340
0
  0
XRECORD
  5
49EA
102
{ACAD_REACTORS
330
49D8
102
}
330
49D8
100
AcDbXrecord
 10
0.0
 20
0.0
 30
0.0
  0
XRECORD
  5
49EB
102
{ACAD_REACTORS
330
49D8
102
}
330
49D8
100
AcDbXrecord
 10
0.0
 20
0.0
 30
0.0
  0
XRECORD
  5
49EC
102
{ACAD_REACTORS
330
49D8
102
}
330
49D8
100
AcDbXrecord
 10
0.0
 20
0.0
 30
0.0
  0
XRECORD
  5
49ED
102
{ACAD_REACTORS
330
49D8
102
}
330
49D8
100
AcDbXrecord
 10
0.0
 20
0.0
 30
0.0
  0
XRECORD
  5
49EE
102
{ACAD_REACTORS
330
49D8
102
}
330
49D8
100
AcDbXrecord
 10
0.0
 20
0.0
 30
0.0
  0
XRECORD
  5
49EF
102
{ACAD_REACTORS
330
49D8
102
}
330
49D8
100
AcDbXrecord
 10
0.0
 20
0.0
 30
0.0
  0
XRECORD
  5
49F0
102
{ACAD_REACTORS
330
49D8
102
}
330
49D8
100
AcDbXrecord
340
0
  0
XRECORD
  5
49F1
102
{ACAD_REACTORS
330
49D8
102
}
330
49D8
100
AcDbXrecord
 70
     0
  0
XRECORD
  5
49F2
102
{ACAD_REACTORS
330
49D8
102
}
330
49D8
100
AcDbXrecord
340
0
  0
XRECORD
  5
49F3
102
{ACAD_REACTORS
330
49D8
102
}
330
49D8
100
AcDbXrecord
 10
0.0
 20
0.0
 30
0.0
  0
XRECORD
  5
49F4
102
{ACAD_REACTORS
330
49D8
102
}
330
49D8
100
AcDbXrecord
 10
0.0
 20
0.0
 30
0.0
  0
XRECORD
  5
49F5
102
{ACAD_REACTORS
330
49D8
102
}
330
49D8
100
AcDbXrecord
 10
0.0
 20
0.0
 30
0.0
  0
XRECORD
  5
49F6
102
{ACAD_REACTORS
330
49D8
102
}
330
49D8
100
AcDbXrecord
 10
0.0
 20
0.0
 30
0.0
  0
XRECORD
  5
49F7
102
{ACAD_REACTORS
330
49D8
102
}
330
49D8
100
AcDbXrecord
 10
0.0
 20
0.0
 30
0.0
  0
XRECORD
  5
49F8
102
{ACAD_REACTORS
330
49D8
102
}
330
49D8
100
AcDbXrecord
 10
0.0
 20
0.0
 30
0.0
  0
LAYER_INDEX
  5
49CF
102
{ACAD_REACTORS
330
49CE
102
}
330
49CE
100
AcDbIndex
 40
2453152.469675613
100
AcDbLayerIndex
  8
0
360
49D0
 90
        0
  8
AM_0
360
49D1
 90
       81
  8
AM_11
360
49D2
 90
        4
  8
AM_7
360
49D3
 90
        1
  8
AM_5
360
49D4
 90
        4
  8
Defpoints
360
49D5
 90
        0
  8
AM_6
360
49D6
 90
        1
  0
XRECORD
  5
2D
102
{ACAD_REACTORS
330
2C
102
}
330
2C
100
AcDbXrecord
  1
VERSION
140
15.0
  1
PRODUCT
  2
AutoCAD Mechanical 2000
  0
IDBUFFER
  5
49D0
330
0
100
AcDbIdBuffer
  0
IDBUFFER
  5
49D1
330
0
100
AcDbIdBuffer
330
493C
330
493D
330
493E
330
493F
330
4940
330
4941
330
4942
330
4943
330
4944
330
4945
330
4948
330
494A
330
494B
330
494C
330
494D
330
494E
330
494F
330
4950
330
4951
330
4952
330
4953
330
4954
330
4957
330
4958
330
4959
330
495A
330
495B
330
495C
330
495D
330
495E
330
495F
330
4960
330
4961
330
4908
330
4909
330
490D
330
490E
330
490F
330
4910
330
4912
330
4913
330
4914
330
4915
330
4916
330
4917
330
4918
330
4919
330
491A
330
491B
330
491C
330
491D
330
491E
330
491F
330
4920
330
4921
330
4922
330
4923
330
4924
330
4925
330
4926
330
4927
330
4928
330
4929
330
492A
330
492B
330
492C
330
492D
330
492E
330
492F
330
4930
330
4931
330
4932
330
4933
330
4934
330
4935
330
4936
330
4937
330
4938
330
4939
330
493A
330
493B
  0
IDBUFFER
  5
49D2
330
0
100
AcDbIdBuffer
330
4946
330
4947
330
4949
330
4955
  0
IDBUFFER
  5
49D3
330
0
100
AcDbIdBuffer
330
490B
  0
IDBUFFER
  5
49D4
330
0
100
AcDbIdBuffer
330
490A
330
490C
330
4911
330
4956
  0
IDBUFFER
  5
49D5
330
0
100
AcDbIdBuffer
  0
IDBUFFER
  5
49D6
330
0
100
AcDbIdBuffer
330
1500
  0
ENDSEC
  0
EOF
