  0
SECTION
  2
HEADER
  9
$ACADVER
  1
AC1014
  9
$ACADMAINTVER
 70
     9
  9
$DWGCODEPAGE
  3
ANSI_932
  9
$INSBASE
 10
0.0
 20
0.0
 30
0.0
  9
$EXTMIN
 10
-87.04470045058476
 20
-72.67602789316723
 30
-0.00000001
  9
$EXTMAX
 10
45.68238254729519
 20
7.088591050993684
 30
0.00000001
  9
$LIMMIN
 10
-90.45475198690576
 20
-39.95791023812932
  9
$LIMMAX
 10
19.37730717493377
 20
21.91499593429563
  9
$ORTHOMODE
 70
     0
  9
$REGENMODE
 70
     1
  9
$FILLMODE
 70
     1
  9
$QTEXTMODE
 70
     0
  9
$MIRRTEXT
 70
     0
  9
$DRAGMODE
 70
     2
  9
$LTSCALE
 40
1.0
  9
$OSMODE
 70
    55
  9
$ATTMODE
 70
     1
  9
$TEXTSIZE
 40
2.5
  9
$TRACEWID
 40
1.0
  9
$TEXTSTYLE
  7
STANDARD
  9
$CLAYER
  8
AM_0
  9
$CELTYPE
  6
BYLAYER
  9
$CECOLOR
 62
   256
  9
$CELTSCALE
 40
1.0
  9
$DELOBJ
 70
     1
  9
$DISPSILH
 70
     0
  9
$DIMSCALE
 40
0.5
  9
$DIMASZ
 40
2.5
  9
$DIMEXO
 40
1.0
  9
$DIMDLI
 40
12.0
  9
$DIMRND
 40
0.0
  9
$DIMDLE
 40
0.0
  9
$DIMEXE
 40
1.0
  9
$DIMTP
 40
0.1
  9
$DIMTM
 40
0.1
  9
$DIMTXT
 40
3.2
  9
$DIMCEN
 40
0.0
  9
$DIMTSZ
 40
0.0
  9
$DIMTOL
 70
     0
  9
$DIMLIM
 70
     0
  9
$DIMTIH
 70
     0
  9
$DIMTOH
 70
     0
  9
$DIMSE1
 70
     0
  9
$DIMSE2
 70
     0
  9
$DIMTAD
 70
     3
  9
$DIMZIN
 70
     8
  9
$DIMBLK
  1
OPEN30
  9
$DIMASO
 70
     1
  9
$DIMSHO
 70
     1
  9
$DIMPOST
  1

  9
$DIMAPOST
  1
"
  9
$DIMALT
 70
     0
  9
$DIMALTD
 70
     2
  9
$DIMALTF
 40
0.0393701
  9
$DIMLFAC
 40
1.0
  9
$DIMTOFL
 70
     1
  9
$DIMTVP
 40
0.0
  9
$DIMTIX
 70
     0
  9
$DIMSOXD
 70
     0
  9
$DIMSAH
 70
     0
  9
$DIMBLK1
  1

  9
$DIMBLK2
  1

  9
$DIMSTYLE
  2
AM_JIS
  9
$DIMCLRD
 70
   256
  9
$DIMCLRE
 70
   256
  9
$DIMCLRT
 70
     2
  9
$DIMTFAC
 40
0.71
  9
$DIMGAP
 40
1.5
  9
$DIMJUST
 70
     0
  9
$DIMSD1
 70
     0
  9
$DIMSD2
 70
     0
  9
$DIMTOLJ
 70
     0
  9
$DIMTZIN
 70
     0
  9
$DIMALTZ
 70
     0
  9
$DIMALTTZ
 70
     0
  9
$DIMFIT
 70
     3
  9
$DIMUPT
 70
     0
  9
$DIMUNIT
 70
     2
  9
$DIMDEC
 70
     3
  9
$DIMTDEC
 70
     3
  9
$DIMALTU
 70
     2
  9
$DIMALTTD
 70
     2
  9
$DIMTXSTY
  7
ASAMI
  9
$DIMAUNIT
 70
     0
  9
$LUNITS
 70
     2
  9
$LUPREC
 70
     2
  9
$SKETCHINC
 40
1.0
  9
$FILLETRAD
 40
2.5
  9
$AUNITS
 70
     0
  9
$AUPREC
 70
     0
  9
$MENU
  1
.
  9
$ELEVATION
 40
0.0
  9
$PELEVATION
 40
0.0
  9
$THICKNESS
 40
0.0
  9
$LIMCHECK
 70
     0
  9
$BLIPMODE
 70
     0
  9
$CHAMFERA
 40
0.75
  9
$CHAMFERB
 40
0.75
  9
$CHAMFERC
 40
20.0
  9
$CHAMFERD
 40
0.0
  9
$SKPOLY
 70
     0
  9
$TDCREATE
 40
2452838.430434386
  9
$TDUPDATE
 40
2453152.472086874
  9
$TDINDWG
 40
0.1497156829
  9
$TDUSRTIMER
 40
0.1497156829
  9
$USRTIMER
 70
     1
  9
$ANGBASE
 50
0.0
  9
$ANGDIR
 70
     0
  9
$PDMODE
 70
     0
  9
$PDSIZE
 40
0.0
  9
$PLINEWID
 40
0.0
  9
$COORDS
 70
     1
  9
$SPLFRAME
 70
     0
  9
$SPLINETYPE
 70
     6
  9
$SPLINESEGS
 70
     8
  9
$ATTDIA
 70
     1
  9
$ATTREQ
 70
     1
  9
$HANDLING
 70
 12289
  9
$HANDSEED
  5
4317
  9
$SURFTAB1
 70
     6
  9
$SURFTAB2
 70
     6
  9
$SURFTYPE
 70
     6
  9
$SURFU
 70
     6
  9
$SURFV
 70
     6
  9
$UCSNAME
  2

  9
$UCSORG
 10
0.0
 20
0.0
 30
0.0
  9
$UCSXDIR
 10
1.0
 20
0.0
 30
0.0
  9
$UCSYDIR
 10
0.0
 20
1.0
 30
0.0
  9
$PUCSNAME
  2

  9
$PUCSORG
 10
0.0
 20
0.0
 30
0.0
  9
$PUCSXDIR
 10
1.0
 20
0.0
 30
0.0
  9
$PUCSYDIR
 10
0.0
 20
1.0
 30
0.0
  9
$USERI1
 70
     0
  9
$USERI2
 70
     0
  9
$USERI3
 70
     0
  9
$USERI4
 70
     0
  9
$USERI5
 70
     0
  9
$USERR1
 40
0.0
  9
$USERR2
 40
0.0
  9
$USERR3
 40
0.0
  9
$USERR4
 40
0.0
  9
$USERR5
 40
0.0
  9
$WORLDVIEW
 70
     1
  9
$SHADEDGE
 70
     3
  9
$SHADEDIF
 70
    70
  9
$TILEMODE
 70
     1
  9
$MAXACTVP
 70
    64
  9
$PINSBASE
 10
0.0
 20
0.0
 30
0.0
  9
$PLIMCHECK
 70
     0
  9
$PEXTMIN
 10
1.000000000000000E+20
 20
1.000000000000000E+20
 30
1.000000000000000E+20
  9
$PEXTMAX
 10
-1.000000000000000E+20
 20
-1.000000000000000E+20
 30
-1.000000000000000E+20
  9
$PLIMMIN
 10
0.0
 20
0.0
  9
$PLIMMAX
 10
841.0
 20
594.0
  9
$UNITMODE
 70
     0
  9
$VISRETAIN
 70
     1
  9
$PLINEGEN
 70
     0
  9
$PSLTSCALE
 70
     0
  9
$TREEDEPTH
 70
  3020
  9
$PICKSTYLE
 70
     0
  9
$CMLSTYLE
  2
STANDARD
  9
$CMLJUST
 70
     0
  9
$CMLSCALE
 40
20.0
  9
$PROXYGRAPHICS
 70
     1
  9
$MEASUREMENT
 70
     1
  0
ENDSEC
  0
SECTION
  2
CLASSES
  0
CLASS
  1
ACDBDICTIONARYWDFLT
  2
AcDbDictionaryWithDefault
  3
AutoCAD 2000
 90
        0
280
     0
281
     0
  0
CLASS
  1
ACDBPLACEHOLDER
  2
AcDbPlaceHolder
  3
AutoCAD 2000
 90
        0
280
     0
281
     0
  0
CLASS
  1
LAYOUT
  2
AcDbLayout
  3
AutoCAD 2000
 90
        0
280
     0
281
     0
  0
CLASS
  1
AMGSETTINGSOBJ
  2
AmgSettingsObj
  3
"AcadM|Product Description: AutoCAD Mechanical 2000|Company: Autodesk"
 90
        0
280
     0
281
     0
  0
CLASS
  1
ACME_DOCUMENT
  2
AcMeDbDoc
  3
AcMeServices
 90
        0
280
     0
281
     0
  0
CLASS
  1
ACMESCOPE
  2
AcMeScope
  3
AcMeServices
 90
        0
280
     0
281
     0
  0
CLASS
  1
ACMECOMMANDHISTORY
  2
AcMeCommandHistory
  3
AcMeServices
 90
        0
280
     0
281
     0
  0
CLASS
  1
DICTIONARYVAR
  2
AcDbDictionaryVar
  3
AutoCAD 2000
 90
        0
280
     0
281
     0
  0
CLASS
  1
ACIMSYSVARMAN
  2
AcImSysVarManager
  3
AcMeServices
 90
        0
280
     0
281
     0
  0
CLASS
  1
ACIMREALSYSVAR
  2
AcImRealSysVar
  3
AcMeServices
 90
        0
280
     0
281
     0
  0
CLASS
  1
ACIMINTSYSVAR
  2
AcImIntSysVar
  3
AcMeServices
 90
        0
280
     0
281
     0
  0
CLASS
  1
ACMEDRAWINGMAN
  2
AcMeDrawingMan
  3
AcMeServices
 90
        0
280
     0
281
     0
  0
CLASS
  1
ACMEVIEW
  2
AcMeView
  3
AcMeServices
 90
        0
280
     0
281
     0
  0
CLASS
  1
ACDBENTITYCACHE
  2
AcMeEntityCache
  3
AcMeServices
 90
        0
280
     0
281
     0
  0
CLASS
  1
GSMANAGER
  2
AcMeGSManager
  3
AcMeServices
 90
        0
280
     0
281
     0
  0
CLASS
  1
AmdtInternalReactor
  2
AmdtInternalReactor
  3
AcMeServices
 90
        0
280
     0
281
     0
  0
CLASS
  1
ACMESTATEMGR
  2
AcMeStateMgr
  3
AcMeServices
 90
        0
280
     0
281
     0
  0
CLASS
  1
ACME_DATABASE
  2
AcMeDbDatabase
  3
AcMeServices
 90
        0
280
     0
281
     0
  0
CLASS
  1
ACRFINSADJUSTERMGR
  2
AcRfInsAdjusterMgr
  3
AcMeServices
 90
        0
280
     0
281
     0
  0
CLASS
  1
ACMDATADICTIONARY
  2
AcmDataDictionary
  3
"AcmSymBB|Product Description: AutoCAD Mechanical 2000|Company: Autodesk"
 90
        0
280
     0
281
     0
  0
CLASS
  1
ACMDATAENTRYBLOCK
  2
AcmDataEntryBlock
  3
"AcmSymBB|Product Description: AutoCAD Mechanical 2000|Company: Autodesk"
 90
        0
280
     0
281
     0
  0
CLASS
  1
AMGOBJPROPCFG
  2
AmgObjPropCfg
  3
"AmgLay|Product Description: AutoCAD Mechanical 2000|Company: Autodesk"
 90
        1
280
     0
281
     0
  0
CLASS
  1
ACAMGFILTERDAT
  2
AcAmgFilterDat
  3
"AcadM|Product Description: AutoCAD Mechanical 2000|Company: Autodesk"
 90
        0
280
     0
281
     0
  0
CLASS
  1
LAYER_INDEX
  2
AcDbLayerIndex
  3
AutoCAD 2000
 90
        0
280
     0
281
     0
  0
CLASS
  1
IDBUFFER
  2
AcDbIdBuffer
  3
AutoCAD 2000
 90
        0
280
     0
281
     0
  0
CLASS
  1
ACIMSTRSYSVAR
  2
AcImStrSysVar
  3
AcMeServices
 90
        0
280
     0
281
     0
  0
CLASS
  1
ACMSTANDARDJIS
  2
AcmStandardJIS
  3
"AcmSymBB|Product Description: AutoCAD Mechanical 2000|Company: Autodesk"
 90
        0
280
     0
281
     0
  0
CLASS
  1
ACMSURFSTANDARDJIS
  2
AcmSurfTextStdJIS
  3
"AcmSymBB|Product Description: AutoCAD Mechanical 2000|Company: Autodesk"
 90
        0
280
     0
281
     0
  0
CLASS
  1
ACMFCFSTANDARDJIS
  2
AcmFCFStdJIS
  3
"AcmSymBB|Product Description: AutoCAD Mechanical 2000|Company: Autodesk"
 90
        0
280
     0
281
     0
  0
CLASS
  1
ACMWELDSTANDARDJIS
  2
AcmWeldingStdJIS
  3
"AcmSymBB|Product Description: AutoCAD Mechanical 2000|Company: Autodesk"
 90
        0
280
     0
281
     0
  0
CLASS
  1
ACMIDSTANDARDJIS
  2
AcmIdStdJIS
  3
"AcmSymBB|Product Description: AutoCAD Mechanical 2000|Company: Autodesk"
 90
        0
280
     0
281
     0
  0
CLASS
  1
ACMDATUMSTANDARDJIS
  2
AcmDatumStdJIS
  3
"AcmSymBB|Product Description: AutoCAD Mechanical 2000|Company: Autodesk"
 90
        0
280
     0
281
     0
  0
CLASS
  1
ACMBOMSTANDARDJIS
  2
AcmBOMStdJIS
  3
"AcmSymBB|Product Description: AutoCAD Mechanical 2000|Company: Autodesk"
 90
        0
280
     0
281
     0
  0
CLASS
  1
ACMSTANDARDANSI
  2
AcmStandardANSI
  3
"AcmSymBB|Product Description: AutoCAD Mechanical 2000|Company: Autodesk"
 90
        0
280
     0
281
     0
  0
CLASS
  1
ACMSURFSTANDARDANSI
  2
AcmSurfTextStdANSI
  3
"AcmSymBB|Product Description: AutoCAD Mechanical 2000|Company: Autodesk"
 90
        0
280
     0
281
     0
  0
CLASS
  1
ACMFCFSTANDARDANSI
  2
AcmFCFStdANSI
  3
"AcmSymBB|Product Description: AutoCAD Mechanical 2000|Company: Autodesk"
 90
        0
280
     0
281
     0
  0
CLASS
  1
ACMWELDSTANDARDANSI
  2
AcmWeldingStdANSI
  3
"AcmSymBB|Product Description: AutoCAD Mechanical 2000|Company: Autodesk"
 90
        0
280
     0
281
     0
  0
CLASS
  1
ACMIDSTANDARDANSI
  2
AcmIdStdANSI
  3
"AcmSymBB|Product Description: AutoCAD Mechanical 2000|Company: Autodesk"
 90
        0
280
     0
281
     0
  0
CLASS
  1
ACMDATUMSTANDARDANSI
  2
AcmDatumStdANSI
  3
"AcmSymBB|Product Description: AutoCAD Mechanical 2000|Company: Autodesk"
 90
        0
280
     0
281
     0
  0
CLASS
  1
ACMBOMSTANDARDANSI
  2
AcmBOMStdANSI
  3
"AcmSymBB|Product Description: AutoCAD Mechanical 2000|Company: Autodesk"
 90
        0
280
     0
281
     0
  0
CLASS
  1
ACMSTANDARDBSI
  2
AcmStandardBSI
  3
"AcmSymBB|Product Description: AutoCAD Mechanical 2000|Company: Autodesk"
 90
        0
280
     0
281
     0
  0
CLASS
  1
ACMSURFSTANDARDBSI
  2
AcmSurfTextStdBSI
  3
"AcmSymBB|Product Description: AutoCAD Mechanical 2000|Company: Autodesk"
 90
        0
280
     0
281
     0
  0
CLASS
  1
ACMFCFSTANDARDBSI
  2
AcmFCFStdBSI
  3
"AcmSymBB|Product Description: AutoCAD Mechanical 2000|Company: Autodesk"
 90
        0
280
     0
281
     0
  0
CLASS
  1
ACMWELDSTANDARDBSI
  2
AcmWeldingStdBSI
  3
"AcmSymBB|Product Description: AutoCAD Mechanical 2000|Company: Autodesk"
 90
        0
280
     0
281
     0
  0
CLASS
  1
ACMIDSTANDARDBSI
  2
AcmIdStdBSI
  3
"AcmSymBB|Product Description: AutoCAD Mechanical 2000|Company: Autodesk"
 90
        0
280
     0
281
     0
  0
CLASS
  1
ACMDATUMSTANDARDBSI
  2
AcmDatumStdBSI
  3
"AcmSymBB|Product Description: AutoCAD Mechanical 2000|Company: Autodesk"
 90
        0
280
     0
281
     0
  0
CLASS
  1
ACMBOMSTANDARDBSI
  2
AcmBOMStdBSI
  3
"AcmSymBB|Product Description: AutoCAD Mechanical 2000|Company: Autodesk"
 90
        0
280
     0
281
     0
  0
CLASS
  1
LONG_TRANSACTION
  2
AcDbLongTransaction
  3
AutoCAD 2000
 90
        0
280
     0
281
     0
  0
CLASS
  1
LWPOLYLINE
  2
AcDbPolyline
  3
AutoCAD 2000
 90
        0
280
     0
281
     1
  0
CLASS
  1
HATCH
  2
AcDbHatch
  3
AutoCAD 2000
 90
        0
280
     0
281
     1
  0
CLASS
  1
XRECORD
  2
AcDbXrecord
  3
AutoCAD 2000
 90
        0
280
     0
281
     0
  0
ENDSEC
  0
SECTION
  2
TABLES
  0
TABLE
  2
VPORT
  5
8
330
0
100
AcDbSymbolTable
 70
     3
  0
VPORT
  5
42EC
330
8
100
AcDbSymbolTableRecord
100
AcDbViewportTableRecord
  2
*ACTIVE
 70
     0
 10
0.0
 20
0.0
 11
1.0
 21
1.0
 12
-29.34537835221867
 22
-8.544468709677332
 13
0.0
 23
0.0
 14
2.5
 24
2.5
 15
10.0
 25
10.0
 16
0.0
 26
0.0
 36
1.0
 17
0.0
 27
0.0
 37
0.0
 40
116.1860310845972
 41
1.56570841889117
 42
50.0
 43
0.0
 44
0.0
 50
0.0
 51
0.0
 71
     0
 72
   100
 73
     1
 74
     3
 75
     0
 76
     0
 77
     0
 78
     0
  0
ENDTAB
  0
TABLE
  2
LTYPE
  5
5
330
0
100
AcDbSymbolTable
 70
    10
  0
LTYPE
  5
14
330
5
100
AcDbSymbolTableRecord
100
AcDbLinetypeTableRecord
  2
BYBLOCK
 70
     0
  3

 72
    65
 73
     0
 40
0.0
  0
LTYPE
  5
15
330
5
100
AcDbSymbolTableRecord
100
AcDbLinetypeTableRecord
  2
BYLAYER
 70
     0
  3

 72
    65
 73
     0
 40
0.0
  0
LTYPE
  5
16
330
5
100
AcDbSymbolTableRecord
100
AcDbLinetypeTableRecord
  2
CONTINUOUS
 70
     0
  3
Solid line
 72
    65
 73
     0
 40
0.0
  0
LTYPE
  5
4B
330
5
100
AcDbSymbolTableRecord
100
AcDbLinetypeTableRecord
  2
AM_ISO02W050
 70
     0
  3
__ __ __ __ __ __ __ __ __ __ __ __ __ __ __
 72
    65
 73
     2
 40
7.5
 49
6.0
 74
     0
 49
-1.5
 74
     0
  0
LTYPE
  5
4C
330
5
100
AcDbSymbolTableRecord
100
AcDbLinetypeTableRecord
  2
AM_ISO08W050
 70
     0
  3
____ . ____ . ____ . ____ . ____ . ____ . ____
 72
    65
 73
     4
 40
18.0
 49
12.0
 74
     0
 49
-1.5
 74
     0
 49
3.0
 74
     0
 49
-1.5
 74
     0
  0
LTYPE
  5
4D
330
5
100
AcDbSymbolTableRecord
100
AcDbLinetypeTableRecord
  2
AM_ISO09W050
 70
     0
  3
_____ . . _____ . . _____ . . ____ .. ____
 72
    65
 73
     6
 40
22.5
 49
12.0
 74
     0
 49
-1.5
 74
     0
 49
3.0
 74
     0
 49
-1.5
 74
     0
 49
3.0
 74
     0
 49
-1.5
 74
     0
  0
LTYPE
  5
4E
330
5
100
AcDbSymbolTableRecord
100
AcDbLinetypeTableRecord
  2
AMCONSTR
 70
     0
  3
_______________________
 72
    65
 73
     2
 40
9999.0
 49
9999.0
 74
     0
 49
0.0
 74
     0
  0
LTYPE
  5
4F
330
5
100
AcDbSymbolTableRecord
100
AcDbLinetypeTableRecord
  2
AM_ISO02W050X2
 70
     0
  3
 _ _ _ _ _ _ _ _ _ _ _ _
 72
    65
 73
     2
 40
3.75
 49
3.0
 74
     0
 49
-0.75
 74
     0
  0
LTYPE
  5
50
330
5
100
AcDbSymbolTableRecord
100
AcDbLinetypeTableRecord
  2
AM_ISO08W050X2
 70
     0
  3
__ . __ . __ . __ . __ . __
 72
    65
 73
     4
 40
9.0
 49
6.0
 74
     0
 49
-0.75
 74
     0
 49
1.5
 74
     0
 49
-0.75
 74
     0
  0
LTYPE
  5
53
330
5
100
AcDbSymbolTableRecord
100
AcDbLinetypeTableRecord
  2
AMZIGZAG
 70
     0
  3
/\/-/\/-/\/-/\/-/\/-/\/
 72
    65
 73
     2
 40
11.00009999999999
 49
0.0001
 74
     4
 75
   135
340
52
 46
0.04
 50
0.0
 44
0.0
 45
0.0
 49
-11.0
 74
     0
  0
LTYPE
  5
166
330
5
100
AcDbSymbolTableRecord
100
AcDbLinetypeTableRecord
  2
ACJISTGL
 70
     0
  3
_ _ _ _ _
 72
    65
 73
     2
 40
3.0
 49
2.0
 74
     0
 49
-1.0
 74
     0
  0
LTYPE
  5
26A
330
5
100
AcDbSymbolTableRecord
100
AcDbLinetypeTableRecord
  2
ACJISTGB
 70
     0
  3
__ . . __ . .
 72
    65
 73
     6
 40
9.0
 49
4.0
 74
     0
 49
-1.0
 74
     0
 49
1.0
 74
     0
 49
-1.0
 74
     0
 49
1.0
 74
     0
 49
-1.0
 74
     0
  0
ENDTAB
  0
TABLE
  2
LAYER
  5
2
330
0
100
AcDbSymbolTable
 70
     7
  0
LAYER
  5
10
330
2
100
AcDbSymbolTableRecord
100
AcDbLayerTableRecord
  2
0
 70
     0
 62
     7
  6
CONTINUOUS
  0
LAYER
  5
3F9
330
2
100
AcDbSymbolTableRecord
100
AcDbLayerTableRecord
  2
AM_0
 70
     0
 62
     7
  6
CONTINUOUS
  0
LAYER
  5
BDD
330
2
100
AcDbSymbolTableRecord
100
AcDbLayerTableRecord
  2
AM_11
 70
     0
 62
     3
  6
AM_ISO09W050
  0
LAYER
  5
BDE
330
2
100
AcDbSymbolTableRecord
100
AcDbLayerTableRecord
  2
AM_7
 70
     0
 62
     4
  6
AM_ISO08W050
  0
LAYER
  5
BDF
330
2
100
AcDbSymbolTableRecord
100
AcDbLayerTableRecord
  2
AM_5
 70
     0
 62
     3
  6
CONTINUOUS
  0
LAYER
  5
BE0
330
2
100
AcDbSymbolTableRecord
100
AcDbLayerTableRecord
  2
DEFPOINTS
 70
     0
 62
     7
  6
CONTINUOUS
  0
LAYER
  5
14FF
330
2
100
AcDbSymbolTableRecord
100
AcDbLayerTableRecord
  2
AM_6
 70
     0
 62
     2
  6
CONTINUOUS
  0
ENDTAB
  0
TABLE
  2
STYLE
  5
3
330
0
100
AcDbSymbolTable
 70
     5
  0
STYLE
  5
11
330
3
100
AcDbSymbolTableRecord
100
AcDbTextStyleTableRecord
  2
STANDARD
 70
     0
 40
0.0
 41
1.0
 50
0.0
 71
     0
 42
2.5
  3
simplex.shx
  4
EXTFONT.SHX
  0
STYLE
  5
52
330
3
100
AcDbSymbolTableRecord
100
AcDbTextStyleTableRecord
  2

 70
     1
 40
0.0
 41
1.0
 50
0.0
 71
     0
 42
2.5
  3
ltypeshp.shx
  4

  0
STYLE
  5
6B
330
3
100
AcDbSymbolTableRecord
100
AcDbTextStyleTableRecord
  2
ASAMI
 70
     0
 40
0.0
 41
1.0
 50
0.0
 71
     0
 42
2.5
  3
simplex.shx
  4
EXTFONT.SHX
  0
STYLE
  5
262
330
3
100
AcDbSymbolTableRecord
100
AcDbTextStyleTableRecord
  2
ACJISTS
 70
     0
 40
1.0
 41
1.0
 50
0.0
 71
     0
 42
2.5
  3
simplex.shx
  4
bigfont.shx
  0
STYLE
  5
269
330
3
100
AcDbSymbolTableRecord
100
AcDbTextStyleTableRecord
  2
ACJISGDT
 70
     0
 40
0.0
 41
1.0
 50
0.0
 71
     0
 42
2.5
  3
amgdtans.shx
  4

  0
ENDTAB
  0
TABLE
  2
VIEW
  5
6
330
0
100
AcDbSymbolTable
 70
     0
  0
ENDTAB
  0
TABLE
  2
UCS
  5
7
330
0
100
AcDbSymbolTable
 70
     0
  0
ENDTAB
  0
TABLE
  2
APPID
  5
9
330
0
100
AcDbSymbolTable
 70
    14
  0
APPID
  5
12
330
9
100
AcDbSymbolTableRecord
100
AcDbRegAppTableRecord
  2
ACAD
 70
     0
  0
APPID
  5
30
330
9
100
AcDbSymbolTableRecord
100
AcDbRegAppTableRecord
  2
MCAD_NO_VIS
 70
     0
  0
APPID
  5
31
330
9
100
AcDbSymbolTableRecord
100
AcDbRegAppTableRecord
  2
ACAD_TEMP_GRAPHIC
 70
     0
  0
APPID
  5
2C2
330
9
100
AcDbSymbolTableRecord
100
AcDbRegAppTableRecord
  2
GENIUS_GENDTOL_13
 70
     0
  0
APPID
  5
339
330
9
100
AcDbSymbolTableRecord
100
AcDbRegAppTableRecord
  2
GENIUS_GENODEF_13
 70
     0
  0
APPID
  5
33A
330
9
100
AcDbSymbolTableRecord
100
AcDbRegAppTableRecord
  2
GENIUS_GENOBJ-N-RSBK_13
 70
     0
  0
APPID
  5
33B
330
9
100
AcDbSymbolTableRecord
100
AcDbRegAppTableRecord
  2
GENIUS_GENOBJ-N-LIB_13
 70
     0
  0
APPID
  5
33C
330
9
100
AcDbSymbolTableRecord
100
AcDbRegAppTableRecord
  2
GENIUS_GENSCALE_13
 70
     0
  0
APPID
  5
378
330
9
100
AcDbSymbolTableRecord
100
AcDbRegAppTableRecord
  2
GENIUS_GENDIMSH_14
 70
     0
  0
APPID
  5
BE1
330
9
100
AcDbSymbolTableRecord
100
AcDbRegAppTableRecord
  2
GENIUS_GENFIL_13
 70
     0
  0
APPID
  5
BE2
330
9
100
AcDbSymbolTableRecord
100
AcDbRegAppTableRecord
  2
GENIUS_GENOBJ-N-CHA_13
 70
     0
  0
APPID
  5
151B
330
9
100
AcDbSymbolTableRecord
100
AcDbRegAppTableRecord
  2
DCO15
 70
     0
  0
APPID
  5
1860
330
9
100
AcDbSymbolTableRecord
100
AcDbRegAppTableRecord
  2
GENIUS_GENOBJ-N-CEN_13
 70
     0
  0
APPID
  5
359C
330
9
100
AcDbSymbolTableRecord
100
AcDbRegAppTableRecord
  2
GENIUS_GENOBJ-N-FIL_13
 70
     0
  0
ENDTAB
  0
TABLE
  2
DIMSTYLE
  5
A
330
0
100
AcDbSymbolTable
 70
     8
  0
DIMSTYLE
105
58
102
{ACAD_REACTORS
330
3CAC
330
3D34
330
3E27
330
413C
102
}
330
A
100
AcDbSymbolTableRecord
100
AcDbDimStyleTableRecord
  2
AM_JIS
 70
     0
  3

  4
"
  5
OPEN30
  6

  7

 40
0.5
 41
2.5
 42
1.0
 43
12.0
 44
1.0
 45
0.0
 46
0.0
 47
0.1
 48
0.1
140
3.2
141
0.0
142
0.0
143
0.0393701
144
1.0
145
0.0
146
0.71
147
1.5
 71
     0
 72
     0
 73
     0
 74
     0
 75
     0
 76
     0
 77
     3
 78
     8
170
     0
171
     2
172
     1
173
     0
174
     0
175
     0
176
   256
177
   256
178
     2
270
     2
271
     3
272
     3
273
     2
274
     2
340
6B
275
     0
280
     0
281
     0
282
     0
283
     0
284
     0
285
     0
286
     0
287
     3
288
     0
  0
DIMSTYLE
105
5F
330
A
100
AcDbSymbolTableRecord
100
AcDbDimStyleTableRecord
  2
AM_JIS$3
 70
     0
  3

  4
"
  5
OPEN30
  6

  7

 40
0.5
 41
2.5
 42
1.0
 43
10.0
 44
1.0
 45
0.0
 46
0.0
 47
0.1
 48
0.1
140
3.2
141
0.0
142
0.0
143
0.0393701
144
1.0
145
0.0
146
0.71
147
1.5
 71
     0
 72
     0
 73
     0
 74
     1
 75
     0
 76
     0
 77
     3
 78
     8
170
     0
171
     2
172
     0
173
     0
174
     0
175
     0
176
   256
177
   256
178
     2
270
     2
271
     2
272
     3
273
     2
274
     2
340
6B
275
     0
280
     0
281
     0
282
     0
283
     0
284
     0
285
     0
286
     0
287
     0
288
     1
  0
DIMSTYLE
105
60
330
A
100
AcDbSymbolTableRecord
100
AcDbDimStyleTableRecord
  2
AM_JIS$4
 70
     0
  3

  4
"
  5
OPEN30
  6

  7

 40
0.5
 41
2.5
 42
1.0
 43
10.0
 44
1.0
 45
0.0
 46
0.0
 47
0.1
 48
0.1
140
3.2
141
0.0
142
0.0
143
0.0393701
144
1.0
145
0.0
146
0.71
147
1.5
 71
     0
 72
     0
 73
     0
 74
     1
 75
     0
 76
     0
 77
     3
 78
     8
170
     0
171
     2
172
     0
173
     0
174
     0
175
     0
176
   256
177
   256
178
     2
270
     2
271
     2
272
     3
273
     2
274
     2
340
6B
275
     0
280
     0
281
     0
282
     0
283
     0
284
     0
285
     0
286
     0
287
     0
288
     1
  0
DIMSTYLE
105
61
330
A
100
AcDbSymbolTableRecord
100
AcDbDimStyleTableRecord
  2
AM_JIS$6
 70
     0
  3

  4
"
  5
OPEN30
  6

  7

 40
0.5
 41
2.5
 42
1.0
 43
10.0
 44
1.0
 45
0.0
 46
0.0
 47
0.1
 48
0.1
140
3.2
141
0.0
142
0.0
143
0.0393701
144
1.0
145
0.0
146
0.71
147
1.5
 71
     0
 72
     0
 73
     0
 74
     0
 75
     0
 76
     0
 77
     0
 78
     8
170
     0
171
     2
172
     1
173
     0
174
     0
175
     0
176
   256
177
   256
178
     2
270
     2
271
     2
272
     2
273
     2
274
     2
340
6B
275
     0
280
     0
281
     0
282
     0
283
     0
284
     0
285
     0
286
     0
287
     3
288
     0
  0
DIMSTYLE
105
62
330
A
100
AcDbSymbolTableRecord
100
AcDbDimStyleTableRecord
  2
AM_JIS$7
 70
     0
  3

  4
"
  5
OPEN30
  6

  7

 40
0.5
 41
2.5
 42
1.0
 43
10.0
 44
1.0
 45
0.0
 46
0.0
 47
0.1
 48
0.1
140
3.2
141
0.0
142
0.0
143
0.0393701
144
1.0
145
0.0
146
0.71
147
1.5
 71
     0
 72
     0
 73
     0
 74
     0
 75
     0
 76
     0
 77
     3
 78
     8
170
     0
171
     2
172
     1
173
     0
174
     0
175
     0
176
   256
177
   256
178
     2
270
     2
271
     2
272
     3
273
     2
274
     2
340
6B
275
     0
280
     0
281
     0
282
     0
283
     0
284
     0
285
     0
286
     0
287
     3
288
     0
  0
DIMSTYLE
105
63
330
A
100
AcDbSymbolTableRecord
100
AcDbDimStyleTableRecord
  2
AM_JIS$SF
 70
     0
  3

  4
"
  5
OPEN30
  6

  7

 40
0.5
 41
2.5
 42
1.0
 43
10.0
 44
1.0
 45
0.0
 46
0.0
 47
0.1
 48
0.1
140
3.2
141
0.0
142
0.0
143
0.0393701
144
1.0
145
0.0
146
0.71
147
1.5
 71
     0
 72
     0
 73
     0
 74
     0
 75
     1
 76
     1
 77
     3
 78
     8
170
     0
171
     2
172
     1
173
     0
174
     0
175
     0
176
   256
177
   256
178
     2
270
     2
271
     2
272
     2
273
     2
274
     2
340
6B
275
     0
280
     0
281
     0
282
     0
283
     0
284
     0
285
     0
286
     0
287
     3
288
     0
  0
DIMSTYLE
105
68
330
A
100
AcDbSymbolTableRecord
100
AcDbDimStyleTableRecord
  2
AM_JIS$SH
 70
     0
  3

  4
"
  5

  6
GENAXEH
  7
OPEN30
 40
0.5
 41
2.5
 42
1.0
 43
10.0
 44
1.0
 45
0.0
 46
0.0
 47
0.1
 48
0.1
140
3.2
141
0.0
142
0.0
143
0.0393701
144
2.0
145
0.0
146
0.71
147
1.5
 71
     0
 72
     0
 73
     0
 74
     0
 75
     1
 76
     1
 77
     3
 78
     8
170
     0
171
     2
172
     1
173
     1
174
     0
175
     0
176
   256
177
   256
178
     2
270
     2
271
     2
272
     2
273
     2
274
     2
340
6B
275
     0
280
     0
281
     0
282
     0
283
     0
284
     0
285
     0
286
     0
287
     3
288
     0
  0
DIMSTYLE
105
B34
330
A
100
AcDbSymbolTableRecord
100
AcDbDimStyleTableRecord
  2
AM_JIS$2
 70
     0
  3

  4
"
  5
OPEN30
  6

  7

 40
0.5
 41
2.5
 42
1.0
 43
12.0
 44
1.0
 45
0.0
 46
0.0
 47
0.1
 48
0.1
140
3.2
141
0.0
142
0.0
143
0.0393701
144
1.0
145
0.0
146
0.71
147
1.5
 71
     0
 72
     0
 73
     0
 74
     0
 75
     0
 76
     0
 77
     3
 78
     8
170
     0
171
     2
172
     1
173
     0
174
     0
175
     0
176
   256
177
   256
178
     2
270
     2
271
     3
272
     3
273
     2
274
     2
340
6B
275
     0
280
     0
281
     0
282
     0
283
     0
284
     0
285
     0
286
     0
287
     3
288
     0
  0
ENDTAB
  0
TABLE
  2
BLOCK_RECORD
  5
1
330
0
100
AcDbSymbolTable
 70
     9
  0
BLOCK_RECORD
  5
1F
102
{ACAD_XDICTIONARY
360
74
102
}
330
1
100
AcDbSymbolTableRecord
100
AcDbBlockTableRecord
  2
*MODEL_SPACE
  0
BLOCK_RECORD
  5
101
102
{ACAD_XDICTIONARY
360
4315
102
}
330
1
100
AcDbSymbolTableRecord
100
AcDbBlockTableRecord
  2
*PAPER_SPACE
  0
BLOCK_RECORD
  5
59
330
1
100
AcDbSymbolTableRecord
100
AcDbBlockTableRecord
  2
_OPEN30
  0
BLOCK_RECORD
  5
64
330
1
100
AcDbSymbolTableRecord
100
AcDbBlockTableRecord
  2
GENAXEH
  0
BLOCK_RECORD
  5
3CAD
330
1
100
AcDbSymbolTableRecord
100
AcDbBlockTableRecord
  2
*D5
  0
BLOCK_RECORD
  5
3D35
330
1
100
AcDbSymbolTableRecord
100
AcDbBlockTableRecord
  2
*D6
  0
BLOCK_RECORD
  5
3E28
330
1
100
AcDbSymbolTableRecord
100
AcDbBlockTableRecord
  2
*D7
  0
BLOCK_RECORD
  5
413D
330
1
100
AcDbSymbolTableRecord
100
AcDbBlockTableRecord
  2
*D8
  0
ENDTAB
  0
ENDSEC
  0
SECTION
  2
BLOCKS
  0
BLOCK
  5
20
330
1F
100
AcDbEntity
  8
0
100
AcDbBlockBegin
  2
*MODEL_SPACE
 70
     0
 10
0.0
 20
0.0
 30
0.0
  3
*MODEL_SPACE
  1

  0
ENDBLK
  5
21
330
1F
100
AcDbEntity
  8
0
100
AcDbBlockEnd
  0
BLOCK
  5
103
330
101
100
AcDbEntity
 67
     1
  8
0
100
AcDbBlockBegin
  2
*PAPER_SPACE
 70
     0
 10
0.0
 20
0.0
 30
0.0
  3
*PAPER_SPACE
  1

  0
ENDBLK
  5
104
330
101
100
AcDbEntity
 67
     1
  8
0
100
AcDbBlockEnd
  0
BLOCK
  5
5D
330
59
100
AcDbEntity
  8
0
100
AcDbBlockBegin
  2
_OPEN30
 70
     0
 10
0.0
 20
0.0
 30
0.0
  3
_OPEN30
  1

  0
LINE
  5
5A
330
59
100
AcDbEntity
  8
0
 62
     0
100
AcDbLine
 10
-1.0
 20
0.26794919
 30
0.0
 11
0.0
 21
0.0
 31
0.0
  0
LINE
  5
5B
330
59
100
AcDbEntity
  8
0
 62
     0
100
AcDbLine
 10
0.0
 20
0.0
 30
0.0
 11
-1.0
 21
-0.26794919
 31
0.0
  0
LINE
  5
5C
330
59
100
AcDbEntity
  8
0
 62
     0
100
AcDbLine
 10
0.0
 20
0.0
 30
0.0
 11
-1.0
 21
0.0
 31
0.0
  0
ENDBLK
  5
5E
330
59
100
AcDbEntity
  8
0
100
AcDbBlockEnd
  0
BLOCK
  5
66
330
64
100
AcDbEntity
  8
0
100
AcDbBlockBegin
  2
GENAXEH
 70
     0
 10
0.0
 20
0.0
 30
0.0
  3
GENAXEH
  1

  0
LINE
  5
65
330
64
100
AcDbEntity
  8
0
100
AcDbLine
 10
-1.0
 20
0.0
 30
0.0
 11
1.0
 21
0.0
 31
0.0
  0
ENDBLK
  5
67
330
64
100
AcDbEntity
  8
0
100
AcDbBlockEnd
  0
BLOCK
  5
3CB7
330
3CAD
100
AcDbEntity
  8
0
100
AcDbBlockBegin
  2
*D5
 70
     1
 10
0.0
 20
0.0
 30
0.0
  3
*D5
  1

  0
LINE
  5
4202
330
3CAD
100
AcDbEntity
  8
AM_5
100
AcDbLine
 10
-0.0000000000000001
 20
-6.49999999999999
 30
0.0
 11
-0.0000000000000009
 21
-19.50000100000013
 31
0.0
  0
LINE
  5
4203
330
3CAD
100
AcDbEntity
  8
AM_5
100
AcDbLine
 10
-74.99999999999996
 20
-5.750000000000043
 30
0.0
 11
-74.99999999999996
 21
-19.50000100000013
 31
0.0
  0
LINE
  5
4204
330
3CAD
100
AcDbEntity
  8
AM_5
100
AcDbLine
 10
-1.25
 20
-19.00000100000013
 30
0.0
 11
-73.74999999999996
 21
-19.00000100000013
 31
0.0
  0
INSERT
  5
4205
330
3CAD
100
AcDbEntity
  8
AM_5
100
AcDbBlockReference
  2
_OPEN30
 10
-0.0000000000000009
 20
-19.00000100000013
 30
0.0
 41
1.25
 42
1.25
 43
1.25
  0
INSERT
  5
4206
330
3CAD
100
AcDbEntity
  8
AM_5
100
AcDbBlockReference
  2
_OPEN30
 10
-74.99999999999996
 20
-19.00000100000013
 30
0.0
 41
1.25
 42
1.25
 43
1.25
 50
180.0
  0
MTEXT
  5
4207
330
3CAD
100
AcDbEntity
  8
AM_5
 62
     2
100
AcDbMText
 10
-37.49999999999998
 20
-17.45000100000013
 30
0.0
 40
1.6
 41
0.0
 71
     5
 72
     1
  1
75
  7
ASAMI
1001
ACAD
1000
MTEXTBEGIN
1070
    73
1070
     1
1070
    44
1040
1.0
1070
    74
1070
     0
1000
MTEXTEND
  0
POINT
  5
4208
330
3CAD
100
AcDbEntity
  8
DEFPOINTS
 62
     0
100
AcDbPoint
 10
-0.0000000000000001
 20
-5.99999999999999
 30
0.0
  0
POINT
  5
4209
330
3CAD
100
AcDbEntity
  8
DEFPOINTS
 62
     0
100
AcDbPoint
 10
-74.99999999999996
 20
-5.250000000000043
 30
0.0
  0
POINT
  5
420A
330
3CAD
100
AcDbEntity
  8
DEFPOINTS
 62
     0
100
AcDbPoint
 10
-74.99999999999996
 20
-19.00000100000013
 30
0.0
  0
ENDBLK
  5
3CB8
330
3CAD
100
AcDbEntity
  8
0
100
AcDbBlockEnd
  0
BLOCK
  5
3D3F
330
3D35
100
AcDbEntity
  8
0
100
AcDbBlockBegin
  2
*D6
 70
     1
 10
0.0
 20
0.0
 30
0.0
  3
*D6
  1

  0
LINE
  5
41F9
330
3D35
100
AcDbEntity
  8
AM_5
100
AcDbLine
 10
-0.0000000000000001
 20
-6.49999999999999
 30
0.0
 11
-0.0000000000000005
 21
-13.50000100000005
 31
0.0
  0
LINE
  5
41FA
330
3D35
100
AcDbEntity
  8
AM_5
100
AcDbLine
 10
-30.0
 20
-6.499999999999991
 30
0.0
 11
-30.0
 21
-13.50000100000005
 31
0.0
  0
LINE
  5
41FB
330
3D35
100
AcDbEntity
  8
AM_5
100
AcDbLine
 10
-1.25
 20
-13.00000100000004
 30
0.0
 11
-28.75
 21
-13.00000100000004
 31
0.0
  0
INSERT
  5
41FC
330
3D35
100
AcDbEntity
  8
AM_5
100
AcDbBlockReference
  2
_OPEN30
 10
-0.0000000000000005
 20
-13.00000100000004
 30
0.0
 41
1.25
 42
1.25
 43
1.25
  0
INSERT
  5
41FD
330
3D35
100
AcDbEntity
  8
AM_5
100
AcDbBlockReference
  2
_OPEN30
 10
-30.0
 20
-13.00000100000004
 30
0.0
 41
1.25
 42
1.25
 43
1.25
 50
180.0
  0
MTEXT
  5
41FE
330
3D35
100
AcDbEntity
  8
AM_5
 62
     2
100
AcDbMText
 10
-15.0
 20
-11.45000100000004
 30
0.0
 40
1.6
 41
0.0
 71
     5
 72
     1
  1
30
  7
ASAMI
1001
ACAD
1000
MTEXTBEGIN
1070
    73
1070
     1
1070
    44
1040
1.0
1070
    74
1070
     0
1000
MTEXTEND
  0
POINT
  5
41FF
330
3D35
100
AcDbEntity
  8
DEFPOINTS
 62
     0
100
AcDbPoint
 10
-0.0000000000000001
 20
-5.99999999999999
 30
0.0
  0
POINT
  5
4200
330
3D35
100
AcDbEntity
  8
DEFPOINTS
 62
     0
100
AcDbPoint
 10
-30.0
 20
-5.999999999999991
 30
0.0
  0
POINT
  5
4201
330
3D35
100
AcDbEntity
  8
DEFPOINTS
 62
     0
100
AcDbPoint
 10
-30.0
 20
-13.00000100000004
 30
0.0
  0
ENDBLK
  5
3D40
330
3D35
100
AcDbEntity
  8
0
100
AcDbBlockEnd
  0
BLOCK
  5
3E32
330
3E28
100
AcDbEntity
  8
0
100
AcDbBlockBegin
  2
*D7
 70
     1
 10
0.0
 20
0.0
 30
0.0
  3
*D7
  1

  0
LINE
  5
4194
330
3E28
100
AcDbEntity
  8
AM_5
100
AcDbLine
 10
0.5
 20
6.000000000000007
 30
0.0
 11
12.05776903085518
 21
6.000000000000004
 31
0.0
  0
LINE
  5
4195
330
3E28
100
AcDbEntity
  8
AM_5
100
AcDbLine
 10
0.5000000000000086
 20
-5.99999999999999
 30
0.0
 11
12.05776903085517
 21
-5.999999999999993
 31
0.0
  0
LINE
  5
4196
330
3E28
100
AcDbEntity
  8
AM_5
100
AcDbLine
 10
11.55776903085518
 20
4.750000000000004
 30
0.0
 11
11.55776903085517
 21
-4.749999999999993
 31
0.0
  0
INSERT
  5
4197
330
3E28
100
AcDbEntity
  8
AM_5
100
AcDbBlockReference
  2
_OPEN30
 10
11.55776903085518
 20
6.000000000000004
 30
0.0
 41
1.25
 42
1.25
 43
1.25
 50
90.0
  0
INSERT
  5
4198
330
3E28
100
AcDbEntity
  8
AM_5
100
AcDbBlockReference
  2
_OPEN30
 10
11.55776903085517
 20
-5.999999999999993
 30
0.0
 41
1.25
 42
1.25
 43
1.25
 50
270.0
  0
MTEXT
  5
4199
330
3E28
100
AcDbEntity
  8
AM_5
 62
     2
100
AcDbMText
 10
10.00776903085518
 20
0.0000000000000075
 30
0.0
 40
1.6
 41
0.0
 71
     5
 72
     1
  1
%%c12
  7
ASAMI
 11
0.0000000000000001
 21
1.0
 31
0.0
1001
ACAD
1000
MTEXTBEGIN
1070
    73
1070
     1
1070
    44
1040
1.0
1070
    74
1070
     0
1000
MTEXTEND
  0
POINT
  5
419A
330
3E28
100
AcDbEntity
  8
DEFPOINTS
 62
     0
100
AcDbPoint
 10
0.0
 20
6.000000000000007
 30
0.0
  0
POINT
  5
419B
330
3E28
100
AcDbEntity
  8
DEFPOINTS
 62
     0
100
AcDbPoint
 10
0.0000000000000085
 20
-5.99999999999999
 30
0.0
  0
POINT
  5
419C
330
3E28
100
AcDbEntity
  8
DEFPOINTS
 62
     0
100
AcDbPoint
 10
11.55776903085517
 20
-5.999999999999993
 30
0.0
  0
ENDBLK
  5
3E33
330
3E28
100
AcDbEntity
  8
0
100
AcDbBlockEnd
  0
BLOCK
  5
4147
330
413D
100
AcDbEntity
  8
0
100
AcDbBlockBegin
  2
*D8
 70
     1
 10
0.0
 20
0.0
 30
0.0
  3
*D8
  1

  0
LINE
  5
4182
330
413D
100
AcDbEntity
  8
AM_5
100
AcDbLine
 10
-74.75000000000001
 20
5.999999999999984
 30
0.0
 11
-85.19470045058476
 21
5.999999999999987
 31
0.0
  0
LINE
  5
4183
330
413D
100
AcDbEntity
  8
AM_5
100
AcDbLine
 10
-74.74999999999996
 20
-6.000000000000042
 30
0.0
 11
-85.19470045058476
 21
-6.000000000000039
 31
0.0
  0
LINE
  5
4184
330
413D
100
AcDbEntity
  8
AM_5
100
AcDbLine
 10
-84.69470045058477
 20
4.749999999999987
 30
0.0
 11
-84.69470045058477
 21
-4.750000000000039
 31
0.0
  0
INSERT
  5
4185
330
413D
100
AcDbEntity
  8
AM_5
100
AcDbBlockReference
  2
_OPEN30
 10
-84.69470045058477
 20
5.999999999999987
 30
0.0
 41
1.25
 42
1.25
 43
1.25
 50
90.0
  0
INSERT
  5
4186
330
413D
100
AcDbEntity
  8
AM_5
100
AcDbBlockReference
  2
_OPEN30
 10
-84.69470045058477
 20
-6.000000000000039
 30
0.0
 41
1.25
 42
1.25
 43
1.25
 50
270.0
  0
MTEXT
  5
4187
330
413D
100
AcDbEntity
  8
AM_5
 62
     2
100
AcDbMText
 10
-86.24470045058476
 20
-0.0000000000000395
 30
0.0
 40
1.6
 41
0.0
 71
     5
 72
     1
  1
%%c12
  7
ASAMI
 11
0.0000000000000001
 21
1.0
 31
0.0
1001
ACAD
1000
MTEXTBEGIN
1070
    73
1070
     1
1070
    44
1040
1.0
1070
    74
1070
     0
1000
MTEXTEND
  0
POINT
  5
4188
330
413D
100
AcDbEntity
  8
DEFPOINTS
 62
     0
100
AcDbPoint
 10
-74.25000000000001
 20
5.999999999999984
 30
0.0
  0
POINT
  5
4189
330
413D
100
AcDbEntity
  8
DEFPOINTS
 62
     0
100
AcDbPoint
 10
-74.24999999999996
 20
-6.000000000000042
 30
0.0
  0
POINT
  5
418A
330
413D
100
AcDbEntity
  8
DEFPOINTS
 62
     0
100
AcDbPoint
 10
-84.69470045058477
 20
-6.000000000000039
 30
0.0
  0
ENDBLK
  5
4148
330
413D
100
AcDbEntity
  8
0
100
AcDbBlockEnd
  0
ENDSEC
  0
SECTION
  2
ENTITIES
  0
TEXT
  5
1500
330
1F
100
AcDbEntity
  8
AM_6
100
AcDbText
 10
-45.59523809523805
 20
-30.25000100000013
 30
0.0
 40
2.5
  1
HSM3120
 72
     4
 11
-37.49999999999996
 21
-29.00000100000013
 31
0.0
100
AcDbText
  0
LINE
  5
3B7D
330
1F
100
AcDbEntity
  8
AM_7
  6
AM_ISO08W050X2
100
AcDbLine
 10
4.557768030855186
 20
0.0
 30
0.0
 11
-77.69469945058478
 21
-0.0000000000000346
 31
0.0
1001
GENIUS_GENODEF_13
1002
{
1000
HIER
1070
     0
1002
}
1002
{
1000
MANEDIT
1070
     0
1002
}
1002
{
1000
NOSEL
1070
     0
1002
}
1002
{
1000
BEHIND
1070
     0
1002
}
1002
{
1000
REACTOR
1002
}
1001
GENIUS_GENOBJ-N-CEN_13
1002
{
1000
OWNER
1000
GEN
1002
}
  0
LINE
  5
3B7E
330
1F
100
AcDbEntity
  8
AM_11
100
AcDbLine
 10
-30.0
 20
-5.999999999999991
 30
0.0
 11
0.0
 21
-5.99999999999999
 31
0.0
  0
LINE
  5
3B80
330
1F
100
AcDbEntity
  8
AM_11
100
AcDbLine
 10
0.0
 20
6.000000000000007
 30
0.0
 11
-30.0
 21
6.000000000000007
 31
0.0
  0
LINE
  5
3C00
330
1F
100
AcDbEntity
  8
AM_11
100
AcDbLine
 10
0.0
 20
6.000000000000007
 30
0.0
 11
0.0
 21
-5.99999999999999
 31
0.0
  0
DIMENSION
  5
3CAC
330
1F
100
AcDbEntity
  8
AM_5
100
AcDbDimension
  2
*D5
 10
-74.99999999999996
 20
-19.00000100000013
 30
0.0
 11
-37.49999999999998
 21
-17.45000100000013
 31
0.0
 70
    32
  1
<>
  3
AM_JIS
100
AcDbAlignedDimension
 13
-0.0000000000000001
 23
-5.99999999999999
 33
0.0
 14
-74.99999999999996
 24
-5.250000000000043
 34
0.0
 50
0.0000000000001132
100
AcDbRotatedDimension
1001
GENIUS_GENDTOL_13
1000

1000
h7
1000

1040
0.0
  0
DIMENSION
  5
3D34
330
1F
100
AcDbEntity
  8
AM_5
100
AcDbDimension
  2
*D6
 10
-30.0
 20
-13.00000100000004
 30
0.0
 11
-15.0
 21
-11.45000100000004
 31
0.0
 70
    32
  1
<>
  3
AM_JIS
100
AcDbAlignedDimension
 13
-0.0000000000000001
 23
-5.99999999999999
 33
0.0
 14
-30.0
 24
-5.999999999999991
 34
0.0
 50
0.0000000000001132
100
AcDbRotatedDimension
1001
GENIUS_GENDTOL_13
1000

1000
h7
1000

1040
0.0
  0
DIMENSION
  5
3E27
330
1F
100
AcDbEntity
  8
AM_5
100
AcDbDimension
  2
*D7
 10
11.55776903085517
 20
-5.999999999999993
 30
0.0
 11
10.00776903085518
 21
0.0000000000000075
 31
0.0
 70
    32
  1
%%c<>
  3
AM_JIS
100
AcDbAlignedDimension
 13
0.0
 23
6.000000000000007
 33
0.0
 14
0.0000000000000085
 24
-5.99999999999999
 34
0.0
 50
90.00000000000003
100
AcDbRotatedDimension
1001
GENIUS_GENDTOL_13
1000

1000
h7
1000

1040
0.0
  0
LINE
  5
3F69
330
1F
100
AcDbEntity
  8
AM_11
100
AcDbLine
 10
-30.0
 20
6.000000000000007
 30
0.0
 11
-30.0
 21
-5.999999999999989
 31
0.0
  0
LINE
  5
4137
330
1F
100
AcDbEntity
  8
AM_0
100
AcDbLine
 10
-32.08441164673367
 20
-5.999999999999991
 30
0.0
 11
-74.24999999999996
 21
-6.000000000000042
 31
0.0
  0
LINE
  5
413A
330
1F
100
AcDbEntity
  8
AM_0
100
AcDbLine
 10
-74.25000000000001
 20
5.999999999999984
 30
0.0
 11
-74.24999999999998
 21
-6.000000000000041
 31
0.0
  0
LINE
  5
413B
330
1F
100
AcDbEntity
  8
AM_0
100
AcDbLine
 10
-75.00000000000001
 20
5.249999999999984
 30
0.0
 11
-74.99999999999996
 21
-5.250000000000043
 31
0.0
  0
DIMENSION
  5
413C
330
1F
100
AcDbEntity
  8
AM_5
100
AcDbDimension
  2
*D8
 10
-84.69470045058477
 20
-6.000000000000039
 30
0.0
 11
-86.24470045058476
 21
-0.0000000000000395
 31
0.0
 70
    32
  1
%%c<>
  3
AM_JIS
100
AcDbAlignedDimension
 13
-74.25000000000001
 23
5.999999999999984
 33
0.0
 14
-74.24999999999996
 24
-6.000000000000042
 34
0.0
 50
270.0
100
AcDbRotatedDimension
1001
GENIUS_GENDTOL_13
1000

1000
h7
1000

1040
0.0
  0
LINE
  5
4149
330
1F
100
AcDbEntity
  8
AM_0
100
AcDbLine
 10
-36.59999999998397
 20
6.000000000000005
 30
0.0
 11
-74.25000000000001
 21
5.999999999999984
 31
0.0
  0
LINE
  5
4155
330
1F
100
AcDbEntity
  8
AM_0
100
AcDbLine
 10
-75.00000000000001
 20
5.249999999999984
 30
0.0
 11
-74.25000000000001
 21
5.999999999999984
 31
0.0
1001
GENIUS_GENFIL_13
1070
     0
1040
0.75
1040
0.75
1040
20.0
1040
0.0
1002
{
1002
}
1001
GENIUS_GENODEF_13
1002
{
1000
HIER
1070
     0
1002
}
1002
{
1000
MANEDIT
1070
     0
1002
}
1002
{
1000
NOSEL
1070
     0
1002
}
1002
{
1000
BEHIND
1070
     0
1002
}
1002
{
1000
REACTOR
1002
}
1001
GENIUS_GENOBJ-N-CHA_13
1002
{
1000
OWNER
1000
GEN
1002
}
  0
LINE
  5
4158
330
1F
100
AcDbEntity
  8
AM_0
100
AcDbLine
 10
-74.99999999999996
 20
-5.250000000000043
 30
0.0
 11
-74.24999999999996
 21
-6.000000000000042
 31
0.0
1001
GENIUS_GENFIL_13
1070
     0
1040
0.75
1040
0.75
1040
20.0
1040
0.0
1002
{
1002
}
1001
GENIUS_GENODEF_13
1002
{
1000
HIER
1070
     0
1002
}
1002
{
1000
MANEDIT
1070
     0
1002
}
1002
{
1000
NOSEL
1070
     0
1002
}
1002
{
1000
BEHIND
1070
     0
1002
}
1002
{
1000
REACTOR
1002
}
1001
GENIUS_GENOBJ-N-CHA_13
1002
{
1000
OWNER
1000
GEN
1002
}
  0
SPLINE
  5
427F
330
1F
100
AcDbEntity
  8
AM_0
100
AcDbSpline
210
0.0
220
0.0
230
1.0
 70
     8
 71
     3
 72
     8
 73
     4
 74
     0
 42
0.0000000001
 43
0.0000000001
 40
0.0
 40
0.0
 40
0.0
 40
0.0
 40
2.948331486770748
 40
2.948331486770748
 40
2.948331486770748
 40
2.948331486770748
 10
-29.39999999998198
 20
6.000000000000966
 30
0.0
 10
-30.57933259469008
 20
6.000000000001648
 30
0.0
 10
-31.50199889208961
 20
5.423691145468353
 30
0.0
 10
-32.32042415302285
 20
4.477282692294636
 30
0.0
  0
SPLINE
  5
4280
330
1F
100
AcDbEntity
  8
AM_0
100
AcDbSpline
210
0.0
220
0.0
230
1.0
 70
     8
 71
     3
 72
     8
 73
     4
 74
     0
 42
0.0000000001
 43
0.0000000001
 40
0.3982504941345976
 40
0.3982504941345976
 40
0.3982504941345976
 40
0.3982504941345976
 40
6.452065446090842
 40
6.452065446090842
 40
6.452065446090842
 40
6.452065446090842
 10
-34.60771013119219
 20
5.517454347019736
 30
0.0
 10
-31.99756582269527
 20
5.206031911715228
 30
0.0
 10
-30.67498495492854
 20
2.603015955858154
 30
0.0
 10
-29.35240408716289
 20
0.0000000000009663
 30
0.0
  0
SPLINE
  5
4281
330
1F
100
AcDbEntity
  8
AM_0
100
AcDbSpline
210
0.0
220
0.0
230
1.0
 70
     8
 71
     3
 72
     8
 73
     4
 74
     0
 42
0.0000000001
 43
0.0000000001
 40
0.157854605497133
 40
0.157854605497133
 40
0.157854605497133
 40
0.157854605497133
 40
6.616360992657454
 40
6.616360992657454
 40
6.616360992657454
 40
6.616360992657454
 10
-36.59999999998397
 20
6.000000000000028
 30
0.0
 10
-32.97217469625647
 20
5.681595903924971
 30
0.0
 10
-31.62829317149752
 20
2.84079795196277
 30
0.0
 10
-30.28441164673913
 20
0.0000000000006821
 30
0.0
  0
SPLINE
  5
4282
330
1F
100
AcDbEntity
  8
AM_0
100
AcDbSpline
210
0.0
220
0.0
230
1.0
 70
     8
 71
     3
 72
     8
 73
     4
 74
     0
 42
0.0000000001
 43
0.0000000001
 40
5.042249938661838
 40
5.042249938661838
 40
5.042249938661838
 40
5.042249938661838
 40
6.726812023537159
 40
6.726812023537159
 40
6.726812023537159
 40
6.726812023537159
 10
-32.2386884906195
 20
2.206710761455582
 30
0.0
 10
-31.87847031364608
 20
1.502550164014081
 30
0.0
 10
-31.53923515681512
 20
0.751275082007453
 30
0.0
 10
-31.19999999998416
 20
0.0000000000008527
 30
0.0
  0
SPLINE
  5
4283
330
1F
100
AcDbEntity
  8
AM_0
100
AcDbSpline
210
0.0
220
0.0
230
1.0
 70
     8
 71
     3
 72
     8
 73
     4
 74
     0
 42
0.0000000001
 43
0.0000000001
 40
0.0
 40
0.0
 40
0.0
 40
0.0
 40
0.9875149967633806
 40
0.9875149967633806
 40
0.9875149967633806
 40
0.9875149967633806
 10
-18.59999999999071
 20
-5.999999999998919
 30
0.0
 10
-18.20499400128555
 20
-5.999999999998919
 30
0.0
 10
-17.83878211022073
 20
-5.935346793225505
 30
0.0
 10
-17.49713727050147
 20
-5.815531652967365
 30
0.0
  0
SPLINE
  5
4284
330
1F
100
AcDbEntity
  8
AM_0
100
AcDbSpline
210
0.0
220
0.0
230
1.0
 70
     8
 71
     3
 72
     8
 73
     4
 74
     0
 42
0.0000000001
 43
0.0000000001
 40
0.0
 40
0.0
 40
0.0
 40
0.0
 40
1.274172826456642
 40
1.274172826456642
 40
1.274172826456642
 40
1.274172826456642
 10
-17.68441164674567
 20
-5.820461769534176
 30
0.0
 10
-17.17474251616312
 20
-5.820461769534176
 30
0.0
 10
-16.71216670371704
 20
-5.712530884567854
 30
0.0
 10
-16.28761502071847
 20
-5.517454347017803
 30
0.0
  0
SPLINE
  5
4285
330
1F
100
AcDbEntity
  8
AM_0
100
AcDbSpline
210
0.0
220
0.0
230
1.0
 70
     8
 71
     3
 72
     8
 73
     4
 74
     0
 42
0.0000000001
 43
0.0000000001
 40
0.0
 40
0.0
 40
0.0
 40
0.0
 40
2.420483029949796
 40
2.420483029949796
 40
2.420483029949796
 40
2.420483029949796
 10
-9.552404087174906
 20
-5.548510959681436
 30
0.0
 10
-8.584210875195083
 20
-5.548510959681436
 30
0.0
 10
-7.780853706311063
 20
-5.158072124113289
 30
0.0
 10
-7.080494577116212
 20
-4.523667018021853
 30
0.0
  0
SPLINE
  5
4286
330
1F
100
AcDbEntity
  8
AM_0
100
AcDbSpline
210
0.0
220
0.0
230
1.0
 70
     8
 71
     3
 72
     8
 73
     4
 74
     0
 42
0.0000000001
 43
0.0000000001
 40
0.0
 40
0.0
 40
0.0
 40
0.0
 40
1.274172826456642
 40
1.274172826456642
 40
1.274172826456642
 40
1.274172826456642
 10
-10.48441164675114
 20
-5.82046176953429
 30
0.0
 10
-9.974742516168589
 20
-5.82046176953429
 30
0.0
 10
-9.512166703722499
 20
-5.712530884567854
 30
0.0
 10
-9.08761502072393
 20
-5.517454347017803
 30
0.0
  0
SPLINE
  5
4287
330
1F
100
AcDbEntity
  8
AM_0
100
AcDbSpline
210
0.0
220
0.0
230
1.0
 70
     8
 71
     3
 72
     8
 73
     4
 74
     0
 42
0.0000000001
 43
0.0000000001
 40
0.0
 40
0.0
 40
0.0
 40
0.0
 40
0.9875149967633806
 40
0.9875149967633806
 40
0.9875149967633806
 40
0.9875149967633806
 10
-11.39999999999672
 20
-5.999999999999033
 30
0.0
 10
-11.00499400129101
 20
-5.999999999999033
 30
0.0
 10
-10.63878211022674
 20
-5.935346793225619
 30
0.0
 10
-10.29713727050693
 20
-5.815531652967479
 30
0.0
  0
SPLINE
  5
4288
330
1F
100
AcDbEntity
  8
AM_0
100
AcDbSpline
210
0.0
220
0.0
230
1.0
 70
     8
 71
     3
 72
     8
 73
     4
 74
     0
 42
0.0000000001
 43
0.0000000001
 40
0.0
 40
0.0
 40
0.0
 40
0.0
 40
2.420483029949796
 40
2.420483029949796
 40
2.420483029949796
 40
2.420483029949796
 10
-16.75240408716945
 20
-5.548510959681436
 30
0.0
 10
-15.78421087518964
 20
-5.548510959681436
 30
0.0
 10
-14.98085370630559
 20
-5.158072124113175
 30
0.0
 10
-14.28049457711077
 20
-4.523667018021683
 30
0.0
  0
SPLINE
  5
4289
330
1F
100
AcDbEntity
  8
AM_0
100
AcDbSpline
210
0.0
220
0.0
230
1.0
 70
     8
 71
     3
 72
     8
 73
     4
 74
     2
 42
0.0000000001
 43
0.0000000001
 44
0.0000000001
 12
-1.0
 22
0.0000000000000001
 32
0.0
 40
0.0
 40
0.0
 40
0.0
 40
0.0
 40
8.07217442824459
 40
8.07217442824459
 40
8.07217442824459
 40
8.07217442824459
 10
-11.39999999999508
 20
-5.999999999999317
 30
0.0
 10
-14.09072480940995
 20
-5.999999999999317
 30
0.0
 10
-15.44536240470279
 20
-2.999999999999317
 30
0.0
 10
-16.79999999999563
 20
0.0000000000006821
 30
0.0
 11
-11.39999999999508
 21
-5.999999999999317
 31
0.0
 11
-16.79999999999563
 21
0.0000000000006821
 31
0.0
  0
SPLINE
  5
428A
330
1F
100
AcDbEntity
  8
AM_0
100
AcDbSpline
210
0.0
220
0.0
230
1.0
 70
     8
 71
     3
 72
     8
 73
     4
 74
     2
 42
0.0000000001
 43
0.0000000001
 44
0.0000000001
 12
-1.0
 22
0.0000000000000001
 32
0.0
 40
0.0
 40
0.0
 40
0.0
 40
0.0
 40
7.939633191188664
 40
7.939633191188664
 40
7.939633191188664
 40
7.939633191188664
 10
-10.48441164675004
 20
-5.820461769534688
 30
0.0
 10
-13.13095604381293
 20
-5.820461769534688
 30
0.0
 10
-14.50768384528148
 20
-2.910230884766917
 30
0.0
 10
-15.88441164675003
 20
0.0000000000008527
 30
0.0
 11
-10.48441164675004
 21
-5.820461769534688
 31
0.0
 11
-15.88441164675003
 21
0.0000000000008527
 31
0.0
  0
SPLINE
  5
428B
330
1F
100
AcDbEntity
  8
AM_0
100
AcDbSpline
210
0.0
220
0.0
230
1.0
 70
     8
 71
     3
 72
     8
 73
     4
 74
     2
 42
0.0000000001
 43
0.0000000001
 44
0.0000000001
 12
-1.0
 22
0.0000000000000001
 32
0.0
 40
0.0
 40
0.0
 40
0.0
 40
0.0
 40
7.742478535308609
 40
7.742478535308609
 40
7.742478535308609
 40
7.742478535308609
 10
-9.552404087173812
 20
-5.548510959681436
 30
0.0
 10
-12.13323026561001
 20
-5.548510959681436
 30
0.0
 10
-13.54281717639191
 20
-2.774255479840292
 30
0.0
 10
-14.95240408717381
 20
0.0000000000008527
 30
0.0
 11
-9.552404087173812
 21
-5.548510959681436
 31
0.0
 11
-14.95240408717381
 21
0.0000000000008527
 31
0.0
  0
SPLINE
  5
428C
330
1F
100
AcDbEntity
  8
AM_0
100
AcDbSpline
210
0.0
220
0.0
230
1.0
 70
     8
 71
     3
 72
     9
 73
     5
 74
     3
 42
0.0000000001
 43
0.0000000001
 44
0.0000000001
 12
-0.3385048798911531
 22
0.9409646360463691
 32
0.0
 13
0.9630016908632653
 23
-0.2694953494858349
 33
0.0
 40
0.0
 40
0.0
 40
0.0
 40
0.0
 40
1.993744444650091
 40
2.494403347537022
 40
2.494403347537022
 40
2.494403347537022
 40
2.494403347537022
 10
-0.7800000000001149
 20
-4.101692232332254
 30
0.0
 10
-1.004964074590092
 20
-3.476344560422373
 30
0.0
 10
-2.516706922523738
 20
-2.761143077545951
 30
0.0
 10
-1.525754110923459
 20
-2.154439476861329
 30
0.0
 10
-1.365042320914838
 20
-2.199414558863566
 30
0.0
 11
-0.7800000000001149
 21
-4.101692232332254
 31
0.0
 11
-1.822725358583923
 21
-2.402356851326089
 31
0.0
 11
-1.365042320914838
 21
-2.199414558863566
 31
0.0
  0
SPLINE
  5
428D
330
1F
100
AcDbEntity
  8
AM_0
100
AcDbSpline
210
0.0
220
0.0
230
1.0
 70
     8
 71
     3
 72
     9
 73
     5
 74
     3
 42
0.0000000001
 43
0.0000000001
 44
0.0000000001
 12
-0.7037104554506215
 22
-0.7104868717221163
 32
0.0
 13
-0.5728114391284046
 23
0.8196871691100488
 33
0.0
 40
0.0
 40
0.0
 40
0.0
 40
0.0
 40
0.4159705444193219
 40
0.7788411683079934
 40
0.7788411683079934
 40
0.7788411683079934
 40
0.7788411683079934
 10
-0.2400000000079672
 20
-4.101692232332254
 30
0.0
 10
-0.3375742737637552
 20
-4.20020610260993
 30
0.0
 10
-0.5471082819734411
 20
-4.563026596552043
 30
0.0
 10
-0.7107145185710842
 20
-4.200839030481755
 30
0.0
 10
-0.7800000000001149
 20
-4.101692232332254
 30
0.0
 11
-0.2400000000079672
 21
-4.101692232332254
 31
0.0
 11
-0.5482929668038139
 21
-4.380953651881611
 31
0.0
 11
-0.7800000000001149
 21
-4.101692232332254
 31
0.0
  0
SPLINE
  5
428E
330
1F
100
AcDbEntity
  8
AM_0
100
AcDbSpline
210
0.0
220
0.0
230
1.0
 70
     8
 71
     3
 72
     8
 73
     4
 74
     0
 42
0.0000000001
 43
0.0000000001
 40
0.0
 40
0.0
 40
0.0
 40
0.0
 40
0.9875149968653097
 40
0.9875149968653097
 40
0.9875149968653097
 40
0.9875149968653097
 10
-4.199999999999448
 20
-5.999999999999033
 30
0.0
 10
-3.804994001253362
 20
-5.999999999999033
 30
0.0
 10
-3.438782110154164
 20
-5.935346793212261
 30
0.0
 10
-3.097137270403806
 20
-5.81553165293036
 30
0.0
  0
SPLINE
  5
428F
330
1F
100
AcDbEntity
  8
AM_0
100
AcDbSpline
210
0.0
220
0.0
230
1.0
 70
     8
 71
     3
 72
     8
 73
     4
 74
     0
 42
0.0000000001
 43
0.0000000001
 40
0.0
 40
0.0
 40
0.0
 40
0.0
 40
3.138307834541913
 40
3.138307834541913
 40
3.138307834541913
 40
3.138307834541913
 10
-3.284411646754421
 20
-5.82046176953429
 30
0.0
 10
-2.02908851293759
 20
-5.82046176953429
 30
0.0
 10
-1.059454495347566
 20
-5.165704781502256
 30
0.0
 10
-0.2400000000101556
 20
-4.166758651954125
 30
0.0
  0
SPLINE
  5
4290
330
1F
100
AcDbEntity
  8
AM_0
100
AcDbSpline
210
0.0
220
0.0
230
1.0
 70
     8
 71
     3
 72
     8
 73
     4
 74
     0
 42
0.0000000001
 43
0.0000000001
 40
0.0
 40
0.0
 40
0.0
 40
0.0
 40
0.4556590281797062
 40
0.4556590281797062
 40
0.4556590281797062
 40
0.4556590281797062
 10
-2.352404087178186
 20
-5.548510959681607
 30
0.0
 10
-2.170140475906009
 20
-5.548510959681607
 30
0.0
 10
-1.993718414058633
 20
-5.534674375689291
 30
0.0
 10
-1.82272535858992
 20
-5.507978377646281
 30
0.0
  0
SPLINE
  5
4291
330
1F
100
AcDbEntity
  8
AM_0
100
AcDbSpline
210
0.0
220
0.0
230
1.0
 70
     8
 71
     3
 72
     8
 73
     4
 74
     0
 42
0.0000000001
 43
0.0000000001
 40
4.390614724758877
 40
4.390614724758877
 40
4.390614724758877
 40
4.390614724758877
 40
6.726812023537121
 40
6.726812023537121
 40
6.726812023537121
 40
6.726812023537121
 10
-0.932650455580557
 20
-2.999999999984993
 30
0.0
 10
-1.45907860071675
 20
-2.083778131991664
 30
0.0
 10
-1.929539300357831
 20
-1.041889065995405
 30
0.0
 10
-2.399999999998357
 20
0.0000000000006821
 30
0.0
  0
SPLINE
  5
4292
330
1F
100
AcDbEntity
  8
AM_0
100
AcDbSpline
210
0.0
220
0.0
230
1.0
 70
     8
 71
     3
 72
     8
 73
     4
 74
     0
 42
0.0000000001
 43
0.0000000001
 40
4.32310436431184
 40
4.32310436431184
 40
4.32310436431184
 40
4.32310436431184
 40
6.616360992657454
 40
6.616360992657454
 40
6.616360992657454
 40
6.616360992657454
 10
0.00000000000054
 20
-2.904913128807947
 30
0.0
 10
-0.5300531528168051
 20
-2.017394841035411
 30
0.0
 10
-1.007232399785067
 20
-1.008697420517364
 30
0.0
 10
-1.484411646753329
 20
0.0000000000006821
 30
0.0
  0
SPLINE
  5
4293
330
1F
100
AcDbEntity
  8
AM_0
100
AcDbSpline
210
0.0
220
0.0
230
1.0
 70
     8
 71
     3
 72
     8
 73
     4
 74
     2
 42
0.0000000001
 43
0.0000000001
 44
0.0000000001
 12
-1.0
 22
0.0000000000000001
 32
0.0
 40
0.0
 40
0.0
 40
0.0
 40
0.0
 40
7.742478535308599
 40
7.742478535308599
 40
7.742478535308599
 40
7.742478535308599
 10
-2.352404087173823
 20
-5.548510959681436
 30
0.0
 10
-4.933230265610022
 20
-5.548510959681436
 30
0.0
 10
-6.342817176391918
 20
-2.774255479840292
 30
0.0
 10
-7.752404087173815
 20
0.0000000000008527
 30
0.0
 11
-2.352404087173823
 21
-5.548510959681436
 31
0.0
 11
-7.752404087173815
 21
0.0000000000008527
 31
0.0
  0
SPLINE
  5
4294
330
1F
100
AcDbEntity
  8
AM_0
100
AcDbSpline
210
0.0
220
0.0
230
1.0
 70
     8
 71
     3
 72
     8
 73
     4
 74
     2
 42
0.0000000001
 43
0.0000000001
 44
0.0000000001
 12
-1.0
 22
0.0000000000000001
 32
0.0
 40
0.0
 40
0.0
 40
0.0
 40
0.0
 40
7.939633191188674
 40
7.939633191188674
 40
7.939633191188674
 40
7.939633191188674
 10
-3.284411646750044
 20
-5.820461769534688
 30
0.0
 10
-5.930956043812935
 20
-5.820461769534688
 30
0.0
 10
-7.307683845281492
 20
-2.910230884766917
 30
0.0
 10
-8.684411646750049
 20
0.0000000000008527
 30
0.0
 11
-3.284411646750044
 21
-5.820461769534688
 31
0.0
 11
-8.684411646750049
 21
0.0000000000008527
 31
0.0
  0
SPLINE
  5
4295
330
1F
100
AcDbEntity
  8
AM_0
100
AcDbSpline
210
0.0
220
0.0
230
1.0
 70
     8
 71
     3
 72
     8
 73
     4
 74
     2
 42
0.0000000001
 43
0.0000000001
 44
0.0000000001
 12
-1.0
 22
0.0000000000000001
 32
0.0
 40
0.0
 40
0.0
 40
0.0
 40
0.0
 40
8.07217442824459
 40
8.07217442824459
 40
8.07217442824459
 40
8.07217442824459
 10
-4.199999999995085
 20
-5.999999999999317
 30
0.0
 10
-6.890724809409949
 20
-5.999999999999317
 30
0.0
 10
-8.24536240470279
 20
-2.999999999999317
 30
0.0
 10
-9.599999999995631
 20
0.0000000000006821
 30
0.0
 11
-4.199999999995085
 21
-5.999999999999317
 31
0.0
 11
-9.599999999995631
 21
0.0000000000006821
 31
0.0
  0
SPLINE
  5
4296
330
1F
100
AcDbEntity
  8
AM_0
100
AcDbSpline
210
0.0
220
0.0
230
1.0
 70
     8
 71
     3
 72
     8
 73
     4
 74
     0
 42
0.0000000001
 43
0.0000000001
 40
0.0
 40
0.0
 40
0.0
 40
0.0
 40
2.948331486770748
 40
2.948331486770748
 40
2.948331486770748
 40
2.948331486770748
 10
-7.799999999999442
 20
6.000000000000852
 30
0.0
 10
-8.979332594707557
 20
6.000000000001364
 30
0.0
 10
-9.901998892106519
 20
5.423691145468183
 30
0.0
 10
-10.68049457712167
 20
4.523667018023616
 30
0.0
  0
SPLINE
  5
4297
330
1F
100
AcDbEntity
  8
AM_0
100
AcDbSpline
210
0.0
220
0.0
230
1.0
 70
     8
 71
     3
 72
     8
 73
     4
 74
     0
 42
0.0000000001
 43
0.0000000001
 40
0.0
 40
0.0
 40
0.0
 40
0.0
 40
2.948331486770748
 40
2.948331486770748
 40
2.948331486770748
 40
2.948331486770748
 10
-14.99999999999344
 20
6.000000000000852
 30
0.0
 10
-16.17933259470154
 20
6.000000000001364
 30
0.0
 10
-17.10199889210106
 20
5.423691145468183
 30
0.0
 10
-17.88049457711622
 20
4.523667018023786
 30
0.0
  0
SPLINE
  5
4298
330
1F
100
AcDbEntity
  8
AM_0
100
AcDbSpline
210
0.0
220
0.0
230
1.0
 70
     8
 71
     3
 72
     8
 73
     4
 74
     0
 42
0.0000000001
 43
0.0000000001
 40
0.0
 40
0.0
 40
0.0
 40
0.0
 40
2.948331486770748
 40
2.948331486770748
 40
2.948331486770748
 40
2.948331486770748
 10
-0.5999999999961858
 20
6.000000000000966
 30
0.0
 10
-1.779332594704271
 20
6.000000000001534
 30
0.0
 10
-2.701998892103802
 20
5.423691145468183
 30
0.0
 10
-3.480494577118946
 20
4.523667018023786
 30
0.0
  0
SPLINE
  5
4299
330
1F
100
AcDbEntity
  8
AM_0
100
AcDbSpline
210
0.0
220
0.0
230
1.0
 70
     8
 71
     3
 72
     8
 73
     4
 74
     2
 42
0.0000000001
 43
0.0000000001
 44
0.0000000001
 12
0.2563440340107919
 22
-0.9665856072935671
 32
0.0
 13
-1.0
 23
0.0000000000000001
 33
0.0
 40
0.0
 40
0.0
 40
0.0
 40
0.0
 40
2.933627177003414
 40
2.933627177003414
 40
2.933627177003414
 40
2.933627177003414
 10
-0.5999999999929031
 20
6.0
 30
0.0
 10
-0.3493273917139875
 20
5.054799397847746
 30
0.0
 10
-0.8448496329161047
 20
3.333333333333257
 30
0.0
 10
-1.822725358583909
 20
3.333333333333257
 30
0.0
 11
-0.5999999999929031
 21
6.0
 31
0.0
 11
-1.822725358583909
 21
3.333333333333257
 31
0.0
  0
SPLINE
  5
429A
330
1F
100
AcDbEntity
  8
AM_0
100
AcDbSpline
210
0.0
220
0.0
230
1.0
 70
     8
 71
     3
 72
     8
 73
     4
 74
     2
 42
0.0000000001
 43
0.0000000001
 44
0.0000000001
 12
1.0
 22
-0.0000000000000002
 32
0.0
 40
0.0
 40
0.0
 40
0.0
 40
0.0
 40
8.072174428244586
 40
8.072174428244586
 40
8.072174428244586
 40
8.072174428244586
 10
-22.19999999999617
 20
6.000000000000682
 30
0.0
 10
-19.5092751905813
 20
6.000000000000681
 30
0.0
 10
-18.15463759528847
 20
3.000000000000681
 30
0.0
 10
-16.79999999999563
 20
0.0000000000006821
 30
0.0
 11
-22.19999999999617
 21
6.000000000000682
 31
0.0
 11
-16.79999999999563
 21
0.0000000000006821
 31
0.0
  0
SPLINE
  5
429B
330
1F
100
AcDbEntity
  8
AM_0
100
AcDbSpline
210
0.0
220
0.0
230
1.0
 70
     8
 71
     3
 72
     8
 73
     4
 74
     0
 42
0.0000000001
 43
0.0000000001
 40
0.157854605497133
 40
0.157854605497133
 40
0.157854605497133
 40
0.157854605497133
 40
6.616360992657454
 40
6.616360992657454
 40
6.616360992657454
 40
6.616360992657454
 10
-21.09713727039943
 20
5.815531652931781
 30
0.0
 10
-18.57217469626793
 20
5.681595903924858
 30
0.0
 10
-17.22829317150953
 20
2.84079795196277
 30
0.0
 10
-15.88441164675003
 20
0.0000000000005684
 30
0.0
  0
SPLINE
  5
429C
330
1F
100
AcDbEntity
  8
AM_0
100
AcDbSpline
210
0.0
220
0.0
230
1.0
 70
     8
 71
     3
 72
     8
 73
     4
 74
     0
 42
0.0000000001
 43
0.0000000001
 40
0.3982504941345976
 40
0.3982504941345976
 40
0.3982504941345976
 40
0.3982504941345976
 40
6.452065446090842
 40
6.452065446090842
 40
6.452065446090842
 40
6.452065446090842
 10
-19.88761502072392
 20
5.517454347019565
 30
0.0
 10
-17.5975658227062
 20
5.206031911715228
 30
0.0
 10
-16.27498495494054
 20
2.60301595585804
 30
0.0
 10
-14.95240408717381
 20
0.0000000000008527
 30
0.0
  0
SPLINE
  5
429D
330
1F
100
AcDbEntity
  8
AM_0
100
AcDbSpline
210
0.0
220
0.0
230
1.0
 70
     8
 71
     3
 72
     8
 73
     4
 74
     0
 42
0.0000000001
 43
0.0000000001
 40
0.3982504941345976
 40
0.3982504941345976
 40
0.3982504941345976
 40
0.3982504941345976
 40
6.452065446090842
 40
6.452065446090842
 40
6.452065446090842
 40
6.452065446090842
 10
-12.68761502072939
 20
5.517454347019452
 30
0.0
 10
-10.39756582271165
 20
5.206031911715115
 30
0.0
 10
-9.074984954946017
 20
2.60301595585787
 30
0.0
 10
-7.752404087179826
 20
0.0000000000008527
 30
0.0
  0
SPLINE
  5
429E
330
1F
100
AcDbEntity
  8
AM_0
100
AcDbSpline
210
0.0
220
0.0
230
1.0
 70
     8
 71
     3
 72
     8
 73
     4
 74
     0
 42
0.0000000001
 43
0.0000000001
 40
0.157854605497133
 40
0.157854605497133
 40
0.157854605497133
 40
0.157854605497133
 40
6.616360992657454
 40
6.616360992657454
 40
6.616360992657454
 40
6.616360992657454
 10
-13.89713727040543
 20
5.815531652931611
 30
0.0
 10
-11.37217469627339
 20
5.681595903924858
 30
0.0
 10
-10.028293171515
 20
2.840797951962656
 30
0.0
 10
-8.684411646756046
 20
0.0000000000005684
 30
0.0
  0
SPLINE
  5
429F
330
1F
100
AcDbEntity
  8
AM_0
100
AcDbSpline
210
0.0
220
0.0
230
1.0
 70
     8
 71
     3
 72
     8
 73
     4
 74
     2
 42
0.0000000001
 43
0.0000000001
 44
0.0000000001
 12
1.0
 22
-0.0000000000000002
 32
0.0
 40
0.0
 40
0.0
 40
0.0
 40
0.0
 40
8.07217442824422
 40
8.07217442824422
 40
8.07217442824422
 40
8.07217442824422
 10
-15.00000000000163
 20
6.000000000000682
 30
0.0
 10
-12.30927519058689
 20
6.000000000000681
 30
0.0
 10
-10.95463759529426
 20
3.000000000000681
 30
0.0
 10
-9.600000000001642
 20
0.0000000000006821
 30
0.0
 11
-15.00000000000163
 21
6.000000000000682
 31
0.0
 11
-9.600000000001642
 21
0.0000000000006821
 31
0.0
  0
SPLINE
  5
42A0
330
1F
100
AcDbEntity
  8
AM_0
100
AcDbSpline
210
0.0
220
0.0
230
1.0
 70
     8
 71
     3
 72
     8
 73
     4
 74
     2
 42
0.0000000001
 43
0.0000000001
 44
0.0000000001
 12
1.0
 22
-0.0000000000000002
 32
0.0
 40
0.0
 40
0.0
 40
0.0
 40
0.0
 40
8.072174428244952
 40
8.072174428244952
 40
8.072174428244952
 40
8.072174428244952
 10
-7.799999999999442
 20
6.000000000000852
 30
0.0
 10
-5.109275190584458
 20
6.000000000000851
 30
0.0
 10
-3.754637595291408
 20
3.000000000000852
 30
0.0
 10
-2.399999999998357
 20
0.0000000000008527
 30
0.0
 11
-7.799999999999442
 21
6.000000000000852
 31
0.0
 11
-2.399999999998357
 21
0.0000000000008527
 31
0.0
  0
SPLINE
  5
42A1
330
1F
100
AcDbEntity
  8
AM_0
100
AcDbSpline
210
0.0
220
0.0
230
1.0
 70
     8
 71
     3
 72
     8
 73
     4
 74
     0
 42
0.0000000001
 43
0.0000000001
 40
0.157854605497133
 40
0.157854605497133
 40
0.157854605497133
 40
0.157854605497133
 40
6.616360992657454
 40
6.616360992657454
 40
6.616360992657454
 40
6.616360992657454
 10
-6.697137270402706
 20
5.815531652931895
 30
0.0
 10
-4.172174696270673
 20
5.681595903924971
 30
0.0
 10
-2.828293171511717
 20
2.84079795196277
 30
0.0
 10
-1.484411646753329
 20
0.0000000000005684
 30
0.0
  0
SPLINE
  5
42A2
330
1F
100
AcDbEntity
  8
AM_0
100
AcDbSpline
210
0.0
220
0.0
230
1.0
 70
     8
 71
     3
 72
     8
 73
     4
 74
     0
 42
0.0000000001
 43
0.0000000001
 40
0.3982504941345976
 40
0.3982504941345976
 40
0.3982504941345976
 40
0.3982504941345976
 40
6.01848148651983
 40
6.01848148651983
 40
6.01848148651983
 40
6.01848148651983
 10
-5.487615020727204
 20
5.517454347019736
 30
0.0
 10
-3.361582827980782
 20
5.22833648720524
 30
0.0
 10
-2.069398469522639
 20
2.964125247658159
 30
0.0
 10
-0.8369356335328177
 20
0.5584546448990296
 30
0.0
  0
SPLINE
  5
42A3
330
1F
100
AcDbEntity
  8
AM_0
100
AcDbSpline
210
0.0
220
0.0
230
1.0
 70
     8
 71
     3
 72
     8
 73
     4
 74
     0
 42
0.0000000001
 43
0.0000000001
 40
0.0
 40
0.0
 40
0.0
 40
0.0
 40
2.420483029949796
 40
2.420483029949796
 40
2.420483029949796
 40
2.420483029949796
 10
-31.15240408715798
 20
-5.548510959681323
 30
0.0
 10
-30.18421087517817
 20
-5.548510959681323
 30
0.0
 10
-29.38085370629414
 20
-5.158072124113175
 30
0.0
 10
-28.6804945770993
 20
-4.523667018021569
 30
0.0
  0
SPLINE
  5
42A4
330
1F
100
AcDbEntity
  8
AM_0
100
AcDbSpline
210
0.0
220
0.0
230
1.0
 70
     8
 71
     3
 72
     8
 73
     4
 74
     2
 42
0.0000000001
 43
0.0000000001
 44
0.0000000001
 12
-1.0
 22
0.0000000000000001
 32
0.0
 40
0.0
 40
0.0
 40
0.0
 40
0.0
 40
8.072174428244224
 40
8.072174428244224
 40
8.072174428244224
 40
8.072174428244224
 10
-25.79999999998416
 20
-5.999999999999147
 30
0.0
 10
-28.49072480939891
 20
-5.999999999999147
 30
0.0
 10
-29.84536240469153
 20
-2.999999999999146
 30
0.0
 10
-31.19999999998416
 20
0.0000000000008527
 30
0.0
 11
-25.79999999998416
 21
-5.999999999999147
 31
0.0
 11
-31.19999999998416
 21
0.0000000000008527
 31
0.0
  0
SPLINE
  5
42A5
330
1F
100
AcDbEntity
  8
AM_0
100
AcDbSpline
210
0.0
220
0.0
230
1.0
 70
     8
 71
     3
 72
     8
 73
     4
 74
     2
 42
0.0000000001
 43
0.0000000001
 44
0.0000000001
 12
-1.0
 22
0.0000000000000001
 32
0.0
 40
0.0
 40
0.0
 40
0.0
 40
0.0
 40
7.939633191188958
 40
7.939633191188958
 40
7.939633191188958
 40
7.939633191188958
 10
-24.88441164673858
 20
-5.820461769534574
 30
0.0
 10
-27.53095604380157
 20
-5.820461769534574
 30
0.0
 10
-28.90768384527035
 20
-2.91023088476686
 30
0.0
 10
-30.28441164673913
 20
0.0000000000008527
 30
0.0
 11
-24.88441164673858
 21
-5.820461769534574
 31
0.0
 11
-30.28441164673913
 21
0.0000000000008527
 31
0.0
  0
SPLINE
  5
42A6
330
1F
100
AcDbEntity
  8
AM_0
100
AcDbSpline
210
0.0
220
0.0
230
1.0
 70
     8
 71
     3
 72
     8
 73
     4
 74
     0
 42
0.0000000001
 43
0.0000000001
 40
0.0
 40
0.0
 40
0.0
 40
0.0
 40
0.9875149967633806
 40
0.9875149967633806
 40
0.9875149967633806
 40
0.9875149967633806
 10
-25.79999999998526
 20
-5.999999999998919
 30
0.0
 10
-25.40499400128009
 20
-5.999999999998919
 30
0.0
 10
-25.03878211021528
 20
-5.935346793225392
 30
0.0
 10
-24.69713727049546
 20
-5.815531652967365
 30
0.0
  0
SPLINE
  5
42A7
330
1F
100
AcDbEntity
  8
AM_0
100
AcDbSpline
210
0.0
220
0.0
230
1.0
 70
     8
 71
     3
 72
     8
 73
     4
 74
     2
 42
0.0000000001
 43
0.0000000001
 44
0.0000000001
 12
-1.0
 22
0.0000000000000001
 32
0.0
 40
0.0
 40
0.0
 40
0.0
 40
0.0
 40
7.742478535309067
 40
7.742478535309067
 40
7.742478535309067
 40
7.742478535309067
 10
-23.95240408716234
 20
-5.548510959681323
 30
0.0
 10
-26.5332302655987
 20
-5.548510959681323
 30
0.0
 10
-27.9428171763808
 20
-2.774255479840121
 30
0.0
 10
-29.35240408716289
 20
0.00000000000108
 30
0.0
 11
-23.95240408716234
 21
-5.548510959681323
 31
0.0
 11
-29.35240408716289
 21
0.00000000000108
 31
0.0
  0
SPLINE
  5
42A8
330
1F
100
AcDbEntity
  8
AM_0
100
AcDbSpline
210
0.0
220
0.0
230
1.0
 70
     8
 71
     3
 72
     8
 73
     4
 74
     0
 42
0.0000000001
 43
0.0000000001
 40
0.0
 40
0.0
 40
0.0
 40
0.0
 40
1.274172826456642
 40
1.274172826456642
 40
1.274172826456642
 40
1.274172826456642
 10
-24.88441164674021
 20
-5.820461769534176
 30
0.0
 10
-24.37474251615766
 20
-5.820461769534176
 30
0.0
 10
-23.91216670371158
 20
-5.712530884567854
 30
0.0
 10
-23.48761502071301
 20
-5.517454347017803
 30
0.0
  0
SPLINE
  5
42A9
330
1F
100
AcDbEntity
  8
AM_0
100
AcDbSpline
210
0.0
220
0.0
230
1.0
 70
     8
 71
     3
 72
     8
 73
     4
 74
     2
 42
0.0000000001
 43
0.0000000001
 44
0.0000000001
 12
1.0
 22
-0.0000000000000002
 32
0.0
 40
0.0
 40
0.0
 40
0.0
 40
0.0
 40
8.07217442824459
 40
8.07217442824459
 40
8.07217442824459
 40
8.07217442824459
 10
-29.39999999999072
 20
6.000000000000852
 30
0.0
 10
-26.70927519057585
 20
6.000000000000851
 30
0.0
 10
-25.35463759528301
 20
3.000000000000852
 30
0.0
 10
-23.99999999999017
 20
0.0000000000008527
 30
0.0
 11
-29.39999999999072
 21
6.000000000000852
 31
0.0
 11
-23.99999999999017
 21
0.0000000000008527
 31
0.0
  0
SPLINE
  5
42AA
330
1F
100
AcDbEntity
  8
AM_0
100
AcDbSpline
210
0.0
220
0.0
230
1.0
 70
     8
 71
     3
 72
     8
 73
     4
 74
     0
 42
0.0000000001
 43
0.0000000001
 40
0.0
 40
0.0
 40
0.0
 40
0.0
 40
2.420483029949796
 40
2.420483029949796
 40
2.420483029949796
 40
2.420483029949796
 10
-23.95240408716399
 20
-5.548510959681323
 30
0.0
 10
-22.98421087518363
 20
-5.548510959681323
 30
0.0
 10
-22.18085370630014
 20
-5.158072124113175
 30
0.0
 10
-21.4804945771053
 20
-4.523667018021683
 30
0.0
  0
SPLINE
  5
42AB
330
1F
100
AcDbEntity
  8
AM_0
100
AcDbSpline
210
0.0
220
0.0
230
1.0
 70
     8
 71
     3
 72
     8
 73
     4
 74
     2
 42
0.0000000001
 43
0.0000000001
 44
0.0000000001
 12
-1.0
 22
0.0000000000000001
 32
0.0
 40
0.0
 40
0.0
 40
0.0
 40
0.0
 40
7.939633191188664
 40
7.939633191188664
 40
7.939633191188664
 40
7.939633191188664
 10
-17.68441164674459
 20
-5.820461769534688
 30
0.0
 10
-20.33095604380748
 20
-5.820461769534688
 30
0.0
 10
-21.70768384527603
 20
-2.910230884766917
 30
0.0
 10
-23.08441164674458
 20
0.0000000000008527
 30
0.0
 11
-17.68441164674459
 21
-5.820461769534688
 31
0.0
 11
-23.08441164674458
 21
0.0000000000008527
 31
0.0
  0
SPLINE
  5
42AC
330
1F
100
AcDbEntity
  8
AM_0
100
AcDbSpline
210
0.0
220
0.0
230
1.0
 70
     8
 71
     3
 72
     8
 73
     4
 74
     2
 42
0.0000000001
 43
0.0000000001
 44
0.0000000001
 12
-1.0
 22
0.0000000000000001
 32
0.0
 40
0.0
 40
0.0
 40
0.0
 40
0.0
 40
7.742478535308685
 40
7.742478535308685
 40
7.742478535308685
 40
7.742478535308685
 10
-16.75240408716835
 20
-5.548510959681436
 30
0.0
 10
-19.33323026560458
 20
-5.548510959681436
 30
0.0
 10
-20.74281717638647
 20
-2.774255479840235
 30
0.0
 10
-22.15240408716835
 20
0.0000000000009663
 30
0.0
 11
-16.75240408716835
 21
-5.548510959681436
 31
0.0
 11
-22.15240408716835
 21
0.0000000000009663
 31
0.0
  0
SPLINE
  5
42AD
330
1F
100
AcDbEntity
  8
AM_0
100
AcDbSpline
210
0.0
220
0.0
230
1.0
 70
     8
 71
     3
 72
     8
 73
     4
 74
     2
 42
0.0000000001
 43
0.0000000001
 44
0.0000000001
 12
-1.0
 22
0.0000000000000001
 32
0.0
 40
0.0
 40
0.0
 40
0.0
 40
0.0
 40
8.07217442824459
 40
8.07217442824459
 40
8.07217442824459
 40
8.07217442824459
 10
-18.59999999998962
 20
-5.999999999999147
 30
0.0
 10
-21.29072480940449
 20
-5.999999999999147
 30
0.0
 10
-22.64536240469733
 20
-2.999999999999146
 30
0.0
 10
-23.99999999999017
 20
0.0000000000008527
 30
0.0
 11
-18.59999999998962
 21
-5.999999999999147
 31
0.0
 11
-23.99999999999017
 21
0.0000000000008527
 31
0.0
  0
SPLINE
  5
42AE
330
1F
100
AcDbEntity
  8
AM_0
100
AcDbSpline
210
0.0
220
0.0
230
1.0
 70
     8
 71
     3
 72
     8
 73
     4
 74
     0
 42
0.0000000001
 43
0.0000000001
 40
0.0
 40
0.0
 40
0.0
 40
0.0
 40
2.948331486770748
 40
2.948331486770748
 40
2.948331486770748
 40
2.948331486770748
 10
-22.19999999998744
 20
6.000000000000966
 30
0.0
 10
-23.37933259469608
 20
6.000000000001534
 30
0.0
 10
-24.30199889209561
 20
5.423691145468183
 30
0.0
 10
-25.08049457711076
 20
4.523667018023786
 30
0.0
  0
SPLINE
  5
42AF
330
1F
100
AcDbEntity
  8
AM_0
100
AcDbSpline
210
0.0
220
0.0
230
1.0
 70
     8
 71
     3
 72
     8
 73
     4
 74
     0
 42
0.0000000001
 43
0.0000000001
 40
0.157854605497133
 40
0.157854605497133
 40
0.157854605497133
 40
0.157854605497133
 40
6.616360992657454
 40
6.616360992657454
 40
6.616360992657454
 40
6.616360992657454
 10
-28.29713727039397
 20
5.815531652931895
 30
0.0
 10
-25.77217469626247
 20
5.681595903924971
 30
0.0
 10
-24.42829317150353
 20
2.84079795196277
 30
0.0
 10
-23.08441164674458
 20
0.0000000000005684
 30
0.0
  0
SPLINE
  5
42B0
330
1F
100
AcDbEntity
  8
AM_0
100
AcDbSpline
210
0.0
220
0.0
230
1.0
 70
     8
 71
     3
 72
     8
 73
     4
 74
     0
 42
0.0000000001
 43
0.0000000001
 40
0.3982504941345976
 40
0.3982504941345976
 40
0.3982504941345976
 40
0.3982504941345976
 40
6.452065446090842
 40
6.452065446090842
 40
6.452065446090842
 40
6.452065446090842
 10
-27.08761502071846
 20
5.517454347019736
 30
0.0
 10
-24.79756582270074
 20
5.206031911715228
 30
0.0
 10
-23.47498495493455
 20
2.60301595585804
 30
0.0
 10
-22.15240408716835
 20
0.0000000000008527
 30
0.0
  0
SPLINE
  5
42B1
330
1F
100
AcDbEntity
  8
AM_0
100
AcDbSpline
210
0.0
220
0.0
230
1.0
 70
     8
 71
     3
 72
     8
 73
     4
 74
     2
 42
0.0000000001
 43
0.0000000001
 44
0.0000000001
 12
-1.0
 22
0.0000000000000001
 32
0.0
 40
0.0
 40
0.0
 40
0.0
 40
0.0
 40
5.315139739001215
 40
5.315139739001215
 40
5.315139739001215
 40
5.315139739001215
 10
-31.15240408715635
 20
-5.548510959681323
 30
0.0
 10
-32.92411733349009
 20
-5.548510959681323
 30
0.0
 10
-34.12929326305679
 20
-3.908309607808334
 30
0.0
 10
-35.3344691926235
 20
-2.268108255935345
 30
0.0
 11
-31.15240408715635
 21
-5.548510959681323
 31
0.0
 11
-35.3344691926235
 21
-2.268108255935345
 31
0.0
  0
SPLINE
  5
42B2
330
1F
100
AcDbEntity
  8
AM_0
100
AcDbSpline
210
0.0
220
0.0
230
1.0
 70
     8
 71
     3
 72
     8
 73
     4
 74
     0
 42
0.0000000001
 43
0.0000000001
 40
0.0
 40
0.0
 40
0.0
 40
0.0
 40
1.274172826456642
 40
1.274172826456642
 40
1.274172826456642
 40
1.274172826456642
 10
-32.08441164673367
 20
-6.000000000000142
 30
0.0
 10
-31.57474251615111
 20
-5.820461769534176
 30
0.0
 10
-31.11216670370503
 20
-5.71253088456774
 30
0.0
 10
-30.687615020707
 20
-5.517454347017661
 30
0.0
  0
SPLINE
  5
42B3
330
1F
100
AcDbEntity
  8
AM_0
100
AcDbSpline
210
0.0
220
0.0
230
1.0
 70
     8
 71
     3
 72
     8
 73
     4
 74
     0
 42
0.0000000001
 43
0.0000000001
 40
0.0
 40
0.0
 40
0.0
 40
0.0
 40
2.420483029949796
 40
2.420483029949796
 40
2.420483029949796
 40
2.420483029949796
 10
-31.15240408715743
 20
-5.548510959681323
 30
0.0
 10
-30.18421087517761
 20
-5.548510959681323
 30
0.0
 10
-29.38085370629414
 20
-5.158072124113203
 30
0.0
 10
-28.68049457709929
 20
-4.523667018021711
 30
0.0
  0
ARC
  5
42B6
330
1F
100
AcDbEntity
  8
AM_0
100
AcDbCircle
 10
-33.28263532031978
 20
-1.023127227779809
 30
0.0
 40
2.399999999999999
100
AcDbArc
 50
117.0923257436931
 51
211.2479114875231
  0
LINE
  5
42B7
330
1F
100
AcDbEntity
  8
AM_0
100
AcDbLine
 10
-34.37565692140433
 20
1.113529922902898
 30
0.0
 11
-32.23868849061982
 21
2.206710761455411
 31
0.0
  0
LINE
  5
42B9
330
1F
100
AcDbEntity
  8
AM_0
100
AcDbLine
 10
-30.0
 20
-2.515973681242002
 30
0.0
 11
-30.0
 21
1.256659263494441
 31
0.0
  0
LINE
  5
42BB
330
1F
100
AcDbEntity
  8
AM_0
100
AcDbLine
 10
0.0
 20
0.0
 30
0.0
 11
-0.00000000000054
 21
5.83923048454335
 31
0.0
  0
LINE
  5
42BC
330
1F
100
AcDbEntity
  8
AM_0
100
AcDbLine
 10
0.0
 20
-0.9334342961162747
 30
0.0
 11
-0.2400000000003217
 21
0.0
 31
0.0
  0
LINE
  5
42BD
330
1F
100
AcDbEntity
  8
AM_0
100
AcDbLine
 10
-0.2399999999997817
 20
-1.808478033311246
 30
0.0
 11
-0.2400000000003217
 21
0.0
 31
0.0
  0
ARC
  5
42BE
330
1F
100
AcDbEntity
  8
AM_0
100
AcDbCircle
 10
6.007634760229308
 20
1.025902134032719
 30
0.0
 40
6.860513904238726
100
AcDbArc
 50
171.6411574078215
 51
204.4024896870891
  0
LINE
  5
42BF
330
1F
100
AcDbEntity
  8
AM_0
100
AcDbLine
 10
0.00000000000054
 20
-2.999999999996845
 30
0.0
 11
-0.2399999999997817
 21
-4.166758651941563
 31
0.0
  0
LINE
  5
42C0
330
1F
100
AcDbEntity
  8
AM_0
100
AcDbLine
 10
-0.2400000000101556
 20
-4.166758651991756
 30
0.0
 11
-0.2399999999670399
 21
-2.999999999987977
 31
0.0
  0
LINE
  5
42C1
330
1F
100
AcDbEntity
  8
AM_0
100
AcDbLine
 10
-0.7800000000001149
 20
-4.101692232332226
 30
0.0
 11
-0.5205764338434165
 21
-2.999999999977603
 31
0.0
  0
LINE
  5
42C2
330
1F
100
AcDbEntity
  8
AM_0
100
AcDbLine
 10
-0.9326504556045591
 20
-2.999999999962597
 30
0.0
 11
0.00000000000054
 21
-2.999999999996845
 31
0.0
  0
LINE
  5
42C3
330
1F
100
AcDbEntity
  8
AM_0
100
AcDbLine
 10
0.00000000000054
 20
-2.999999999996845
 30
0.0
 11
-0.2399999999997817
 21
-1.808478033311246
 31
0.0
  0
LINE
  5
42C4
330
1F
100
AcDbEntity
  8
AM_0
100
AcDbLine
 10
0.00000000000054
 20
-2.999999999996845
 30
0.0
 11
0.0
 21
-0.9334342961163883
 31
0.0
  0
LINE
  5
42C5
330
1F
100
AcDbEntity
  8
AM_0
100
AcDbLine
 10
-0.2400000000003217
 20
0.0
 30
0.0
 11
-0.7800000000001149
 21
2.023231263248817
 31
0.0
  0
LINE
  5
42C6
330
1F
100
AcDbEntity
  8
AM_0
100
AcDbLine
 10
0.0
 20
0.0
 30
0.0
 11
-0.1224760738534201
 21
-0.4570869303317409
 31
0.0
  0
LINE
  5
42C7
330
1F
100
AcDbEntity
  8
AM_0
100
AcDbLine
 10
-0.7800000000001149
 20
2.023231263248817
 30
0.0
 11
-1.822725358583909
 21
3.333333333333257
 31
0.0
  0
LINE
  5
42C8
330
1F
100
AcDbEntity
  8
AM_0
100
AcDbLine
 10
-0.5999999999994543
 20
6.000000000001932
 30
0.0
 11
-0.00000000000054
 21
5.83923048454335
 31
0.0
  0
LINE
  5
42C9
330
1F
100
AcDbEntity
  8
AM_7
  6
AM_ISO08W050X2
100
AcDbLine
 10
45.68238254729519
 20
-72.67602789316723
 30
0.0
 11
-68.82255241558474
 21
-72.67602789316723
 31
0.0
1001
GENIUS_GENODEF_13
1002
{
1000
HIER
1070
     0
1002
}
1002
{
1000
MANEDIT
1070
     0
1002
}
1002
{
1000
NOSEL
1070
     0
1002
}
1002
{
1000
BEHIND
1070
     0
1002
}
1002
{
1000
REACTOR
1002
}
1001
GENIUS_GENOBJ-N-CEN_13
1002
{
1000
OWNER
1000
GEN
1002
}
  0
VIEWPORT
  5
110
330
101
100
AcDbEntity
 67
     1
  8
0
100
AcDbViewport
 10
420.5
 20
297.0
 30
0.0
 40
948.9782706766916
 41
628.452
 68
     1
 69
     1
1001
ACAD
1000
MVIEW
1002
{
1070
    16
1010
0.0
1020
0.0
1030
0.0
1010
0.0
1020
0.0
1030
1.0
1040
0.0
1040
628.452
1040
420.5
1040
297.0
1040
50.0
1040
0.0
1040
0.0
1070
     0
1070
   100
1070
     1
1070
     1
1070
     0
1070
     0
1070
     0
1070
     0
1040
0.0
1040
0.0
1040
0.0
1040
10.0
1040
10.0
1040
10.0
1040
10.0
1070
     0
1002
{
1002
}
1002
}
  0
ENDSEC
  0
SECTION
  2
OBJECTS
  0
DICTIONARY
  5
C
330
0
100
AcDbDictionary
  3
ACAD_GROUP
350
D
  3
ACAD_LAYOUT
350
1A
  3
ACAD_MLINESTYLE
350
17
  3
ACAD_PLOTSETTINGS
350
19
  3
ACAD_PLOTSTYLENAME
350
E
  3
ACDBVARIABLEDICTIONARY
350
34
  3
ACMDICTIONARY
350
43
  3
AMG
350
2B
  3
AMGSNAPSETTINGS
350
6E
  3
ASE_INDEX_DICTIONARY
350
151A
  3
DWGPROPS
350
42E1
  3
ACDBHEADERROUNDTRIPXREC
350
42ED
  0
DICTIONARY
  5
74
330
1F
100
AcDbDictionary
280
     1
  3
ACAD_INDEX
360
42E3
  3
ACAD_LAYOUTSELFREF
360
4310
  0
DICTIONARY
  5
4315
330
101
100
AcDbDictionary
280
     1
  3
ACAD_LAYOUTSELFREF
360
4316
  0
DICTIONARY
  5
D
102
{ACAD_REACTORS
330
C
102
}
330
C
100
AcDbDictionary
  0
DICTIONARY
  5
1A
102
{ACAD_REACTORS
330
C
102
}
330
C
100
AcDbDictionary
  0
DICTIONARY
  5
17
102
{ACAD_REACTORS
330
C
102
}
330
C
100
AcDbDictionary
  3
STANDARD
350
18
  0
DICTIONARY
  5
19
102
{ACAD_REACTORS
330
C
102
}
330
C
100
AcDbDictionary
  0
ACDBDICTIONARYWDFLT
  5
E
102
{ACAD_REACTORS
330
C
102
}
330
C
100
AcDbDictionary
281
     1
  3
Normal
350
F
100
AcDbDictionaryWithDefault
340
F
  0
DICTIONARY
  5
34
102
{ACAD_REACTORS
330
C
102
}
330
C
100
AcDbDictionary
  3
INDEXCTL
350
35
  3
SORTENTS
350
B5E
  0
DICTIONARY
  5
43
102
{ACAD_REACTORS
330
C
102
}
330
C
100
AcDbDictionary
  3
ACMSTDDICTIONARY
350
260
  0
DICTIONARY
  5
2B
102
{ACAD_REACTORS
330
C
102
}
330
C
100
AcDbDictionary
  3
ACMGSETTINGS
350
2C
  0
DICTIONARY
  5
6E
102
{ACAD_REACTORS
330
C
102
}
330
C
100
AcDbDictionary
  0
DICTIONARY
  5
151A
102
{ACAD_REACTORS
330
C
102
}
330
C
100
AcDbDictionary
  3
ASEBLOCKHIERARCHYINDEXRECORD
350
151C
1001
DCO15
1040
1471862535.906
  0
XRECORD
  5
42E1
102
{ACAD_REACTORS
330
C
102
}
330
C
100
AcDbXrecord
  1
DWGPROPS COOKIE
  2

  3

  4

  6

  7

  8

  9

300
AmdtFileType=82
301
=
302
=
303
=
304
=
305
=
306
=
307
=
308
=
309
=
 40
0.1495767939814815
 41
2452838.430434386
 42
2453045.475340486
  1

 90
        1
  0
DICTIONARY
  5
42ED
102
{ACAD_REACTORS
330
C
102
}
330
C
100
AcDbDictionary
  3
TSTACKALIGN
350
42EE
  3
TSTACKSIZE
350
42EF
  3
HYPERLINKBASE
350
42F0
  3
STYLESHEET
350
42F1
  3
LAYOUTDICT
350
42F2
  3
PLOTSETDICT
350
42F3
  3
PLOTSTYLNAMDICT
350
42F4
  3
LWETCUNION
350
42F5
  3
INSUNITS
350
42F6
  3
CEPSNTYPE
350
42F7
  3
FINGERPRINTGUID
350
42F8
  3
VERSIONGUID
350
42F9
  3
PSVPSCALE
350
42FA
  3
DIMSTYLEDATA
350
42FB
  3
PUCSORTHOREF
350
42FC
  3
PUCSORTHOVIEW
350
42FD
  3
PUCSBASE
350
42FE
  3
PUCSORGTOP
350
42FF
  3
PUCSORGBOTTOM
350
4300
  3
PUCSORGLEFT
350
4301
  3
PUCSORGRIGHT
350
4302
  3
PUCSORGFRONT
350
4303
  3
PUCSORGBACK
350
4304
  3
UCSORTHOREF
350
4305
  3
UCSORTHOVIEW
350
4306
  3
UCSBASE
350
4307
  3
UCSORGTOP
350
4308
  3
UCSORGBOTTOM
350
4309
  3
UCSORGLEFT
350
430A
  3
UCSORGRIGHT
350
430B
  3
UCSORGFRONT
350
430C
  3
UCSORGBACK
350
430D
  0
DICTIONARY
  5
42E3
102
{ACAD_REACTORS
330
74
102
}
330
74
100
AcDbDictionary
  3
*A1
350
42E4
  0
XRECORD
  5
4310
102
{ACAD_REACTORS
330
74
102
}
330
74
100
AcDbXrecord
340
1F
  0
XRECORD
  5
4316
102
{ACAD_REACTORS
330
4315
102
}
330
4315
100
AcDbXrecord
340
101
  0
MLINESTYLE
  5
18
102
{ACAD_REACTORS
330
17
102
}
330
17
100
AcDbMlineStyle
  2
STANDARD
 70
     0
  3

 62
   256
 51
90.0
 52
90.0
 71
     2
 49
0.5
 62
   256
  6
BYLAYER
 49
-0.5
 62
   256
  6
BYLAYER
  0
ACDBPLACEHOLDER
  5
F
102
{ACAD_REACTORS
330
E
102
}
330
E
100
AcDbPlaceHolder
280
     0
  0
DICTIONARYVAR
  5
35
102
{ACAD_REACTORS
330
34
102
}
330
34
100
DictionaryVariables
280
     0
  1
1
  0
DICTIONARYVAR
  5
B5E
102
{ACAD_REACTORS
330
34
102
}
330
34
100
DictionaryVariables
280
     0
  1
96
  0
DICTIONARY
  5
260
102
{ACAD_REACTORS
330
43
102
}
330
43
100
AcDbDictionary
  0
DICTIONARY
  5
2C
102
{ACAD_REACTORS
330
2B
102
}
330
2B
100
AcDbDictionary
  3
DWGSETTINGS
350
2D
  0
XRECORD
  5
151C
102
{ACAD_REACTORS
330
151A
102
}
330
151A
100
AcDbXrecord
330
0
330
0
330
0
330
0
330
0
330
0
330
0
330
0
  0
XRECORD
  5
42EE
102
{ACAD_REACTORS
330
42ED
102
}
330
42ED
100
AcDbXrecord
 90
        1
  0
XRECORD
  5
42EF
102
{ACAD_REACTORS
330
42ED
102
}
330
42ED
100
AcDbXrecord
 90
       70
  0
XRECORD
  5
42F0
102
{ACAD_REACTORS
330
42ED
102
}
330
42ED
100
AcDbXrecord
  1

  0
XRECORD
  5
42F1
102
{ACAD_REACTORS
330
42ED
102
}
330
42ED
100
AcDbXrecord
  1
ASAMI.ctb
  0
XRECORD
  5
42F2
102
{ACAD_REACTORS
330
42ED
102
}
330
42ED
100
AcDbXrecord
340
1A
  0
XRECORD
  5
42F3
102
{ACAD_REACTORS
330
42ED
102
}
330
42ED
100
AcDbXrecord
340
19
  0
XRECORD
  5
42F4
102
{ACAD_REACTORS
330
42ED
102
}
330
42ED
100
AcDbXrecord
340
E
  0
XRECORD
  5
42F5
102
{ACAD_REACTORS
330
42ED
102
}
330
42ED
100
AcDbXrecord
 90
    10781
  0
XRECORD
  5
42F6
102
{ACAD_REACTORS
330
42ED
102
}
330
42ED
100
AcDbXrecord
 90
        4
  0
XRECORD
  5
42F7
102
{ACAD_REACTORS
330
42ED
102
}
330
42ED
100
AcDbXrecord
 90
        0
  0
XRECORD
  5
42F8
102
{ACAD_REACTORS
330
42ED
102
}
330
42ED
100
AcDbXrecord
  1
{AFB28963-8C59-40AE-9337-C84526B81ACE}
  0
XRECORD
  5
42F9
102
{ACAD_REACTORS
330
42ED
102
}
330
42ED
100
AcDbXrecord
  1
{3A4D9478-EB98-41DB-A127-4D1AA6102229}
  0
XRECORD
  5
42FA
102
{ACAD_REACTORS
330
42ED
102
}
330
42ED
100
AcDbXrecord
 40
0.0
  0
XRECORD
  5
42FB
102
{ACAD_REACTORS
330
42ED
102
}
330
42ED
100
AcDbXrecord
1000
DSTYLE
1002
{
1070
    79
 70
     2
1070
   341
340
59
1070
   342
340
59
1070
   371
 70
    -1
1070
   372
 70
    -1
1002
}
  0
XRECORD
  5
42FC
102
{ACAD_REACTORS
330
42ED
102
}
330
42ED
100
AcDbXrecord
340
0
  0
XRECORD
  5
42FD
102
{ACAD_REACTORS
330
42ED
102
}
330
42ED
100
AcDbXrecord
 70
     0
  0
XRECORD
  5
42FE
102
{ACAD_REACTORS
330
42ED
102
}
330
42ED
100
AcDbXrecord
340
0
  0
XRECORD
  5
42FF
102
{ACAD_REACTORS
330
42ED
102
}
330
42ED
100
AcDbXrecord
 10
0.0
 20
0.0
 30
0.0
  0
XRECORD
  5
4300
102
{ACAD_REACTORS
330
42ED
102
}
330
42ED
100
AcDbXrecord
 10
0.0
 20
0.0
 30
0.0
  0
XRECORD
  5
4301
102
{ACAD_REACTORS
330
42ED
102
}
330
42ED
100
AcDbXrecord
 10
0.0
 20
0.0
 30
0.0
  0
XRECORD
  5
4302
102
{ACAD_REACTORS
330
42ED
102
}
330
42ED
100
AcDbXrecord
 10
0.0
 20
0.0
 30
0.0
  0
XRECORD
  5
4303
102
{ACAD_REACTORS
330
42ED
102
}
330
42ED
100
AcDbXrecord
 10
0.0
 20
0.0
 30
0.0
  0
XRECORD
  5
4304
102
{ACAD_REACTORS
330
42ED
102
}
330
42ED
100
AcDbXrecord
 10
0.0
 20
0.0
 30
0.0
  0
XRECORD
  5
4305
102
{ACAD_REACTORS
330
42ED
102
}
330
42ED
100
AcDbXrecord
340
0
  0
XRECORD
  5
4306
102
{ACAD_REACTORS
330
42ED
102
}
330
42ED
100
AcDbXrecord
 70
     0
  0
XRECORD
  5
4307
102
{ACAD_REACTORS
330
42ED
102
}
330
42ED
100
AcDbXrecord
340
0
  0
XRECORD
  5
4308
102
{ACAD_REACTORS
330
42ED
102
}
330
42ED
100
AcDbXrecord
 10
0.0
 20
0.0
 30
0.0
  0
XRECORD
  5
4309
102
{ACAD_REACTORS
330
42ED
102
}
330
42ED
100
AcDbXrecord
 10
0.0
 20
0.0
 30
0.0
  0
XRECORD
  5
430A
102
{ACAD_REACTORS
330
42ED
102
}
330
42ED
100
AcDbXrecord
 10
0.0
 20
0.0
 30
0.0
  0
XRECORD
  5
430B
102
{ACAD_REACTORS
330
42ED
102
}
330
42ED
100
AcDbXrecord
 10
0.0
 20
0.0
 30
0.0
  0
XRECORD
  5
430C
102
{ACAD_REACTORS
330
42ED
102
}
330
42ED
100
AcDbXrecord
 10
0.0
 20
0.0
 30
0.0
  0
XRECORD
  5
430D
102
{ACAD_REACTORS
330
42ED
102
}
330
42ED
100
AcDbXrecord
 10
0.0
 20
0.0
 30
0.0
  0
LAYER_INDEX
  5
42E4
102
{ACAD_REACTORS
330
42E3
102
}
330
42E3
100
AcDbIndex
 40
2453152.472086874
100
AcDbLayerIndex
  8
0
360
42E5
 90
        0
  8
AM_0
360
42E6
 90
       76
  8
AM_11
360
42E7
 90
        4
  8
AM_7
360
42E8
 90
        2
  8
AM_5
360
42E9
 90
        4
  8
Defpoints
360
42EA
 90
        0
  8
AM_6
360
42EB
 90
        1
  0
XRECORD
  5
2D
102
{ACAD_REACTORS
330
2C
102
}
330
2C
100
AcDbXrecord
  1
VERSION
140
15.0
  1
PRODUCT
  2
AutoCAD Mechanical 2000
  0
IDBUFFER
  5
42E5
330
0
100
AcDbIdBuffer
  0
IDBUFFER
  5
42E6
330
0
100
AcDbIdBuffer
330
42A9
330
42AA
330
42AB
330
42AC
330
42AD
330
42AE
330
42AF
330
42B0
330
42B1
330
42B2
330
42B3
330
42B6
330
42B7
330
42B9
330
42BB
330
42BC
330
42BD
330
42BE
330
42BF
330
42C0
330
42C1
330
42C2
330
42C3
330
42C4
330
42C5
330
42C6
330
42C7
330
42C8
330
4137
330
413A
330
413B
330
4149
330
4155
330
4158
330
427F
330
4280
330
4281
330
4282
330
4283
330
4284
330
4285
330
4286
330
4287
330
4288
330
4289
330
428A
330
428B
330
428C
330
428D
330
428E
330
428F
330
4290
330
4291
330
4292
330
4293
330
4294
330
4295
330
4296
330
4297
330
4298
330
4299
330
429A
330
429B
330
429C
330
429D
330
429E
330
429F
330
42A0
330
42A1
330
42A2
330
42A3
330
42A4
330
42A5
330
42A6
330
42A7
330
42A8
  0
IDBUFFER
  5
42E7
330
0
100
AcDbIdBuffer
330
3B7E
330
3B80
330
3C00
330
3F69
  0
IDBUFFER
  5
42E8
330
0
100
AcDbIdBuffer
330
3B7D
330
42C9
  0
IDBUFFER
  5
42E9
330
0
100
AcDbIdBuffer
330
3CAC
330
3D34
330
3E27
330
413C
  0
IDBUFFER
  5
42EA
330
0
100
AcDbIdBuffer
  0
IDBUFFER
  5
42EB
330
0
100
AcDbIdBuffer
330
1500
  0
ENDSEC
  0
EOF
