  0
SECTION
  2
HEADER
  9
$ACADVER
  1
AC1014
  9
$ACADMAINTVER
 70
     9
  9
$DWGCODEPAGE
  3
ANSI_932
  9
$INSBASE
 10
0.0
 20
0.0
 30
0.0
  9
$EXTMIN
 10
-92.04470045058476
 20
-32.25000100000007
 30
-0.00000001
  9
$EXTMAX
 10
12.05776903085518
 20
8.268831273440175
 30
0.00000001
  9
$LIMMIN
 10
-98.03578554937111
 20
-44.82155063931381
  9
$LIMMAX
 10
17.40887900026029
 20
22.90785494689839
  9
$ORTHOMODE
 70
     0
  9
$REGENMODE
 70
     1
  9
$FILLMODE
 70
     1
  9
$QTEXTMODE
 70
     0
  9
$MIRRTEXT
 70
     0
  9
$DRAGMODE
 70
     2
  9
$LTSCALE
 40
1.0
  9
$OSMODE
 70
    55
  9
$ATTMODE
 70
     1
  9
$TEXTSIZE
 40
2.5
  9
$TRACEWID
 40
1.0
  9
$TEXTSTYLE
  7
STANDARD
  9
$CLAYER
  8
AM_0
  9
$CELTYPE
  6
BYLAYER
  9
$CECOLOR
 62
   256
  9
$CELTSCALE
 40
1.0
  9
$DELOBJ
 70
     1
  9
$DISPSILH
 70
     0
  9
$DIMSCALE
 40
0.5
  9
$DIMASZ
 40
2.5
  9
$DIMEXO
 40
1.0
  9
$DIMDLI
 40
12.0
  9
$DIMRND
 40
0.0
  9
$DIMDLE
 40
0.0
  9
$DIMEXE
 40
1.0
  9
$DIMTP
 40
0.1
  9
$DIMTM
 40
0.1
  9
$DIMTXT
 40
3.2
  9
$DIMCEN
 40
0.0
  9
$DIMTSZ
 40
0.0
  9
$DIMTOL
 70
     0
  9
$DIMLIM
 70
     0
  9
$DIMTIH
 70
     0
  9
$DIMTOH
 70
     0
  9
$DIMSE1
 70
     0
  9
$DIMSE2
 70
     0
  9
$DIMTAD
 70
     3
  9
$DIMZIN
 70
     8
  9
$DIMBLK
  1
OPEN30
  9
$DIMASO
 70
     1
  9
$DIMSHO
 70
     1
  9
$DIMPOST
  1

  9
$DIMAPOST
  1
"
  9
$DIMALT
 70
     0
  9
$DIMALTD
 70
     2
  9
$DIMALTF
 40
0.0393701
  9
$DIMLFAC
 40
1.0
  9
$DIMTOFL
 70
     1
  9
$DIMTVP
 40
0.0
  9
$DIMTIX
 70
     0
  9
$DIMSOXD
 70
     0
  9
$DIMSAH
 70
     0
  9
$DIMBLK1
  1

  9
$DIMBLK2
  1

  9
$DIMSTYLE
  2
AM_JIS
  9
$DIMCLRD
 70
   256
  9
$DIMCLRE
 70
   256
  9
$DIMCLRT
 70
     2
  9
$DIMTFAC
 40
0.71
  9
$DIMGAP
 40
1.5
  9
$DIMJUST
 70
     0
  9
$DIMSD1
 70
     0
  9
$DIMSD2
 70
     0
  9
$DIMTOLJ
 70
     0
  9
$DIMTZIN
 70
     0
  9
$DIMALTZ
 70
     0
  9
$DIMALTTZ
 70
     0
  9
$DIMFIT
 70
     3
  9
$DIMUPT
 70
     0
  9
$DIMUNIT
 70
     2
  9
$DIMDEC
 70
     3
  9
$DIMTDEC
 70
     3
  9
$DIMALTU
 70
     2
  9
$DIMALTTD
 70
     2
  9
$DIMTXSTY
  7
ASAMI
  9
$DIMAUNIT
 70
     0
  9
$LUNITS
 70
     2
  9
$LUPREC
 70
     2
  9
$SKETCHINC
 40
1.0
  9
$FILLETRAD
 40
2.5
  9
$AUNITS
 70
     0
  9
$AUPREC
 70
     0
  9
$MENU
  1
.
  9
$ELEVATION
 40
0.0
  9
$PELEVATION
 40
0.0
  9
$THICKNESS
 40
0.0
  9
$LIMCHECK
 70
     0
  9
$BLIPMODE
 70
     0
  9
$CHAMFERA
 40
1.0
  9
$CHAMFERB
 40
1.0
  9
$CHAMFERC
 40
20.0
  9
$CHAMFERD
 40
0.0
  9
$SKPOLY
 70
     0
  9
$TDCREATE
 40
2452838.430434386
  9
$TDUPDATE
 40
2453152.470016874
  9
$TDINDWG
 40
0.1790713542
  9
$TDUSRTIMER
 40
0.1790713542
  9
$USRTIMER
 70
     1
  9
$ANGBASE
 50
0.0
  9
$ANGDIR
 70
     0
  9
$PDMODE
 70
     0
  9
$PDSIZE
 40
0.0
  9
$PLINEWID
 40
0.0
  9
$COORDS
 70
     1
  9
$SPLFRAME
 70
     0
  9
$SPLINETYPE
 70
     6
  9
$SPLINESEGS
 70
     8
  9
$ATTDIA
 70
     1
  9
$ATTREQ
 70
     1
  9
$HANDLING
 70
 12289
  9
$HANDSEED
  5
4BDF
  9
$SURFTAB1
 70
     6
  9
$SURFTAB2
 70
     6
  9
$SURFTYPE
 70
     6
  9
$SURFU
 70
     6
  9
$SURFV
 70
     6
  9
$UCSNAME
  2

  9
$UCSORG
 10
0.0
 20
0.0
 30
0.0
  9
$UCSXDIR
 10
1.0
 20
0.0
 30
0.0
  9
$UCSYDIR
 10
0.0
 20
1.0
 30
0.0
  9
$PUCSNAME
  2

  9
$PUCSORG
 10
0.0
 20
0.0
 30
0.0
  9
$PUCSXDIR
 10
1.0
 20
0.0
 30
0.0
  9
$PUCSYDIR
 10
0.0
 20
1.0
 30
0.0
  9
$USERI1
 70
     0
  9
$USERI2
 70
     0
  9
$USERI3
 70
     0
  9
$USERI4
 70
     0
  9
$USERI5
 70
     0
  9
$USERR1
 40
0.0
  9
$USERR2
 40
0.0
  9
$USERR3
 40
0.0
  9
$USERR4
 40
0.0
  9
$USERR5
 40
0.0
  9
$WORLDVIEW
 70
     1
  9
$SHADEDGE
 70
     3
  9
$SHADEDIF
 70
    70
  9
$TILEMODE
 70
     1
  9
$MAXACTVP
 70
    64
  9
$PINSBASE
 10
0.0
 20
0.0
 30
0.0
  9
$PLIMCHECK
 70
     0
  9
$PEXTMIN
 10
1.000000000000000E+20
 20
1.000000000000000E+20
 30
1.000000000000000E+20
  9
$PEXTMAX
 10
-1.000000000000000E+20
 20
-1.000000000000000E+20
 30
-1.000000000000000E+20
  9
$PLIMMIN
 10
0.0
 20
0.0
  9
$PLIMMAX
 10
841.0
 20
594.0
  9
$UNITMODE
 70
     0
  9
$VISRETAIN
 70
     1
  9
$PLINEGEN
 70
     0
  9
$PSLTSCALE
 70
     0
  9
$TREEDEPTH
 70
  3020
  9
$PICKSTYLE
 70
     0
  9
$CMLSTYLE
  2
STANDARD
  9
$CMLJUST
 70
     0
  9
$CMLSCALE
 40
20.0
  9
$PROXYGRAPHICS
 70
     1
  9
$MEASUREMENT
 70
     1
  0
ENDSEC
  0
SECTION
  2
CLASSES
  0
CLASS
  1
ACDBDICTIONARYWDFLT
  2
AcDbDictionaryWithDefault
  3
AutoCAD 2000
 90
        0
280
     0
281
     0
  0
CLASS
  1
ACDBPLACEHOLDER
  2
AcDbPlaceHolder
  3
AutoCAD 2000
 90
        0
280
     0
281
     0
  0
CLASS
  1
LAYOUT
  2
AcDbLayout
  3
AutoCAD 2000
 90
        0
280
     0
281
     0
  0
CLASS
  1
AMGSETTINGSOBJ
  2
AmgSettingsObj
  3
"AcadM|Product Description: AutoCAD Mechanical 2000|Company: Autodesk"
 90
        0
280
     0
281
     0
  0
CLASS
  1
ACME_DOCUMENT
  2
AcMeDbDoc
  3
AcMeServices
 90
        0
280
     0
281
     0
  0
CLASS
  1
ACMESCOPE
  2
AcMeScope
  3
AcMeServices
 90
        0
280
     0
281
     0
  0
CLASS
  1
ACMECOMMANDHISTORY
  2
AcMeCommandHistory
  3
AcMeServices
 90
        0
280
     0
281
     0
  0
CLASS
  1
DICTIONARYVAR
  2
AcDbDictionaryVar
  3
AutoCAD 2000
 90
        0
280
     0
281
     0
  0
CLASS
  1
ACIMSYSVARMAN
  2
AcImSysVarManager
  3
AcMeServices
 90
        0
280
     0
281
     0
  0
CLASS
  1
ACIMREALSYSVAR
  2
AcImRealSysVar
  3
AcMeServices
 90
        0
280
     0
281
     0
  0
CLASS
  1
ACIMINTSYSVAR
  2
AcImIntSysVar
  3
AcMeServices
 90
        0
280
     0
281
     0
  0
CLASS
  1
ACMEDRAWINGMAN
  2
AcMeDrawingMan
  3
AcMeServices
 90
        0
280
     0
281
     0
  0
CLASS
  1
ACMEVIEW
  2
AcMeView
  3
AcMeServices
 90
        0
280
     0
281
     0
  0
CLASS
  1
ACDBENTITYCACHE
  2
AcMeEntityCache
  3
AcMeServices
 90
        0
280
     0
281
     0
  0
CLASS
  1
GSMANAGER
  2
AcMeGSManager
  3
AcMeServices
 90
        0
280
     0
281
     0
  0
CLASS
  1
AmdtInternalReactor
  2
AmdtInternalReactor
  3
AcMeServices
 90
        0
280
     0
281
     0
  0
CLASS
  1
ACMESTATEMGR
  2
AcMeStateMgr
  3
AcMeServices
 90
        0
280
     0
281
     0
  0
CLASS
  1
ACME_DATABASE
  2
AcMeDbDatabase
  3
AcMeServices
 90
        0
280
     0
281
     0
  0
CLASS
  1
ACRFINSADJUSTERMGR
  2
AcRfInsAdjusterMgr
  3
AcMeServices
 90
        0
280
     0
281
     0
  0
CLASS
  1
ACMDATADICTIONARY
  2
AcmDataDictionary
  3
"AcmSymBB|Product Description: AutoCAD Mechanical 2000|Company: Autodesk"
 90
        0
280
     0
281
     0
  0
CLASS
  1
ACMDATAENTRYBLOCK
  2
AcmDataEntryBlock
  3
"AcmSymBB|Product Description: AutoCAD Mechanical 2000|Company: Autodesk"
 90
        0
280
     0
281
     0
  0
CLASS
  1
AMGOBJPROPCFG
  2
AmgObjPropCfg
  3
"AmgLay|Product Description: AutoCAD Mechanical 2000|Company: Autodesk"
 90
        1
280
     0
281
     0
  0
CLASS
  1
ACAMGFILTERDAT
  2
AcAmgFilterDat
  3
"AcadM|Product Description: AutoCAD Mechanical 2000|Company: Autodesk"
 90
        0
280
     0
281
     0
  0
CLASS
  1
LAYER_INDEX
  2
AcDbLayerIndex
  3
AutoCAD 2000
 90
        0
280
     0
281
     0
  0
CLASS
  1
IDBUFFER
  2
AcDbIdBuffer
  3
AutoCAD 2000
 90
        0
280
     0
281
     0
  0
CLASS
  1
ACIMSTRSYSVAR
  2
AcImStrSysVar
  3
AcMeServices
 90
        0
280
     0
281
     0
  0
CLASS
  1
ACMSTANDARDJIS
  2
AcmStandardJIS
  3
"AcmSymBB|Product Description: AutoCAD Mechanical 2000|Company: Autodesk"
 90
        0
280
     0
281
     0
  0
CLASS
  1
ACMSURFSTANDARDJIS
  2
AcmSurfTextStdJIS
  3
"AcmSymBB|Product Description: AutoCAD Mechanical 2000|Company: Autodesk"
 90
        0
280
     0
281
     0
  0
CLASS
  1
ACMFCFSTANDARDJIS
  2
AcmFCFStdJIS
  3
"AcmSymBB|Product Description: AutoCAD Mechanical 2000|Company: Autodesk"
 90
        0
280
     0
281
     0
  0
CLASS
  1
ACMWELDSTANDARDJIS
  2
AcmWeldingStdJIS
  3
"AcmSymBB|Product Description: AutoCAD Mechanical 2000|Company: Autodesk"
 90
        0
280
     0
281
     0
  0
CLASS
  1
ACMIDSTANDARDJIS
  2
AcmIdStdJIS
  3
"AcmSymBB|Product Description: AutoCAD Mechanical 2000|Company: Autodesk"
 90
        0
280
     0
281
     0
  0
CLASS
  1
ACMDATUMSTANDARDJIS
  2
AcmDatumStdJIS
  3
"AcmSymBB|Product Description: AutoCAD Mechanical 2000|Company: Autodesk"
 90
        0
280
     0
281
     0
  0
CLASS
  1
ACMBOMSTANDARDJIS
  2
AcmBOMStdJIS
  3
"AcmSymBB|Product Description: AutoCAD Mechanical 2000|Company: Autodesk"
 90
        0
280
     0
281
     0
  0
CLASS
  1
ACMSTANDARDANSI
  2
AcmStandardANSI
  3
"AcmSymBB|Product Description: AutoCAD Mechanical 2000|Company: Autodesk"
 90
        0
280
     0
281
     0
  0
CLASS
  1
ACMSURFSTANDARDANSI
  2
AcmSurfTextStdANSI
  3
"AcmSymBB|Product Description: AutoCAD Mechanical 2000|Company: Autodesk"
 90
        0
280
     0
281
     0
  0
CLASS
  1
ACMFCFSTANDARDANSI
  2
AcmFCFStdANSI
  3
"AcmSymBB|Product Description: AutoCAD Mechanical 2000|Company: Autodesk"
 90
        0
280
     0
281
     0
  0
CLASS
  1
ACMWELDSTANDARDANSI
  2
AcmWeldingStdANSI
  3
"AcmSymBB|Product Description: AutoCAD Mechanical 2000|Company: Autodesk"
 90
        0
280
     0
281
     0
  0
CLASS
  1
ACMIDSTANDARDANSI
  2
AcmIdStdANSI
  3
"AcmSymBB|Product Description: AutoCAD Mechanical 2000|Company: Autodesk"
 90
        0
280
     0
281
     0
  0
CLASS
  1
ACMDATUMSTANDARDANSI
  2
AcmDatumStdANSI
  3
"AcmSymBB|Product Description: AutoCAD Mechanical 2000|Company: Autodesk"
 90
        0
280
     0
281
     0
  0
CLASS
  1
ACMBOMSTANDARDANSI
  2
AcmBOMStdANSI
  3
"AcmSymBB|Product Description: AutoCAD Mechanical 2000|Company: Autodesk"
 90
        0
280
     0
281
     0
  0
CLASS
  1
ACMSTANDARDBSI
  2
AcmStandardBSI
  3
"AcmSymBB|Product Description: AutoCAD Mechanical 2000|Company: Autodesk"
 90
        0
280
     0
281
     0
  0
CLASS
  1
ACMSURFSTANDARDBSI
  2
AcmSurfTextStdBSI
  3
"AcmSymBB|Product Description: AutoCAD Mechanical 2000|Company: Autodesk"
 90
        0
280
     0
281
     0
  0
CLASS
  1
ACMFCFSTANDARDBSI
  2
AcmFCFStdBSI
  3
"AcmSymBB|Product Description: AutoCAD Mechanical 2000|Company: Autodesk"
 90
        0
280
     0
281
     0
  0
CLASS
  1
ACMWELDSTANDARDBSI
  2
AcmWeldingStdBSI
  3
"AcmSymBB|Product Description: AutoCAD Mechanical 2000|Company: Autodesk"
 90
        0
280
     0
281
     0
  0
CLASS
  1
ACMIDSTANDARDBSI
  2
AcmIdStdBSI
  3
"AcmSymBB|Product Description: AutoCAD Mechanical 2000|Company: Autodesk"
 90
        0
280
     0
281
     0
  0
CLASS
  1
ACMDATUMSTANDARDBSI
  2
AcmDatumStdBSI
  3
"AcmSymBB|Product Description: AutoCAD Mechanical 2000|Company: Autodesk"
 90
        0
280
     0
281
     0
  0
CLASS
  1
ACMBOMSTANDARDBSI
  2
AcmBOMStdBSI
  3
"AcmSymBB|Product Description: AutoCAD Mechanical 2000|Company: Autodesk"
 90
        0
280
     0
281
     0
  0
CLASS
  1
LONG_TRANSACTION
  2
AcDbLongTransaction
  3
AutoCAD 2000
 90
        0
280
     0
281
     0
  0
CLASS
  1
LWPOLYLINE
  2
AcDbPolyline
  3
AutoCAD 2000
 90
        0
280
     0
281
     1
  0
CLASS
  1
HATCH
  2
AcDbHatch
  3
AutoCAD 2000
 90
        0
280
     0
281
     1
  0
CLASS
  1
XRECORD
  2
AcDbXrecord
  3
AutoCAD 2000
 90
        0
280
     0
281
     0
  0
ENDSEC
  0
SECTION
  2
TABLES
  0
TABLE
  2
VPORT
  5
8
330
0
100
AcDbSymbolTable
 70
     3
  0
VPORT
  5
4BB4
330
8
100
AcDbSymbolTableRecord
100
AcDbViewportTableRecord
  2
*ACTIVE
 70
     0
 10
0.0
 20
0.0
 11
1.0
 21
1.0
 12
-19.94664493798936
 22
-16.84691306202893
 13
0.0
 23
0.0
 14
2.5
 24
2.5
 15
10.0
 25
10.0
 16
0.0
 26
0.0
 36
1.0
 17
0.0
 27
0.0
 37
0.0
 40
118.3845643540658
 41
1.56570841889117
 42
50.0
 43
0.0
 44
0.0
 50
0.0
 51
0.0
 71
     0
 72
   100
 73
     1
 74
     3
 75
     0
 76
     0
 77
     0
 78
     0
  0
ENDTAB
  0
TABLE
  2
LTYPE
  5
5
330
0
100
AcDbSymbolTable
 70
    10
  0
LTYPE
  5
14
330
5
100
AcDbSymbolTableRecord
100
AcDbLinetypeTableRecord
  2
BYBLOCK
 70
     0
  3

 72
    65
 73
     0
 40
0.0
  0
LTYPE
  5
15
330
5
100
AcDbSymbolTableRecord
100
AcDbLinetypeTableRecord
  2
BYLAYER
 70
     0
  3

 72
    65
 73
     0
 40
0.0
  0
LTYPE
  5
16
330
5
100
AcDbSymbolTableRecord
100
AcDbLinetypeTableRecord
  2
CONTINUOUS
 70
     0
  3
Solid line
 72
    65
 73
     0
 40
0.0
  0
LTYPE
  5
4B
330
5
100
AcDbSymbolTableRecord
100
AcDbLinetypeTableRecord
  2
AM_ISO02W050
 70
     0
  3
__ __ __ __ __ __ __ __ __ __ __ __ __ __ __
 72
    65
 73
     2
 40
7.5
 49
6.0
 74
     0
 49
-1.5
 74
     0
  0
LTYPE
  5
4C
330
5
100
AcDbSymbolTableRecord
100
AcDbLinetypeTableRecord
  2
AM_ISO08W050
 70
     0
  3
____ . ____ . ____ . ____ . ____ . ____ . ____
 72
    65
 73
     4
 40
18.0
 49
12.0
 74
     0
 49
-1.5
 74
     0
 49
3.0
 74
     0
 49
-1.5
 74
     0
  0
LTYPE
  5
4D
330
5
100
AcDbSymbolTableRecord
100
AcDbLinetypeTableRecord
  2
AM_ISO09W050
 70
     0
  3
_____ . . _____ . . _____ . . ____ .. ____
 72
    65
 73
     6
 40
22.5
 49
12.0
 74
     0
 49
-1.5
 74
     0
 49
3.0
 74
     0
 49
-1.5
 74
     0
 49
3.0
 74
     0
 49
-1.5
 74
     0
  0
LTYPE
  5
4E
330
5
100
AcDbSymbolTableRecord
100
AcDbLinetypeTableRecord
  2
AMCONSTR
 70
     0
  3
_______________________
 72
    65
 73
     2
 40
9999.0
 49
9999.0
 74
     0
 49
0.0
 74
     0
  0
LTYPE
  5
4F
330
5
100
AcDbSymbolTableRecord
100
AcDbLinetypeTableRecord
  2
AM_ISO02W050X2
 70
     0
  3
 _ _ _ _ _ _ _ _ _ _ _ _
 72
    65
 73
     2
 40
3.75
 49
3.0
 74
     0
 49
-0.75
 74
     0
  0
LTYPE
  5
50
330
5
100
AcDbSymbolTableRecord
100
AcDbLinetypeTableRecord
  2
AM_ISO08W050X2
 70
     0
  3
__ . __ . __ . __ . __ . __
 72
    65
 73
     4
 40
9.0
 49
6.0
 74
     0
 49
-0.75
 74
     0
 49
1.5
 74
     0
 49
-0.75
 74
     0
  0
LTYPE
  5
53
330
5
100
AcDbSymbolTableRecord
100
AcDbLinetypeTableRecord
  2
AMZIGZAG
 70
     0
  3
/\/-/\/-/\/-/\/-/\/-/\/
 72
    65
 73
     2
 40
11.00009999999999
 49
0.0001
 74
     4
 75
   135
340
52
 46
0.04
 50
0.0
 44
0.0
 45
0.0
 49
-11.0
 74
     0
  0
LTYPE
  5
166
330
5
100
AcDbSymbolTableRecord
100
AcDbLinetypeTableRecord
  2
ACJISTGL
 70
     0
  3
_ _ _ _ _
 72
    65
 73
     2
 40
3.0
 49
2.0
 74
     0
 49
-1.0
 74
     0
  0
LTYPE
  5
26A
330
5
100
AcDbSymbolTableRecord
100
AcDbLinetypeTableRecord
  2
ACJISTGB
 70
     0
  3
__ . . __ . .
 72
    65
 73
     6
 40
9.0
 49
4.0
 74
     0
 49
-1.0
 74
     0
 49
1.0
 74
     0
 49
-1.0
 74
     0
 49
1.0
 74
     0
 49
-1.0
 74
     0
  0
ENDTAB
  0
TABLE
  2
LAYER
  5
2
330
0
100
AcDbSymbolTable
 70
     7
  0
LAYER
  5
10
330
2
100
AcDbSymbolTableRecord
100
AcDbLayerTableRecord
  2
0
 70
     0
 62
     7
  6
CONTINUOUS
  0
LAYER
  5
3F9
330
2
100
AcDbSymbolTableRecord
100
AcDbLayerTableRecord
  2
AM_0
 70
     0
 62
     7
  6
CONTINUOUS
  0
LAYER
  5
BDD
330
2
100
AcDbSymbolTableRecord
100
AcDbLayerTableRecord
  2
AM_11
 70
     0
 62
     3
  6
AM_ISO09W050
  0
LAYER
  5
BDE
330
2
100
AcDbSymbolTableRecord
100
AcDbLayerTableRecord
  2
AM_7
 70
     0
 62
     4
  6
AM_ISO08W050
  0
LAYER
  5
BDF
330
2
100
AcDbSymbolTableRecord
100
AcDbLayerTableRecord
  2
AM_5
 70
     0
 62
     3
  6
CONTINUOUS
  0
LAYER
  5
BE0
330
2
100
AcDbSymbolTableRecord
100
AcDbLayerTableRecord
  2
DEFPOINTS
 70
     0
 62
     7
  6
CONTINUOUS
  0
LAYER
  5
14FF
330
2
100
AcDbSymbolTableRecord
100
AcDbLayerTableRecord
  2
AM_6
 70
     0
 62
     2
  6
CONTINUOUS
  0
ENDTAB
  0
TABLE
  2
STYLE
  5
3
330
0
100
AcDbSymbolTable
 70
     5
  0
STYLE
  5
11
330
3
100
AcDbSymbolTableRecord
100
AcDbTextStyleTableRecord
  2
STANDARD
 70
     0
 40
0.0
 41
1.0
 50
0.0
 71
     0
 42
2.5
  3
simplex.shx
  4
EXTFONT.SHX
  0
STYLE
  5
52
330
3
100
AcDbSymbolTableRecord
100
AcDbTextStyleTableRecord
  2

 70
     1
 40
0.0
 41
1.0
 50
0.0
 71
     0
 42
2.5
  3
ltypeshp.shx
  4

  0
STYLE
  5
6B
330
3
100
AcDbSymbolTableRecord
100
AcDbTextStyleTableRecord
  2
ASAMI
 70
     0
 40
0.0
 41
1.0
 50
0.0
 71
     0
 42
2.5
  3
simplex.shx
  4
EXTFONT.SHX
  0
STYLE
  5
262
330
3
100
AcDbSymbolTableRecord
100
AcDbTextStyleTableRecord
  2
ACJISTS
 70
     0
 40
1.0
 41
1.0
 50
0.0
 71
     0
 42
2.5
  3
simplex.shx
  4
bigfont.shx
  0
STYLE
  5
269
330
3
100
AcDbSymbolTableRecord
100
AcDbTextStyleTableRecord
  2
ACJISGDT
 70
     0
 40
0.0
 41
1.0
 50
0.0
 71
     0
 42
2.5
  3
amgdtans.shx
  4

  0
ENDTAB
  0
TABLE
  2
VIEW
  5
6
330
0
100
AcDbSymbolTable
 70
     0
  0
ENDTAB
  0
TABLE
  2
UCS
  5
7
330
0
100
AcDbSymbolTable
 70
     0
  0
ENDTAB
  0
TABLE
  2
APPID
  5
9
330
0
100
AcDbSymbolTable
 70
    14
  0
APPID
  5
12
330
9
100
AcDbSymbolTableRecord
100
AcDbRegAppTableRecord
  2
ACAD
 70
     0
  0
APPID
  5
30
330
9
100
AcDbSymbolTableRecord
100
AcDbRegAppTableRecord
  2
MCAD_NO_VIS
 70
     0
  0
APPID
  5
31
330
9
100
AcDbSymbolTableRecord
100
AcDbRegAppTableRecord
  2
ACAD_TEMP_GRAPHIC
 70
     0
  0
APPID
  5
2C2
330
9
100
AcDbSymbolTableRecord
100
AcDbRegAppTableRecord
  2
GENIUS_GENDTOL_13
 70
     0
  0
APPID
  5
339
330
9
100
AcDbSymbolTableRecord
100
AcDbRegAppTableRecord
  2
GENIUS_GENODEF_13
 70
     0
  0
APPID
  5
33A
330
9
100
AcDbSymbolTableRecord
100
AcDbRegAppTableRecord
  2
GENIUS_GENOBJ-N-RSBK_13
 70
     0
  0
APPID
  5
33B
330
9
100
AcDbSymbolTableRecord
100
AcDbRegAppTableRecord
  2
GENIUS_GENOBJ-N-LIB_13
 70
     0
  0
APPID
  5
33C
330
9
100
AcDbSymbolTableRecord
100
AcDbRegAppTableRecord
  2
GENIUS_GENSCALE_13
 70
     0
  0
APPID
  5
378
330
9
100
AcDbSymbolTableRecord
100
AcDbRegAppTableRecord
  2
GENIUS_GENDIMSH_14
 70
     0
  0
APPID
  5
BE1
330
9
100
AcDbSymbolTableRecord
100
AcDbRegAppTableRecord
  2
GENIUS_GENFIL_13
 70
     0
  0
APPID
  5
BE2
330
9
100
AcDbSymbolTableRecord
100
AcDbRegAppTableRecord
  2
GENIUS_GENOBJ-N-CHA_13
 70
     0
  0
APPID
  5
151B
330
9
100
AcDbSymbolTableRecord
100
AcDbRegAppTableRecord
  2
DCO15
 70
     0
  0
APPID
  5
1860
330
9
100
AcDbSymbolTableRecord
100
AcDbRegAppTableRecord
  2
GENIUS_GENOBJ-N-CEN_13
 70
     0
  0
APPID
  5
359C
330
9
100
AcDbSymbolTableRecord
100
AcDbRegAppTableRecord
  2
GENIUS_GENOBJ-N-FIL_13
 70
     0
  0
ENDTAB
  0
TABLE
  2
DIMSTYLE
  5
A
330
0
100
AcDbSymbolTable
 70
     8
  0
DIMSTYLE
105
58
102
{ACAD_REACTORS
330
4AE6
330
4AE8
330
4AED
330
4B34
102
}
330
A
100
AcDbSymbolTableRecord
100
AcDbDimStyleTableRecord
  2
AM_JIS
 70
     0
  3

  4
"
  5
OPEN30
  6

  7

 40
0.5
 41
2.5
 42
1.0
 43
12.0
 44
1.0
 45
0.0
 46
0.0
 47
0.1
 48
0.1
140
3.2
141
0.0
142
0.0
143
0.0393701
144
1.0
145
0.0
146
0.71
147
1.5
 71
     0
 72
     0
 73
     0
 74
     0
 75
     0
 76
     0
 77
     3
 78
     8
170
     0
171
     2
172
     1
173
     0
174
     0
175
     0
176
   256
177
   256
178
     2
270
     2
271
     3
272
     3
273
     2
274
     2
340
6B
275
     0
280
     0
281
     0
282
     0
283
     0
284
     0
285
     0
286
     0
287
     3
288
     0
  0
DIMSTYLE
105
5F
330
A
100
AcDbSymbolTableRecord
100
AcDbDimStyleTableRecord
  2
AM_JIS$3
 70
     0
  3

  4
"
  5
OPEN30
  6

  7

 40
0.5
 41
2.5
 42
1.0
 43
10.0
 44
1.0
 45
0.0
 46
0.0
 47
0.1
 48
0.1
140
3.2
141
0.0
142
0.0
143
0.0393701
144
1.0
145
0.0
146
0.71
147
1.5
 71
     0
 72
     0
 73
     0
 74
     1
 75
     0
 76
     0
 77
     3
 78
     8
170
     0
171
     2
172
     0
173
     0
174
     0
175
     0
176
   256
177
   256
178
     2
270
     2
271
     2
272
     3
273
     2
274
     2
340
6B
275
     0
280
     0
281
     0
282
     0
283
     0
284
     0
285
     0
286
     0
287
     0
288
     1
  0
DIMSTYLE
105
60
330
A
100
AcDbSymbolTableRecord
100
AcDbDimStyleTableRecord
  2
AM_JIS$4
 70
     0
  3

  4
"
  5
OPEN30
  6

  7

 40
0.5
 41
2.5
 42
1.0
 43
10.0
 44
1.0
 45
0.0
 46
0.0
 47
0.1
 48
0.1
140
3.2
141
0.0
142
0.0
143
0.0393701
144
1.0
145
0.0
146
0.71
147
1.5
 71
     0
 72
     0
 73
     0
 74
     1
 75
     0
 76
     0
 77
     3
 78
     8
170
     0
171
     2
172
     0
173
     0
174
     0
175
     0
176
   256
177
   256
178
     2
270
     2
271
     2
272
     3
273
     2
274
     2
340
6B
275
     0
280
     0
281
     0
282
     0
283
     0
284
     0
285
     0
286
     0
287
     0
288
     1
  0
DIMSTYLE
105
61
330
A
100
AcDbSymbolTableRecord
100
AcDbDimStyleTableRecord
  2
AM_JIS$6
 70
     0
  3

  4
"
  5
OPEN30
  6

  7

 40
0.5
 41
2.5
 42
1.0
 43
10.0
 44
1.0
 45
0.0
 46
0.0
 47
0.1
 48
0.1
140
3.2
141
0.0
142
0.0
143
0.0393701
144
1.0
145
0.0
146
0.71
147
1.5
 71
     0
 72
     0
 73
     0
 74
     0
 75
     0
 76
     0
 77
     0
 78
     8
170
     0
171
     2
172
     1
173
     0
174
     0
175
     0
176
   256
177
   256
178
     2
270
     2
271
     2
272
     2
273
     2
274
     2
340
6B
275
     0
280
     0
281
     0
282
     0
283
     0
284
     0
285
     0
286
     0
287
     3
288
     0
  0
DIMSTYLE
105
62
330
A
100
AcDbSymbolTableRecord
100
AcDbDimStyleTableRecord
  2
AM_JIS$7
 70
     0
  3

  4
"
  5
OPEN30
  6

  7

 40
0.5
 41
2.5
 42
1.0
 43
10.0
 44
1.0
 45
0.0
 46
0.0
 47
0.1
 48
0.1
140
3.2
141
0.0
142
0.0
143
0.0393701
144
1.0
145
0.0
146
0.71
147
1.5
 71
     0
 72
     0
 73
     0
 74
     0
 75
     0
 76
     0
 77
     3
 78
     8
170
     0
171
     2
172
     1
173
     0
174
     0
175
     0
176
   256
177
   256
178
     2
270
     2
271
     2
272
     3
273
     2
274
     2
340
6B
275
     0
280
     0
281
     0
282
     0
283
     0
284
     0
285
     0
286
     0
287
     3
288
     0
  0
DIMSTYLE
105
63
330
A
100
AcDbSymbolTableRecord
100
AcDbDimStyleTableRecord
  2
AM_JIS$SF
 70
     0
  3

  4
"
  5
OPEN30
  6

  7

 40
0.5
 41
2.5
 42
1.0
 43
10.0
 44
1.0
 45
0.0
 46
0.0
 47
0.1
 48
0.1
140
3.2
141
0.0
142
0.0
143
0.0393701
144
1.0
145
0.0
146
0.71
147
1.5
 71
     0
 72
     0
 73
     0
 74
     0
 75
     1
 76
     1
 77
     3
 78
     8
170
     0
171
     2
172
     1
173
     0
174
     0
175
     0
176
   256
177
   256
178
     2
270
     2
271
     2
272
     2
273
     2
274
     2
340
6B
275
     0
280
     0
281
     0
282
     0
283
     0
284
     0
285
     0
286
     0
287
     3
288
     0
  0
DIMSTYLE
105
68
330
A
100
AcDbSymbolTableRecord
100
AcDbDimStyleTableRecord
  2
AM_JIS$SH
 70
     0
  3

  4
"
  5

  6
GENAXEH
  7
OPEN30
 40
0.5
 41
2.5
 42
1.0
 43
10.0
 44
1.0
 45
0.0
 46
0.0
 47
0.1
 48
0.1
140
3.2
141
0.0
142
0.0
143
0.0393701
144
2.0
145
0.0
146
0.71
147
1.5
 71
     0
 72
     0
 73
     0
 74
     0
 75
     1
 76
     1
 77
     3
 78
     8
170
     0
171
     2
172
     1
173
     1
174
     0
175
     0
176
   256
177
   256
178
     2
270
     2
271
     2
272
     2
273
     2
274
     2
340
6B
275
     0
280
     0
281
     0
282
     0
283
     0
284
     0
285
     0
286
     0
287
     3
288
     0
  0
DIMSTYLE
105
B34
330
A
100
AcDbSymbolTableRecord
100
AcDbDimStyleTableRecord
  2
AM_JIS$2
 70
     0
  3

  4
"
  5
OPEN30
  6

  7

 40
0.5
 41
2.5
 42
1.0
 43
12.0
 44
1.0
 45
0.0
 46
0.0
 47
0.1
 48
0.1
140
3.2
141
0.0
142
0.0
143
0.0393701
144
1.0
145
0.0
146
0.71
147
1.5
 71
     0
 72
     0
 73
     0
 74
     0
 75
     0
 76
     0
 77
     3
 78
     8
170
     0
171
     2
172
     1
173
     0
174
     0
175
     0
176
   256
177
   256
178
     2
270
     2
271
     3
272
     3
273
     2
274
     2
340
6B
275
     0
280
     0
281
     0
282
     0
283
     0
284
     0
285
     0
286
     0
287
     3
288
     0
  0
ENDTAB
  0
TABLE
  2
BLOCK_RECORD
  5
1
330
0
100
AcDbSymbolTable
 70
     9
  0
BLOCK_RECORD
  5
1F
102
{ACAD_XDICTIONARY
360
74
102
}
330
1
100
AcDbSymbolTableRecord
100
AcDbBlockTableRecord
  2
*MODEL_SPACE
  0
BLOCK_RECORD
  5
101
102
{ACAD_XDICTIONARY
360
4BDD
102
}
330
1
100
AcDbSymbolTableRecord
100
AcDbBlockTableRecord
  2
*PAPER_SPACE
  0
BLOCK_RECORD
  5
59
330
1
100
AcDbSymbolTableRecord
100
AcDbBlockTableRecord
  2
_OPEN30
  0
BLOCK_RECORD
  5
64
330
1
100
AcDbSymbolTableRecord
100
AcDbBlockTableRecord
  2
GENAXEH
  0
BLOCK_RECORD
  5
4B3F
330
1
100
AcDbSymbolTableRecord
100
AcDbBlockTableRecord
  2
*D5
  0
BLOCK_RECORD
  5
4B4B
330
1
100
AcDbSymbolTableRecord
100
AcDbBlockTableRecord
  2
*D6
  0
BLOCK_RECORD
  5
4B57
330
1
100
AcDbSymbolTableRecord
100
AcDbBlockTableRecord
  2
*D7
  0
BLOCK_RECORD
  5
4B63
330
1
100
AcDbSymbolTableRecord
100
AcDbBlockTableRecord
  2
*D8
  0
ENDTAB
  0
ENDSEC
  0
SECTION
  2
BLOCKS
  0
BLOCK
  5
20
330
1F
100
AcDbEntity
  8
0
100
AcDbBlockBegin
  2
*MODEL_SPACE
 70
     0
 10
0.0
 20
0.0
 30
0.0
  3
*MODEL_SPACE
  1

  0
ENDBLK
  5
21
330
1F
100
AcDbEntity
  8
0
100
AcDbBlockEnd
  0
BLOCK
  5
103
330
101
100
AcDbEntity
 67
     1
  8
0
100
AcDbBlockBegin
  2
*PAPER_SPACE
 70
     0
 10
0.0
 20
0.0
 30
0.0
  3
*PAPER_SPACE
  1

  0
ENDBLK
  5
104
330
101
100
AcDbEntity
 67
     1
  8
0
100
AcDbBlockEnd
  0
BLOCK
  5
5D
330
59
100
AcDbEntity
  8
0
100
AcDbBlockBegin
  2
_OPEN30
 70
     0
 10
0.0
 20
0.0
 30
0.0
  3
_OPEN30
  1

  0
LINE
  5
5A
330
59
100
AcDbEntity
  8
0
 62
     0
100
AcDbLine
 10
-1.0
 20
0.26794919
 30
0.0
 11
0.0
 21
0.0
 31
0.0
  0
LINE
  5
5B
330
59
100
AcDbEntity
  8
0
 62
     0
100
AcDbLine
 10
0.0
 20
0.0
 30
0.0
 11
-1.0
 21
-0.26794919
 31
0.0
  0
LINE
  5
5C
330
59
100
AcDbEntity
  8
0
 62
     0
100
AcDbLine
 10
0.0
 20
0.0
 30
0.0
 11
-1.0
 21
0.0
 31
0.0
  0
ENDBLK
  5
5E
330
59
100
AcDbEntity
  8
0
100
AcDbBlockEnd
  0
BLOCK
  5
66
330
64
100
AcDbEntity
  8
0
100
AcDbBlockBegin
  2
GENAXEH
 70
     0
 10
0.0
 20
0.0
 30
0.0
  3
GENAXEH
  1

  0
LINE
  5
65
330
64
100
AcDbEntity
  8
0
100
AcDbLine
 10
-1.0
 20
0.0
 30
0.0
 11
1.0
 21
0.0
 31
0.0
  0
ENDBLK
  5
67
330
64
100
AcDbEntity
  8
0
100
AcDbBlockEnd
  0
BLOCK
  5
4B49
330
4B3F
100
AcDbEntity
  8
0
100
AcDbBlockBegin
  2
*D5
 70
     1
 10
0.0
 20
0.0
 30
0.0
  3
*D5
  1

  0
LINE
  5
4B6F
330
4B3F
100
AcDbEntity
  8
AM_5
100
AcDbLine
 10
0.0
 20
-6.999999999999991
 30
0.0
 11
-0.0000000000000009
 21
-21.50000100000006
 31
0.0
  0
LINE
  5
4B70
330
4B3F
100
AcDbEntity
  8
AM_5
100
AcDbLine
 10
-79.99999999999996
 20
-7.500000000000026
 30
0.0
 11
-79.99999999999996
 21
-21.50000100000006
 31
0.0
  0
LINE
  5
4B71
330
4B3F
100
AcDbEntity
  8
AM_5
100
AcDbLine
 10
-1.25
 20
-21.00000100000006
 30
0.0
 11
-78.74999999999996
 21
-21.00000100000006
 31
0.0
  0
INSERT
  5
4B72
330
4B3F
100
AcDbEntity
  8
AM_5
100
AcDbBlockReference
  2
_OPEN30
 10
-0.0000000000000009
 20
-21.00000100000006
 30
0.0
 41
1.25
 42
1.25
 43
1.25
  0
INSERT
  5
4B73
330
4B3F
100
AcDbEntity
  8
AM_5
100
AcDbBlockReference
  2
_OPEN30
 10
-79.99999999999996
 20
-21.00000100000006
 30
0.0
 41
1.25
 42
1.25
 43
1.25
 50
180.0
  0
MTEXT
  5
4B74
330
4B3F
100
AcDbEntity
  8
AM_5
 62
     2
100
AcDbMText
 10
-39.99999999999998
 20
-19.45000100000006
 30
0.0
 40
1.6
 41
0.0
 71
     5
 72
     1
  1
80
  7
ASAMI
1001
ACAD
1000
MTEXTBEGIN
1070
    73
1070
     1
1070
    44
1040
1.0
1070
    74
1070
     0
1000
MTEXTEND
  0
POINT
  5
4B75
330
4B3F
100
AcDbEntity
  8
DEFPOINTS
 62
     0
100
AcDbPoint
 10
0.0
 20
-6.499999999999991
 30
0.0
  0
POINT
  5
4B76
330
4B3F
100
AcDbEntity
  8
DEFPOINTS
 62
     0
100
AcDbPoint
 10
-79.99999999999996
 20
-7.000000000000026
 30
0.0
  0
POINT
  5
4B77
330
4B3F
100
AcDbEntity
  8
DEFPOINTS
 62
     0
100
AcDbPoint
 10
-79.99999999999996
 20
-21.00000100000006
 30
0.0
  0
ENDBLK
  5
4B4A
330
4B3F
100
AcDbEntity
  8
0
100
AcDbBlockEnd
  0
BLOCK
  5
4B55
330
4B4B
100
AcDbEntity
  8
0
100
AcDbBlockBegin
  2
*D6
 70
     1
 10
0.0
 20
0.0
 30
0.0
  3
*D6
  1

  0
LINE
  5
4B78
330
4B4B
100
AcDbEntity
  8
AM_5
100
AcDbLine
 10
-79.5
 20
8.000000000000003
 30
0.0
 11
-90.19470045058476
 21
8.000000000000007
 31
0.0
  0
LINE
  5
4B79
330
4B4B
100
AcDbEntity
  8
AM_5
100
AcDbLine
 10
-79.49999999999997
 20
-8.000000000000028
 30
0.0
 11
-90.19470045058476
 21
-8.000000000000026
 31
0.0
  0
LINE
  5
4B7A
330
4B4B
100
AcDbEntity
  8
AM_5
100
AcDbLine
 10
-89.69470045058477
 20
6.750000000000006
 30
0.0
 11
-89.69470045058477
 21
-6.750000000000026
 31
0.0
  0
INSERT
  5
4B7B
330
4B4B
100
AcDbEntity
  8
AM_5
100
AcDbBlockReference
  2
_OPEN30
 10
-89.69470045058477
 20
8.000000000000007
 30
0.0
 41
1.25
 42
1.25
 43
1.25
 50
90.0
  0
INSERT
  5
4B7C
330
4B4B
100
AcDbEntity
  8
AM_5
100
AcDbBlockReference
  2
_OPEN30
 10
-89.69470045058477
 20
-8.000000000000026
 30
0.0
 41
1.25
 42
1.25
 43
1.25
 50
270.0
  0
MTEXT
  5
4B7D
330
4B4B
100
AcDbEntity
  8
AM_5
 62
     2
100
AcDbMText
 10
-91.24470045058476
 20
-0.0000000000000241
 30
0.0
 40
1.6
 41
0.0
 71
     5
 72
     1
  1
%%c16
  7
ASAMI
 11
0.0000000000000001
 21
1.0
 31
0.0
1001
ACAD
1000
MTEXTBEGIN
1070
    73
1070
     1
1070
    44
1040
1.0
1070
    74
1070
     0
1000
MTEXTEND
  0
POINT
  5
4B7E
330
4B4B
100
AcDbEntity
  8
DEFPOINTS
 62
     0
100
AcDbPoint
 10
-79.0
 20
8.000000000000003
 30
0.0
  0
POINT
  5
4B7F
330
4B4B
100
AcDbEntity
  8
DEFPOINTS
 62
     0
100
AcDbPoint
 10
-78.99999999999997
 20
-8.000000000000028
 30
0.0
  0
POINT
  5
4B80
330
4B4B
100
AcDbEntity
  8
DEFPOINTS
 62
     0
100
AcDbPoint
 10
-89.69470045058477
 20
-8.000000000000026
 30
0.0
  0
ENDBLK
  5
4B56
330
4B4B
100
AcDbEntity
  8
0
100
AcDbBlockEnd
  0
BLOCK
  5
4B61
330
4B57
100
AcDbEntity
  8
0
100
AcDbBlockBegin
  2
*D7
 70
     1
 10
0.0
 20
0.0
 30
0.0
  3
*D7
  1

  0
LINE
  5
4B81
330
4B57
100
AcDbEntity
  8
AM_5
100
AcDbLine
 10
0.0
 20
-6.999999999999991
 30
0.0
 11
-0.0000000000000006
 21
-15.50000099999996
 31
0.0
  0
LINE
  5
4B82
330
4B57
100
AcDbEntity
  8
AM_5
100
AcDbLine
 10
-30.0
 20
-6.999999999999991
 30
0.0
 11
-30.0
 21
-15.50000099999996
 31
0.0
  0
LINE
  5
4B83
330
4B57
100
AcDbEntity
  8
AM_5
100
AcDbLine
 10
-1.25
 20
-15.00000099999996
 30
0.0
 11
-28.75
 21
-15.00000099999996
 31
0.0
  0
INSERT
  5
4B84
330
4B57
100
AcDbEntity
  8
AM_5
100
AcDbBlockReference
  2
_OPEN30
 10
-0.0000000000000005
 20
-15.00000099999996
 30
0.0
 41
1.25
 42
1.25
 43
1.25
  0
INSERT
  5
4B85
330
4B57
100
AcDbEntity
  8
AM_5
100
AcDbBlockReference
  2
_OPEN30
 10
-30.0
 20
-15.00000099999996
 30
0.0
 41
1.25
 42
1.25
 43
1.25
 50
180.0
  0
MTEXT
  5
4B86
330
4B57
100
AcDbEntity
  8
AM_5
 62
     2
100
AcDbMText
 10
-15.0
 20
-13.45000099999996
 30
0.0
 40
1.6
 41
0.0
 71
     5
 72
     1
  1
30
  7
ASAMI
1001
ACAD
1000
MTEXTBEGIN
1070
    73
1070
     1
1070
    44
1040
1.0
1070
    74
1070
     0
1000
MTEXTEND
  0
POINT
  5
4B87
330
4B57
100
AcDbEntity
  8
DEFPOINTS
 62
     0
100
AcDbPoint
 10
0.0
 20
-6.499999999999991
 30
0.0
  0
POINT
  5
4B88
330
4B57
100
AcDbEntity
  8
DEFPOINTS
 62
     0
100
AcDbPoint
 10
-30.0
 20
-6.499999999999991
 30
0.0
  0
POINT
  5
4B89
330
4B57
100
AcDbEntity
  8
DEFPOINTS
 62
     0
100
AcDbPoint
 10
-30.0
 20
-15.00000099999996
 30
0.0
  0
ENDBLK
  5
4B62
330
4B57
100
AcDbEntity
  8
0
100
AcDbBlockEnd
  0
BLOCK
  5
4B6D
330
4B63
100
AcDbEntity
  8
0
100
AcDbBlockBegin
  2
*D8
 70
     1
 10
0.0
 20
0.0
 30
0.0
  3
*D8
  1

  0
LINE
  5
4B8A
330
4B63
100
AcDbEntity
  8
AM_5
100
AcDbLine
 10
0.5
 20
6.50000000000001
 30
0.0
 11
12.05776903085518
 21
6.500000000000007
 31
0.0
  0
LINE
  5
4B8B
330
4B63
100
AcDbEntity
  8
AM_5
100
AcDbLine
 10
0.5000000000000093
 20
-6.499999999999991
 30
0.0
 11
12.05776903085517
 21
-6.499999999999994
 31
0.0
  0
LINE
  5
4B8C
330
4B63
100
AcDbEntity
  8
AM_5
100
AcDbLine
 10
11.55776903085518
 20
5.250000000000007
 30
0.0
 11
11.55776903085517
 21
-5.249999999999994
 31
0.0
  0
INSERT
  5
4B8D
330
4B63
100
AcDbEntity
  8
AM_5
100
AcDbBlockReference
  2
_OPEN30
 10
11.55776903085518
 20
6.500000000000007
 30
0.0
 41
1.25
 42
1.25
 43
1.25
 50
90.0
  0
INSERT
  5
4B8E
330
4B63
100
AcDbEntity
  8
AM_5
100
AcDbBlockReference
  2
_OPEN30
 10
11.55776903085517
 20
-6.499999999999994
 30
0.0
 41
1.25
 42
1.25
 43
1.25
 50
270.0
  0
MTEXT
  5
4B8F
330
4B63
100
AcDbEntity
  8
AM_5
 62
     2
100
AcDbMText
 10
10.00776903085517
 20
0.0000000000000084
 30
0.0
 40
1.6
 41
0.0
 71
     5
 72
     1
  1
%%c13
  7
ASAMI
 11
0.0000000000000001
 21
1.0
 31
0.0
1001
ACAD
1000
MTEXTBEGIN
1070
    73
1070
     1
1070
    44
1040
1.0
1070
    74
1070
     0
1000
MTEXTEND
  0
POINT
  5
4B90
330
4B63
100
AcDbEntity
  8
DEFPOINTS
 62
     0
100
AcDbPoint
 10
0.0
 20
6.50000000000001
 30
0.0
  0
POINT
  5
4B91
330
4B63
100
AcDbEntity
  8
DEFPOINTS
 62
     0
100
AcDbPoint
 10
0.0000000000000092
 20
-6.499999999999991
 30
0.0
  0
POINT
  5
4B92
330
4B63
100
AcDbEntity
  8
DEFPOINTS
 62
     0
100
AcDbPoint
 10
11.55776903085517
 20
-6.499999999999994
 30
0.0
  0
ENDBLK
  5
4B6E
330
4B63
100
AcDbEntity
  8
0
100
AcDbBlockEnd
  0
ENDSEC
  0
SECTION
  2
ENTITIES
  0
TEXT
  5
1500
330
1F
100
AcDbEntity
  8
AM_6
100
AcDbText
 10
-50.47619047619044
 20
-32.25000100000006
 30
0.0
 40
2.5
  1
HSM3130ZX
 72
     4
 11
-39.99999999999997
 21
-31.00000100000006
 31
0.0
100
AcDbText
  0
LINE
  5
4AE4
330
1F
100
AcDbEntity
  8
AM_0
100
AcDbLine
 10
-37.00000000000002
 20
8.000000000000024
 30
0.0
 11
-79.00000000000002
 21
8.000000000000003
 31
0.0
  0
LINE
  5
4AE5
330
1F
100
AcDbEntity
  8
AM_0
100
AcDbLine
 10
-36.99999999999995
 20
-7.999999999999976
 30
0.0
 11
-78.99999999999995
 21
-8.000000000000024
 31
0.0
  0
DIMENSION
  5
4AE6
330
1F
100
AcDbEntity
  8
AM_5
100
AcDbDimension
  2
*D5
 10
-79.99999999999996
 20
-21.00000100000006
 30
0.0
 11
-39.99999999999998
 21
-19.45000100000006
 31
0.0
 70
    32
  1
<>
  3
AM_JIS
100
AcDbAlignedDimension
 13
0.0
 23
-6.499999999999991
 33
0.0
 14
-79.99999999999996
 24
-7.000000000000026
 34
0.0
 50
0.0000000000001132
100
AcDbRotatedDimension
1001
GENIUS_GENDTOL_13
1000

1000
h7
1000

1040
0.0
  0
LINE
  5
4AE7
330
1F
100
AcDbEntity
  8
AM_7
  6
AM_ISO08W050X2
100
AcDbLine
 10
4.557768030855186
 20
0.0
 30
0.0
 11
-82.69469945058478
 21
-0.0000000000000249
 31
0.0
1001
GENIUS_GENODEF_13
1002
{
1000
HIER
1070
     0
1002
}
1002
{
1000
MANEDIT
1070
     0
1002
}
1002
{
1000
NOSEL
1070
     0
1002
}
1002
{
1000
BEHIND
1070
     0
1002
}
1002
{
1000
REACTOR
1002
}
1001
GENIUS_GENOBJ-N-CEN_13
1002
{
1000
OWNER
1000
GEN
1002
}
  0
DIMENSION
  5
4AE8
330
1F
100
AcDbEntity
  8
AM_5
100
AcDbDimension
  2
*D6
 10
-89.69470045058477
 20
-8.000000000000026
 30
0.0
 11
-91.24470045058476
 21
-0.0000000000000241
 31
0.0
 70
    32
  1
%%c<>
  3
AM_JIS
100
AcDbAlignedDimension
 13
-79.0
 23
8.000000000000003
 33
0.0
 14
-78.99999999999997
 24
-8.000000000000028
 34
0.0
 50
270.0
100
AcDbRotatedDimension
1001
GENIUS_GENDTOL_13
1000

1000
h7
1000

1040
0.0
  0
LINE
  5
4AE9
330
1F
100
AcDbEntity
  8
AM_0
100
AcDbLine
 10
-80.00000000000001
 20
7.000000000000003
 30
0.0
 11
-79.99999999999996
 21
-7.000000000000026
 31
0.0
  0
LINE
  5
4AEA
330
1F
100
AcDbEntity
  8
AM_0
100
AcDbLine
 10
-79.0
 20
8.000000000000003
 30
0.0
 11
-78.99999999999997
 21
-8.000000000000028
 31
0.0
  0
LINE
  5
4AEB
330
1F
100
AcDbEntity
  8
AM_0
100
AcDbLine
 10
-79.99999999999996
 20
-7.000000000000026
 30
0.0
 11
-78.99999999999995
 21
-8.000000000000024
 31
0.0
1001
GENIUS_GENFIL_13
1070
     0
1040
1.0
1040
1.0
1040
20.0
1040
0.0
1002
{
1002
}
1001
GENIUS_GENODEF_13
1002
{
1000
HIER
1070
     0
1002
}
1002
{
1000
MANEDIT
1070
     0
1002
}
1002
{
1000
NOSEL
1070
     0
1002
}
1002
{
1000
BEHIND
1070
     0
1002
}
1002
{
1000
REACTOR
1002
}
1001
GENIUS_GENOBJ-N-CHA_13
1002
{
1000
OWNER
1000
GEN
1002
}
  0
LINE
  5
4AEC
330
1F
100
AcDbEntity
  8
AM_0
100
AcDbLine
 10
-80.00000000000001
 20
7.000000000000003
 30
0.0
 11
-79.00000000000002
 21
8.000000000000003
 31
0.0
1001
GENIUS_GENFIL_13
1070
     0
1040
1.0
1040
1.0
1040
20.0
1040
0.0
1002
{
1002
}
1001
GENIUS_GENODEF_13
1002
{
1000
HIER
1070
     0
1002
}
1002
{
1000
MANEDIT
1070
     0
1002
}
1002
{
1000
NOSEL
1070
     0
1002
}
1002
{
1000
BEHIND
1070
     0
1002
}
1002
{
1000
REACTOR
1002
}
1001
GENIUS_GENOBJ-N-CHA_13
1002
{
1000
OWNER
1000
GEN
1002
}
  0
DIMENSION
  5
4AED
330
1F
100
AcDbEntity
  8
AM_5
100
AcDbDimension
  2
*D7
 10
-30.0
 20
-15.00000099999996
 30
0.0
 11
-15.0
 21
-13.45000099999996
 31
0.0
 70
    32
  1
<>
  3
AM_JIS
100
AcDbAlignedDimension
 13
0.0
 23
-6.499999999999991
 33
0.0
 14
-30.0
 24
-6.499999999999991
 34
0.0
 50
0.0000000000001132
100
AcDbRotatedDimension
1001
GENIUS_GENDTOL_13
1000

1000
h7
1000

1040
0.0
  0
SPLINE
  5
4AEE
330
1F
100
AcDbEntity
  8
AM_0
100
AcDbSpline
210
0.0
220
0.0
230
1.0
 70
     8
 71
     3
 72
     8
 73
     4
 74
     0
 42
0.0000000001
 43
0.0000000001
 40
0.3982504941345976
 40
0.3982504941345976
 40
0.3982504941345976
 40
0.3982504941345976
 40
6.452065446090842
 40
6.452065446090842
 40
6.452065446090842
 40
6.452065446090842
 10
-33.32973073819054
 20
6.342645332866991
 30
0.0
 10
-30.76402964125321
 20
5.639867904358162
 30
0.0
 10
-29.33123370117258
 20
2.819933952179667
 30
0.0
 10
-27.89843776109313
 20
0.0000000000010516
 30
0.0
  0
SPLINE
  5
4AEF
330
1F
100
AcDbEntity
  8
AM_0
100
AcDbSpline
210
0.0
220
0.0
230
1.0
 70
     8
 71
     3
 72
     8
 73
     4
 74
     0
 42
0.0000000001
 43
0.0000000001
 40
0.0
 40
0.0
 40
0.0
 40
0.0
 40
2.948331486770748
 40
2.948331486770748
 40
2.948331486770748
 40
2.948331486770748
 10
-15.65000000000177
 20
6.500000000000738
 30
0.0
 10
-16.92761031093554
 20
6.500000000001293
 30
0.0
 10
-17.92716546645169
 20
5.875665407590346
 30
0.0
 10
-18.33668347588299
 20
5.413007027234728
 30
0.0
  0
SPLINE
  5
4AF0
330
1F
100
AcDbEntity
  8
AM_0
100
AcDbSpline
210
0.0
220
0.0
230
1.0
 70
     8
 71
     3
 72
     8
 73
     4
 74
     0
 42
0.0000000001
 43
0.0000000001
 40
0.0
 40
0.0
 40
0.0
 40
0.0
 40
2.420483029949796
 40
2.420483029949796
 40
2.420483029949796
 40
2.420483029949796
 10
-8.648437761106148
 20
-6.010886872988223
 30
0.0
 10
-7.599561781461339
 20
-6.010886872988223
 30
0.0
 10
-6.729258181836986
 20
-5.587911467789396
 30
0.0
 10
-6.569632654787531
 20
-5.41877567350343
 30
0.0
  0
SPLINE
  5
4AF1
330
1F
100
AcDbEntity
  8
AM_0
100
AcDbSpline
210
0.0
220
0.0
230
1.0
 70
     8
 71
     3
 72
     8
 73
     4
 74
     0
 42
0.0000000001
 43
0.0000000001
 40
0.0
 40
0.0
 40
0.0
 40
0.0
 40
2.420483029949796
 40
2.420483029949796
 40
2.420483029949796
 40
2.420483029949796
 10
-15.34843776110023
 20
-6.010886872988223
 30
0.0
 10
-14.29956178145544
 20
-6.010886872988223
 30
0.0
 10
-13.42925818183106
 20
-5.587911467789268
 30
0.0
 10
-13.28424957846817
 20
-5.405338274079507
 30
0.0
  0
SPLINE
  5
4AF2
330
1F
100
AcDbEntity
  8
AM_0
100
AcDbSpline
210
0.0
220
0.0
230
1.0
 70
     8
 71
     3
 72
     8
 73
     4
 74
     0
 42
0.0000000001
 43
0.0000000001
 40
0.0
 40
0.0
 40
0.0
 40
0.0
 40
2.420483029949796
 40
2.420483029949796
 40
2.420483029949796
 40
2.420483029949796
 10
-22.04843776109432
 20
-6.010886872988095
 30
0.0
 10
-20.99956178144892
 20
-6.010886872988095
 30
0.0
 10
-20.12925818182515
 20
-5.587911467789268
 30
0.0
 10
-19.98424957846212
 20
-5.40533827407944
 30
0.0
  0
SPLINE
  5
4AF3
330
1F
100
AcDbEntity
  8
AM_0
100
AcDbSpline
210
0.0
220
0.0
230
1.0
 70
     8
 71
     3
 72
     8
 73
     4
 74
     0
 42
0.0000000001
 43
0.0000000001
 40
0.0
 40
0.0
 40
0.0
 40
0.0
 40
2.948331486770748
 40
2.948331486770748
 40
2.948331486770748
 40
2.948331486770748
 10
-22.34999999998639
 20
6.500000000001044
 30
0.0
 10
-23.62761031092076
 20
6.500000000001662
 30
0.0
 10
-24.62716546643691
 20
5.875665407590531
 30
0.0
 10
-25.03668347587089
 20
5.41300702723092
 30
0.0
  0
SPLINE
  5
4AF4
330
1F
100
AcDbEntity
  8
AM_0
100
AcDbSpline
210
0.0
220
0.0
230
1.0
 70
     8
 71
     3
 72
     8
 73
     4
 74
     0
 42
0.0000000001
 43
0.0000000001
 40
0.0
 40
0.0
 40
0.0
 40
0.0
 40
2.948331486770748
 40
2.948331486770748
 40
2.948331486770748
 40
2.948331486770748
 10
-29.04999999998048
 20
6.500000000001044
 30
0.0
 10
-30.32761031091425
 20
6.500000000001783
 30
0.0
 10
-31.3271654664304
 20
5.875665407590716
 30
0.0
 10
-31.62975217000155
 20
5.47480006930029
 30
0.0
  0
SPLINE
  5
4AF5
330
1F
100
AcDbEntity
  8
AM_0
100
AcDbSpline
210
0.0
220
0.0
230
1.0
 70
     8
 71
     3
 72
     8
 73
     4
 74
     0
 42
0.0000000001
 43
0.0000000001
 40
0.157854605497133
 40
0.157854605497133
 40
0.157854605497133
 40
0.157854605497133
 40
6.616360992657454
 40
6.616360992657454
 40
6.616360992657454
 40
6.616360992657454
 10
-35.41413151577041
 20
7.422791076279583
 30
0.0
 10
-31.81985592094451
 20
6.155062229252052
 30
0.0
 10
-30.36398426912231
 20
3.077531114626331
 30
0.0
 10
-28.90811261730072
 20
0.000000000000739
 30
0.0
  0
SPLINE
  5
4AF6
330
1F
100
AcDbEntity
  8
AM_0
100
AcDbSpline
210
0.0
220
0.0
230
1.0
 70
     8
 71
     3
 72
     8
 73
     4
 74
     0
 42
0.0000000001
 43
0.0000000001
 40
0.0
 40
0.0
 40
0.0
 40
0.0
 40
0.9875149967633806
 40
0.9875149967633806
 40
0.9875149967633806
 40
0.9875149967633806
 10
-24.04999999998403
 20
-6.499999999998834
 30
0.0
 10
-23.6220768347201
 20
-6.499999999998834
 30
0.0
 10
-23.22534728606655
 20
-6.429959025994179
 30
0.0
 10
-22.85523204303675
 20
-6.300159290714645
 30
0.0
  0
SPLINE
  5
4AF7
330
1F
100
AcDbEntity
  8
AM_0
100
AcDbSpline
210
0.0
220
0.0
230
1.0
 70
     8
 71
     3
 72
     8
 73
     4
 74
     0
 42
0.0000000001
 43
0.0000000001
 40
0.0
 40
0.0
 40
0.0
 40
0.0
 40
1.274172826456642
 40
1.274172826456642
 40
1.274172826456642
 40
1.274172826456642
 10
-23.0581126173019
 20
-6.305500250328691
 30
0.0
 10
-22.5059710591708
 20
-6.305500250328691
 30
0.0
 10
-22.00484726235421
 20
-6.188575124948513
 30
0.0
 10
-21.54491627243909
 20
-5.977242209269292
 30
0.0
  0
SPLINE
  5
4AF8
330
1F
100
AcDbEntity
  8
AM_0
100
AcDbSpline
210
0.0
220
0.0
230
1.0
 70
     8
 71
     3
 72
     8
 73
     4
 74
     0
 42
0.0000000001
 43
0.0000000001
 40
5.042249938661838
 40
5.042249938661838
 40
5.042249938661838
 40
5.042249938661838
 40
6.726812023537159
 40
6.726812023537159
 40
6.726812023537159
 40
6.726812023537159
 10
-31.0252458648378
 20
2.390603324910216
 30
0.0
 10
-30.63500950644992
 20
1.627762677681921
 30
0.0
 10
-30.26750475321638
 20
0.8138813388414121
 30
0.0
 10
-29.89999999998284
 20
0.0000000000009237
 30
0.0
  0
SPLINE
  5
4AF9
330
1F
100
AcDbEntity
  8
AM_0
100
AcDbSpline
210
0.0
220
0.0
230
1.0
 70
     8
 71
     3
 72
     8
 73
     4
 74
     2
 42
0.0000000001
 43
0.0000000001
 44
0.0000000001
 12
-1.0
 22
0.0000000000000001
 32
0.0
 40
0.0
 40
0.0
 40
0.0
 40
0.0
 40
5.758068050584642
 40
5.758068050584642
 40
5.758068050584642
 40
5.758068050584642
 10
-29.84843776108604
 20
-6.010886872988095
 30
0.0
 10
-31.76779377794759
 20
-6.010886872988095
 30
0.0
 10
-33.07340103497819
 20
-4.234002075125694
 30
0.0
 10
-34.37900829200879
 20
-2.457117277263293
 30
0.0
 11
-29.84843776108604
 21
-6.010886872988095
 31
0.0
 11
-34.37900829200879
 21
-2.457117277263293
 31
0.0
  0
SPLINE
  5
4AFA
330
1F
100
AcDbEntity
  8
AM_0
100
AcDbSpline
210
0.0
220
0.0
230
1.0
 70
     8
 71
     3
 72
     8
 73
     4
 74
     0
 42
0.0000000001
 43
0.0000000001
 40
0.0
 40
0.0
 40
0.0
 40
0.0
 40
1.274172826456642
 40
1.274172826456642
 40
1.274172826456642
 40
1.274172826456642
 10
-30.8581126172948
 20
-6.500000000000156
 30
0.0
 10
-30.3059710591637
 20
-6.305500250328691
 30
0.0
 10
-29.80484726234712
 20
-6.188575124948386
 30
0.0
 10
-29.34491627243259
 20
-5.977242209269135
 30
0.0
  0
SPLINE
  5
4AFB
330
1F
100
AcDbEntity
  8
AM_0
100
AcDbSpline
210
0.0
220
0.0
230
1.0
 70
     8
 71
     3
 72
     8
 73
     4
 74
     2
 42
0.0000000001
 43
0.0000000001
 44
0.0000000001
 12
-1.0
 22
0.0000000000000001
 32
0.0
 40
0.0
 40
0.0
 40
0.0
 40
0.0
 40
8.744855630597912
 40
8.744855630597912
 40
8.744855630597912
 40
8.744855630597912
 10
-24.04999999998284
 20
-6.499999999999076
 30
0.0
 10
-26.96495187684881
 20
-6.499999999999076
 30
0.0
 10
-28.43247593841583
 20
-3.249999999999076
 30
0.0
 10
-29.89999999998284
 20
0.0000000000009237
 30
0.0
 11
-24.04999999998284
 21
-6.499999999999076
 31
0.0
 11
-29.89999999998284
 21
0.0000000000009237
 31
0.0
  0
SPLINE
  5
4AFC
330
1F
100
AcDbEntity
  8
AM_0
100
AcDbSpline
210
0.0
220
0.0
230
1.0
 70
     8
 71
     3
 72
     8
 73
     4
 74
     2
 42
0.0000000001
 43
0.0000000001
 44
0.0000000001
 12
-1.0
 22
0.0000000000000001
 32
0.0
 40
0.0
 40
0.0
 40
0.0
 40
0.0
 40
8.6012692904547
 40
8.6012692904547
 40
8.6012692904547
 40
8.6012692904547
 10
-23.05811261730013
 20
-6.305500250329117
 30
0.0
 10
-25.92520238078503
 20
-6.305500250329117
 30
0.0
 10
-27.41665749904288
 20
-3.152750125164097
 30
0.0
 10
-28.90811261730072
 20
0.0000000000009237
 30
0.0
 11
-23.05811261730013
 21
-6.305500250329117
 31
0.0
 11
-28.90811261730072
 21
0.0000000000009237
 31
0.0
  0
SPLINE
  5
4AFD
330
1F
100
AcDbEntity
  8
AM_0
100
AcDbSpline
210
0.0
220
0.0
230
1.0
 70
     8
 71
     3
 72
     8
 73
     4
 74
     2
 42
0.0000000001
 43
0.0000000001
 44
0.0000000001
 12
-1.0
 22
0.0000000000000001
 32
0.0
 40
0.0
 40
0.0
 40
0.0
 40
0.0
 40
8.387685079918151
 40
8.387685079918151
 40
8.387685079918151
 40
8.387685079918151
 10
-22.04843776109254
 20
-6.010886872988095
 30
0.0
 10
-24.84433278773193
 20
-6.010886872988095
 30
0.0
 10
-26.37138527441253
 20
-3.005443436493461
 30
0.0
 10
-27.89843776109313
 20
0.0000000000011724
 30
0.0
 11
-22.04843776109254
 21
-6.010886872988095
 31
0.0
 11
-27.89843776109313
 21
0.0000000000011724
 31
0.0
  0
SPLINE
  5
4AFE
330
1F
100
AcDbEntity
  8
AM_0
100
AcDbSpline
210
0.0
220
0.0
230
1.0
 70
     8
 71
     3
 72
     8
 73
     4
 74
     0
 42
0.0000000001
 43
0.0000000001
 40
0.0
 40
0.0
 40
0.0
 40
0.0
 40
2.420483029949796
 40
2.420483029949796
 40
2.420483029949796
 40
2.420483029949796
 10
-29.84843776108781
 20
-6.010886872988095
 30
0.0
 10
-28.79956178144301
 20
-6.010886872988095
 30
0.0
 10
-27.92925818181865
 20
-5.587911467789268
 30
0.0
 10
-27.17053579185757
 20
-4.900639269523367
 30
0.0
  0
SPLINE
  5
4AFF
330
1F
100
AcDbEntity
  8
AM_0
100
AcDbSpline
210
0.0
220
0.0
230
1.0
 70
     8
 71
     3
 72
     8
 73
     4
 74
     0
 42
0.0000000001
 43
0.0000000001
 40
0.0
 40
0.0
 40
0.0
 40
0.0
 40
2.420483029949796
 40
2.420483029949796
 40
2.420483029949796
 40
2.420483029949796
 10
-29.84843776108721
 20
-6.010886872988095
 30
0.0
 10
-28.79956178144242
 20
-6.010886872988095
 30
0.0
 10
-27.92925818181865
 20
-5.587911467789297
 30
0.0
 10
-27.17053579185756
 20
-4.900639269523523
 30
0.0
  0
SPLINE
  5
4B00
330
1F
100
AcDbEntity
  8
AM_0
100
AcDbSpline
210
0.0
220
0.0
230
1.0
 70
     8
 71
     3
 72
     8
 73
     4
 74
     0
 42
0.0000000001
 43
0.0000000001
 40
0.0
 40
0.0
 40
0.0
 40
0.0
 40
0.9875149967633806
 40
0.9875149967633806
 40
0.9875149967633806
 40
0.9875149967633806
 10
-17.34999999998994
 20
-6.499999999998834
 30
0.0
 10
-16.92207683472601
 20
-6.499999999998834
 30
0.0
 10
-16.52534728607245
 20
-6.429959025994293
 30
0.0
 10
-16.15523204304325
 20
-6.300159290714645
 30
0.0
  0
SPLINE
  5
4B01
330
1F
100
AcDbEntity
  8
AM_0
100
AcDbSpline
210
0.0
220
0.0
230
1.0
 70
     8
 71
     3
 72
     8
 73
     4
 74
     0
 42
0.0000000001
 43
0.0000000001
 40
0.0
 40
0.0
 40
0.0
 40
0.0
 40
1.274172826456642
 40
1.274172826456642
 40
1.274172826456642
 40
1.274172826456642
 10
-16.35811261730781
 20
-6.305500250328691
 30
0.0
 10
-15.80597105917671
 20
-6.305500250328691
 30
0.0
 10
-15.30484726236013
 20
-6.188575124948513
 30
0.0
 10
-14.84491627244501
 20
-5.977242209269292
 30
0.0
  0
SPLINE
  5
4B02
330
1F
100
AcDbEntity
  8
AM_0
100
AcDbSpline
210
0.0
220
0.0
230
1.0
 70
     8
 71
     3
 72
     8
 73
     4
 74
     2
 42
0.0000000001
 43
0.0000000001
 44
0.0000000001
 12
-1.0
 22
0.0000000000000001
 32
0.0
 40
0.0
 40
0.0
 40
0.0
 40
0.0
 40
8.601269290454387
 40
8.601269290454387
 40
8.601269290454387
 40
8.601269290454387
 10
-16.35811261730664
 20
-6.305500250329245
 30
0.0
 10
-19.22520238079143
 20
-6.305500250329245
 30
0.0
 10
-20.71665749904903
 20
-3.15275012516416
 30
0.0
 10
-22.20811261730663
 20
0.0000000000009237
 30
0.0
 11
-16.35811261730664
 21
-6.305500250329245
 31
0.0
 11
-22.20811261730663
 21
0.0000000000009237
 31
0.0
  0
SPLINE
  5
4B03
330
1F
100
AcDbEntity
  8
AM_0
100
AcDbSpline
210
0.0
220
0.0
230
1.0
 70
     8
 71
     3
 72
     8
 73
     4
 74
     2
 42
0.0000000001
 43
0.0000000001
 44
0.0000000001
 12
-1.0
 22
0.0000000000000001
 32
0.0
 40
0.0
 40
0.0
 40
0.0
 40
0.0
 40
8.387685079917744
 40
8.387685079917744
 40
8.387685079917744
 40
8.387685079917744
 10
-15.34843776109905
 20
-6.010886872988223
 30
0.0
 10
-18.14433278773829
 20
-6.010886872988223
 30
0.0
 10
-19.67138527441867
 20
-3.005443436493585
 30
0.0
 10
-21.19843776109905
 20
0.0000000000010516
 30
0.0
 11
-15.34843776109905
 21
-6.010886872988223
 31
0.0
 11
-21.19843776109905
 21
0.0000000000010516
 31
0.0
  0
SPLINE
  5
4B04
330
1F
100
AcDbEntity
  8
AM_0
100
AcDbSpline
210
0.0
220
0.0
230
1.0
 70
     8
 71
     3
 72
     8
 73
     4
 74
     2
 42
0.0000000001
 43
0.0000000001
 44
0.0000000001
 12
-1.0
 22
0.0000000000000001
 32
0.0
 40
0.0
 40
0.0
 40
0.0
 40
0.0
 40
8.744855630598307
 40
8.744855630598307
 40
8.744855630598307
 40
8.744855630598307
 10
-17.34999999998876
 20
-6.499999999999076
 30
0.0
 10
-20.26495187685486
 20
-6.499999999999076
 30
0.0
 10
-21.7324759384221
 20
-3.249999999999076
 30
0.0
 10
-23.19999999998935
 20
0.0000000000009237
 30
0.0
 11
-17.34999999998876
 21
-6.499999999999076
 31
0.0
 11
-23.19999999998935
 21
0.0000000000009237
 31
0.0
  0
SPLINE
  5
4B05
330
1F
100
AcDbEntity
  8
AM_0
100
AcDbSpline
210
0.0
220
0.0
230
1.0
 70
     8
 71
     3
 72
     8
 73
     4
 74
     2
 42
0.0000000001
 43
0.0000000001
 44
0.0000000001
 12
1.0
 22
-0.0000000000000002
 32
0.0
 40
0.0
 40
0.0
 40
0.0
 40
0.0
 40
8.744855630598307
 40
8.744855630598307
 40
8.744855630598307
 40
8.744855630598307
 10
-29.04999999998994
 20
6.500000000000923
 30
0.0
 10
-26.13504812312384
 20
6.500000000000922
 30
0.0
 10
-24.66752406155659
 20
3.250000000000923
 30
0.0
 10
-23.19999999998935
 20
0.0000000000009237
 30
0.0
 11
-29.04999999998994
 21
6.500000000000923
 31
0.0
 11
-23.19999999998935
 21
0.0000000000009237
 31
0.0
  0
SPLINE
  5
4B06
330
1F
100
AcDbEntity
  8
AM_0
100
AcDbSpline
210
0.0
220
0.0
230
1.0
 70
     8
 71
     3
 72
     8
 73
     4
 74
     0
 42
0.0000000001
 43
0.0000000001
 40
0.157854605497133
 40
0.157854605497133
 40
0.157854605497133
 40
0.157854605497133
 40
6.616360992657454
 40
6.616360992657454
 40
6.616360992657454
 40
6.616360992657454
 10
-27.8552320429268
 20
6.300159290676219
 30
0.0
 10
-25.11985592095101
 20
6.155062229252052
 30
0.0
 10
-23.66398426912882
 20
3.077531114626331
 30
0.0
 10
-22.20811261730663
 20
0.0000000000006182
 30
0.0
  0
SPLINE
  5
4B07
330
1F
100
AcDbEntity
  8
AM_0
100
AcDbSpline
210
0.0
220
0.0
230
1.0
 70
     8
 71
     3
 72
     8
 73
     4
 74
     0
 42
0.0000000001
 43
0.0000000001
 40
0.3982504941345976
 40
0.3982504941345976
 40
0.3982504941345976
 40
0.3982504941345976
 40
6.452065446090842
 40
6.452065446090842
 40
6.452065446090842
 40
6.452065446090842
 10
-26.544916272445
 20
5.977242209271381
 30
0.0
 10
-24.06402964125913
 20
5.639867904358162
 30
0.0
 10
-22.63123370117909
 20
2.819933952179546
 30
0.0
 10
-21.19843776109905
 20
0.0000000000009237
 30
0.0
  0
SPLINE
  5
4B08
330
1F
100
AcDbEntity
  8
AM_0
100
AcDbSpline
210
0.0
220
0.0
230
1.0
 70
     8
 71
     3
 72
     8
 73
     4
 74
     2
 42
0.0000000001
 43
0.0000000001
 44
0.0000000001
 12
1.0
 22
-0.0000000000000002
 32
0.0
 40
0.0
 40
0.0
 40
0.0
 40
0.0
 40
8.7448556305983
 40
8.7448556305983
 40
8.7448556305983
 40
8.7448556305983
 10
-22.34999999999585
 20
6.500000000000738
 30
0.0
 10
-19.43504812312975
 20
6.500000000000738
 30
0.0
 10
-17.96752406156251
 20
3.250000000000738
 30
0.0
 10
-16.49999999999527
 20
0.000000000000739
 30
0.0
 11
-22.34999999999585
 21
6.500000000000738
 31
0.0
 11
-16.49999999999527
 21
0.000000000000739
 31
0.0
  0
SPLINE
  5
4B09
330
1F
100
AcDbEntity
  8
AM_0
100
AcDbSpline
210
0.0
220
0.0
230
1.0
 70
     8
 71
     3
 72
     8
 73
     4
 74
     0
 42
0.0000000001
 43
0.0000000001
 40
0.157854605497133
 40
0.157854605497133
 40
0.157854605497133
 40
0.157854605497133
 40
6.616360992657454
 40
6.616360992657454
 40
6.616360992657454
 40
6.616360992657454
 10
-21.15523204293271
 20
6.300159290676099
 30
0.0
 10
-18.41985592095693
 20
6.155062229251932
 30
0.0
 10
-16.96398426913532
 20
3.077531114626331
 30
0.0
 10
-15.50811261731254
 20
0.0000000000006182
 30
0.0
  0
SPLINE
  5
4B0A
330
1F
100
AcDbEntity
  8
AM_0
100
AcDbSpline
210
0.0
220
0.0
230
1.0
 70
     8
 71
     3
 72
     8
 73
     4
 74
     0
 42
0.0000000001
 43
0.0000000001
 40
0.3982504941345976
 40
0.3982504941345976
 40
0.3982504941345976
 40
0.3982504941345976
 40
6.452065446090842
 40
6.452065446090842
 40
6.452065446090842
 40
6.452065446090842
 10
-19.84491627245092
 20
5.977242209271196
 30
0.0
 10
-17.36402964126505
 20
5.639867904358162
 30
0.0
 10
-15.93123370118559
 20
2.819933952179546
 30
0.0
 10
-14.49843776110497
 20
0.0000000000009237
 30
0.0
  0
SPLINE
  5
4B0B
330
1F
100
AcDbEntity
  8
AM_0
100
AcDbSpline
210
0.0
220
0.0
230
1.0
 70
     8
 71
     3
 72
     8
 73
     4
 74
     0
 42
0.0000000001
 43
0.0000000001
 40
0.0
 40
0.0
 40
0.0
 40
0.0
 40
1.274172826456642
 40
1.274172826456642
 40
1.274172826456642
 40
1.274172826456642
 10
-9.658112617313737
 20
-6.305500250328819
 30
0.0
 10
-9.105971059182639
 20
-6.305500250328819
 30
0.0
 10
-8.604847262366041
 20
-6.188575124948513
 30
0.0
 10
-8.144916272450924
 20
-5.977242209269292
 30
0.0
  0
SPLINE
  5
4B0C
330
1F
100
AcDbEntity
  8
AM_0
100
AcDbSpline
210
0.0
220
0.0
230
1.0
 70
     8
 71
     3
 72
     8
 73
     4
 74
     0
 42
0.0000000001
 43
0.0000000001
 40
0.0
 40
0.0
 40
0.0
 40
0.0
 40
0.9875149967633806
 40
0.9875149967633806
 40
0.9875149967633806
 40
0.9875149967633806
 10
-10.64999999999644
 20
-6.499999999998948
 30
0.0
 10
-10.22207683473192
 20
-6.499999999998948
 30
0.0
 10
-9.825347286078971
 20
-6.429959025994421
 30
0.0
 10
-9.455232043049182
 20
-6.300159290714773
 30
0.0
  0
SPLINE
  5
4B0D
330
1F
100
AcDbEntity
  8
AM_0
100
AcDbSpline
210
0.0
220
0.0
230
1.0
 70
     8
 71
     3
 72
     8
 73
     4
 74
     2
 42
0.0000000001
 43
0.0000000001
 44
0.0000000001
 12
-1.0
 22
0.0000000000000001
 32
0.0
 40
0.0
 40
0.0
 40
0.0
 40
0.0
 40
8.744855630598307
 40
8.744855630598307
 40
8.744855630598307
 40
8.744855630598307
 10
-10.64999999999468
 20
-6.499999999999261
 30
0.0
 10
-13.56495187686078
 20
-6.499999999999261
 30
0.0
 10
-15.03247593842802
 20
-3.249999999999261
 30
0.0
 10
-16.49999999999527
 20
0.000000000000739
 30
0.0
 11
-10.64999999999468
 21
-6.499999999999261
 31
0.0
 11
-16.49999999999527
 21
0.000000000000739
 31
0.0
  0
SPLINE
  5
4B0E
330
1F
100
AcDbEntity
  8
AM_0
100
AcDbSpline
210
0.0
220
0.0
230
1.0
 70
     8
 71
     3
 72
     8
 73
     4
 74
     2
 42
0.0000000001
 43
0.0000000001
 44
0.0000000001
 12
-1.0
 22
0.0000000000000001
 32
0.0
 40
0.0
 40
0.0
 40
0.0
 40
0.0
 40
8.601269290454387
 40
8.601269290454387
 40
8.601269290454387
 40
8.601269290454387
 10
-9.65811261731255
 20
-6.305500250329245
 30
0.0
 10
-12.52520238079734
 20
-6.305500250329245
 30
0.0
 10
-14.01665749905494
 20
-3.15275012516416
 30
0.0
 10
-15.50811261731254
 20
0.0000000000009237
 30
0.0
 11
-9.65811261731255
 21
-6.305500250329245
 31
0.0
 11
-15.50811261731254
 21
0.0000000000009237
 31
0.0
  0
SPLINE
  5
4B0F
330
1F
100
AcDbEntity
  8
AM_0
100
AcDbSpline
210
0.0
220
0.0
230
1.0
 70
     8
 71
     3
 72
     8
 73
     4
 74
     2
 42
0.0000000001
 43
0.0000000001
 44
0.0000000001
 12
-1.0
 22
0.0000000000000001
 32
0.0
 40
0.0
 40
0.0
 40
0.0
 40
0.0
 40
8.387685079917659
 40
8.387685079917659
 40
8.387685079917659
 40
8.387685079917659
 10
-8.648437761104963
 20
-6.010886872988223
 30
0.0
 10
-11.44433278774418
 20
-6.010886872988223
 30
0.0
 10
-12.97138527442457
 20
-3.005443436493649
 30
0.0
 10
-14.49843776110497
 20
0.0000000000009237
 30
0.0
 11
-8.648437761104963
 21
-6.010886872988223
 31
0.0
 11
-14.49843776110497
 21
0.0000000000009237
 31
0.0
  0
SPLINE
  5
4B10
330
1F
100
AcDbEntity
  8
AM_0
100
AcDbSpline
210
0.0
220
0.0
230
1.0
 70
     8
 71
     3
 72
     9
 73
     5
 74
     3
 42
0.0000000001
 43
0.0000000001
 44
0.0000000001
 12
-0.3385048798911531
 22
0.9409646360463691
 32
0.0
 13
0.9630016908632653
 23
-0.2694953494858349
 33
0.0
 40
0.0
 40
0.0
 40
0.0
 40
0.0
 40
2.159889815037598
 40
2.702270293165107
 40
2.702270293165107
 40
2.702270293165107
 40
2.702270293165107
 10
-0.8450000000001242
 20
-4.443499918359947
 30
0.0
 10
-1.088711080805933
 20
-3.766039940457575
 30
0.0
 10
-2.726432499400717
 20
-2.991238334008119
 30
0.0
 10
-1.652900286833747
 20
-2.333976099933112
 30
0.0
 10
-1.478795847657741
 20
-2.382699105435534
 30
0.0
 11
-0.8450000000001242
 21
-4.443499918359947
 31
0.0
 11
-1.974619138465916
 21
-2.602553255603268
 31
0.0
 11
-1.478795847657741
 21
-2.382699105435534
 31
0.0
  0
SPLINE
  5
4B11
330
1F
100
AcDbEntity
  8
AM_0
100
AcDbSpline
210
0.0
220
0.0
230
1.0
 70
     8
 71
     3
 72
     9
 73
     5
 74
     3
 42
0.0000000001
 43
0.0000000001
 44
0.0000000001
 12
-0.7037104554506215
 22
-0.7104868717221163
 32
0.0
 13
-0.5728114391284046
 23
0.8196871691100488
 33
0.0
 40
0.0
 40
0.0
 40
0.0
 40
0.0
 40
0.4506347564542654
 40
0.8437445990003261
 40
0.8437445990003261
 40
0.8437445990003261
 40
0.8437445990003261
 10
-0.2600000000086311
 20
-4.443499918359947
 30
0.0
 10
-0.3657054632440681
 20
-4.55022327782743
 30
0.0
 10
-0.5927006388045611
 20
-4.943278812931383
 30
0.0
 10
-0.7699407284520078
 20
-4.550908949688572
 30
0.0
 10
-0.8450000000001242
 20
-4.443499918359947
 30
0.0
 11
-0.2600000000086311
 21
-4.443499918359947
 31
0.0
 11
-0.5939840473707984
 21
-4.74603312287175
 31
0.0
 11
-0.8450000000001242
 21
-4.443499918359947
 31
0.0
  0
SPLINE
  5
4B12
330
1F
100
AcDbEntity
  8
AM_0
100
AcDbSpline
210
0.0
220
0.0
230
1.0
 70
     8
 71
     3
 72
     8
 73
     4
 74
     0
 42
0.0000000001
 43
0.0000000001
 40
4.390614724758877
 40
4.390614724758877
 40
4.390614724758877
 40
4.390614724758877
 40
6.726812023537121
 40
6.726812023537121
 40
6.726812023537121
 40
6.726812023537121
 10
-1.010371326878936
 20
-3.249999999983742
 30
0.0
 10
-1.580668484109813
 20
-2.257426309657631
 30
0.0
 10
-2.090334242054316
 20
-1.128713154828353
 30
0.0
 10
-2.59999999999822
 20
0.000000000000739
 30
0.0
  0
SPLINE
  5
4B13
330
1F
100
AcDbEntity
  8
AM_0
100
AcDbSpline
210
0.0
220
0.0
230
1.0
 70
     8
 71
     3
 72
     8
 73
     4
 74
     0
 42
0.0000000001
 43
0.0000000001
 40
4.32310436431184
 40
4.32310436431184
 40
4.32310436431184
 40
4.32310436431184
 40
6.616360992657454
 40
6.616360992657454
 40
6.616360992657454
 40
6.616360992657454
 10
0.000000000000585
 20
-3.146989222875276
 30
0.0
 10
-0.5742242488848721
 20
-2.185511077788362
 30
0.0
 10
-1.091168433100489
 20
-1.092755538893811
 30
0.0
 10
-1.608112617316107
 20
0.000000000000739
 30
0.0
  0
SPLINE
  5
4B14
330
1F
100
AcDbEntity
  8
AM_0
100
AcDbSpline
210
0.0
220
0.0
230
1.0
 70
     8
 71
     3
 72
     8
 73
     4
 74
     0
 42
0.0000000001
 43
0.0000000001
 40
0.0
 40
0.0
 40
0.0
 40
0.0
 40
2.948331486770748
 40
2.948331486770748
 40
2.948331486770748
 40
2.948331486770748
 10
-0.6499999999958679
 20
6.500000000001044
 30
0.0
 10
-1.927610310929627
 20
6.500000000001662
 30
0.0
 10
-2.927165466445785
 20
5.875665407590531
 30
0.0
 10
-3.770535791878858
 20
4.900639269525768
 30
0.0
  0
SPLINE
  5
4B15
330
1F
100
AcDbEntity
  8
AM_0
100
AcDbSpline
210
0.0
220
0.0
230
1.0
 70
     8
 71
     3
 72
     8
 73
     4
 74
     2
 42
0.0000000001
 43
0.0000000001
 44
0.0000000001
 12
0.2563440340107919
 22
-0.9665856072935671
 32
0.0
 13
-1.0
 23
0.0000000000000001
 33
0.0
 40
0.0
 40
0.0
 40
0.0
 40
0.0
 40
3.178096108420365
 40
3.178096108420365
 40
3.178096108420365
 40
3.178096108420365
 10
-0.6499999999923116
 20
6.5
 30
0.0
 10
-0.3784380076901531
 20
5.476032681001726
 30
0.0
 10
-0.9152537689924466
 20
3.611111111111029
 30
0.0
 10
-1.974619138465901
 20
3.611111111111029
 30
0.0
 11
-0.6499999999923116
 21
6.5
 31
0.0
 11
-1.974619138465901
 21
3.611111111111029
 31
0.0
  0
SPLINE
  5
4B16
330
1F
100
AcDbEntity
  8
AM_0
100
AcDbSpline
210
0.0
220
0.0
230
1.0
 70
     8
 71
     3
 72
     8
 73
     4
 74
     2
 42
0.0000000001
 43
0.0000000001
 44
0.0000000001
 12
1.0
 22
-0.0000000000000002
 32
0.0
 40
0.0
 40
0.0
 40
0.0
 40
0.0
 40
8.744855630598697
 40
8.744855630598697
 40
8.744855630598697
 40
8.744855630598697
 10
-8.449999999999395
 20
6.500000000000923
 30
0.0
 10
-5.535048123133162
 20
6.500000000000922
 30
0.0
 10
-4.067524061565691
 20
3.250000000000923
 30
0.0
 10
-2.59999999999822
 20
0.0000000000009237
 30
0.0
 11
-8.449999999999395
 21
6.500000000000923
 31
0.0
 11
-2.59999999999822
 21
0.0000000000009237
 31
0.0
  0
SPLINE
  5
4B17
330
1F
100
AcDbEntity
  8
AM_0
100
AcDbSpline
210
0.0
220
0.0
230
1.0
 70
     8
 71
     3
 72
     8
 73
     4
 74
     0
 42
0.0000000001
 43
0.0000000001
 40
0.157854605497133
 40
0.157854605497133
 40
0.157854605497133
 40
0.157854605497133
 40
6.616360992657454
 40
6.616360992657454
 40
6.616360992657454
 40
6.616360992657454
 10
-7.255232042936264
 20
6.300159290676219
 30
0.0
 10
-4.519855920959895
 20
6.155062229252052
 30
0.0
 10
-3.063984269137693
 20
3.077531114626331
 30
0.0
 10
-1.608112617316107
 20
0.0000000000006182
 30
0.0
  0
SPLINE
  5
4B18
330
1F
100
AcDbEntity
  8
AM_0
100
AcDbSpline
210
0.0
220
0.0
230
1.0
 70
     8
 71
     3
 72
     8
 73
     4
 74
     0
 42
0.0000000001
 43
0.0000000001
 40
0.3982504941345976
 40
0.3982504941345976
 40
0.3982504941345976
 40
0.3982504941345976
 40
6.01848148651983
 40
6.01848148651983
 40
6.01848148651983
 40
6.01848148651983
 10
-5.944916272454471
 20
5.977242209271381
 30
0.0
 10
-3.641714730312514
 20
5.664031194472343
 30
0.0
 10
-2.241848341982858
 20
3.211135684963004
 30
0.0
 10
-0.9066802696605524
 20
0.6049925319739487
 30
0.0
  0
SPLINE
  5
4B19
330
1F
100
AcDbEntity
  8
AM_0
100
AcDbSpline
210
0.0
220
0.0
230
1.0
 70
     8
 71
     3
 72
     8
 73
     4
 74
     2
 42
0.0000000001
 43
0.0000000001
 44
0.0000000001
 12
1.0
 22
-0.0000000000000002
 32
0.0
 40
0.0
 40
0.0
 40
0.0
 40
0.0
 40
8.744855630597905
 40
8.744855630597905
 40
8.744855630597905
 40
8.744855630597905
 10
-15.65000000000177
 20
6.500000000000738
 30
0.0
 10
-12.7350481231358
 20
6.500000000000738
 30
0.0
 10
-11.26752406156878
 20
3.250000000000738
 30
0.0
 10
-9.800000000001778
 20
0.000000000000739
 30
0.0
 11
-15.65000000000177
 21
6.500000000000738
 31
0.0
 11
-9.800000000001778
 21
0.000000000000739
 31
0.0
  0
SPLINE
  5
4B1A
330
1F
100
AcDbEntity
  8
AM_0
100
AcDbSpline
210
0.0
220
0.0
230
1.0
 70
     8
 71
     3
 72
     8
 73
     4
 74
     0
 42
0.0000000001
 43
0.0000000001
 40
0.157854605497133
 40
0.157854605497133
 40
0.157854605497133
 40
0.157854605497133
 40
6.616360992657454
 40
6.616360992657454
 40
6.616360992657454
 40
6.616360992657454
 10
-14.45523204293922
 20
6.300159290675914
 30
0.0
 10
-11.71985592096284
 20
6.155062229251932
 30
0.0
 10
-10.26398426914125
 20
3.077531114626211
 30
0.0
 10
-8.80811261731905
 20
0.0000000000006182
 30
0.0
  0
SPLINE
  5
4B1B
330
1F
100
AcDbEntity
  8
AM_0
100
AcDbSpline
210
0.0
220
0.0
230
1.0
 70
     8
 71
     3
 72
     8
 73
     4
 74
     0
 42
0.0000000001
 43
0.0000000001
 40
0.3982504941345976
 40
0.3982504941345976
 40
0.3982504941345976
 40
0.3982504941345976
 40
6.452065446090842
 40
6.452065446090842
 40
6.452065446090842
 40
6.452065446090842
 10
-13.14491627245684
 20
5.977242209271075
 30
0.0
 10
-10.66402964127096
 20
5.639867904358041
 30
0.0
 10
-9.231233701191518
 20
2.819933952179361
 30
0.0
 10
-7.798437761111477
 20
0.0000000000009237
 30
0.0
  0
SPLINE
  5
4B1C
330
1F
100
AcDbEntity
  8
AM_0
100
AcDbSpline
210
0.0
220
0.0
230
1.0
 70
     8
 71
     3
 72
     8
 73
     4
 74
     2
 42
0.0000000001
 43
0.0000000001
 44
0.0000000001
 12
-1.0
 22
0.0000000000000001
 32
0.0
 40
0.0
 40
0.0
 40
0.0
 40
0.0
 40
8.744855630598307
 40
8.744855630598307
 40
8.744855630598307
 40
8.744855630598307
 10
-3.949999999994676
 20
-6.499999999999261
 30
0.0
 10
-6.864951876860779
 20
-6.499999999999261
 30
0.0
 10
-8.332475938428023
 20
-3.249999999999261
 30
0.0
 10
-9.799999999995266
 20
0.000000000000739
 30
0.0
 11
-3.949999999994676
 21
-6.499999999999261
 31
0.0
 11
-9.799999999995266
 21
0.000000000000739
 31
0.0
  0
SPLINE
  5
4B1D
330
1F
100
AcDbEntity
  8
AM_0
100
AcDbSpline
210
0.0
220
0.0
230
1.0
 70
     8
 71
     3
 72
     8
 73
     4
 74
     0
 42
0.0000000001
 43
0.0000000001
 40
0.0
 40
0.0
 40
0.0
 40
0.0
 40
0.9875149968653097
 40
0.9875149968653097
 40
0.9875149968653097
 40
0.9875149968653097
 10
-3.949999999999402
 20
-6.499999999998948
 30
0.0
 10
-3.522076834691143
 20
-6.499999999998948
 30
0.0
 10
-3.125347286000345
 20
-6.429959025979954
 30
0.0
 10
-2.755232042937456
 20
-6.300159290674557
 30
0.0
  0
SPLINE
  5
4B1E
330
1F
100
AcDbEntity
  8
AM_0
100
AcDbSpline
210
0.0
220
0.0
230
1.0
 70
     8
 71
     3
 72
     8
 73
     4
 74
     0
 42
0.0000000001
 43
0.0000000001
 40
0.0
 40
0.0
 40
0.0
 40
0.0
 40
3.138307834541913
 40
3.138307834541913
 40
3.138307834541913
 40
3.138307834541913
 10
-2.755232042937456
 20
-6.300159290674557
 30
0.0
 10
-2.198179222349056
 20
-6.116602893100143
 30
0.0
 10
-1.147742369959863
 20
-5.596180179960782
 30
0.0
 10
-0.2600000000110019
 20
-4.513988539616974
 30
0.0
  0
SPLINE
  5
4B1F
330
1F
100
AcDbEntity
  8
AM_0
100
AcDbSpline
210
0.0
220
0.0
230
1.0
 70
     8
 71
     3
 72
     8
 73
     4
 74
     0
 42
0.0000000001
 43
0.0000000001
 40
0.0
 40
0.0
 40
0.0
 40
0.0
 40
0.4556590281797062
 40
0.4556590281797062
 40
0.4556590281797062
 40
0.4556590281797062
 10
-2.362595481802657
 20
-5.878431622556739
 30
0.0
 10
-2.165143236257799
 20
-5.878431622556739
 30
0.0
 10
-1.974019335923142
 20
-5.863441989898397
 30
0.0
 10
-1.788776859165369
 20
-5.834521325351808
 30
0.0
  0
SPLINE
  5
4B20
330
1F
100
AcDbEntity
  8
AM_0
100
AcDbSpline
210
0.0
220
0.0
230
1.0
 70
     8
 71
     3
 72
     8
 73
     4
 74
     2
 42
0.0000000001
 43
0.0000000001
 44
0.0000000001
 12
-1.0
 22
0.0000000000000001
 32
0.0
 40
0.0
 40
0.0
 40
0.0
 40
0.0
 40
8.006518570923097
 40
8.006518570923097
 40
8.006518570923097
 40
8.006518570923097
 10
-2.362595481802657
 20
-5.878431622556739
 30
0.0
 10
-5.031435005443689
 20
-5.878431622556739
 30
0.0
 10
-6.414936383274326
 20
-2.939215811277907
 30
0.0
 10
-7.798437761104965
 20
0.0000000000009237
 30
0.0
 11
-2.362595481802657
 21
-5.878431622556739
 31
0.0
 11
-7.798437761104965
 21
0.0000000000009237
 31
0.0
  0
SPLINE
  5
4B21
330
1F
100
AcDbEntity
  8
AM_0
100
AcDbSpline
210
0.0
220
0.0
230
1.0
 70
     8
 71
     3
 72
     8
 73
     4
 74
     2
 42
0.0000000001
 43
0.0000000001
 44
0.0000000001
 12
-1.0
 22
0.0000000000000001
 32
0.0
 40
0.0
 40
0.0
 40
0.0
 40
0.0
 40
8.689979860953272
 40
8.689979860953272
 40
8.689979860953272
 40
8.689979860953272
 10
-2.859673034607287
 20
-6.334967759560178
 30
0.0
 10
-5.756332988258377
 20
-6.334967759560178
 30
0.0
 10
-7.282222802785465
 20
-3.167483879779627
 30
0.0
 10
-8.808112617312554
 20
0.0000000000009237
 30
0.0
 11
-2.859673034607287
 21
-6.334967759560178
 31
0.0
 11
-8.808112617312554
 21
0.0000000000009237
 31
0.0
  0
SPLINE
  5
4B22
330
1F
100
AcDbEntity
  8
AM_0
100
AcDbSpline
210
0.0
220
0.0
230
1.0
 70
     8
 71
     3
 72
     8
 73
     4
 74
     0
 42
0.0000000001
 43
0.0000000001
 40
0.0
 40
0.0
 40
0.0
 40
0.0
 40
2.948331486770748
 40
2.948331486770748
 40
2.948331486770748
 40
2.948331486770748
 10
-8.449999999999395
 20
6.500000000000923
 30
0.0
 10
-9.727610310933187
 20
6.500000000001477
 30
0.0
 10
-10.72716546644872
 20
5.875665407590531
 30
0.0
 10
-11.33987243794282
 20
5.206801706385988
 30
0.0
  0
LINE
  5
4B23
330
1F
100
AcDbEntity
  8
AM_11
100
AcDbLine
 10
0.0
 20
6.50000000000001
 30
0.0
 11
-30.00046154556224
 21
6.500000000000009
 31
0.0
  0
LINE
  5
4B24
330
1F
100
AcDbEntity
  8
AM_11
100
AcDbLine
 10
-30.00046154556224
 20
-6.499999999999992
 30
0.0
 11
0.0
 21
-6.499999999999991
 31
0.0
  0
ARC
  5
4B25
330
1F
100
AcDbEntity
  8
AM_0
100
AcDbCircle
 10
-32.15618826367976
 20
-1.108387830094791
 30
0.0
 40
2.599999999999999
100
AcDbArc
 50
117.0923257436929
 51
211.2479114875228
  0
LINE
  5
4B26
330
1F
100
AcDbEntity
  8
AM_11
100
AcDbLine
 10
-30.00046154556224
 20
6.50000000000001
 30
0.0
 11
-30.00046154556224
 21
-6.499999999999992
 31
0.0
  0
LINE
  5
4B27
330
1F
100
AcDbEntity
  8
AM_0
100
AcDbLine
 10
-37.00000000000002
 20
8.000000000000024
 30
0.0
 11
-36.99999999999995
 21
-7.999999999999976
 31
0.0
  0
LINE
  5
4B28
330
1F
100
AcDbEntity
  8
AM_0
100
AcDbLine
 10
-30.8581126172948
 20
-6.499999999999992
 30
0.0
 11
-32.87878387081803
 21
-6.499999999999995
 31
0.0
  0
LINE
  5
4B29
330
1F
100
AcDbEntity
  8
AM_0
100
AcDbLine
 10
-32.87878387081803
 20
-4.361368077283306
 30
0.0
 11
-32.87878387081803
 21
-6.499999999999993
 31
0.0
  0
LINE
  5
4B2A
330
1F
100
AcDbEntity
  8
AM_0
100
AcDbLine
 10
-32.87878387081805
 20
-6.499999999999993
 30
0.0
 11
-36.99999999999995
 21
-7.999999999999976
 31
0.0
  0
LINE
  5
4B2B
330
1F
100
AcDbEntity
  8
AM_0
100
AcDbLine
 10
-33.34029499818802
 20
1.206324083144806
 30
0.0
 11
-31.02524586483814
 21
2.390603324910031
 31
0.0
  0
LINE
  5
4B2C
330
1F
100
AcDbEntity
  8
AM_0
100
AcDbLine
 10
-32.87878387081804
 20
5.995080474075619
 30
0.0
 11
-32.87878387081803
 21
1.442413261605166
 31
0.0
  0
LINE
  5
4B2D
330
1F
100
AcDbEntity
  8
AM_0
100
AcDbLine
 10
-35.24616751094964
 20
7.361657178096683
 30
0.0
 11
-37.00000000000002
 21
8.000000000000024
 31
0.0
  0
LINE
  5
4B2E
330
1F
100
AcDbEntity
  8
AM_0
100
AcDbLine
 10
-30.00021864728977
 20
0.2218695563879853
 30
0.0
 11
-30.00046154556224
 21
3.705944100850904
 31
0.0
  0
LINE
  5
4B2F
330
1F
100
AcDbEntity
  8
AM_0
100
AcDbLine
 10
0.0
 20
-1.011220487459297
 30
0.0
 11
-0.2600000000003486
 21
0.0
 31
0.0
  0
LINE
  5
4B30
330
1F
100
AcDbEntity
  8
AM_0
100
AcDbLine
 10
0.0
 20
0.0
 30
0.0
 11
-0.132682413341205
 21
-0.4951775078593883
 31
0.0
  0
ARC
  5
4B31
330
1F
100
AcDbEntity
  8
AM_0
100
AcDbCircle
 10
6.508270990248417
 20
1.111393978535446
 30
0.0
 40
7.43222339625862
100
AcDbArc
 50
171.6411574078215
 51
204.4024896870891
  0
LINE
  5
4B32
330
1F
100
AcDbEntity
  8
AM_0
100
AcDbLine
 10
-0.2599999999997635
 20
-1.959184536087185
 30
0.0
 11
-0.2600000000003486
 21
0.0
 31
0.0
  0
LINE
  5
4B33
330
1F
100
AcDbEntity
  8
AM_11
100
AcDbLine
 10
0.0
 20
6.50000000000001
 30
0.0
 11
0.0
 21
-6.499999999999991
 31
0.0
  0
DIMENSION
  5
4B34
330
1F
100
AcDbEntity
  8
AM_5
100
AcDbDimension
  2
*D8
 10
11.55776903085517
 20
-6.499999999999994
 30
0.0
 11
10.00776903085517
 21
0.0000000000000084
 31
0.0
 70
    32
  1
%%c<>
  3
AM_JIS
100
AcDbAlignedDimension
 13
0.0
 23
6.50000000000001
 33
0.0
 14
0.0000000000000092
 24
-6.499999999999991
 34
0.0
 50
90.00000000000003
100
AcDbRotatedDimension
1001
GENIUS_GENDTOL_13
1000

1000
h7
1000

1040
0.0
  0
LINE
  5
4B35
330
1F
100
AcDbEntity
  8
AM_0
100
AcDbLine
 10
0.000000000000585
 20
-3.249999999996582
 30
0.0
 11
-0.2599999999997635
 21
-1.959184536087185
 31
0.0
  0
LINE
  5
4B36
330
1F
100
AcDbEntity
  8
AM_0
100
AcDbLine
 10
0.000000000000585
 20
-3.249999999996582
 30
0.0
 11
0.0
 21
-1.011220487459418
 31
0.0
  0
LINE
  5
4B37
330
1F
100
AcDbEntity
  8
AM_0
100
AcDbLine
 10
0.000000000000585
 20
-3.249999999996582
 30
0.0
 11
-0.2599999999997635
 21
-4.51398853960336
 31
0.0
  0
LINE
  5
4B38
330
1F
100
AcDbEntity
  8
AM_0
100
AcDbLine
 10
-0.2600000000110019
 20
-4.513988539657738
 30
0.0
 11
-0.2599999999642932
 21
-3.249999999986975
 31
0.0
  0
LINE
  5
4B39
330
1F
100
AcDbEntity
  8
AM_0
100
AcDbLine
 10
-0.8450000000001242
 20
-4.443499918359911
 30
0.0
 11
-0.5639578033303678
 21
-3.249999999975734
 31
0.0
  0
LINE
  5
4B3A
330
1F
100
AcDbEntity
  8
AM_0
100
AcDbLine
 10
-1.010371326904939
 20
-3.249999999959477
 30
0.0
 11
0.000000000000585
 21
-3.249999999996582
 31
0.0
  0
LINE
  5
4B3B
330
1F
100
AcDbEntity
  8
AM_0
100
AcDbLine
 10
0.0
 20
0.0
 30
0.0
 11
-0.000000000000585
 21
6.325833024921962
 31
0.0
  0
LINE
  5
4B3C
330
1F
100
AcDbEntity
  8
AM_0
100
AcDbLine
 10
-0.8450000000001242
 20
2.191833868519552
 30
0.0
 11
-1.974619138465901
 21
3.611111111111029
 31
0.0
  0
LINE
  5
4B3D
330
1F
100
AcDbEntity
  8
AM_0
100
AcDbLine
 10
-0.2600000000003486
 20
0.0
 30
0.0
 11
-0.8450000000001242
 21
2.191833868519552
 31
0.0
  0
LINE
  5
4B3E
330
1F
100
AcDbEntity
  8
AM_0
100
AcDbLine
 10
-0.6499999999994088
 20
6.500000000002096
 30
0.0
 11
-0.000000000000585
 21
6.325833024921962
 31
0.0
  0
VIEWPORT
  5
110
330
101
100
AcDbEntity
 67
     1
  8
0
100
AcDbViewport
 10
420.5
 20
297.0
 30
0.0
 40
948.9782706766916
 41
628.452
 68
     1
 69
     1
1001
ACAD
1000
MVIEW
1002
{
1070
    16
1010
0.0
1020
0.0
1030
0.0
1010
0.0
1020
0.0
1030
1.0
1040
0.0
1040
628.452
1040
420.5
1040
297.0
1040
50.0
1040
0.0
1040
0.0
1070
     0
1070
   100
1070
     1
1070
     1
1070
     0
1070
     0
1070
     0
1070
     0
1040
0.0
1040
0.0
1040
0.0
1040
10.0
1040
10.0
1040
10.0
1040
10.0
1070
     0
1002
{
1002
}
1002
}
  0
ENDSEC
  0
SECTION
  2
OBJECTS
  0
DICTIONARY
  5
C
330
0
100
AcDbDictionary
  3
ACAD_GROUP
350
D
  3
ACAD_LAYOUT
350
1A
  3
ACAD_MLINESTYLE
350
17
  3
ACAD_PLOTSETTINGS
350
19
  3
ACAD_PLOTSTYLENAME
350
E
  3
ACDBVARIABLEDICTIONARY
350
34
  3
ACMDICTIONARY
350
43
  3
AMG
350
2B
  3
AMGSNAPSETTINGS
350
6E
  3
ASE_INDEX_DICTIONARY
350
151A
  3
DWGPROPS
350
4BA9
  3
ACDBHEADERROUNDTRIPXREC
350
4BB5
  0
DICTIONARY
  5
74
330
1F
100
AcDbDictionary
280
     1
  3
ACAD_INDEX
360
4BAB
  3
ACAD_LAYOUTSELFREF
360
4BD8
  0
DICTIONARY
  5
4BDD
330
101
100
AcDbDictionary
280
     1
  3
ACAD_LAYOUTSELFREF
360
4BDE
  0
DICTIONARY
  5
D
102
{ACAD_REACTORS
330
C
102
}
330
C
100
AcDbDictionary
  0
DICTIONARY
  5
1A
102
{ACAD_REACTORS
330
C
102
}
330
C
100
AcDbDictionary
  0
DICTIONARY
  5
17
102
{ACAD_REACTORS
330
C
102
}
330
C
100
AcDbDictionary
  3
STANDARD
350
18
  0
DICTIONARY
  5
19
102
{ACAD_REACTORS
330
C
102
}
330
C
100
AcDbDictionary
  0
ACDBDICTIONARYWDFLT
  5
E
102
{ACAD_REACTORS
330
C
102
}
330
C
100
AcDbDictionary
281
     1
  3
Normal
350
F
100
AcDbDictionaryWithDefault
340
F
  0
DICTIONARY
  5
34
102
{ACAD_REACTORS
330
C
102
}
330
C
100
AcDbDictionary
  3
INDEXCTL
350
35
  3
SORTENTS
350
B5E
  0
DICTIONARY
  5
43
102
{ACAD_REACTORS
330
C
102
}
330
C
100
AcDbDictionary
  3
ACMSTDDICTIONARY
350
260
  0
DICTIONARY
  5
2B
102
{ACAD_REACTORS
330
C
102
}
330
C
100
AcDbDictionary
  3
ACMGSETTINGS
350
2C
  0
DICTIONARY
  5
6E
102
{ACAD_REACTORS
330
C
102
}
330
C
100
AcDbDictionary
  0
DICTIONARY
  5
151A
102
{ACAD_REACTORS
330
C
102
}
330
C
100
AcDbDictionary
  3
ASEBLOCKHIERARCHYINDEXRECORD
350
151C
1001
DCO15
1040
1471862535.906
  0
XRECORD
  5
4BA9
102
{ACAD_REACTORS
330
C
102
}
330
C
100
AcDbXrecord
  1
DWGPROPS COOKIE
  2

  3

  4

  6

  7

  8

  9

300
AmdtFileType=82
301
=
302
=
303
=
304
=
305
=
306
=
307
=
308
=
309
=
 40
0.1789337268518518
 41
2452838.430434386
 42
2453045.643671192
  1

 90
        1
  0
DICTIONARY
  5
4BB5
102
{ACAD_REACTORS
330
C
102
}
330
C
100
AcDbDictionary
  3
TSTACKALIGN
350
4BB6
  3
TSTACKSIZE
350
4BB7
  3
HYPERLINKBASE
350
4BB8
  3
STYLESHEET
350
4BB9
  3
LAYOUTDICT
350
4BBA
  3
PLOTSETDICT
350
4BBB
  3
PLOTSTYLNAMDICT
350
4BBC
  3
LWETCUNION
350
4BBD
  3
INSUNITS
350
4BBE
  3
CEPSNTYPE
350
4BBF
  3
FINGERPRINTGUID
350
4BC0
  3
VERSIONGUID
350
4BC1
  3
PSVPSCALE
350
4BC2
  3
DIMSTYLEDATA
350
4BC3
  3
PUCSORTHOREF
350
4BC4
  3
PUCSORTHOVIEW
350
4BC5
  3
PUCSBASE
350
4BC6
  3
PUCSORGTOP
350
4BC7
  3
PUCSORGBOTTOM
350
4BC8
  3
PUCSORGLEFT
350
4BC9
  3
PUCSORGRIGHT
350
4BCA
  3
PUCSORGFRONT
350
4BCB
  3
PUCSORGBACK
350
4BCC
  3
UCSORTHOREF
350
4BCD
  3
UCSORTHOVIEW
350
4BCE
  3
UCSBASE
350
4BCF
  3
UCSORGTOP
350
4BD0
  3
UCSORGBOTTOM
350
4BD1
  3
UCSORGLEFT
350
4BD2
  3
UCSORGRIGHT
350
4BD3
  3
UCSORGFRONT
350
4BD4
  3
UCSORGBACK
350
4BD5
  0
DICTIONARY
  5
4BAB
102
{ACAD_REACTORS
330
74
102
}
330
74
100
AcDbDictionary
  3
*A1
350
4BAC
  0
XRECORD
  5
4BD8
102
{ACAD_REACTORS
330
74
102
}
330
74
100
AcDbXrecord
340
1F
  0
XRECORD
  5
4BDE
102
{ACAD_REACTORS
330
4BDD
102
}
330
4BDD
100
AcDbXrecord
340
101
  0
MLINESTYLE
  5
18
102
{ACAD_REACTORS
330
17
102
}
330
17
100
AcDbMlineStyle
  2
STANDARD
 70
     0
  3

 62
   256
 51
90.0
 52
90.0
 71
     2
 49
0.5
 62
   256
  6
BYLAYER
 49
-0.5
 62
   256
  6
BYLAYER
  0
ACDBPLACEHOLDER
  5
F
102
{ACAD_REACTORS
330
E
102
}
330
E
100
AcDbPlaceHolder
280
     0
  0
DICTIONARYVAR
  5
35
102
{ACAD_REACTORS
330
34
102
}
330
34
100
DictionaryVariables
280
     0
  1
1
  0
DICTIONARYVAR
  5
B5E
102
{ACAD_REACTORS
330
34
102
}
330
34
100
DictionaryVariables
280
     0
  1
96
  0
DICTIONARY
  5
260
102
{ACAD_REACTORS
330
43
102
}
330
43
100
AcDbDictionary
  0
DICTIONARY
  5
2C
102
{ACAD_REACTORS
330
2B
102
}
330
2B
100
AcDbDictionary
  3
DWGSETTINGS
350
2D
  0
XRECORD
  5
151C
102
{ACAD_REACTORS
330
151A
102
}
330
151A
100
AcDbXrecord
330
0
330
0
330
0
330
0
330
0
330
0
330
0
330
0
  0
XRECORD
  5
4BB6
102
{ACAD_REACTORS
330
4BB5
102
}
330
4BB5
100
AcDbXrecord
 90
        1
  0
XRECORD
  5
4BB7
102
{ACAD_REACTORS
330
4BB5
102
}
330
4BB5
100
AcDbXrecord
 90
       70
  0
XRECORD
  5
4BB8
102
{ACAD_REACTORS
330
4BB5
102
}
330
4BB5
100
AcDbXrecord
  1

  0
XRECORD
  5
4BB9
102
{ACAD_REACTORS
330
4BB5
102
}
330
4BB5
100
AcDbXrecord
  1
ASAMI.ctb
  0
XRECORD
  5
4BBA
102
{ACAD_REACTORS
330
4BB5
102
}
330
4BB5
100
AcDbXrecord
340
1A
  0
XRECORD
  5
4BBB
102
{ACAD_REACTORS
330
4BB5
102
}
330
4BB5
100
AcDbXrecord
340
19
  0
XRECORD
  5
4BBC
102
{ACAD_REACTORS
330
4BB5
102
}
330
4BB5
100
AcDbXrecord
340
E
  0
XRECORD
  5
4BBD
102
{ACAD_REACTORS
330
4BB5
102
}
330
4BB5
100
AcDbXrecord
 90
    10781
  0
XRECORD
  5
4BBE
102
{ACAD_REACTORS
330
4BB5
102
}
330
4BB5
100
AcDbXrecord
 90
        4
  0
XRECORD
  5
4BBF
102
{ACAD_REACTORS
330
4BB5
102
}
330
4BB5
100
AcDbXrecord
 90
        0
  0
XRECORD
  5
4BC0
102
{ACAD_REACTORS
330
4BB5
102
}
330
4BB5
100
AcDbXrecord
  1
{AFB28963-8C59-40AE-9337-C84526B81ACE}
  0
XRECORD
  5
4BC1
102
{ACAD_REACTORS
330
4BB5
102
}
330
4BB5
100
AcDbXrecord
  1
{B4E16312-4816-405D-955D-E23750BB848B}
  0
XRECORD
  5
4BC2
102
{ACAD_REACTORS
330
4BB5
102
}
330
4BB5
100
AcDbXrecord
 40
0.0
  0
XRECORD
  5
4BC3
102
{ACAD_REACTORS
330
4BB5
102
}
330
4BB5
100
AcDbXrecord
1000
DSTYLE
1002
{
1070
    79
 70
     2
1070
   341
340
59
1070
   342
340
59
1070
   371
 70
    -1
1070
   372
 70
    -1
1002
}
  0
XRECORD
  5
4BC4
102
{ACAD_REACTORS
330
4BB5
102
}
330
4BB5
100
AcDbXrecord
340
0
  0
XRECORD
  5
4BC5
102
{ACAD_REACTORS
330
4BB5
102
}
330
4BB5
100
AcDbXrecord
 70
     0
  0
XRECORD
  5
4BC6
102
{ACAD_REACTORS
330
4BB5
102
}
330
4BB5
100
AcDbXrecord
340
0
  0
XRECORD
  5
4BC7
102
{ACAD_REACTORS
330
4BB5
102
}
330
4BB5
100
AcDbXrecord
 10
0.0
 20
0.0
 30
0.0
  0
XRECORD
  5
4BC8
102
{ACAD_REACTORS
330
4BB5
102
}
330
4BB5
100
AcDbXrecord
 10
0.0
 20
0.0
 30
0.0
  0
XRECORD
  5
4BC9
102
{ACAD_REACTORS
330
4BB5
102
}
330
4BB5
100
AcDbXrecord
 10
0.0
 20
0.0
 30
0.0
  0
XRECORD
  5
4BCA
102
{ACAD_REACTORS
330
4BB5
102
}
330
4BB5
100
AcDbXrecord
 10
0.0
 20
0.0
 30
0.0
  0
XRECORD
  5
4BCB
102
{ACAD_REACTORS
330
4BB5
102
}
330
4BB5
100
AcDbXrecord
 10
0.0
 20
0.0
 30
0.0
  0
XRECORD
  5
4BCC
102
{ACAD_REACTORS
330
4BB5
102
}
330
4BB5
100
AcDbXrecord
 10
0.0
 20
0.0
 30
0.0
  0
XRECORD
  5
4BCD
102
{ACAD_REACTORS
330
4BB5
102
}
330
4BB5
100
AcDbXrecord
340
0
  0
XRECORD
  5
4BCE
102
{ACAD_REACTORS
330
4BB5
102
}
330
4BB5
100
AcDbXrecord
 70
     0
  0
XRECORD
  5
4BCF
102
{ACAD_REACTORS
330
4BB5
102
}
330
4BB5
100
AcDbXrecord
340
0
  0
XRECORD
  5
4BD0
102
{ACAD_REACTORS
330
4BB5
102
}
330
4BB5
100
AcDbXrecord
 10
0.0
 20
0.0
 30
0.0
  0
XRECORD
  5
4BD1
102
{ACAD_REACTORS
330
4BB5
102
}
330
4BB5
100
AcDbXrecord
 10
0.0
 20
0.0
 30
0.0
  0
XRECORD
  5
4BD2
102
{ACAD_REACTORS
330
4BB5
102
}
330
4BB5
100
AcDbXrecord
 10
0.0
 20
0.0
 30
0.0
  0
XRECORD
  5
4BD3
102
{ACAD_REACTORS
330
4BB5
102
}
330
4BB5
100
AcDbXrecord
 10
0.0
 20
0.0
 30
0.0
  0
XRECORD
  5
4BD4
102
{ACAD_REACTORS
330
4BB5
102
}
330
4BB5
100
AcDbXrecord
 10
0.0
 20
0.0
 30
0.0
  0
XRECORD
  5
4BD5
102
{ACAD_REACTORS
330
4BB5
102
}
330
4BB5
100
AcDbXrecord
 10
0.0
 20
0.0
 30
0.0
  0
LAYER_INDEX
  5
4BAC
102
{ACAD_REACTORS
330
4BAB
102
}
330
4BAB
100
AcDbIndex
 40
2453152.470016874
100
AcDbLayerIndex
  8
0
360
4BAD
 90
        0
  8
AM_0
360
4BAE
 90
       82
  8
AM_11
360
4BAF
 90
        4
  8
AM_7
360
4BB0
 90
        1
  8
AM_5
360
4BB1
 90
        4
  8
Defpoints
360
4BB2
 90
        0
  8
AM_6
360
4BB3
 90
        1
  0
XRECORD
  5
2D
102
{ACAD_REACTORS
330
2C
102
}
330
2C
100
AcDbXrecord
  1
VERSION
140
15.0
  1
PRODUCT
  2
AutoCAD Mechanical 2000
  0
IDBUFFER
  5
4BAD
330
0
100
AcDbIdBuffer
  0
IDBUFFER
  5
4BAE
330
0
100
AcDbIdBuffer
330
4B18
330
4B19
330
4B1A
330
4B1B
330
4B1C
330
4B1D
330
4B1E
330
4B1F
330
4B20
330
4B21
330
4B22
330
4B25
330
4B27
330
4B28
330
4B29
330
4B2A
330
4B2B
330
4B2C
330
4B2D
330
4B2E
330
4B2F
330
4B30
330
4B31
330
4B32
330
4B35
330
4B36
330
4B37
330
4B38
330
4B39
330
4B3A
330
4B3B
330
4B3C
330
4B3D
330
4B3E
330
4AE4
330
4AE5
330
4AE9
330
4AEA
330
4AEB
330
4AEC
330
4AEE
330
4AEF
330
4AF0
330
4AF1
330
4AF2
330
4AF3
330
4AF4
330
4AF5
330
4AF6
330
4AF7
330
4AF8
330
4AF9
330
4AFA
330
4AFB
330
4AFC
330
4AFD
330
4AFE
330
4AFF
330
4B00
330
4B01
330
4B02
330
4B03
330
4B04
330
4B05
330
4B06
330
4B07
330
4B08
330
4B09
330
4B0A
330
4B0B
330
4B0C
330
4B0D
330
4B0E
330
4B0F
330
4B10
330
4B11
330
4B12
330
4B13
330
4B14
330
4B15
330
4B16
330
4B17
  0
IDBUFFER
  5
4BAF
330
0
100
AcDbIdBuffer
330
4B23
330
4B24
330
4B26
330
4B33
  0
IDBUFFER
  5
4BB0
330
0
100
AcDbIdBuffer
330
4AE7
  0
IDBUFFER
  5
4BB1
330
0
100
AcDbIdBuffer
330
4AE6
330
4AE8
330
4AED
330
4B34
  0
IDBUFFER
  5
4BB2
330
0
100
AcDbIdBuffer
  0
IDBUFFER
  5
4BB3
330
0
100
AcDbIdBuffer
330
1500
  0
ENDSEC
  0
EOF
