  0
SECTION
  2
HEADER
  9
$ACADVER
  1
AC1014
  9
$ACADMAINTVER
 70
     9
  9
$DWGCODEPAGE
  3
ANSI_932
  9
$INSBASE
 10
0.0
 20
0.0
 30
0.0
  9
$EXTMIN
 10
-116.3947004505847
 20
-56.50000100000018
 30
-0.00000001
  9
$EXTMAX
 10
19.55776903085518
 20
9.260682272528278
 30
0.00000001
  9
$LIMMIN
 10
-121.7005258652387
 20
-73.06043348084881
  9
$LIMMAX
 10
26.47003798303103
 20
34.05404093475175
  9
$ORTHOMODE
 70
     0
  9
$REGENMODE
 70
     1
  9
$FILLMODE
 70
     1
  9
$QTEXTMODE
 70
     0
  9
$MIRRTEXT
 70
     0
  9
$DRAGMODE
 70
     2
  9
$LTSCALE
 40
1.0
  9
$OSMODE
 70
    55
  9
$ATTMODE
 70
     1
  9
$TEXTSIZE
 40
2.5
  9
$TRACEWID
 40
1.0
  9
$TEXTSTYLE
  7
STANDARD
  9
$CLAYER
  8
AM_5
  9
$CELTYPE
  6
BYLAYER
  9
$CECOLOR
 62
   256
  9
$CELTSCALE
 40
1.0
  9
$DELOBJ
 70
     1
  9
$DISPSILH
 70
     0
  9
$DIMSCALE
 40
0.5
  9
$DIMASZ
 40
2.5
  9
$DIMEXO
 40
1.0
  9
$DIMDLI
 40
12.0
  9
$DIMRND
 40
0.0
  9
$DIMDLE
 40
0.0
  9
$DIMEXE
 40
1.0
  9
$DIMTP
 40
0.1
  9
$DIMTM
 40
0.1
  9
$DIMTXT
 40
3.2
  9
$DIMCEN
 40
0.0
  9
$DIMTSZ
 40
0.0
  9
$DIMTOL
 70
     0
  9
$DIMLIM
 70
     0
  9
$DIMTIH
 70
     0
  9
$DIMTOH
 70
     0
  9
$DIMSE1
 70
     0
  9
$DIMSE2
 70
     0
  9
$DIMTAD
 70
     3
  9
$DIMZIN
 70
     8
  9
$DIMBLK
  1
OPEN30
  9
$DIMASO
 70
     1
  9
$DIMSHO
 70
     1
  9
$DIMPOST
  1

  9
$DIMAPOST
  1
"
  9
$DIMALT
 70
     0
  9
$DIMALTD
 70
     2
  9
$DIMALTF
 40
0.0393701
  9
$DIMLFAC
 40
1.0
  9
$DIMTOFL
 70
     1
  9
$DIMTVP
 40
0.0
  9
$DIMTIX
 70
     0
  9
$DIMSOXD
 70
     0
  9
$DIMSAH
 70
     0
  9
$DIMBLK1
  1

  9
$DIMBLK2
  1

  9
$DIMSTYLE
  2
AM_JIS
  9
$DIMCLRD
 70
   256
  9
$DIMCLRE
 70
   256
  9
$DIMCLRT
 70
     2
  9
$DIMTFAC
 40
0.71
  9
$DIMGAP
 40
1.5
  9
$DIMJUST
 70
     0
  9
$DIMSD1
 70
     0
  9
$DIMSD2
 70
     0
  9
$DIMTOLJ
 70
     0
  9
$DIMTZIN
 70
     0
  9
$DIMALTZ
 70
     0
  9
$DIMALTTZ
 70
     0
  9
$DIMFIT
 70
     3
  9
$DIMUPT
 70
     0
  9
$DIMUNIT
 70
     2
  9
$DIMDEC
 70
     3
  9
$DIMTDEC
 70
     3
  9
$DIMALTU
 70
     2
  9
$DIMALTTD
 70
     2
  9
$DIMTXSTY
  7
ASAMI
  9
$DIMAUNIT
 70
     0
  9
$LUNITS
 70
     2
  9
$LUPREC
 70
     2
  9
$SKETCHINC
 40
1.0
  9
$FILLETRAD
 40
2.5
  9
$AUNITS
 70
     0
  9
$AUPREC
 70
     0
  9
$MENU
  1
.
  9
$ELEVATION
 40
0.0
  9
$PELEVATION
 40
0.0
  9
$THICKNESS
 40
0.0
  9
$LIMCHECK
 70
     0
  9
$BLIPMODE
 70
     0
  9
$CHAMFERA
 40
1.0
  9
$CHAMFERB
 40
1.0
  9
$CHAMFERC
 40
20.0
  9
$CHAMFERD
 40
0.0
  9
$SKPOLY
 70
     0
  9
$TDCREATE
 40
2452838.430434386
  9
$TDUPDATE
 40
2453152.472777546
  9
$TDINDWG
 40
0.1531307292
  9
$TDUSRTIMER
 40
0.1531307292
  9
$USRTIMER
 70
     1
  9
$ANGBASE
 50
0.0
  9
$ANGDIR
 70
     0
  9
$PDMODE
 70
     0
  9
$PDSIZE
 40
0.0
  9
$PLINEWID
 40
0.0
  9
$COORDS
 70
     1
  9
$SPLFRAME
 70
     0
  9
$SPLINETYPE
 70
     6
  9
$SPLINESEGS
 70
     8
  9
$ATTDIA
 70
     1
  9
$ATTREQ
 70
     1
  9
$HANDLING
 70
 12289
  9
$HANDSEED
  5
4516
  9
$SURFTAB1
 70
     6
  9
$SURFTAB2
 70
     6
  9
$SURFTYPE
 70
     6
  9
$SURFU
 70
     6
  9
$SURFV
 70
     6
  9
$UCSNAME
  2

  9
$UCSORG
 10
0.0
 20
0.0
 30
0.0
  9
$UCSXDIR
 10
1.0
 20
0.0
 30
0.0
  9
$UCSYDIR
 10
0.0
 20
1.0
 30
0.0
  9
$PUCSNAME
  2

  9
$PUCSORG
 10
0.0
 20
0.0
 30
0.0
  9
$PUCSXDIR
 10
1.0
 20
0.0
 30
0.0
  9
$PUCSYDIR
 10
0.0
 20
1.0
 30
0.0
  9
$USERI1
 70
     0
  9
$USERI2
 70
     0
  9
$USERI3
 70
     0
  9
$USERI4
 70
     0
  9
$USERI5
 70
     0
  9
$USERR1
 40
0.0
  9
$USERR2
 40
0.0
  9
$USERR3
 40
0.0
  9
$USERR4
 40
0.0
  9
$USERR5
 40
0.0
  9
$WORLDVIEW
 70
     1
  9
$SHADEDGE
 70
     3
  9
$SHADEDIF
 70
    70
  9
$TILEMODE
 70
     1
  9
$MAXACTVP
 70
    64
  9
$PINSBASE
 10
0.0
 20
0.0
 30
0.0
  9
$PLIMCHECK
 70
     0
  9
$PEXTMIN
 10
1.000000000000000E+20
 20
1.000000000000000E+20
 30
1.000000000000000E+20
  9
$PEXTMAX
 10
-1.000000000000000E+20
 20
-1.000000000000000E+20
 30
-1.000000000000000E+20
  9
$PLIMMIN
 10
0.0
 20
0.0
  9
$PLIMMAX
 10
841.0
 20
594.0
  9
$UNITMODE
 70
     0
  9
$VISRETAIN
 70
     1
  9
$PLINEGEN
 70
     0
  9
$PSLTSCALE
 70
     0
  9
$TREEDEPTH
 70
  3020
  9
$PICKSTYLE
 70
     0
  9
$CMLSTYLE
  2
STANDARD
  9
$CMLJUST
 70
     0
  9
$CMLSCALE
 40
20.0
  9
$PROXYGRAPHICS
 70
     1
  9
$MEASUREMENT
 70
     1
  0
ENDSEC
  0
SECTION
  2
CLASSES
  0
CLASS
  1
ACDBDICTIONARYWDFLT
  2
AcDbDictionaryWithDefault
  3
AutoCAD 2000
 90
        0
280
     0
281
     0
  0
CLASS
  1
ACDBPLACEHOLDER
  2
AcDbPlaceHolder
  3
AutoCAD 2000
 90
        0
280
     0
281
     0
  0
CLASS
  1
LAYOUT
  2
AcDbLayout
  3
AutoCAD 2000
 90
        0
280
     0
281
     0
  0
CLASS
  1
AMGSETTINGSOBJ
  2
AmgSettingsObj
  3
"AcadM|Product Description: AutoCAD Mechanical 2000|Company: Autodesk"
 90
        0
280
     0
281
     0
  0
CLASS
  1
ACME_DOCUMENT
  2
AcMeDbDoc
  3
AcMeServices
 90
        0
280
     0
281
     0
  0
CLASS
  1
ACMESCOPE
  2
AcMeScope
  3
AcMeServices
 90
        0
280
     0
281
     0
  0
CLASS
  1
ACMECOMMANDHISTORY
  2
AcMeCommandHistory
  3
AcMeServices
 90
        0
280
     0
281
     0
  0
CLASS
  1
DICTIONARYVAR
  2
AcDbDictionaryVar
  3
AutoCAD 2000
 90
        0
280
     0
281
     0
  0
CLASS
  1
ACIMSYSVARMAN
  2
AcImSysVarManager
  3
AcMeServices
 90
        0
280
     0
281
     0
  0
CLASS
  1
ACIMREALSYSVAR
  2
AcImRealSysVar
  3
AcMeServices
 90
        0
280
     0
281
     0
  0
CLASS
  1
ACIMINTSYSVAR
  2
AcImIntSysVar
  3
AcMeServices
 90
        0
280
     0
281
     0
  0
CLASS
  1
ACMEDRAWINGMAN
  2
AcMeDrawingMan
  3
AcMeServices
 90
        0
280
     0
281
     0
  0
CLASS
  1
ACMEVIEW
  2
AcMeView
  3
AcMeServices
 90
        0
280
     0
281
     0
  0
CLASS
  1
ACDBENTITYCACHE
  2
AcMeEntityCache
  3
AcMeServices
 90
        0
280
     0
281
     0
  0
CLASS
  1
GSMANAGER
  2
AcMeGSManager
  3
AcMeServices
 90
        0
280
     0
281
     0
  0
CLASS
  1
AmdtInternalReactor
  2
AmdtInternalReactor
  3
AcMeServices
 90
        0
280
     0
281
     0
  0
CLASS
  1
ACMESTATEMGR
  2
AcMeStateMgr
  3
AcMeServices
 90
        0
280
     0
281
     0
  0
CLASS
  1
ACME_DATABASE
  2
AcMeDbDatabase
  3
AcMeServices
 90
        0
280
     0
281
     0
  0
CLASS
  1
ACRFINSADJUSTERMGR
  2
AcRfInsAdjusterMgr
  3
AcMeServices
 90
        0
280
     0
281
     0
  0
CLASS
  1
ACMDATADICTIONARY
  2
AcmDataDictionary
  3
"AcmSymBB|Product Description: AutoCAD Mechanical 2000|Company: Autodesk"
 90
        0
280
     0
281
     0
  0
CLASS
  1
ACMDATAENTRYBLOCK
  2
AcmDataEntryBlock
  3
"AcmSymBB|Product Description: AutoCAD Mechanical 2000|Company: Autodesk"
 90
        0
280
     0
281
     0
  0
CLASS
  1
AMGOBJPROPCFG
  2
AmgObjPropCfg
  3
"AmgLay|Product Description: AutoCAD Mechanical 2000|Company: Autodesk"
 90
        1
280
     0
281
     0
  0
CLASS
  1
ACAMGFILTERDAT
  2
AcAmgFilterDat
  3
"AcadM|Product Description: AutoCAD Mechanical 2000|Company: Autodesk"
 90
        0
280
     0
281
     0
  0
CLASS
  1
LAYER_INDEX
  2
AcDbLayerIndex
  3
AutoCAD 2000
 90
        0
280
     0
281
     0
  0
CLASS
  1
IDBUFFER
  2
AcDbIdBuffer
  3
AutoCAD 2000
 90
        0
280
     0
281
     0
  0
CLASS
  1
ACIMSTRSYSVAR
  2
AcImStrSysVar
  3
AcMeServices
 90
        0
280
     0
281
     0
  0
CLASS
  1
ACMSTANDARDJIS
  2
AcmStandardJIS
  3
"AcmSymBB|Product Description: AutoCAD Mechanical 2000|Company: Autodesk"
 90
        0
280
     0
281
     0
  0
CLASS
  1
ACMSURFSTANDARDJIS
  2
AcmSurfTextStdJIS
  3
"AcmSymBB|Product Description: AutoCAD Mechanical 2000|Company: Autodesk"
 90
        0
280
     0
281
     0
  0
CLASS
  1
ACMFCFSTANDARDJIS
  2
AcmFCFStdJIS
  3
"AcmSymBB|Product Description: AutoCAD Mechanical 2000|Company: Autodesk"
 90
        0
280
     0
281
     0
  0
CLASS
  1
ACMWELDSTANDARDJIS
  2
AcmWeldingStdJIS
  3
"AcmSymBB|Product Description: AutoCAD Mechanical 2000|Company: Autodesk"
 90
        0
280
     0
281
     0
  0
CLASS
  1
ACMIDSTANDARDJIS
  2
AcmIdStdJIS
  3
"AcmSymBB|Product Description: AutoCAD Mechanical 2000|Company: Autodesk"
 90
        0
280
     0
281
     0
  0
CLASS
  1
ACMDATUMSTANDARDJIS
  2
AcmDatumStdJIS
  3
"AcmSymBB|Product Description: AutoCAD Mechanical 2000|Company: Autodesk"
 90
        0
280
     0
281
     0
  0
CLASS
  1
ACMBOMSTANDARDJIS
  2
AcmBOMStdJIS
  3
"AcmSymBB|Product Description: AutoCAD Mechanical 2000|Company: Autodesk"
 90
        0
280
     0
281
     0
  0
CLASS
  1
ACMSTANDARDANSI
  2
AcmStandardANSI
  3
"AcmSymBB|Product Description: AutoCAD Mechanical 2000|Company: Autodesk"
 90
        0
280
     0
281
     0
  0
CLASS
  1
ACMSURFSTANDARDANSI
  2
AcmSurfTextStdANSI
  3
"AcmSymBB|Product Description: AutoCAD Mechanical 2000|Company: Autodesk"
 90
        0
280
     0
281
     0
  0
CLASS
  1
ACMFCFSTANDARDANSI
  2
AcmFCFStdANSI
  3
"AcmSymBB|Product Description: AutoCAD Mechanical 2000|Company: Autodesk"
 90
        0
280
     0
281
     0
  0
CLASS
  1
ACMWELDSTANDARDANSI
  2
AcmWeldingStdANSI
  3
"AcmSymBB|Product Description: AutoCAD Mechanical 2000|Company: Autodesk"
 90
        0
280
     0
281
     0
  0
CLASS
  1
ACMIDSTANDARDANSI
  2
AcmIdStdANSI
  3
"AcmSymBB|Product Description: AutoCAD Mechanical 2000|Company: Autodesk"
 90
        0
280
     0
281
     0
  0
CLASS
  1
ACMDATUMSTANDARDANSI
  2
AcmDatumStdANSI
  3
"AcmSymBB|Product Description: AutoCAD Mechanical 2000|Company: Autodesk"
 90
        0
280
     0
281
     0
  0
CLASS
  1
ACMBOMSTANDARDANSI
  2
AcmBOMStdANSI
  3
"AcmSymBB|Product Description: AutoCAD Mechanical 2000|Company: Autodesk"
 90
        0
280
     0
281
     0
  0
CLASS
  1
ACMSTANDARDBSI
  2
AcmStandardBSI
  3
"AcmSymBB|Product Description: AutoCAD Mechanical 2000|Company: Autodesk"
 90
        0
280
     0
281
     0
  0
CLASS
  1
ACMSURFSTANDARDBSI
  2
AcmSurfTextStdBSI
  3
"AcmSymBB|Product Description: AutoCAD Mechanical 2000|Company: Autodesk"
 90
        0
280
     0
281
     0
  0
CLASS
  1
ACMFCFSTANDARDBSI
  2
AcmFCFStdBSI
  3
"AcmSymBB|Product Description: AutoCAD Mechanical 2000|Company: Autodesk"
 90
        0
280
     0
281
     0
  0
CLASS
  1
ACMWELDSTANDARDBSI
  2
AcmWeldingStdBSI
  3
"AcmSymBB|Product Description: AutoCAD Mechanical 2000|Company: Autodesk"
 90
        0
280
     0
281
     0
  0
CLASS
  1
ACMIDSTANDARDBSI
  2
AcmIdStdBSI
  3
"AcmSymBB|Product Description: AutoCAD Mechanical 2000|Company: Autodesk"
 90
        0
280
     0
281
     0
  0
CLASS
  1
ACMDATUMSTANDARDBSI
  2
AcmDatumStdBSI
  3
"AcmSymBB|Product Description: AutoCAD Mechanical 2000|Company: Autodesk"
 90
        0
280
     0
281
     0
  0
CLASS
  1
ACMBOMSTANDARDBSI
  2
AcmBOMStdBSI
  3
"AcmSymBB|Product Description: AutoCAD Mechanical 2000|Company: Autodesk"
 90
        0
280
     0
281
     0
  0
CLASS
  1
LONG_TRANSACTION
  2
AcDbLongTransaction
  3
AutoCAD 2000
 90
        0
280
     0
281
     0
  0
CLASS
  1
LWPOLYLINE
  2
AcDbPolyline
  3
AutoCAD 2000
 90
        0
280
     0
281
     1
  0
CLASS
  1
HATCH
  2
AcDbHatch
  3
AutoCAD 2000
 90
        0
280
     0
281
     1
  0
CLASS
  1
XRECORD
  2
AcDbXrecord
  3
AutoCAD 2000
 90
        0
280
     0
281
     0
  0
ENDSEC
  0
SECTION
  2
TABLES
  0
TABLE
  2
VPORT
  5
8
330
0
100
AcDbSymbolTable
 70
     3
  0
VPORT
  5
44EB
330
8
100
AcDbSymbolTableRecord
100
AcDbViewportTableRecord
  2
*ACTIVE
 70
     0
 10
0.0
 20
0.0
 11
1.0
 21
1.0
 12
-21.92674757724171
 22
-16.48088278674213
 13
0.0
 23
0.0
 14
2.5
 24
2.5
 15
10.0
 25
10.0
 16
0.0
 26
0.0
 36
1.0
 17
0.0
 27
0.0
 37
0.0
 40
194.1198924032971
 41
1.56570841889117
 42
50.0
 43
0.0
 44
0.0
 50
0.0
 51
0.0
 71
     0
 72
   100
 73
     1
 74
     3
 75
     0
 76
     0
 77
     0
 78
     0
  0
ENDTAB
  0
TABLE
  2
LTYPE
  5
5
330
0
100
AcDbSymbolTable
 70
    10
  0
LTYPE
  5
14
330
5
100
AcDbSymbolTableRecord
100
AcDbLinetypeTableRecord
  2
BYBLOCK
 70
     0
  3

 72
    65
 73
     0
 40
0.0
  0
LTYPE
  5
15
330
5
100
AcDbSymbolTableRecord
100
AcDbLinetypeTableRecord
  2
BYLAYER
 70
     0
  3

 72
    65
 73
     0
 40
0.0
  0
LTYPE
  5
16
330
5
100
AcDbSymbolTableRecord
100
AcDbLinetypeTableRecord
  2
CONTINUOUS
 70
     0
  3
Solid line
 72
    65
 73
     0
 40
0.0
  0
LTYPE
  5
4B
330
5
100
AcDbSymbolTableRecord
100
AcDbLinetypeTableRecord
  2
AM_ISO02W050
 70
     0
  3
__ __ __ __ __ __ __ __ __ __ __ __ __ __ __
 72
    65
 73
     2
 40
7.5
 49
6.0
 74
     0
 49
-1.5
 74
     0
  0
LTYPE
  5
4C
330
5
100
AcDbSymbolTableRecord
100
AcDbLinetypeTableRecord
  2
AM_ISO08W050
 70
     0
  3
____ . ____ . ____ . ____ . ____ . ____ . ____
 72
    65
 73
     4
 40
18.0
 49
12.0
 74
     0
 49
-1.5
 74
     0
 49
3.0
 74
     0
 49
-1.5
 74
     0
  0
LTYPE
  5
4D
330
5
100
AcDbSymbolTableRecord
100
AcDbLinetypeTableRecord
  2
AM_ISO09W050
 70
     0
  3
_____ . . _____ . . _____ . . ____ .. ____
 72
    65
 73
     6
 40
22.5
 49
12.0
 74
     0
 49
-1.5
 74
     0
 49
3.0
 74
     0
 49
-1.5
 74
     0
 49
3.0
 74
     0
 49
-1.5
 74
     0
  0
LTYPE
  5
4E
330
5
100
AcDbSymbolTableRecord
100
AcDbLinetypeTableRecord
  2
AMCONSTR
 70
     0
  3
_______________________
 72
    65
 73
     2
 40
9999.0
 49
9999.0
 74
     0
 49
0.0
 74
     0
  0
LTYPE
  5
4F
330
5
100
AcDbSymbolTableRecord
100
AcDbLinetypeTableRecord
  2
AM_ISO02W050X2
 70
     0
  3
 _ _ _ _ _ _ _ _ _ _ _ _
 72
    65
 73
     2
 40
3.75
 49
3.0
 74
     0
 49
-0.75
 74
     0
  0
LTYPE
  5
50
330
5
100
AcDbSymbolTableRecord
100
AcDbLinetypeTableRecord
  2
AM_ISO08W050X2
 70
     0
  3
__ . __ . __ . __ . __ . __
 72
    65
 73
     4
 40
9.0
 49
6.0
 74
     0
 49
-0.75
 74
     0
 49
1.5
 74
     0
 49
-0.75
 74
     0
  0
LTYPE
  5
53
330
5
100
AcDbSymbolTableRecord
100
AcDbLinetypeTableRecord
  2
AMZIGZAG
 70
     0
  3
/\/-/\/-/\/-/\/-/\/-/\/
 72
    65
 73
     2
 40
11.00009999999999
 49
0.0001
 74
     4
 75
   135
340
52
 46
0.04
 50
0.0
 44
0.0
 45
0.0
 49
-11.0
 74
     0
  0
LTYPE
  5
166
330
5
100
AcDbSymbolTableRecord
100
AcDbLinetypeTableRecord
  2
ACJISTGL
 70
     0
  3
_ _ _ _ _
 72
    65
 73
     2
 40
3.0
 49
2.0
 74
     0
 49
-1.0
 74
     0
  0
LTYPE
  5
26A
330
5
100
AcDbSymbolTableRecord
100
AcDbLinetypeTableRecord
  2
ACJISTGB
 70
     0
  3
__ . . __ . .
 72
    65
 73
     6
 40
9.0
 49
4.0
 74
     0
 49
-1.0
 74
     0
 49
1.0
 74
     0
 49
-1.0
 74
     0
 49
1.0
 74
     0
 49
-1.0
 74
     0
  0
ENDTAB
  0
TABLE
  2
LAYER
  5
2
330
0
100
AcDbSymbolTable
 70
     7
  0
LAYER
  5
10
330
2
100
AcDbSymbolTableRecord
100
AcDbLayerTableRecord
  2
0
 70
     0
 62
     7
  6
CONTINUOUS
  0
LAYER
  5
3F9
330
2
100
AcDbSymbolTableRecord
100
AcDbLayerTableRecord
  2
AM_0
 70
     0
 62
     7
  6
CONTINUOUS
  0
LAYER
  5
BDD
330
2
100
AcDbSymbolTableRecord
100
AcDbLayerTableRecord
  2
AM_11
 70
     0
 62
     3
  6
AM_ISO09W050
  0
LAYER
  5
BDE
330
2
100
AcDbSymbolTableRecord
100
AcDbLayerTableRecord
  2
AM_7
 70
     0
 62
     4
  6
AM_ISO08W050
  0
LAYER
  5
BDF
330
2
100
AcDbSymbolTableRecord
100
AcDbLayerTableRecord
  2
AM_5
 70
     0
 62
     3
  6
CONTINUOUS
  0
LAYER
  5
BE0
330
2
100
AcDbSymbolTableRecord
100
AcDbLayerTableRecord
  2
DEFPOINTS
 70
     0
 62
     7
  6
CONTINUOUS
  0
LAYER
  5
14FF
330
2
100
AcDbSymbolTableRecord
100
AcDbLayerTableRecord
  2
AM_6
 70
     0
 62
     2
  6
CONTINUOUS
  0
ENDTAB
  0
TABLE
  2
STYLE
  5
3
330
0
100
AcDbSymbolTable
 70
     5
  0
STYLE
  5
11
330
3
100
AcDbSymbolTableRecord
100
AcDbTextStyleTableRecord
  2
STANDARD
 70
     0
 40
0.0
 41
1.0
 50
0.0
 71
     0
 42
2.5
  3
simplex.shx
  4
EXTFONT.SHX
  0
STYLE
  5
52
330
3
100
AcDbSymbolTableRecord
100
AcDbTextStyleTableRecord
  2

 70
     1
 40
0.0
 41
1.0
 50
0.0
 71
     0
 42
2.5
  3
ltypeshp.shx
  4

  0
STYLE
  5
6B
330
3
100
AcDbSymbolTableRecord
100
AcDbTextStyleTableRecord
  2
ASAMI
 70
     0
 40
0.0
 41
1.0
 50
0.0
 71
     0
 42
2.5
  3
simplex.shx
  4
EXTFONT.SHX
  0
STYLE
  5
262
330
3
100
AcDbSymbolTableRecord
100
AcDbTextStyleTableRecord
  2
ACJISTS
 70
     0
 40
1.0
 41
1.0
 50
0.0
 71
     0
 42
2.5
  3
simplex.shx
  4
bigfont.shx
  0
STYLE
  5
269
330
3
100
AcDbSymbolTableRecord
100
AcDbTextStyleTableRecord
  2
ACJISGDT
 70
     0
 40
0.0
 41
1.0
 50
0.0
 71
     0
 42
2.5
  3
amgdtans.shx
  4

  0
ENDTAB
  0
TABLE
  2
VIEW
  5
6
330
0
100
AcDbSymbolTable
 70
     0
  0
ENDTAB
  0
TABLE
  2
UCS
  5
7
330
0
100
AcDbSymbolTable
 70
     0
  0
ENDTAB
  0
TABLE
  2
APPID
  5
9
330
0
100
AcDbSymbolTable
 70
    14
  0
APPID
  5
12
330
9
100
AcDbSymbolTableRecord
100
AcDbRegAppTableRecord
  2
ACAD
 70
     0
  0
APPID
  5
30
330
9
100
AcDbSymbolTableRecord
100
AcDbRegAppTableRecord
  2
MCAD_NO_VIS
 70
     0
  0
APPID
  5
31
330
9
100
AcDbSymbolTableRecord
100
AcDbRegAppTableRecord
  2
ACAD_TEMP_GRAPHIC
 70
     0
  0
APPID
  5
2C2
330
9
100
AcDbSymbolTableRecord
100
AcDbRegAppTableRecord
  2
GENIUS_GENDTOL_13
 70
     0
  0
APPID
  5
339
330
9
100
AcDbSymbolTableRecord
100
AcDbRegAppTableRecord
  2
GENIUS_GENODEF_13
 70
     0
  0
APPID
  5
33A
330
9
100
AcDbSymbolTableRecord
100
AcDbRegAppTableRecord
  2
GENIUS_GENOBJ-N-RSBK_13
 70
     0
  0
APPID
  5
33B
330
9
100
AcDbSymbolTableRecord
100
AcDbRegAppTableRecord
  2
GENIUS_GENOBJ-N-LIB_13
 70
     0
  0
APPID
  5
33C
330
9
100
AcDbSymbolTableRecord
100
AcDbRegAppTableRecord
  2
GENIUS_GENSCALE_13
 70
     0
  0
APPID
  5
378
330
9
100
AcDbSymbolTableRecord
100
AcDbRegAppTableRecord
  2
GENIUS_GENDIMSH_14
 70
     0
  0
APPID
  5
BE1
330
9
100
AcDbSymbolTableRecord
100
AcDbRegAppTableRecord
  2
GENIUS_GENFIL_13
 70
     0
  0
APPID
  5
BE2
330
9
100
AcDbSymbolTableRecord
100
AcDbRegAppTableRecord
  2
GENIUS_GENOBJ-N-CHA_13
 70
     0
  0
APPID
  5
151B
330
9
100
AcDbSymbolTableRecord
100
AcDbRegAppTableRecord
  2
DCO15
 70
     0
  0
APPID
  5
1860
330
9
100
AcDbSymbolTableRecord
100
AcDbRegAppTableRecord
  2
GENIUS_GENOBJ-N-CEN_13
 70
     0
  0
APPID
  5
359C
330
9
100
AcDbSymbolTableRecord
100
AcDbRegAppTableRecord
  2
GENIUS_GENOBJ-N-FIL_13
 70
     0
  0
ENDTAB
  0
TABLE
  2
DIMSTYLE
  5
A
330
0
100
AcDbSymbolTable
 70
     8
  0
DIMSTYLE
105
58
102
{ACAD_REACTORS
330
3CAC
330
3D34
330
3E27
330
420F
102
}
330
A
100
AcDbSymbolTableRecord
100
AcDbDimStyleTableRecord
  2
AM_JIS
 70
     0
  3

  4
"
  5
OPEN30
  6

  7

 40
1.0
 41
2.5
 42
1.0
 43
12.0
 44
1.0
 45
0.0
 46
0.0
 47
0.1
 48
0.1
140
3.2
141
0.0
142
0.0
143
0.0393701
144
1.0
145
0.0
146
0.71
147
1.5
 71
     0
 72
     0
 73
     0
 74
     0
 75
     0
 76
     0
 77
     3
 78
     8
170
     0
171
     2
172
     1
173
     0
174
     0
175
     0
176
   256
177
   256
178
     2
270
     2
271
     3
272
     3
273
     2
274
     2
340
6B
275
     0
280
     0
281
     0
282
     0
283
     0
284
     0
285
     0
286
     0
287
     3
288
     0
  0
DIMSTYLE
105
5F
330
A
100
AcDbSymbolTableRecord
100
AcDbDimStyleTableRecord
  2
AM_JIS$3
 70
     0
  3

  4
"
  5
OPEN30
  6

  7

 40
1.0
 41
2.5
 42
1.0
 43
10.0
 44
1.0
 45
0.0
 46
0.0
 47
0.1
 48
0.1
140
3.2
141
0.0
142
0.0
143
0.0393701
144
1.0
145
0.0
146
0.71
147
1.5
 71
     0
 72
     0
 73
     0
 74
     1
 75
     0
 76
     0
 77
     3
 78
     8
170
     0
171
     2
172
     0
173
     0
174
     0
175
     0
176
   256
177
   256
178
     2
270
     2
271
     2
272
     3
273
     2
274
     2
340
6B
275
     0
280
     0
281
     0
282
     0
283
     0
284
     0
285
     0
286
     0
287
     0
288
     1
  0
DIMSTYLE
105
60
330
A
100
AcDbSymbolTableRecord
100
AcDbDimStyleTableRecord
  2
AM_JIS$4
 70
     0
  3

  4
"
  5
OPEN30
  6

  7

 40
1.0
 41
2.5
 42
1.0
 43
10.0
 44
1.0
 45
0.0
 46
0.0
 47
0.1
 48
0.1
140
3.2
141
0.0
142
0.0
143
0.0393701
144
1.0
145
0.0
146
0.71
147
1.5
 71
     0
 72
     0
 73
     0
 74
     1
 75
     0
 76
     0
 77
     3
 78
     8
170
     0
171
     2
172
     0
173
     0
174
     0
175
     0
176
   256
177
   256
178
     2
270
     2
271
     2
272
     3
273
     2
274
     2
340
6B
275
     0
280
     0
281
     0
282
     0
283
     0
284
     0
285
     0
286
     0
287
     0
288
     1
  0
DIMSTYLE
105
61
330
A
100
AcDbSymbolTableRecord
100
AcDbDimStyleTableRecord
  2
AM_JIS$6
 70
     0
  3

  4
"
  5
OPEN30
  6

  7

 40
1.0
 41
2.5
 42
1.0
 43
10.0
 44
1.0
 45
0.0
 46
0.0
 47
0.1
 48
0.1
140
3.2
141
0.0
142
0.0
143
0.0393701
144
1.0
145
0.0
146
0.71
147
1.5
 71
     0
 72
     0
 73
     0
 74
     0
 75
     0
 76
     0
 77
     0
 78
     8
170
     0
171
     2
172
     1
173
     0
174
     0
175
     0
176
   256
177
   256
178
     2
270
     2
271
     2
272
     2
273
     2
274
     2
340
6B
275
     0
280
     0
281
     0
282
     0
283
     0
284
     0
285
     0
286
     0
287
     3
288
     0
  0
DIMSTYLE
105
62
330
A
100
AcDbSymbolTableRecord
100
AcDbDimStyleTableRecord
  2
AM_JIS$7
 70
     0
  3

  4
"
  5
OPEN30
  6

  7

 40
1.0
 41
2.5
 42
1.0
 43
10.0
 44
1.0
 45
0.0
 46
0.0
 47
0.1
 48
0.1
140
3.2
141
0.0
142
0.0
143
0.0393701
144
1.0
145
0.0
146
0.71
147
1.5
 71
     0
 72
     0
 73
     0
 74
     0
 75
     0
 76
     0
 77
     3
 78
     8
170
     0
171
     2
172
     1
173
     0
174
     0
175
     0
176
   256
177
   256
178
     2
270
     2
271
     2
272
     3
273
     2
274
     2
340
6B
275
     0
280
     0
281
     0
282
     0
283
     0
284
     0
285
     0
286
     0
287
     3
288
     0
  0
DIMSTYLE
105
63
330
A
100
AcDbSymbolTableRecord
100
AcDbDimStyleTableRecord
  2
AM_JIS$SF
 70
     0
  3

  4
"
  5
OPEN30
  6

  7

 40
1.0
 41
2.5
 42
1.0
 43
10.0
 44
1.0
 45
0.0
 46
0.0
 47
0.1
 48
0.1
140
3.2
141
0.0
142
0.0
143
0.0393701
144
1.0
145
0.0
146
0.71
147
1.5
 71
     0
 72
     0
 73
     0
 74
     0
 75
     1
 76
     1
 77
     3
 78
     8
170
     0
171
     2
172
     1
173
     0
174
     0
175
     0
176
   256
177
   256
178
     2
270
     2
271
     2
272
     2
273
     2
274
     2
340
6B
275
     0
280
     0
281
     0
282
     0
283
     0
284
     0
285
     0
286
     0
287
     3
288
     0
  0
DIMSTYLE
105
68
330
A
100
AcDbSymbolTableRecord
100
AcDbDimStyleTableRecord
  2
AM_JIS$SH
 70
     0
  3

  4
"
  5

  6
GENAXEH
  7
OPEN30
 40
1.0
 41
2.5
 42
1.0
 43
10.0
 44
1.0
 45
0.0
 46
0.0
 47
0.1
 48
0.1
140
3.2
141
0.0
142
0.0
143
0.0393701
144
2.0
145
0.0
146
0.71
147
1.5
 71
     0
 72
     0
 73
     0
 74
     0
 75
     1
 76
     1
 77
     3
 78
     8
170
     0
171
     2
172
     1
173
     1
174
     0
175
     0
176
   256
177
   256
178
     2
270
     2
271
     2
272
     2
273
     2
274
     2
340
6B
275
     0
280
     0
281
     0
282
     0
283
     0
284
     0
285
     0
286
     0
287
     3
288
     0
  0
DIMSTYLE
105
B34
330
A
100
AcDbSymbolTableRecord
100
AcDbDimStyleTableRecord
  2
AM_JIS$2
 70
     0
  3

  4
"
  5
OPEN30
  6

  7

 40
1.0
 41
2.5
 42
1.0
 43
12.0
 44
1.0
 45
0.0
 46
0.0
 47
0.1
 48
0.1
140
3.2
141
0.0
142
0.0
143
0.0393701
144
1.0
145
0.0
146
0.71
147
1.5
 71
     0
 72
     0
 73
     0
 74
     0
 75
     0
 76
     0
 77
     3
 78
     8
170
     0
171
     2
172
     1
173
     0
174
     0
175
     0
176
   256
177
   256
178
     2
270
     2
271
     3
272
     3
273
     2
274
     2
340
6B
275
     0
280
     0
281
     0
282
     0
283
     0
284
     0
285
     0
286
     0
287
     3
288
     0
  0
ENDTAB
  0
TABLE
  2
BLOCK_RECORD
  5
1
330
0
100
AcDbSymbolTable
 70
    10
  0
BLOCK_RECORD
  5
1F
102
{ACAD_XDICTIONARY
360
74
102
}
330
1
100
AcDbSymbolTableRecord
100
AcDbBlockTableRecord
  2
*MODEL_SPACE
  0
BLOCK_RECORD
  5
101
102
{ACAD_XDICTIONARY
360
4514
102
}
330
1
100
AcDbSymbolTableRecord
100
AcDbBlockTableRecord
  2
*PAPER_SPACE
  0
BLOCK_RECORD
  5
59
330
1
100
AcDbSymbolTableRecord
100
AcDbBlockTableRecord
  2
_OPEN30
  0
BLOCK_RECORD
  5
64
330
1
100
AcDbSymbolTableRecord
100
AcDbBlockTableRecord
  2
GENAXEH
  0
BLOCK_RECORD
  5
3CAD
330
1
100
AcDbSymbolTableRecord
100
AcDbBlockTableRecord
  2
*D5
  0
BLOCK_RECORD
  5
3D35
330
1
100
AcDbSymbolTableRecord
100
AcDbBlockTableRecord
  2
*D6
  0
BLOCK_RECORD
  5
3E28
330
1
100
AcDbSymbolTableRecord
100
AcDbBlockTableRecord
  2
*D7
  0
BLOCK_RECORD
  5
4210
330
1
100
AcDbSymbolTableRecord
100
AcDbBlockTableRecord
  2
*D8
  0
BLOCK_RECORD
  5
4481
330
1
100
AcDbSymbolTableRecord
100
AcDbBlockTableRecord
  2
A$C729714D8
  0
ENDTAB
  0
ENDSEC
  0
SECTION
  2
BLOCKS
  0
BLOCK
  5
20
330
1F
100
AcDbEntity
  8
0
100
AcDbBlockBegin
  2
*MODEL_SPACE
 70
     0
 10
0.0
 20
0.0
 30
0.0
  3
*MODEL_SPACE
  1

  0
ENDBLK
  5
21
330
1F
100
AcDbEntity
  8
0
100
AcDbBlockEnd
  0
BLOCK
  5
103
330
101
100
AcDbEntity
 67
     1
  8
0
100
AcDbBlockBegin
  2
*PAPER_SPACE
 70
     0
 10
0.0
 20
0.0
 30
0.0
  3
*PAPER_SPACE
  1

  0
ENDBLK
  5
104
330
101
100
AcDbEntity
 67
     1
  8
0
100
AcDbBlockEnd
  0
BLOCK
  5
5D
330
59
100
AcDbEntity
  8
0
100
AcDbBlockBegin
  2
_OPEN30
 70
     0
 10
0.0
 20
0.0
 30
0.0
  3
_OPEN30
  1

  0
LINE
  5
5A
330
59
100
AcDbEntity
  8
0
 62
     0
100
AcDbLine
 10
-1.0
 20
0.26794919
 30
0.0
 11
0.0
 21
0.0
 31
0.0
  0
LINE
  5
5B
330
59
100
AcDbEntity
  8
0
 62
     0
100
AcDbLine
 10
0.0
 20
0.0
 30
0.0
 11
-1.0
 21
-0.26794919
 31
0.0
  0
LINE
  5
5C
330
59
100
AcDbEntity
  8
0
 62
     0
100
AcDbLine
 10
0.0
 20
0.0
 30
0.0
 11
-1.0
 21
0.0
 31
0.0
  0
ENDBLK
  5
5E
330
59
100
AcDbEntity
  8
0
100
AcDbBlockEnd
  0
BLOCK
  5
66
330
64
100
AcDbEntity
  8
0
100
AcDbBlockBegin
  2
GENAXEH
 70
     0
 10
0.0
 20
0.0
 30
0.0
  3
GENAXEH
  1

  0
LINE
  5
65
330
64
100
AcDbEntity
  8
0
100
AcDbLine
 10
-1.0
 20
0.0
 30
0.0
 11
1.0
 21
0.0
 31
0.0
  0
ENDBLK
  5
67
330
64
100
AcDbEntity
  8
0
100
AcDbBlockEnd
  0
BLOCK
  5
3CB7
330
3CAD
100
AcDbEntity
  8
0
100
AcDbBlockBegin
  2
*D5
 70
     1
 10
0.0
 20
0.0
 30
0.0
  3
*D5
  1

  0
LINE
  5
43B3
330
3CAD
100
AcDbEntity
  8
AM_5
100
AcDbLine
 10
-0.0000000000000001
 20
-8.999999999999987
 30
0.0
 11
-0.0000000000000017
 21
-35.00000100000017
 31
0.0
  0
LINE
  5
43B4
330
3CAD
100
AcDbEntity
  8
AM_5
100
AcDbLine
 10
-94.99999999999994
 20
-8.000000000000047
 30
0.0
 11
-94.99999999999994
 21
-35.00000100000017
 31
0.0
  0
LINE
  5
43B5
330
3CAD
100
AcDbEntity
  8
AM_5
100
AcDbLine
 10
-2.500000000000001
 20
-34.00000100000017
 30
0.0
 11
-92.49999999999994
 21
-34.00000100000017
 31
0.0
  0
INSERT
  5
43B6
330
3CAD
100
AcDbEntity
  8
AM_5
100
AcDbBlockReference
  2
_OPEN30
 10
-0.0000000000000016
 20
-34.00000100000017
 30
0.0
 41
2.5
 42
2.5
 43
2.5
  0
INSERT
  5
43B7
330
3CAD
100
AcDbEntity
  8
AM_5
100
AcDbBlockReference
  2
_OPEN30
 10
-94.99999999999994
 20
-34.00000100000017
 30
0.0
 41
2.5
 42
2.5
 43
2.5
 50
180.0
  0
MTEXT
  5
43B8
330
3CAD
100
AcDbEntity
  8
AM_5
 62
     2
100
AcDbMText
 10
-47.49999999999997
 20
-30.90000100000017
 30
0.0
 40
3.2
 41
0.0
 71
     5
 72
     1
  1
95
  7
ASAMI
1001
ACAD
1000
MTEXTBEGIN
1070
    73
1070
     1
1070
    44
1040
1.0
1070
    74
1070
     0
1000
MTEXTEND
  0
POINT
  5
43B9
330
3CAD
100
AcDbEntity
  8
DEFPOINTS
 62
     0
100
AcDbPoint
 10
0.0
 20
-7.999999999999987
 30
0.0
  0
POINT
  5
43BA
330
3CAD
100
AcDbEntity
  8
DEFPOINTS
 62
     0
100
AcDbPoint
 10
-94.99999999999994
 20
-7.000000000000047
 30
0.0
  0
POINT
  5
43BB
330
3CAD
100
AcDbEntity
  8
DEFPOINTS
 62
     0
100
AcDbPoint
 10
-94.99999999999994
 20
-34.00000100000017
 30
0.0
  0
ENDBLK
  5
3CB8
330
3CAD
100
AcDbEntity
  8
0
100
AcDbBlockEnd
  0
BLOCK
  5
3D3F
330
3D35
100
AcDbEntity
  8
0
100
AcDbBlockBegin
  2
*D6
 70
     1
 10
0.0
 20
0.0
 30
0.0
  3
*D6
  1

  0
LINE
  5
43AA
330
3D35
100
AcDbEntity
  8
AM_5
100
AcDbLine
 10
-0.0000000000000001
 20
-8.999999999999987
 30
0.0
 11
-0.0000000000000009
 21
-23.00000100000005
 31
0.0
  0
LINE
  5
43AB
330
3D35
100
AcDbEntity
  8
AM_5
100
AcDbLine
 10
-35.0
 20
-8.999999999999989
 30
0.0
 11
-35.0
 21
-23.00000100000005
 31
0.0
  0
LINE
  5
43AC
330
3D35
100
AcDbEntity
  8
AM_5
100
AcDbLine
 10
-2.5
 20
-22.00000100000005
 30
0.0
 11
-32.5
 21
-22.00000100000005
 31
0.0
  0
INSERT
  5
43AD
330
3D35
100
AcDbEntity
  8
AM_5
100
AcDbBlockReference
  2
_OPEN30
 10
-0.0000000000000009
 20
-22.00000100000005
 30
0.0
 41
2.5
 42
2.5
 43
2.5
  0
INSERT
  5
43AE
330
3D35
100
AcDbEntity
  8
AM_5
100
AcDbBlockReference
  2
_OPEN30
 10
-35.0
 20
-22.00000100000005
 30
0.0
 41
2.5
 42
2.5
 43
2.5
 50
180.0
  0
MTEXT
  5
43AF
330
3D35
100
AcDbEntity
  8
AM_5
 62
     2
100
AcDbMText
 10
-17.5
 20
-18.90000100000005
 30
0.0
 40
3.2
 41
0.0
 71
     5
 72
     1
  1
35
  7
ASAMI
1001
ACAD
1000
MTEXTBEGIN
1070
    73
1070
     1
1070
    44
1040
1.0
1070
    74
1070
     0
1000
MTEXTEND
  0
POINT
  5
43B0
330
3D35
100
AcDbEntity
  8
DEFPOINTS
 62
     0
100
AcDbPoint
 10
0.0
 20
-7.999999999999987
 30
0.0
  0
POINT
  5
43B1
330
3D35
100
AcDbEntity
  8
DEFPOINTS
 62
     0
100
AcDbPoint
 10
-35.0
 20
-7.999999999999989
 30
0.0
  0
POINT
  5
43B2
330
3D35
100
AcDbEntity
  8
DEFPOINTS
 62
     0
100
AcDbPoint
 10
-35.0
 20
-22.00000100000005
 30
0.0
  0
ENDBLK
  5
3D40
330
3D35
100
AcDbEntity
  8
0
100
AcDbBlockEnd
  0
BLOCK
  5
3E32
330
3E28
100
AcDbEntity
  8
0
100
AcDbBlockBegin
  2
*D7
 70
     1
 10
0.0
 20
0.0
 30
0.0
  3
*D7
  1

  0
LINE
  5
42BE
330
3E28
100
AcDbEntity
  8
AM_5
100
AcDbLine
 10
1.0
 20
8.000000000000012
 30
0.0
 11
19.55776903085518
 21
8.000000000000007
 31
0.0
  0
LINE
  5
42BF
330
3E28
100
AcDbEntity
  8
AM_5
100
AcDbLine
 10
1.000000000000011
 20
-7.999999999999987
 30
0.0
 11
19.55776903085517
 21
-7.999999999999992
 31
0.0
  0
LINE
  5
42C0
330
3E28
100
AcDbEntity
  8
AM_5
100
AcDbLine
 10
18.55776903085517
 20
5.500000000000006
 30
0.0
 11
18.55776903085517
 21
-5.499999999999992
 31
0.0
  0
INSERT
  5
42C1
330
3E28
100
AcDbEntity
  8
AM_5
100
AcDbBlockReference
  2
_OPEN30
 10
18.55776903085518
 20
8.000000000000007
 30
0.0
 41
2.5
 42
2.5
 43
2.5
 50
90.0
  0
INSERT
  5
42C2
330
3E28
100
AcDbEntity
  8
AM_5
100
AcDbBlockReference
  2
_OPEN30
 10
18.55776903085517
 20
-7.999999999999992
 30
0.0
 41
2.5
 42
2.5
 43
2.5
 50
270.0
  0
MTEXT
  5
42C3
330
3E28
100
AcDbEntity
  8
AM_5
 62
     2
100
AcDbMText
 10
15.45776903085517
 20
0.0000000000000103
 30
0.0
 40
3.2
 41
0.0
 71
     5
 72
     1
  1
%%c16
  7
ASAMI
 11
0.0000000000000001
 21
1.0
 31
0.0
1001
ACAD
1000
MTEXTBEGIN
1070
    73
1070
     1
1070
    44
1040
1.0
1070
    74
1070
     0
1000
MTEXTEND
  0
POINT
  5
42C4
330
3E28
100
AcDbEntity
  8
DEFPOINTS
 62
     0
100
AcDbPoint
 10
0.0
 20
8.000000000000012
 30
0.0
  0
POINT
  5
42C5
330
3E28
100
AcDbEntity
  8
DEFPOINTS
 62
     0
100
AcDbPoint
 10
0.0000000000000114
 20
-7.999999999999987
 30
0.0
  0
POINT
  5
42C6
330
3E28
100
AcDbEntity
  8
DEFPOINTS
 62
     0
100
AcDbPoint
 10
18.55776903085517
 20
-7.999999999999992
 30
0.0
  0
ENDBLK
  5
3E33
330
3E28
100
AcDbEntity
  8
0
100
AcDbBlockEnd
  0
BLOCK
  5
421A
330
4210
100
AcDbEntity
  8
0
100
AcDbBlockBegin
  2
*D8
 70
     1
 10
0.0
 20
0.0
 30
0.0
  3
*D8
  1

  0
LINE
  5
42B5
330
4210
100
AcDbEntity
  8
AM_5
100
AcDbLine
 10
-95.00000000000001
 20
7.999999999999987
 30
0.0
 11
-112.6947004505847
 21
7.999999999999992
 31
0.0
  0
LINE
  5
42B6
330
4210
100
AcDbEntity
  8
AM_5
100
AcDbLine
 10
-94.99999999999994
 20
-8.000000000000046
 30
0.0
 11
-112.6947004505847
 21
-8.00000000000004
 31
0.0
  0
LINE
  5
42B7
330
4210
100
AcDbEntity
  8
AM_5
100
AcDbLine
 10
-111.6947004505847
 20
5.499999999999992
 30
0.0
 11
-111.6947004505847
 21
-5.50000000000004
 31
0.0
  0
INSERT
  5
42B8
330
4210
100
AcDbEntity
  8
AM_5
100
AcDbBlockReference
  2
_OPEN30
 10
-111.6947004505847
 20
7.999999999999992
 30
0.0
 41
2.5
 42
2.5
 43
2.5
 50
90.0
  0
INSERT
  5
42B9
330
4210
100
AcDbEntity
  8
AM_5
100
AcDbBlockReference
  2
_OPEN30
 10
-111.6947004505847
 20
-8.00000000000004
 30
0.0
 41
2.5
 42
2.5
 43
2.5
 50
270.0
  0
MTEXT
  5
42BA
330
4210
100
AcDbEntity
  8
AM_5
 62
     2
100
AcDbMText
 10
-114.7947004505847
 20
-0.0000000000000421
 30
0.0
 40
3.2
 41
0.0
 71
     5
 72
     1
  1
%%c16
  7
ASAMI
 11
0.0000000000000001
 21
1.0
 31
0.0
1001
ACAD
1000
MTEXTBEGIN
1070
    73
1070
     1
1070
    44
1040
1.0
1070
    74
1070
     0
1000
MTEXTEND
  0
POINT
  5
42BB
330
4210
100
AcDbEntity
  8
DEFPOINTS
 62
     0
100
AcDbPoint
 10
-94.00000000000002
 20
7.999999999999987
 30
0.0
  0
POINT
  5
42BC
330
4210
100
AcDbEntity
  8
DEFPOINTS
 62
     0
100
AcDbPoint
 10
-93.99999999999995
 20
-8.000000000000046
 30
0.0
  0
POINT
  5
42BD
330
4210
100
AcDbEntity
  8
DEFPOINTS
 62
     0
100
AcDbPoint
 10
-111.6947004505847
 20
-8.00000000000004
 30
0.0
  0
ENDBLK
  5
421B
330
4210
100
AcDbEntity
  8
0
100
AcDbBlockEnd
  0
BLOCK
  5
44C6
330
4481
100
AcDbEntity
  8
0
100
AcDbBlockBegin
  2
A$C729714D8
 70
     0
 10
0.0
 20
0.0
 30
0.0
  3
A$C729714D8
  1

  0
SPLINE
  5
4482
330
4481
100
AcDbEntity
  8
AM_0
100
AcDbSpline
210
0.0
220
0.0
230
1.0
 70
     8
 71
     3
 72
     8
 73
     4
 74
     0
 42
0.0000000001
 43
0.0000000001
 40
0.0
 40
0.0
 40
0.0
 40
0.0
 40
2.948331486770748
 40
2.948331486770748
 40
2.948331486770748
 40
2.948331486770748
 10
-6.688766544028844
 20
7.000000000001115
 30
0.0
 10
-8.064654571188931
 20
7.000000000001755
 30
0.0
 10
-9.141098584821698
 20
6.327639669712887
 30
0.0
 10
-10.22474842131922
 20
5.111802203364399
 30
0.0
  0
SPLINE
  5
4483
330
4481
100
AcDbEntity
  8
AM_0
100
AcDbSpline
210
0.0
220
0.0
230
1.0
 70
     8
 71
     3
 72
     8
 73
     4
 74
     0
 42
0.0000000001
 43
0.0000000001
 40
0.0
 40
0.0
 40
0.0
 40
0.0
 40
1.274172826456642
 40
1.274172826456642
 40
1.274172826456642
 40
1.274172826456642
 10
-10.78830495263679
 20
-6.999999999999967
 30
0.0
 10
-10.36358067715133
 20
-6.850384807945
 30
0.0
 10
-9.978100833446266
 20
-6.760442403806304
 30
0.0
 10
-9.23323797906707
 20
-6.473262786295855
 30
0.0
  0
SPLINE
  5
4484
330
4481
100
AcDbEntity
  8
AM_0
100
AcDbSpline
210
0.0
220
0.0
230
1.0
 70
     8
 71
     3
 72
     8
 73
     4
 74
     0
 42
0.0000000001
 43
0.0000000001
 40
0.3982504941345976
 40
0.3982504941345976
 40
0.3982504941345976
 40
0.3982504941345976
 40
6.452065446090842
 40
6.452065446090842
 40
6.452065446090842
 40
6.452065446090842
 10
-12.62782907881105
 20
6.78564669758568
 30
0.0
 10
-10.21926000386101
 20
6.073703897001088
 30
0.0
 10
-8.676248991467126
 20
3.036851948501031
 30
0.0
 10
-7.133237979073236
 20
0.0000000000009594
 30
0.0
  0
SPLINE
  5
4485
330
4481
100
AcDbEntity
  8
AM_0
100
AcDbSpline
210
0.0
220
0.0
230
1.0
 70
     8
 71
     3
 72
     8
 73
     4
 74
     0
 42
0.0000000001
 43
0.0000000001
 40
0.157854605497133
 40
0.157854605497133
 40
0.157854605497133
 40
0.157854605497133
 40
6.616360992657454
 40
6.616360992657454
 40
6.616360992657454
 40
6.616360992657454
 10
-14.02695024390728
 20
7.540736425638526
 30
0.0
 10
-11.35630368968305
 20
6.628528554579141
 30
0.0
 10
-9.788441910797608
 20
3.314264277289886
 30
0.0
 10
-8.220580131912178
 20
0.0000000000006467
 30
0.0
  0
SPLINE
  5
4486
330
4481
100
AcDbEntity
  8
AM_0
100
AcDbSpline
210
0.0
220
0.0
230
1.0
 70
     8
 71
     3
 72
     9
 73
     5
 74
     3
 42
0.0000000001
 43
0.0000000001
 44
0.0000000001
 12
-0.3385048798911531
 22
0.9409646360463691
 32
0.0
 13
0.9630016908632651
 23
-0.2694953494858349
 33
0.0
 40
0.0
 40
0.0
 40
0.0
 40
0.0
 40
2.32603518542508
 40
2.910137238793178
 40
2.910137238793178
 40
2.910137238793178
 40
2.910137238793178
 10
19.30123345595638
 20
-4.785307604387618
 30
0.0
 10
19.03877536893474
 20
-4.055735320492765
 30
0.0
 10
17.27507537967885
 20
-3.221333590470332
 30
0.0
 10
18.43118699321248
 20
-2.513512723004871
 30
0.0
 10
18.61868408155587
 20
-2.565983652007481
 30
0.0
 11
19.30123345595638
 21
-4.785307604387618
 31
0.0
 11
18.08472053760861
 21
-2.802749659880454
 31
0.0
 11
18.61868408155587
 21
-2.565983652007481
 31
0.0
  0
SPLINE
  5
4487
330
4481
100
AcDbEntity
  8
AM_0
100
AcDbSpline
210
0.0
220
0.0
230
1.0
 70
     8
 71
     3
 72
     9
 73
     5
 74
     3
 42
0.0000000001
 43
0.0000000001
 44
0.0000000001
 12
-0.7037104554506215
 22
-0.7104868717221163
 32
0.0
 13
-0.5728114391284047
 23
0.819687169110049
 33
0.0
 40
0.0
 40
0.0
 40
0.0
 40
0.0
 40
0.4852989684892159
 40
0.9086480296926538
 40
0.9086480296926538
 40
0.9086480296926538
 40
0.9086480296926538
 10
19.93123345594721
 20
-4.785307604387618
 30
0.0
 10
19.81739680323213
 20
-4.900240453044909
 30
0.0
 10
19.57294046032081
 20
-5.323531029310706
 30
0.0
 10
19.38206651762358
 20
-4.900978868895366
 30
0.0
 10
19.30123345595638
 20
-4.785307604387618
 30
0.0
 11
19.93123345594721
 21
-4.785307604387618
 31
0.0
 11
19.57155832801871
 21
-5.111112593861868
 31
0.0
 11
19.30123345595638
 21
-4.785307604387618
 31
0.0
  0
SPLINE
  5
4488
330
4481
100
AcDbEntity
  8
AM_0
100
AcDbSpline
210
0.0
220
0.0
230
1.0
 70
     8
 71
     3
 72
     8
 73
     4
 74
     0
 42
0.0000000001
 43
0.0000000001
 40
4.390614724758877
 40
4.390614724758877
 40
4.390614724758877
 40
4.390614724758877
 40
6.726812023537121
 40
6.726812023537121
 40
6.726812023537121
 40
6.726812023537121
 10
19.1231412577792
 20
-3.499999999982499
 30
0.0
 10
18.50897508845364
 20
-2.431074487323606
 30
0.0
 10
17.96010427220571
 20
-1.215537243661323
 30
0.0
 10
17.41123345595843
 20
0.0000000000007888
 30
0.0
  0
SPLINE
  5
4489
330
4481
100
AcDbEntity
  8
AM_0
100
AcDbSpline
210
0.0
220
0.0
230
1.0
 70
     8
 71
     3
 72
     8
 73
     4
 74
     0
 42
0.0000000001
 43
0.0000000001
 40
4.32310436431184
 40
4.32310436431184
 40
4.32310436431184
 40
4.32310436431184
 40
6.616360992657454
 40
6.616360992657454
 40
6.616360992657454
 40
6.616360992657454
 10
20.21123345595714
 20
-3.389065316942613
 30
0.0
 10
19.59283811100358
 20
-2.35362731454132
 30
0.0
 10
19.0361289895406
 20
-1.176813657270265
 30
0.0
 10
18.47941986807763
 20
0.0000000000007888
 30
0.0
  0
SPLINE
  5
448A
330
4481
100
AcDbEntity
  8
AM_0
100
AcDbSpline
210
0.0
220
0.0
230
1.0
 70
     8
 71
     3
 72
     8
 73
     4
 74
     0
 42
0.0000000001
 43
0.0000000001
 40
0.0
 40
0.0
 40
0.0
 40
0.0
 40
2.948331486770748
 40
2.948331486770748
 40
2.948331486770748
 40
2.948331486770748
 10
19.51123345596096
 20
7.000000000001115
 30
0.0
 10
18.13534542880152
 20
7.000000000001755
 30
0.0
 10
17.05890141516874
 20
6.327639669712887
 30
0.0
 10
16.15065644931774
 20
5.277611521027715
 30
0.0
  0
SPLINE
  5
448B
330
4481
100
AcDbEntity
  8
AM_0
100
AcDbSpline
210
0.0
220
0.0
230
1.0
 70
     8
 71
     3
 72
     8
 73
     4
 74
     2
 42
0.0000000001
 43
0.0000000001
 44
0.0000000001
 12
0.2563440340107919
 22
-0.9665856072935671
 32
0.0
 13
-1.0
 23
0.0000000000000001
 33
0.0
 40
0.0
 40
0.0
 40
0.0
 40
0.0
 40
3.422565039837319
 40
3.422565039837319
 40
3.422565039837319
 40
3.422565039837319
 10
19.51123345596479
 20
7.000000000000007
 30
0.0
 10
19.80368483229019
 20
5.897265964155711
 30
0.0
 10
19.22557555088771
 20
3.888888888888807
 30
0.0
 10
18.08472053760861
 20
3.888888888888807
 30
0.0
 11
19.51123345596479
 21
7.000000000000007
 31
0.0
 11
18.08472053760861
 21
3.888888888888807
 31
0.0
  0
SPLINE
  5
448C
330
4481
100
AcDbEntity
  8
AM_0
100
AcDbSpline
210
0.0
220
0.0
230
1.0
 70
     8
 71
     3
 72
     8
 73
     4
 74
     2
 42
0.0000000001
 43
0.0000000001
 44
0.0000000001
 12
1.0
 22
-0.0000000000000002
 32
0.0
 40
0.0
 40
0.0
 40
0.0
 40
0.0
 40
9.417536832952452
 40
9.417536832952452
 40
9.417536832952452
 40
9.417536832952452
 10
11.11123345595715
 20
7.000000000000959
 30
0.0
 10
14.25041240027463
 20
7.000000000000958
 30
0.0
 10
15.83082292811653
 20
3.500000000000959
 30
0.0
 10
17.41123345595843
 20
0.0000000000009594
 30
0.0
 11
11.11123345595715
 21
7.000000000000959
 31
0.0
 11
17.41123345595843
 21
0.0000000000009594
 31
0.0
  0
SPLINE
  5
448D
330
4481
100
AcDbEntity
  8
AM_0
100
AcDbSpline
210
0.0
220
0.0
230
1.0
 70
     8
 71
     3
 72
     8
 73
     4
 74
     0
 42
0.0000000001
 43
0.0000000001
 40
0.157854605497133
 40
0.157854605497133
 40
0.157854605497133
 40
0.157854605497133
 40
6.616360992657454
 40
6.616360992657454
 40
6.616360992657454
 40
6.616360992657454
 10
12.39790664048668
 20
6.784786928420551
 30
0.0
 10
15.3436963103074
 20
6.628528554579141
 30
0.0
 10
16.91155808919284
 20
3.314264277289886
 30
0.0
 10
18.47941986807763
 20
0.0000000000006467
 30
0.0
  0
SPLINE
  5
448E
330
4481
100
AcDbEntity
  8
AM_0
100
AcDbSpline
210
0.0
220
0.0
230
1.0
 70
     8
 71
     3
 72
     8
 73
     4
 74
     0
 42
0.0000000001
 43
0.0000000001
 40
0.3982504941345976
 40
0.3982504941345976
 40
0.3982504941345976
 40
0.3982504941345976
 40
6.01848148651983
 40
6.01848148651983
 40
6.01848148651983
 40
6.01848148651983
 10
13.80901593177477
 20
6.43703007152299
 30
0.0
 10
16.28938682331226
 20
6.099725901739411
 30
0.0
 10
17.79693524151343
 20
3.458146122267841
 30
0.0
 10
19.23480855016823
 20
0.6515304190488608
 30
0.0
  0
SPLINE
  5
448F
330
4481
100
AcDbEntity
  8
AM_0
100
AcDbSpline
210
0.0
220
0.0
230
1.0
 70
     8
 71
     3
 72
     8
 73
     4
 74
     2
 42
0.0000000001
 43
0.0000000001
 44
0.0000000001
 12
-1.0
 22
0.0000000000000001
 32
0.0
 40
0.0
 40
0.0
 40
0.0
 40
0.0
 40
9.417536832952022
 40
9.417536832952022
 40
9.417536832952022
 40
9.417536832952022
 10
-2.988766544031385
 20
-6.99999999999904
 30
0.0
 10
-6.127945488348725
 20
-6.99999999999904
 30
0.0
 10
-7.708356016190374
 20
-3.49999999999904
 30
0.0
 10
-9.288766544032021
 20
0.0000000000009594
 30
0.0
 11
-2.988766544031385
 21
-6.99999999999904
 31
0.0
 11
-9.288766544032021
 21
0.0000000000009594
 31
0.0
  0
SPLINE
  5
4490
330
4481
100
AcDbEntity
  8
AM_0
100
AcDbSpline
210
0.0
220
0.0
230
1.0
 70
     8
 71
     3
 72
     8
 73
     4
 74
     2
 42
0.0000000001
 43
0.0000000001
 44
0.0000000001
 12
-1.0
 22
0.0000000000000001
 32
0.0
 40
0.0
 40
0.0
 40
0.0
 40
0.0
 40
9.032891624526826
 40
9.032891624526826
 40
9.032891624526826
 40
9.032891624526826
 10
-0.8332379790732389
 20
-6.473262786295045
 30
0.0
 10
-3.844201853915514
 20
-6.473262786295045
 30
0.0
 10
-5.488719916494375
 20
-3.236631393146957
 30
0.0
 10
-7.133237979073236
 20
0.0000000000011299
 30
0.0
 11
-0.8332379790732389
 21
-6.473262786295045
 31
0.0
 11
-7.133237979073236
 21
0.0000000000011299
 31
0.0
  0
SPLINE
  5
4491
330
4481
100
AcDbEntity
  8
AM_0
100
AcDbSpline
210
0.0
220
0.0
230
1.0
 70
     8
 71
     3
 72
     8
 73
     4
 74
     2
 42
0.0000000001
 43
0.0000000001
 44
0.0000000001
 12
-1.0
 22
0.0000000000000001
 32
0.0
 40
0.0
 40
0.0
 40
0.0
 40
0.0
 40
9.262905389720113
 40
9.262905389720113
 40
9.262905389720113
 40
9.262905389720113
 10
-1.920580131912181
 20
-6.790538731123838
 30
0.0
 10
-5.008215261818886
 20
-6.790538731123838
 30
0.0
 10
-6.614397696865532
 20
-3.395269365561439
 30
0.0
 10
-8.220580131912178
 20
0.0000000000009594
 30
0.0
 11
-1.920580131912181
 21
-6.790538731123838
 31
0.0
 11
-8.220580131912178
 21
0.0000000000009594
 31
0.0
  0
SPLINE
  5
4492
330
4481
100
AcDbEntity
  8
AM_0
100
AcDbSpline
210
0.0
220
0.0
230
1.0
 70
     8
 71
     3
 72
     8
 73
     4
 74
     0
 42
0.0000000001
 43
0.0000000001
 40
5.042249938662471
 40
5.042249938662471
 40
5.042249938662471
 40
5.042249938662471
 40
6.726812023537159
 40
6.726812023537159
 40
6.726812023537159
 40
6.726812023537159
 10
-10.50056978310611
 20
2.574495888363891
 30
0.0
 10
-10.08031524330395
 20
1.752975191349058
 30
0.0
 10
-9.684540893667989
 20
0.876487595675009
 30
0.0
 10
-9.288766544032021
 20
0.0000000000009594
 30
0.0
  0
SPLINE
  5
4493
330
4481
100
AcDbEntity
  8
AM_0
100
AcDbSpline
210
0.0
220
0.0
230
1.0
 70
     8
 71
     3
 72
     8
 73
     4
 74
     0
 42
0.0000000001
 43
0.0000000001
 40
0.0
 40
0.0
 40
0.0
 40
0.0
 40
2.420483029949796
 40
2.420483029949796
 40
2.420483029949796
 40
2.420483029949796
 10
-9.23323797906707
 20
-6.473262786295855
 30
0.0
 10
-8.103679231757283
 20
-6.473262786295855
 30
0.0
 10
-7.166429201393214
 20
-6.017750811466349
 30
0.0
 10
-6.349343550665906
 20
-5.277611521026265
 30
0.0
  0
SPLINE
  5
4494
330
4481
100
AcDbEntity
  8
AM_0
100
AcDbSpline
210
0.0
220
0.0
230
1.0
 70
     8
 71
     3
 72
     8
 73
     4
 74
     2
 42
0.0000000001
 43
0.0000000001
 44
0.0000000001
 12
-1.0
 22
0.0000000000000001
 32
0.0
 40
0.0
 40
0.0
 40
0.0
 40
0.0
 40
6.200996362168092
 40
6.200996362168092
 40
6.200996362168092
 40
6.200996362168092
 10
-9.233237979065791
 20
-6.473262786295855
 30
0.0
 10
-11.30023676645515
 20
-6.473262786295855
 30
0.0
 10
-12.70627535094964
 20
-4.559694542444027
 30
0.0
 10
-14.11231393544413
 20
-2.6461262985922
 30
0.0
 11
-9.233237979065791
 21
-6.473262786295855
 31
0.0
 11
-14.11231393544413
 21
-2.6461262985922
 31
0.0
  0
SPLINE
  5
4495
330
4481
100
AcDbEntity
  8
AM_0
100
AcDbSpline
210
0.0
220
0.0
230
1.0
 70
     8
 71
     3
 72
     8
 73
     4
 74
     0
 42
0.0000000001
 43
0.0000000001
 40
0.0
 40
0.0
 40
0.0
 40
0.0
 40
2.420483029949796
 40
2.420483029949796
 40
2.420483029949796
 40
2.420483029949796
 10
-9.233237979068142
 20
-6.473262786294874
 30
0.0
 10
-8.10367923175773
 20
-6.473262786294874
 30
0.0
 10
-7.166429201393661
 20
-6.017750811465369
 30
0.0
 10
-6.34934355066634
 20
-5.277611521025313
 30
0.0
  0
SPLINE
  5
4496
330
4481
100
AcDbEntity
  8
AM_0
100
AcDbSpline
210
0.0
220
0.0
230
1.0
 70
     8
 71
     3
 72
     8
 73
     4
 74
     0
 42
0.0000000001
 43
0.0000000001
 40
0.0
 40
0.0
 40
0.0
 40
0.0
 40
1.274172826456642
 40
1.274172826456642
 40
1.274172826456642
 40
1.274172826456642
 10
-1.920580131913446
 20
-6.790538731123184
 30
0.0
 10
-1.325966146233803
 20
-6.790538731123184
 30
0.0
 10
-0.7862943650467074
 20
-6.66461936532918
 30
0.0
 10
-0.290984068215046
 20
-6.437030071520759
 30
0.0
  0
SPLINE
  5
4497
330
4481
100
AcDbEntity
  8
AM_0
100
AcDbSpline
210
0.0
220
0.0
230
1.0
 70
     8
 71
     3
 72
     8
 73
     4
 74
     0
 42
0.0000000001
 43
0.0000000001
 40
0.0
 40
0.0
 40
0.0
 40
0.0
 40
0.9875149967633806
 40
0.9875149967633806
 40
0.9875149967633806
 40
0.9875149967633806
 10
-2.988766544032664
 20
-6.999999999998728
 30
0.0
 10
-2.527926212209969
 20
-6.999999999998728
 30
0.0
 10
-2.100679005967684
 20
-6.924571258763087
 30
0.0
 10
-1.702093359628541
 20
-6.784786928461905
 30
0.0
  0
SPLINE
  5
4498
330
4481
100
AcDbEntity
  8
AM_0
100
AcDbSpline
210
0.0
220
0.0
230
1.0
 70
     8
 71
     3
 72
     8
 73
     4
 74
     0
 42
0.0000000001
 43
0.0000000001
 40
0.3982504941345976
 40
0.3982504941345976
 40
0.3982504941345976
 40
0.3982504941345976
 40
6.452065446090842
 40
6.452065446090842
 40
6.452065446090842
 40
6.452065446090842
 10
-3.990984068221401
 20
6.437030071522833
 30
0.0
 10
-1.319260003867391
 20
6.073703897001088
 30
0.0
 10
0.2237510085258734
 20
3.036851948501031
 30
0.0
 10
1.766762020920388
 20
0.0000000000009594
 30
0.0
  0
SPLINE
  5
4499
330
4481
100
AcDbEntity
  8
AM_0
100
AcDbSpline
210
0.0
220
0.0
230
1.0
 70
     8
 71
     3
 72
     8
 73
     4
 74
     0
 42
0.0000000001
 43
0.0000000001
 40
0.157854605497133
 40
0.157854605497133
 40
0.157854605497133
 40
0.157854605497133
 40
6.616360992657454
 40
6.616360992657454
 40
6.616360992657454
 40
6.616360992657454
 10
-5.402093359509485
 20
6.784786928420395
 30
0.0
 10
-2.456303689689413
 20
6.628528554578984
 30
0.0
 10
-0.8884419108046088
 20
3.314264277289886
 30
0.0
 10
0.6794198680814603
 20
0.0000000000006467
 30
0.0
  0
SPLINE
  5
449A
330
4481
100
AcDbEntity
  8
AM_0
100
AcDbSpline
210
0.0
220
0.0
230
1.0
 70
     8
 71
     3
 72
     8
 73
     4
 74
     2
 42
0.0000000001
 43
0.0000000001
 44
0.0000000001
 12
1.0
 22
-0.0000000000000002
 32
0.0
 40
0.0
 40
0.0
 40
0.0
 40
0.0
 40
9.417536832952032
 40
9.417536832952032
 40
9.417536832952032
 40
9.417536832952032
 10
-6.688766544039033
 20
7.000000000000802
 30
0.0
 10
-3.549587599721689
 20
7.000000000000802
 30
0.0
 10
-1.969177071880043
 20
3.500000000000795
 30
0.0
 10
-0.3887665440383969
 20
0.0000000000007888
 30
0.0
 11
-6.688766544039033
 21
7.000000000000802
 31
0.0
 11
-0.3887665440383969
 21
0.0000000000007888
 31
0.0
  0
SPLINE
  5
449B
330
4481
100
AcDbEntity
  8
AM_0
100
AcDbSpline
210
0.0
220
0.0
230
1.0
 70
     8
 71
     3
 72
     8
 73
     4
 74
     2
 42
0.0000000001
 43
0.0000000001
 44
0.0000000001
 12
-1.0
 22
0.0000000000000001
 32
0.0
 40
0.0
 40
0.0
 40
0.0
 40
0.0
 40
9.032891624526714
 40
9.032891624526714
 40
9.032891624526714
 40
9.032891624526714
 10
8.0667620209204
 20
-6.473262786295045
 30
0.0
 10
5.055798146078162
 20
-6.473262786295045
 30
0.0
 10
3.411280083499275
 20
-3.236631393147042
 30
0.0
 10
1.766762020920388
 20
0.0000000000009594
 30
0.0
 11
8.0667620209204
 21
-6.473262786295045
 31
0.0
 11
1.766762020920388
 21
0.0000000000009594
 31
0.0
  0
SPLINE
  5
449C
330
4481
100
AcDbEntity
  8
AM_0
100
AcDbSpline
210
0.0
220
0.0
230
1.0
 70
     8
 71
     3
 72
     8
 73
     4
 74
     2
 42
0.0000000001
 43
0.0000000001
 44
0.0000000001
 12
-1.0
 22
0.0000000000000001
 32
0.0
 40
0.0
 40
0.0
 40
0.0
 40
0.0
 40
9.262905389720113
 40
9.262905389720113
 40
9.262905389720113
 40
9.262905389720113
 10
6.979419868081457
 20
-6.790538731123838
 30
0.0
 10
3.891784738174752
 20
-6.790538731123838
 30
0.0
 10
2.285602303128106
 20
-3.395269365561439
 30
0.0
 10
0.6794198680814603
 20
0.0000000000009594
 30
0.0
 11
6.979419868081457
 21
-6.790538731123838
 31
0.0
 11
0.6794198680814603
 21
0.0000000000009594
 31
0.0
  0
SPLINE
  5
449D
330
4481
100
AcDbEntity
  8
AM_0
100
AcDbSpline
210
0.0
220
0.0
230
1.0
 70
     8
 71
     3
 72
     8
 73
     4
 74
     2
 42
0.0000000001
 43
0.0000000001
 44
0.0000000001
 12
-1.0
 22
0.0000000000000001
 32
0.0
 40
0.0
 40
0.0
 40
0.0
 40
0.0
 40
9.417536832952
 40
9.417536832952
 40
9.417536832952
 40
9.417536832952
 10
5.911233455962239
 20
-6.999999999999182
 30
0.0
 10
2.772054511644906
 20
-6.999999999999182
 30
0.0
 10
1.191643983803254
 20
-3.499999999999196
 30
0.0
 10
-0.3887665440383969
 20
0.0000000000007888
 30
0.0
 11
5.911233455962239
 21
-6.999999999999182
 31
0.0
 11
-0.3887665440383969
 21
0.0000000000007888
 31
0.0
  0
SPLINE
  5
449E
330
4481
100
AcDbEntity
  8
AM_0
100
AcDbSpline
210
0.0
220
0.0
230
1.0
 70
     8
 71
     3
 72
     8
 73
     4
 74
     0
 42
0.0000000001
 43
0.0000000001
 40
0.0
 40
0.0
 40
0.0
 40
0.0
 40
0.9875149967633806
 40
0.9875149967633806
 40
0.9875149967633806
 40
0.9875149967633806
 10
5.911233455960335
 20
-6.99999999999887
 30
0.0
 10
6.372073787783669
 20
-6.99999999999887
 30
0.0
 10
6.799320994025315
 20
-6.924571258763258
 30
0.0
 10
7.197906640365083
 20
-6.784786928462075
 30
0.0
  0
SPLINE
  5
449F
330
4481
100
AcDbEntity
  8
AM_0
100
AcDbSpline
210
0.0
220
0.0
230
1.0
 70
     8
 71
     3
 72
     8
 73
     4
 74
     0
 42
0.0000000001
 43
0.0000000001
 40
0.0
 40
0.0
 40
0.0
 40
0.0
 40
1.274172826456642
 40
1.274172826456642
 40
1.274172826456642
 40
1.274172826456642
 10
6.979419868080178
 20
-6.790538731123355
 30
0.0
 10
7.574033853759821
 20
-6.790538731123355
 30
0.0
 10
8.113705634946931
 20
-6.66461936532918
 30
0.0
 10
8.609015931778593
 20
-6.437030071520759
 30
0.0
  0
SPLINE
  5
44A0
330
4481
100
AcDbEntity
  8
AM_0
100
AcDbSpline
210
0.0
220
0.0
230
1.0
 70
     8
 71
     3
 72
     8
 73
     4
 74
     0
 42
0.0000000001
 43
0.0000000001
 40
0.0
 40
0.0
 40
0.0
 40
0.0
 40
2.420483029949796
 40
2.420483029949796
 40
2.420483029949796
 40
2.420483029949796
 10
8.066762020919121
 20
-6.473262786295045
 30
0.0
 10
9.196320768228908
 20
-6.473262786295045
 30
0.0
 10
10.1335707985936
 20
-6.017750811465539
 30
0.0
 10
10.95065644932092
 20
-5.277611521025484
 30
0.0
  0
SPLINE
  5
44A1
330
4481
100
AcDbEntity
  8
AM_0
100
AcDbSpline
210
0.0
220
0.0
230
1.0
 70
     8
 71
     3
 72
     8
 73
     4
 74
     2
 42
0.0000000001
 43
0.0000000001
 44
0.0000000001
 12
1.0
 22
-0.0000000000000002
 32
0.0
 40
0.0
 40
0.0
 40
0.0
 40
0.0
 40
9.417536832951606
 40
9.417536832951606
 40
9.417536832951606
 40
9.417536832951606
 10
2.211233455954605
 20
7.000000000000802
 30
0.0
 10
5.350412400271807
 20
7.000000000000802
 30
0.0
 10
6.930822928113205
 20
3.500000000000795
 30
0.0
 10
8.511233455954602
 20
0.0000000000007888
 30
0.0
 11
2.211233455954605
 21
7.000000000000802
 31
0.0
 11
8.511233455954602
 21
0.0000000000007888
 31
0.0
  0
SPLINE
  5
44A2
330
4481
100
AcDbEntity
  8
AM_0
100
AcDbSpline
210
0.0
220
0.0
230
1.0
 70
     8
 71
     3
 72
     8
 73
     4
 74
     0
 42
0.0000000001
 43
0.0000000001
 40
0.157854605497133
 40
0.157854605497133
 40
0.157854605497133
 40
0.157854605497133
 40
6.616360992657454
 40
6.616360992657454
 40
6.616360992657454
 40
6.616360992657454
 10
3.497906640483499
 20
6.784786928420238
 30
0.0
 10
6.443696310304225
 20
6.628528554578984
 30
0.0
 10
8.011558089189016
 20
3.31426427728973
 30
0.0
 10
9.579419868074459
 20
0.0000000000006467
 30
0.0
  0
SPLINE
  5
44A3
330
4481
100
AcDbEntity
  8
AM_0
100
AcDbSpline
210
0.0
220
0.0
230
1.0
 70
     8
 71
     3
 72
     8
 73
     4
 74
     0
 42
0.0000000001
 43
0.0000000001
 40
0.3982504941345976
 40
0.3982504941345976
 40
0.3982504941345976
 40
0.3982504941345976
 40
6.452065446090842
 40
6.452065446090842
 40
6.452065446090842
 40
6.452065446090842
 10
4.909015931772223
 20
6.437030071522677
 30
0.0
 10
7.580739996126247
 20
6.073703897000932
 30
0.0
 10
9.123751008519498
 20
3.036851948500874
 30
0.0
 10
10.66676202091338
 20
0.0000000000009594
 30
0.0
  0
SPLINE
  5
44A4
330
4481
100
AcDbEntity
  8
AM_0
100
AcDbSpline
210
0.0
220
0.0
230
1.0
 70
     8
 71
     3
 72
     8
 73
     4
 74
     2
 42
0.0000000001
 43
0.0000000001
 44
0.0000000001
 12
-1.0
 22
0.0000000000000001
 32
0.0
 40
0.0
 40
0.0
 40
0.0
 40
0.0
 40
9.417536832952
 40
9.417536832952
 40
9.417536832952
 40
9.417536832952
 10
14.81123345596224
 20
-6.999999999999182
 30
0.0
 10
11.67205451164491
 20
-6.999999999999182
 30
0.0
 10
10.09164398380326
 20
-3.499999999999196
 30
0.0
 10
8.511233455961608
 20
0.0000000000007888
 30
0.0
 11
14.81123345596224
 21
-6.999999999999182
 31
0.0
 11
8.511233455961608
 21
0.0000000000007888
 31
0.0
  0
SPLINE
  5
44A5
330
4481
100
AcDbEntity
  8
AM_0
100
AcDbSpline
210
0.0
220
0.0
230
1.0
 70
     8
 71
     3
 72
     8
 73
     4
 74
     0
 42
0.0000000001
 43
0.0000000001
 40
0.0
 40
0.0
 40
0.0
 40
0.0
 40
0.9875149968653097
 40
0.9875149968653097
 40
0.9875149968653097
 40
0.9875149968653097
 10
14.81123345595715
 20
-6.99999999999887
 30
0.0
 10
15.27207378782758
 20
-6.99999999999887
 30
0.0
 10
15.69932099410999
 20
-6.924571258747654
 30
0.0
 10
16.09790664048541
 20
-6.784786928418789
 30
0.0
  0
SPLINE
  5
44A6
330
4481
100
AcDbEntity
  8
AM_0
100
AcDbSpline
210
0.0
220
0.0
230
1.0
 70
     8
 71
     3
 72
     8
 73
     4
 74
     2
 42
0.0000000001
 43
0.0000000001
 44
0.0000000001
 12
-1.0
 22
0.0000000000000001
 32
0.0
 40
0.0
 40
0.0
 40
0.0
 40
0.0
 40
9.408719544447102
 40
9.408719544447102
 40
9.408719544447102
 40
9.408719544447102
 10
16.09790664048541
 20
-6.784786928418789
 30
0.0
 10
12.96166679233637
 20
-6.784786928418789
 30
0.0
 10
11.27054333020891
 20
-3.392393464208915
 30
0.0
 10
9.579419868081451
 20
0.0000000000009594
 30
0.0
 11
16.09790664048541
 21
-6.784786928418789
 31
0.0
 11
9.579419868081451
 21
0.0000000000009594
 31
0.0
  0
SPLINE
  5
44A7
330
4481
100
AcDbEntity
  8
AM_0
100
AcDbSpline
210
0.0
220
0.0
230
1.0
 70
     8
 71
     3
 72
     8
 73
     4
 74
     0
 42
0.0000000001
 43
0.0000000001
 40
0.0
 40
0.0
 40
0.0
 40
0.0
 40
3.138307834541913
 40
3.138307834541913
 40
3.138307834541913
 40
3.138307834541913
 10
16.09790664048541
 20
-6.784786928418789
 30
0.0
 10
17.84396352419599
 20
-6.790538731123355
 30
0.0
 10
18.97520321138436
 20
-6.026655578419287
 30
0.0
 10
19.93123345594467
 20
-4.861218427279801
 30
0.0
  0
SPLINE
  5
44A8
330
4481
100
AcDbEntity
  8
AM_0
100
AcDbSpline
210
0.0
220
0.0
230
1.0
 70
     8
 71
     3
 72
     8
 73
     4
 74
     2
 42
0.0000000001
 43
0.0000000001
 44
0.0000000001
 12
-1.0
 22
0.0000000000000001
 32
0.0
 40
0.0
 40
0.0
 40
0.0
 40
0.0
 40
9.032891624526703
 40
9.032891624526703
 40
9.032891624526703
 40
9.032891624526703
 10
16.96676202092039
 20
-6.473262786295045
 30
0.0
 10
13.95579814607815
 20
-6.473262786295045
 30
0.0
 10
12.31128008349927
 20
-3.236631393147042
 30
0.0
 10
10.66676202092039
 20
0.0000000000009594
 30
0.0
 11
16.96676202092039
 21
-6.473262786295045
 31
0.0
 11
10.66676202092039
 21
0.0000000000009594
 31
0.0
  0
SPLINE
  5
44A9
330
4481
100
AcDbEntity
  8
AM_0
100
AcDbSpline
210
0.0
220
0.0
230
1.0
 70
     8
 71
     3
 72
     8
 73
     4
 74
     0
 42
0.0000000001
 43
0.0000000001
 40
0.0
 40
0.0
 40
0.0
 40
0.0
 40
0.4556590281797062
 40
0.4556590281797062
 40
0.4556590281797062
 40
0.4556590281797062
 10
16.96676202092039
 20
-6.473262786295045
 30
0.0
 10
17.44589281177944
 20
-6.470069113585701
 30
0.0
 10
17.88522863955477
 20
-6.457120104970819
 30
0.0
 10
17.92406920238721
 20
-6.446706278690406
 30
0.0
  0
SPLINE
  5
44AA
330
4481
100
AcDbEntity
  8
AM_0
100
AcDbSpline
210
0.0
220
0.0
230
1.0
 70
     8
 71
     3
 72
     8
 73
     4
 74
     0
 42
0.0000000001
 43
0.0000000001
 40
0.0
 40
0.0
 40
0.0
 40
0.0
 40
2.948331486770748
 40
2.948331486770748
 40
2.948331486770748
 40
2.948331486770748
 10
11.11123345595715
 20
7.000000000000959
 30
0.0
 10
9.735345428797693
 20
7.000000000001598
 30
0.0
 10
8.658901415165566
 20
6.327639669712887
 30
0.0
 10
7.505332922421125
 20
5.034057672582967
 30
0.0
  0
SPLINE
  5
44AB
330
4481
100
AcDbEntity
  8
AM_0
100
AcDbSpline
210
0.0
220
0.0
230
1.0
 70
     8
 71
     3
 72
     8
 73
     4
 74
     0
 42
0.0000000001
 43
0.0000000001
 40
0.0
 40
0.0
 40
0.0
 40
0.0
 40
2.948331486770748
 40
2.948331486770748
 40
2.948331486770748
 40
2.948331486770748
 10
2.211233455964155
 20
7.000000000000959
 30
0.0
 10
0.8353454288047075
 20
7.000000000001598
 30
0.0
 10
-0.2410985848280731
 20
6.327639669712887
 30
0.0
 10
-1.394667077572485
 20
5.034057672583152
 30
0.0
  0
SPLINE
  5
44AC
330
4481
100
AcDbEntity
  8
AM_0
100
AcDbSpline
210
0.0
220
0.0
230
1.0
 70
     8
 71
     3
 72
     8
 73
     4
 74
     0
 42
0.0000000001
 43
0.0000000001
 40
0.0
 40
0.0
 40
0.0
 40
0.0
 40
2.420483029949796
 40
2.420483029949796
 40
2.420483029949796
 40
2.420483029949796
 10
-0.8332379790745179
 20
-6.473262786295045
 30
0.0
 10
0.2963207682352689
 20
-6.473262786295045
 30
0.0
 10
1.233570798599977
 20
-6.017750811465369
 30
0.0
 10
2.350875460037162
 20
-5.037345197954444
 30
0.0
  0
LINE
  5
44AD
330
4481
100
AcDbEntity
  8
AM_0
100
AcDbLine
 10
20.21123345595651
 20
0.0000000000000072
 30
0.0
 11
20.21123345595588
 21
6.812435565300582
 31
0.0
  0
LINE
  5
44AE
330
4481
100
AcDbEntity
  8
AM_11
100
AcDbLine
 10
-9.788766544043483
 20
7.000000000000032
 30
0.0
 11
-9.788766544043483
 21
-6.999999999999967
 31
0.0
  0
LINE
  5
44AF
330
4481
100
AcDbEntity
  8
AM_11
100
AcDbLine
 10
20.21123345595651
 20
7.000000000000014
 30
0.0
 11
20.21123345595651
 21
-6.999999999999986
 31
0.0
  0
LINE
  5
44B0
330
4481
100
AcDbEntity
  8
AM_11
100
AcDbLine
 10
-9.788766544043483
 20
-6.999999999999987
 30
0.0
 11
20.21123345595651
 21
-6.999999999999986
 31
0.0
  0
LINE
  5
44B1
330
4481
100
AcDbEntity
  8
AM_0
100
AcDbLine
 10
-12.99369961902175
 20
1.299118243385756
 30
0.0
 11
-10.50056978310649
 21
2.574495888363678
 31
0.0
  0
LINE
  5
44B2
330
4481
100
AcDbEntity
  8
AM_0
100
AcDbLine
 10
-10.78830495263679
 20
-6.999999999999967
 30
0.0
 11
-12.5412891245888
 21
-6.999999999999968
 31
0.0
  0
ARC
  5
44B3
330
4481
100
AcDbEntity
  8
AM_0
100
AcDbCircle
 10
-11.71850775108978
 20
-1.193648432410746
 30
0.0
 40
2.799999999999999
100
AcDbArc
 50
117.092325743693
 51
211.2479114875231
  0
LINE
  5
44B4
330
4481
100
AcDbEntity
  8
AM_0
100
AcDbLine
 10
-12.54128912458874
 20
-6.999999999999949
 30
0.0
 11
-12.54128912458875
 21
-4.64762391825787
 31
0.0
  0
LINE
  5
44B5
330
4481
100
AcDbEntity
  8
AM_0
100
AcDbLine
 10
-12.54128912458879
 20
1.530551930729753
 30
0.0
 11
-12.54128912458883
 21
6.719070805557504
 31
0.0
  0
LINE
  5
44B6
330
4481
100
AcDbEntity
  8
AM_0
100
AcDbLine
 10
-9.788766544043483
 20
4.57923112342099
 30
0.0
 11
-9.788766544043483
 21
1.099241754093836
 31
0.0
  0
LINE
  5
44B7
330
4481
100
AcDbEntity
  8
AM_0
100
AcDbLine
 10
20.21123345595651
 20
-1.089006678802313
 30
0.0
 11
19.93123345595614
 21
0.0000000000000072
 31
0.0
  0
LINE
  5
44B8
330
4481
100
AcDbEntity
  8
AM_0
100
AcDbLine
 10
19.93123345595677
 20
-2.109891038863132
 30
0.0
 11
19.93123345595614
 21
0.0000000000000072
 31
0.0
  0
ARC
  5
44B9
330
4481
100
AcDbEntity
  8
AM_0
100
AcDbCircle
 10
27.22014067622404
 20
1.196885823038137
 30
0.0
 40
8.003932888278514
100
AcDbArc
 50
171.6411574078214
 51
204.4024896870892
  0
LINE
  5
44BA
330
4481
100
AcDbEntity
  8
AM_0
100
AcDbLine
 10
19.30123345595639
 20
-4.785307604387604
 30
0.0
 11
19.60389428313919
 21
-3.499999999973887
 31
0.0
  0
LINE
  5
44BB
330
4481
100
AcDbEntity
  8
AM_0
100
AcDbLine
 10
20.21123345595715
 20
-3.499999999996326
 30
0.0
 11
19.93123345595677
 21
-4.86121842726515
 31
0.0
  0
LINE
  5
44BC
330
4481
100
AcDbEntity
  8
AM_0
100
AcDbLine
 10
19.93123345594467
 20
-4.861218427323727
 30
0.0
 11
19.93123345599497
 21
-3.49999999998598
 31
0.0
  0
LINE
  5
44BD
330
4481
100
AcDbEntity
  8
AM_0
100
AcDbLine
 10
20.21123345595715
 20
-3.499999999996326
 30
0.0
 11
19.93123345595677
 21
-2.109891038863132
 31
0.0
  0
LINE
  5
44BE
330
4481
100
AcDbEntity
  8
AM_0
100
AcDbLine
 10
20.21123345595715
 20
-3.499999999996326
 30
0.0
 11
20.21123345595651
 21
-1.089006678802469
 31
0.0
  0
LINE
  5
44BF
330
4481
100
AcDbEntity
  8
AM_0
100
AcDbLine
 10
19.12314125775119
 20
-3.499999999956379
 30
0.0
 11
20.21123345595715
 21
-3.499999999996326
 31
0.0
  0
LINE
  5
44C0
330
4481
100
AcDbEntity
  8
AM_0
100
AcDbLine
 10
19.30123345595639
 20
2.360436473790294
 30
0.0
 11
18.08472053760861
 21
3.888888888888807
 31
0.0
  0
LINE
  5
44C1
330
4481
100
AcDbEntity
  8
AM_0
100
AcDbLine
 10
19.93123345595614
 20
0.0000000000000072
 30
0.0
 11
19.30123345595639
 21
2.360436473790294
 31
0.0
  0
LINE
  5
44C2
330
4481
100
AcDbEntity
  8
AM_0
100
AcDbLine
 10
20.21123345595651
 20
0.0000000000000072
 30
0.0
 11
20.06834470312751
 21
-0.5332680853870428
 31
0.0
  0
LINE
  5
44C3
330
4481
100
AcDbEntity
  8
AM_11
100
AcDbLine
 10
20.21123345595651
 20
7.000000000000014
 30
0.0
 11
-9.788766544043483
 21
7.000000000000006
 31
0.0
  0
LINE
  5
44C4
330
4481
100
AcDbEntity
  8
AM_0
100
AcDbLine
 10
19.51123345595715
 20
7.000000000002238
 30
0.0
 11
20.21123345595588
 21
6.812435565300582
 31
0.0
  0
LINE
  5
44C5
330
4481
100
AcDbEntity
  8
AM_7
  6
AM_ISO08W050X2
100
AcDbLine
 10
24.7690014868117
 20
0.0000000000000072
 30
0.0
 11
-72.48346599462826
 21
-0.0000000000000212
 31
0.0
1001
GENIUS_GENODEF_13
1002
{
1000
HIER
1070
     0
1002
}
1002
{
1000
MANEDIT
1070
     0
1002
}
1002
{
1000
NOSEL
1070
     0
1002
}
1002
{
1000
BEHIND
1070
     0
1002
}
1002
{
1000
REACTOR
1002
}
1001
GENIUS_GENOBJ-N-CEN_13
1002
{
1000
OWNER
1000
GEN
1002
}
  0
ENDBLK
  5
44C7
330
4481
100
AcDbEntity
  8
0
100
AcDbBlockEnd
  0
ENDSEC
  0
SECTION
  2
ENTITIES
  0
TEXT
  5
1500
330
1F
100
AcDbEntity
  8
AM_6
100
AcDbText
 10
-63.69047619047615
 20
-56.50000100000017
 30
0.0
 40
5.0
  1
HSM3160
 72
     4
 11
-47.49999999999995
 21
-54.00000100000017
 31
0.0
100
AcDbText
  0
LINE
  5
3B7D
330
1F
100
AcDbEntity
  8
AM_7
  6
AM_ISO08W050X2
100
AcDbLine
 10
4.557768030855186
 20
0.0
 30
0.0
 11
-97.69469945058478
 21
-0.0000000000000435
 31
0.0
1001
GENIUS_GENODEF_13
1002
{
1000
HIER
1070
     0
1002
}
1002
{
1000
MANEDIT
1070
     0
1002
}
1002
{
1000
NOSEL
1070
     0
1002
}
1002
{
1000
BEHIND
1070
     0
1002
}
1002
{
1000
REACTOR
1002
}
1001
GENIUS_GENOBJ-N-CEN_13
1002
{
1000
OWNER
1000
GEN
1002
}
  0
DIMENSION
  5
3CAC
330
1F
100
AcDbEntity
  8
AM_5
100
AcDbDimension
  2
*D5
 10
-94.99999999999994
 20
-34.00000100000017
 30
0.0
 11
-47.49999999999997
 21
-30.90000100000017
 31
0.0
 70
    32
  1
<>
  3
AM_JIS
100
AcDbAlignedDimension
 13
0.0
 23
-7.999999999999987
 33
0.0
 14
-94.99999999999994
 24
-7.000000000000047
 34
0.0
 50
0.0000000000001132
100
AcDbRotatedDimension
1001
GENIUS_GENDTOL_13
1000

1000
h7
1000

1040
0.0
  0
DIMENSION
  5
3D34
330
1F
100
AcDbEntity
  8
AM_5
100
AcDbDimension
  2
*D6
 10
-35.0
 20
-22.00000100000005
 30
0.0
 11
-17.5
 21
-18.90000100000005
 31
0.0
 70
    32
  1
<>
  3
AM_JIS
100
AcDbAlignedDimension
 13
0.0
 23
-7.999999999999987
 33
0.0
 14
-35.0
 24
-7.999999999999989
 34
0.0
 50
0.0000000000001132
100
AcDbRotatedDimension
1001
GENIUS_GENDTOL_13
1000

1000
h7
1000

1040
0.0
  0
DIMENSION
  5
3E27
330
1F
100
AcDbEntity
  8
AM_5
100
AcDbDimension
  2
*D7
 10
18.55776903085517
 20
-7.999999999999992
 30
0.0
 11
15.45776903085517
 21
0.0000000000000103
 31
0.0
 70
    32
  1
%%c<>
  3
AM_JIS
100
AcDbAlignedDimension
 13
0.0
 23
8.000000000000012
 33
0.0
 14
0.0000000000000114
 24
-7.999999999999987
 34
0.0
 50
90.00000000000003
100
AcDbRotatedDimension
1001
GENIUS_GENDTOL_13
1000

1000
h7
1000

1040
0.0
  0
LINE
  5
420A
330
1F
100
AcDbEntity
  8
AM_0
100
AcDbLine
 10
-36.24641969326103
 20
-7.999999999999961
 30
0.0
 11
-93.99999999999995
 21
-8.000000000000046
 31
0.0
  0
LINE
  5
420D
330
1F
100
AcDbEntity
  8
AM_0
100
AcDbLine
 10
-94.00000000000002
 20
7.999999999999987
 30
0.0
 11
-93.99999999999998
 21
-8.000000000000047
 31
0.0
  0
LINE
  5
420E
330
1F
100
AcDbEntity
  8
AM_0
100
AcDbLine
 10
-95.00000000000001
 20
6.999999999999986
 30
0.0
 11
-94.99999999999994
 21
-7.000000000000047
 31
0.0
  0
DIMENSION
  5
420F
330
1F
100
AcDbEntity
  8
AM_5
100
AcDbDimension
  2
*D8
 10
-111.6947004505847
 20
-8.00000000000004
 30
0.0
 11
-114.7947004505847
 21
-0.0000000000000421
 31
0.0
 70
    32
  1
%%c<>
  3
AM_JIS
100
AcDbAlignedDimension
 13
-94.00000000000002
 23
7.999999999999987
 33
0.0
 14
-93.99999999999995
 24
-8.000000000000046
 34
0.0
 50
270.0
100
AcDbRotatedDimension
1001
GENIUS_GENDTOL_13
1000

1000
h7
1000

1040
0.0
  0
LINE
  5
421C
330
1F
100
AcDbEntity
  8
AM_0
100
AcDbLine
 10
-40.11527807094227
 20
8.000000000000037
 30
0.0
 11
-94.00000000000002
 21
7.999999999999987
 31
0.0
  0
LINE
  5
424A
330
1F
100
AcDbEntity
  8
AM_0
100
AcDbLine
 10
-94.00000000000002
 20
7.999999999999987
 30
0.0
 11
-95.00000000000001
 21
6.999999999999986
 31
0.0
1001
GENIUS_GENFIL_13
1070
     0
1040
1.0
1040
1.0
1040
20.0
1040
0.0
1002
{
1002
}
1001
GENIUS_GENODEF_13
1002
{
1000
HIER
1070
     0
1002
}
1002
{
1000
MANEDIT
1070
     0
1002
}
1002
{
1000
NOSEL
1070
     0
1002
}
1002
{
1000
BEHIND
1070
     0
1002
}
1002
{
1000
REACTOR
1002
}
1001
GENIUS_GENOBJ-N-CHA_13
1002
{
1000
OWNER
1000
GEN
1002
}
  0
LINE
  5
424D
330
1F
100
AcDbEntity
  8
AM_0
100
AcDbLine
 10
-94.99999999999994
 20
-7.000000000000047
 30
0.0
 11
-93.99999999999995
 21
-8.000000000000046
 31
0.0
1001
GENIUS_GENFIL_13
1070
     0
1040
1.0
1040
1.0
1040
20.0
1040
0.0
1002
{
1002
}
1001
GENIUS_GENODEF_13
1002
{
1000
HIER
1070
     0
1002
}
1002
{
1000
MANEDIT
1070
     0
1002
}
1002
{
1000
NOSEL
1070
     0
1002
}
1002
{
1000
BEHIND
1070
     0
1002
}
1002
{
1000
REACTOR
1002
}
1001
GENIUS_GENOBJ-N-CHA_13
1002
{
1000
OWNER
1000
GEN
1002
}
  0
LINE
  5
431C
330
1F
100
AcDbEntity
  8
AM_11
100
AcDbLine
 10
0.0
 20
8.000000000000012
 30
0.0
 11
0.0
 21
-7.999999999999987
 31
0.0
  0
LINE
  5
4334
330
1F
100
AcDbEntity
  8
AM_11
100
AcDbLine
 10
-35.0
 20
8.00000000000004
 30
0.0
 11
-35.0
 21
-7.99999999999996
 31
0.0
  0
LINE
  5
4348
330
1F
100
AcDbEntity
  8
AM_11
100
AcDbLine
 10
0.0
 20
8.000000000000012
 30
0.0
 11
-35.0
 21
8.00000000000001
 31
0.0
  0
LINE
  5
4349
330
1F
100
AcDbEntity
  8
AM_11
100
AcDbLine
 10
-35.0
 20
-7.999999999999988
 30
0.0
 11
0.0
 21
-7.999999999999987
 31
0.0
  0
SPLINE
  5
442F
330
1F
100
AcDbEntity
  8
AM_0
100
AcDbSpline
210
0.0
220
0.0
230
1.0
 70
     8
 71
     3
 72
     8
 73
     4
 74
     0
 42
0.0000000001
 43
0.0000000001
 40
0.0
 40
0.0
 40
0.0
 40
0.0
 40
2.948331486770748
 40
2.948331486770748
 40
2.948331486770748
 40
2.948331486770748
 10
-30.7428571428404
 20
8.00000000000125
 30
0.0
 10
-32.31530060245194
 20
8.000000000001989
 30
0.0
 10
-33.54552233231796
 20
7.231588193957563
 30
0.0
 10
-34.85540184244894
 20
5.771473897556062
 30
0.0
  0
SPLINE
  5
4430
330
1F
100
AcDbEntity
  8
AM_0
100
AcDbSpline
210
0.0
220
0.0
230
1.0
 70
     8
 71
     3
 72
     8
 73
     4
 74
     0
 42
0.0000000001
 43
0.0000000001
 40
0.0
 40
0.0
 40
0.0
 40
0.0
 40
1.274172826456642
 40
1.274172826456642
 40
1.274172826456642
 40
1.274172826456642
 10
-36.24641969326103
 20
-7.999999999999985
 30
0.0
 10
-35.76256401887397
 20
-7.897321328335195
 30
0.0
 10
-35.32047212847185
 20
-7.795630069935157
 30
0.0
 10
-33.65082449716835
 20
-7.398014612909577
 30
0.0
  0
SPLINE
  5
4431
330
1F
100
AcDbEntity
  8
AM_0
100
AcDbSpline
210
0.0
220
0.0
230
1.0
 70
     8
 71
     3
 72
     8
 73
     4
 74
     0
 42
0.0000000001
 43
0.0000000001
 40
0.3982504941345976
 40
0.3982504941345976
 40
0.3982504941345976
 40
0.3982504941345976
 40
6.452065446090842
 40
6.452065446090842
 40
6.452065446090842
 40
6.452065446090842
 10
-37.63252567909591
 20
7.265095713847473
 30
0.0
 10
-34.77770681122003
 20
6.941375882286934
 30
0.0
 10
-33.01426565419844
 20
3.470687941144021
 30
0.0
 10
-31.25082449717686
 20
0.0000000000010942
 30
0.0
  0
SPLINE
  5
4432
330
1F
100
AcDbEntity
  8
AM_0
100
AcDbSpline
210
0.0
220
0.0
230
1.0
 70
     8
 71
     3
 72
     8
 73
     4
 74
     0
 42
0.0000000001
 43
0.0000000001
 40
0.157854605497133
 40
0.157854605497133
 40
0.157854605497133
 40
0.157854605497133
 40
6.616360992657454
 40
6.616360992657454
 40
6.616360992657454
 40
6.616360992657454
 10
-40.11527807094227
 20
8.000000000000037
 30
0.0
 10
-36.07718530930236
 20
7.735150245333443
 30
0.0
 10
-34.28534327629042
 20
3.787730602616989
 30
0.0
 10
-32.4935012432785
 20
0.0000000000007248
 30
0.0
  0
SPLINE
  5
4433
330
1F
100
AcDbEntity
  8
AM_0
100
AcDbSpline
210
0.0
220
0.0
230
1.0
 70
     8
 71
     3
 72
     9
 73
     5
 74
     3
 42
0.0000000001
 43
0.0000000001
 44
0.0000000001
 12
-0.3385048798911531
 22
0.9409646360463691
 32
0.0
 13
0.9630016908632653
 23
-0.2694953494858349
 33
0.0
 40
0.0
 40
0.0
 40
0.0
 40
0.0
 40
2.658325926200083
 40
3.325871130049342
 40
3.325871130049342
 40
3.325871130049342
 40
3.325871130049342
 10
-1.04000000000015
 20
-5.468922976442996
 30
0.0
 10
-1.339952099453449
 20
-4.635126080563167
 30
0.0
 10
-3.355609230031607
 20
-3.681524103394693
 30
0.0
 10
-2.034338814564611
 20
-2.872585969148429
 30
0.0
 10
-1.820056427886444
 20
-2.932552745151411
 30
0.0
 11
-1.04000000000015
 21
-5.468922976442996
 31
0.0
 11
-2.430300478111891
 21
-3.203142468434819
 31
0.0
 11
-1.820056427886444
 21
-2.932552745151411
 31
0.0
  0
SPLINE
  5
4434
330
1F
100
AcDbEntity
  8
AM_0
100
AcDbSpline
210
0.0
220
0.0
230
1.0
 70
     8
 71
     3
 72
     9
 73
     5
 74
     3
 42
0.0000000001
 43
0.0000000001
 44
0.0000000001
 12
-0.7037104554506217
 22
-0.7104868717221163
 32
0.0
 13
-0.5728114391284047
 23
0.819687169110049
 33
0.0
 40
0.0
 40
0.0
 40
0.0
 40
0.0
 40
0.5546273925591034
 40
1.038454891077318
 40
1.038454891077318
 40
1.038454891077318
 40
1.038454891077318
 10
-0.3200000000106309
 20
-5.468922976442996
 30
0.0
 10
-0.4500990316850167
 20
-5.6002748034799
 30
0.0
 10
-0.7294777092979433
 20
-6.084035462069383
 30
0.0
 10
-0.9476193580947784
 20
-5.601118707308994
 30
0.0
 10
-1.04000000000015
 20
-5.468922976442996
 30
0.0
 11
-0.3200000000106309
 21
-5.468922976442996
 31
0.0
 11
-0.73105728907177
 21
-5.841271535842139
 31
0.0
 11
-1.04000000000015
 21
-5.468922976442996
 31
0.0
  0
SPLINE
  5
4435
330
1F
100
AcDbEntity
  8
AM_0
100
AcDbSpline
210
0.0
220
0.0
230
1.0
 70
     8
 71
     3
 72
     8
 73
     4
 74
     0
 42
0.0000000001
 43
0.0000000001
 40
4.390614724758877
 40
4.390614724758877
 40
4.390614724758877
 40
4.390614724758877
 40
6.726812023537121
 40
6.726812023537121
 40
6.726812023537121
 40
6.726812023537121
 10
-1.243533940774072
 20
-3.999999999980005
 30
0.0
 10
-1.945438134288994
 20
-2.778370842655562
 30
0.0
 10
-2.572719067143768
 20
-1.38918542132724
 30
0.0
 10
-3.199999999997811
 20
0.0000000000008953
 30
0.0
  0
SPLINE
  5
4436
330
1F
100
AcDbEntity
  8
AM_0
100
AcDbSpline
210
0.0
220
0.0
230
1.0
 70
     8
 71
     3
 72
     8
 73
     4
 74
     0
 42
0.0000000001
 43
0.0000000001
 40
4.32310436431184
 40
4.32310436431184
 40
4.32310436431184
 40
4.32310436431184
 40
6.616360992657454
 40
6.616360992657454
 40
6.616360992657454
 40
6.616360992657454
 10
0.000000000000723
 20
-3.873217505077278
 30
0.0
 10
-0.7067375370890705
 20
-2.689859788047229
 30
0.0
 10
-1.342976533046752
 20
-1.344929894023167
 30
0.0
 10
-1.979215529004435
 20
0.0000000000008953
 30
0.0
  0
SPLINE
  5
4437
330
1F
100
AcDbEntity
  8
AM_0
100
AcDbSpline
210
0.0
220
0.0
230
1.0
 70
     8
 71
     3
 72
     8
 73
     4
 74
     0
 42
0.0000000001
 43
0.0000000001
 40
0.0
 40
0.0
 40
0.0
 40
0.0
 40
2.948331486770748
 40
2.948331486770748
 40
2.948331486770748
 40
2.948331486770748
 10
-0.7999999999949115
 20
8.00000000000125
 30
0.0
 10
-2.372443459605707
 20
8.000000000001989
 30
0.0
 10
-3.602665189471744
 20
7.231588193957563
 30
0.0
 10
-4.640659436158597
 20
6.031556024031658
 30
0.0
  0
SPLINE
  5
4438
330
1F
100
AcDbEntity
  8
AM_0
100
AcDbSpline
210
0.0
220
0.0
230
1.0
 70
     8
 71
     3
 72
     8
 73
     4
 74
     2
 42
0.0000000001
 43
0.0000000001
 44
0.0000000001
 12
0.2563440340107919
 22
-0.9665856072935671
 32
0.0
 13
-1.0
 23
0.0000000000000001
 33
0.0
 40
0.0
 40
0.0
 40
0.0
 40
0.0
 40
3.911502902671221
 40
3.911502902671221
 40
3.911502902671221
 40
3.911502902671221
 10
-0.7999999999905425
 20
7.999999999999985
 30
0.0
 10
-0.4657698556186549
 20
6.739732530463648
 30
0.0
 10
-1.126466177221484
 20
4.444444444444329
 30
0.0
 10
-2.430300478111891
 20
4.444444444444329
 30
0.0
 11
-0.7999999999905425
 21
7.999999999999985
 31
0.0
 11
-2.430300478111891
 21
4.444444444444329
 31
0.0
  0
SPLINE
  5
4439
330
1F
100
AcDbEntity
  8
AM_0
100
AcDbSpline
210
0.0
220
0.0
230
1.0
 70
     8
 71
     3
 72
     8
 73
     4
 74
     2
 42
0.0000000001
 43
0.0000000001
 44
0.0000000001
 12
1.0
 22
-0.0000000000000002
 32
0.0
 40
0.0
 40
0.0
 40
0.0
 40
0.0
 40
10.76289923765993
 40
10.76289923765993
 40
10.76289923765993
 40
10.76289923765993
 10
-10.39999999999927
 20
8.00000000000108
 30
0.0
 10
-6.812366920779293
 20
8.00000000000108
 30
0.0
 10
-5.006183460388553
 20
4.000000000001087
 30
0.0
 10
-3.199999999997811
 20
0.0000000000010942
 30
0.0
 11
-10.39999999999927
 21
8.00000000000108
 31
0.0
 11
-3.199999999997811
 21
0.0000000000010942
 31
0.0
  0
SPLINE
  5
443A
330
1F
100
AcDbEntity
  8
AM_0
100
AcDbSpline
210
0.0
220
0.0
230
1.0
 70
     8
 71
     3
 72
     8
 73
     4
 74
     0
 42
0.0000000001
 43
0.0000000001
 40
0.157854605497133
 40
0.157854605497133
 40
0.157854605497133
 40
0.157854605497133
 40
6.616360992657454
 40
6.616360992657454
 40
6.616360992657454
 40
6.616360992657454
 10
-8.929516360536945
 20
7.754042203909179
 30
0.0
 10
-5.56289959502756
 20
7.575461205233281
 30
0.0
 10
-3.771057562015625
 20
3.787730602616989
 30
0.0
 10
-1.979215529004435
 20
0.0000000000007248
 30
0.0
  0
SPLINE
  5
443B
330
1F
100
AcDbEntity
  8
AM_0
100
AcDbSpline
210
0.0
220
0.0
230
1.0
 70
     8
 71
     3
 72
     8
 73
     4
 74
     0
 42
0.0000000001
 43
0.0000000001
 40
0.3982504941345976
 40
0.3982504941345976
 40
0.3982504941345976
 40
0.3982504941345976
 40
6.01848148651983
 40
6.01848148651983
 40
6.01848148651983
 40
6.01848148651983
 10
-7.316820027636278
 20
7.356605796026258
 30
0.0
 10
-4.482110437307718
 20
6.971115316273596
 30
0.0
 10
-2.759197959363526
 20
3.952166996877508
 30
0.0
 10
-1.115914178043754
 20
0.7446061931986919
 30
0.0
  0
SPLINE
  5
443C
330
1F
100
AcDbEntity
  8
AM_0
100
AcDbSpline
210
0.0
220
0.0
230
1.0
 70
     8
 71
     3
 72
     8
 73
     4
 74
     2
 42
0.0000000001
 43
0.0000000001
 44
0.0000000001
 12
-1.0
 22
0.0000000000000001
 32
0.0
 40
0.0
 40
0.0
 40
0.0
 40
0.0
 40
10.76289923765945
 40
10.76289923765945
 40
10.76289923765945
 40
10.76289923765945
 10
-26.51428571427188
 20
-7.999999999998905
 30
0.0
 10
-30.1019187934917
 20
-7.999999999998905
 30
0.0
 10
-31.90810225388216
 20
-3.999999999998905
 30
0.0
 10
-33.71428571427261
 20
0.0000000000010942
 30
0.0
 11
-26.51428571427188
 21
-7.999999999998905
 31
0.0
 11
-33.71428571427261
 21
0.0000000000010942
 31
0.0
  0
SPLINE
  5
443D
330
1F
100
AcDbEntity
  8
AM_0
100
AcDbSpline
210
0.0
220
0.0
230
1.0
 70
     8
 71
     3
 72
     8
 73
     4
 74
     2
 42
0.0000000001
 43
0.0000000001
 44
0.0000000001
 12
-1.0
 22
0.0000000000000001
 32
0.0
 40
0.0
 40
0.0
 40
0.0
 40
0.0
 40
10.32330471374493
 40
10.32330471374493
 40
10.32330471374493
 40
10.32330471374493
 10
-24.05082449717686
 20
-7.398014612908625
 30
0.0
 10
-27.49192606842517
 20
-7.398014612908625
 30
0.0
 10
-29.37137528280101
 20
-3.699007306453673
 30
0.0
 10
-31.25082449717686
 20
0.000000000001279
 30
0.0
 11
-24.05082449717686
 21
-7.398014612908625
 31
0.0
 11
-31.25082449717686
 21
0.000000000001279
 31
0.0
  0
SPLINE
  5
443E
330
1F
100
AcDbEntity
  8
AM_0
100
AcDbSpline
210
0.0
220
0.0
230
1.0
 70
     8
 71
     3
 72
     8
 73
     4
 74
     2
 42
0.0000000001
 43
0.0000000001
 44
0.0000000001
 12
-1.0
 22
0.0000000000000001
 32
0.0
 40
0.0
 40
0.0
 40
0.0
 40
0.0
 40
10.58617758825155
 40
10.58617758825155
 40
10.58617758825155
 40
10.58617758825155
 10
-25.29350124327851
 20
-7.76061569271296
 30
0.0
 10
-28.82222710602903
 20
-7.76061569271296
 30
0.0
 10
-30.65786417465377
 20
-3.880307846355933
 30
0.0
 10
-32.4935012432785
 20
0.0000000000010942
 30
0.0
 11
-25.29350124327851
 21
-7.76061569271296
 31
0.0
 11
-32.4935012432785
 21
0.0000000000010942
 31
0.0
  0
SPLINE
  5
443F
330
1F
100
AcDbEntity
  8
AM_0
100
AcDbSpline
210
0.0
220
0.0
230
1.0
 70
     8
 71
     3
 72
     8
 73
     4
 74
     0
 42
0.0000000001
 43
0.0000000001
 40
5.042249938662471
 40
5.042249938662471
 40
5.042249938662471
 40
5.042249938662471
 40
6.726812023537159
 40
6.726812023537159
 40
6.726812023537159
 40
6.726812023537159
 10
-35.09920370178586
 20
2.942281015272996
 30
0.0
 10
-34.61891279915482
 20
2.003400218684632
 30
0.0
 10
-34.16659925671371
 20
1.001700109342863
 30
0.0
 10
-33.71428571427261
 20
0.0000000000010942
 30
0.0
  0
SPLINE
  5
4440
330
1F
100
AcDbEntity
  8
AM_0
100
AcDbSpline
210
0.0
220
0.0
230
1.0
 70
     8
 71
     3
 72
     8
 73
     4
 74
     0
 42
0.0000000001
 43
0.0000000001
 40
0.0
 40
0.0
 40
0.0
 40
0.0
 40
2.420483029949796
 40
2.420483029949796
 40
2.420483029949796
 40
2.420483029949796
 10
-33.65082449716981
 20
-7.398014612909577
 30
0.0
 10
-32.35990021453005
 20
-7.398014612909577
 30
0.0
 10
-31.2887573226854
 20
-6.877429498818713
 30
0.0
 10
-30.35494515042562
 20
-6.031556024030038
 30
0.0
  0
SPLINE
  5
4441
330
1F
100
AcDbEntity
  8
AM_0
100
AcDbSpline
210
0.0
220
0.0
230
1.0
 70
     8
 71
     3
 72
     8
 73
     4
 74
     2
 42
0.0000000001
 43
0.0000000001
 44
0.0000000001
 12
-1.0
 22
0.0000000000000001
 32
0.0
 40
0.0
 40
0.0
 40
0.0
 40
0.0
 40
7.08685298533496
 40
7.08685298533496
 40
7.08685298533496
 40
7.08685298533496
 10
-33.65082449716835
 20
-7.398014612909577
 30
0.0
 10
-36.01310882561334
 20
-7.398014612909577
 30
0.0
 10
-37.6200100650356
 20
-5.211079477078918
 30
0.0
 10
-39.22691130445788
 20
-3.024144341248259
 30
0.0
 11
-33.65082449716835
 21
-7.398014612909577
 31
0.0
 11
-39.22691130445788
 21
-3.024144341248259
 31
0.0
  0
SPLINE
  5
4442
330
1F
100
AcDbEntity
  8
AM_0
100
AcDbSpline
210
0.0
220
0.0
230
1.0
 70
     8
 71
     3
 72
     8
 73
     4
 74
     0
 42
0.0000000001
 43
0.0000000001
 40
0.0
 40
0.0
 40
0.0
 40
0.0
 40
2.420483029949796
 40
2.420483029949796
 40
2.420483029949796
 40
2.420483029949796
 10
-33.65082449717103
 20
-7.39801461290844
 30
0.0
 10
-32.35990021453057
 20
-7.39801461290844
 30
0.0
 10
-31.28875732268591
 20
-6.877429498817576
 30
0.0
 10
-30.35494515042612
 20
-6.031556024028944
 30
0.0
  0
SPLINE
  5
4443
330
1F
100
AcDbEntity
  8
AM_0
100
AcDbSpline
210
0.0
220
0.0
230
1.0
 70
     8
 71
     3
 72
     8
 73
     4
 74
     0
 42
0.0000000001
 43
0.0000000001
 40
0.0
 40
0.0
 40
0.0
 40
0.0
 40
1.274172826456642
 40
1.274172826456642
 40
1.274172826456642
 40
1.274172826456642
 10
-25.29350124327995
 20
-7.760615692712221
 30
0.0
 10
-24.61394240250322
 20
-7.760615692712221
 30
0.0
 10
-23.99717465257511
 20
-7.616707846090505
 30
0.0
 10
-23.43110574191035
 20
-7.356605796023728
 30
0.0
  0
SPLINE
  5
4444
330
1F
100
AcDbEntity
  8
AM_0
100
AcDbSpline
210
0.0
220
0.0
230
1.0
 70
     8
 71
     3
 72
     8
 73
     4
 74
     0
 42
0.0000000001
 43
0.0000000001
 40
0.0
 40
0.0
 40
0.0
 40
0.0
 40
0.9875149967633806
 40
0.9875149967633806
 40
0.9875149967633806
 40
0.9875149967633806
 10
-26.51428571427334
 20
-7.99999999999855
 30
0.0
 10
-25.98761104933312
 20
-7.99999999999855
 30
0.0
 10
-25.49932852791337
 20
-7.913795724300683
 30
0.0
 10
-25.04380207495435
 20
-7.754042203956473
 30
0.0
  0
SPLINE
  5
4445
330
1F
100
AcDbEntity
  8
AM_0
100
AcDbSpline
210
0.0
220
0.0
230
1.0
 70
     8
 71
     3
 72
     8
 73
     4
 74
     0
 42
0.0000000001
 43
0.0000000001
 40
0.3982504941345976
 40
0.3982504941345976
 40
0.3982504941345976
 40
0.3982504941345976
 40
6.452065446090842
 40
6.452065446090842
 40
6.452065446090842
 40
6.452065446090842
 10
-27.65967717048904
 20
7.356605796026073
 30
0.0
 10
-24.60627823979875
 20
6.941375882286934
 30
0.0
 10
-22.84283708277787
 20
3.470687941144021
 30
0.0
 10
-21.07939592575557
 20
0.0000000000010942
 30
0.0
  0
SPLINE
  5
4446
330
1F
100
AcDbEntity
  8
AM_0
100
AcDbSpline
210
0.0
220
0.0
230
1.0
 70
     8
 71
     3
 72
     8
 73
     4
 74
     0
 42
0.0000000001
 43
0.0000000001
 40
0.157854605497133
 40
0.157854605497133
 40
0.157854605497133
 40
0.157854605497133
 40
6.616360992657454
 40
6.616360992657454
 40
6.616360992657454
 40
6.616360992657454
 10
-29.27237350338971
 20
7.754042203909008
 30
0.0
 10
-25.90575673788106
 20
7.575461205233111
 30
0.0
 10
-24.11391470486985
 20
3.787730602616989
 30
0.0
 10
-22.3220726718572
 20
0.0000000000007248
 30
0.0
  0
SPLINE
  5
4447
330
1F
100
AcDbEntity
  8
AM_0
100
AcDbSpline
210
0.0
220
0.0
230
1.0
 70
     8
 71
     3
 72
     8
 73
     4
 74
     2
 42
0.0000000001
 43
0.0000000001
 44
0.0000000001
 12
1.0
 22
-0.0000000000000002
 32
0.0
 40
0.0
 40
0.0
 40
0.0
 40
0.0
 40
10.76289923765945
 40
10.76289923765945
 40
10.76289923765945
 40
10.76289923765945
 10
-30.74285714285205
 20
8.000000000000895
 30
0.0
 10
-27.15522406363223
 20
8.000000000000895
 30
0.0
 10
-25.34904060324178
 20
4.000000000000895
 30
0.0
 10
-23.54285714285133
 20
0.0000000000008953
 30
0.0
 11
-30.74285714285205
 21
8.000000000000895
 31
0.0
 11
-23.54285714285133
 21
0.0000000000008953
 31
0.0
  0
SPLINE
  5
4448
330
1F
100
AcDbEntity
  8
AM_0
100
AcDbSpline
210
0.0
220
0.0
230
1.0
 70
     8
 71
     3
 72
     8
 73
     4
 74
     2
 42
0.0000000001
 43
0.0000000001
 44
0.0000000001
 12
-1.0
 22
0.0000000000000001
 32
0.0
 40
0.0
 40
0.0
 40
0.0
 40
0.0
 40
10.32330471374481
 40
10.32330471374481
 40
10.32330471374481
 40
10.32330471374481
 10
-13.87939592575556
 20
-7.398014612908625
 30
0.0
 10
-17.32049749700383
 20
-7.398014612908625
 30
0.0
 10
-19.1999467113797
 20
-3.699007306453765
 30
0.0
 10
-21.07939592575557
 20
0.0000000000010942
 30
0.0
 11
-13.87939592575556
 21
-7.398014612908625
 31
0.0
 11
-21.07939592575557
 21
0.0000000000010942
 31
0.0
  0
SPLINE
  5
4449
330
1F
100
AcDbEntity
  8
AM_0
100
AcDbSpline
210
0.0
220
0.0
230
1.0
 70
     8
 71
     3
 72
     8
 73
     4
 74
     2
 42
0.0000000001
 43
0.0000000001
 44
0.0000000001
 12
-1.0
 22
0.0000000000000001
 32
0.0
 40
0.0
 40
0.0
 40
0.0
 40
0.0
 40
10.58617758825156
 40
10.58617758825156
 40
10.58617758825156
 40
10.58617758825156
 10
-15.1220726718572
 20
-7.76061569271296
 30
0.0
 10
-18.65079853460773
 20
-7.76061569271296
 30
0.0
 10
-20.48643560323247
 20
-3.880307846355933
 30
0.0
 10
-22.3220726718572
 20
0.0000000000010942
 30
0.0
 11
-15.1220726718572
 21
-7.76061569271296
 31
0.0
 11
-22.3220726718572
 21
0.0000000000010942
 31
0.0
  0
SPLINE
  5
444A
330
1F
100
AcDbEntity
  8
AM_0
100
AcDbSpline
210
0.0
220
0.0
230
1.0
 70
     8
 71
     3
 72
     8
 73
     4
 74
     2
 42
0.0000000001
 43
0.0000000001
 44
0.0000000001
 12
-1.0
 22
0.0000000000000001
 32
0.0
 40
0.0
 40
0.0
 40
0.0
 40
0.0
 40
10.76289923765943
 40
10.76289923765943
 40
10.76289923765943
 40
10.76289923765943
 10
-16.3428571428506
 20
-7.999999999999076
 30
0.0
 10
-19.93049022207041
 20
-7.999999999999076
 30
0.0
 10
-21.73667368246087
 20
-3.99999999999909
 30
0.0
 10
-23.54285714285133
 20
0.0000000000008953
 30
0.0
 11
-16.3428571428506
 21
-7.999999999999076
 31
0.0
 11
-23.54285714285133
 21
0.0000000000008953
 31
0.0
  0
SPLINE
  5
444B
330
1F
100
AcDbEntity
  8
AM_0
100
AcDbSpline
210
0.0
220
0.0
230
1.0
 70
     8
 71
     3
 72
     8
 73
     4
 74
     0
 42
0.0000000001
 43
0.0000000001
 40
0.0
 40
0.0
 40
0.0
 40
0.0
 40
0.9875149967633806
 40
0.9875149967633806
 40
0.9875149967633806
 40
0.9875149967633806
 10
-16.34285714285278
 20
-7.999999999998721
 30
0.0
 10
-15.81618247791182
 20
-7.999999999998721
 30
0.0
 10
-15.3278999564928
 20
-7.913795724300868
 30
0.0
 10
-14.87237350353306
 20
-7.754042203956672
 30
0.0
  0
SPLINE
  5
444C
330
1F
100
AcDbEntity
  8
AM_0
100
AcDbSpline
210
0.0
220
0.0
230
1.0
 70
     8
 71
     3
 72
     8
 73
     4
 74
     0
 42
0.0000000001
 43
0.0000000001
 40
0.0
 40
0.0
 40
0.0
 40
0.0
 40
1.274172826456642
 40
1.274172826456642
 40
1.274172826456642
 40
1.274172826456642
 10
-15.12207267185867
 20
-7.76061569271242
 30
0.0
 10
-14.44251383108193
 20
-7.76061569271242
 30
0.0
 10
-13.82574608115381
 20
-7.616707846090505
 30
0.0
 10
-13.25967717048905
 20
-7.356605796023728
 30
0.0
  0
SPLINE
  5
444D
330
1F
100
AcDbEntity
  8
AM_0
100
AcDbSpline
210
0.0
220
0.0
230
1.0
 70
     8
 71
     3
 72
     8
 73
     4
 74
     0
 42
0.0000000001
 43
0.0000000001
 40
0.0
 40
0.0
 40
0.0
 40
0.0
 40
2.420483029949796
 40
2.420483029949796
 40
2.420483029949796
 40
2.420483029949796
 10
-13.87939592575702
 20
-7.398014612908625
 30
0.0
 10
-12.58847164311726
 20
-7.398014612908625
 30
0.0
 10
-11.5173287512719
 20
-6.877429498817761
 30
0.0
 10
-10.5835165790121
 20
-6.031556024029129
 30
0.0
  0
SPLINE
  5
444E
330
1F
100
AcDbEntity
  8
AM_0
100
AcDbSpline
210
0.0
220
0.0
230
1.0
 70
     8
 71
     3
 72
     8
 73
     4
 74
     2
 42
0.0000000001
 43
0.0000000001
 44
0.0000000001
 12
1.0
 22
-0.0000000000000002
 32
0.0
 40
0.0
 40
0.0
 40
0.0
 40
0.0
 40
10.76289923765896
 40
10.76289923765896
 40
10.76289923765896
 40
10.76289923765896
 10
-20.57142857143075
 20
8.000000000000895
 30
0.0
 10
-16.9837954922111
 20
8.000000000000895
 30
0.0
 10
-15.17761203182093
 20
4.000000000000895
 30
0.0
 10
-13.37142857143076
 20
0.0000000000008953
 30
0.0
 11
-20.57142857143075
 21
8.000000000000895
 31
0.0
 11
-13.37142857143076
 21
0.0000000000008953
 31
0.0
  0
SPLINE
  5
444F
330
1F
100
AcDbEntity
  8
AM_0
100
AcDbSpline
210
0.0
220
0.0
230
1.0
 70
     8
 71
     3
 72
     8
 73
     4
 74
     0
 42
0.0000000001
 43
0.0000000001
 40
0.157854605497133
 40
0.157854605497133
 40
0.157854605497133
 40
0.157854605497133
 40
6.616360992657454
 40
6.616360992657454
 40
6.616360992657454
 40
6.616360992657454
 10
-19.10094493196916
 20
7.754042203908824
 30
0.0
 10
-15.73432816645976
 20
7.575461205233111
 30
0.0
 10
-13.94248613344857
 20
3.787730602616818
 30
0.0
 10
-12.15064410043663
 20
0.0000000000007248
 30
0.0
  0
SPLINE
  5
4450
330
1F
100
AcDbEntity
  8
AM_0
100
AcDbSpline
210
0.0
220
0.0
230
1.0
 70
     8
 71
     3
 72
     8
 73
     4
 74
     0
 42
0.0000000001
 43
0.0000000001
 40
0.3982504941345976
 40
0.3982504941345976
 40
0.3982504941345976
 40
0.3982504941345976
 40
6.452065446090842
 40
6.452065446090842
 40
6.452065446090842
 40
6.452065446090842
 10
-17.48824859906775
 20
7.356605796025903
 30
0.0
 10
-14.43484966837745
 20
6.941375882286763
 30
0.0
 10
-12.67140851135659
 20
3.470687941143836
 30
0.0
 10
-10.907967354335
 20
0.0000000000010942
 30
0.0
  0
SPLINE
  5
4451
330
1F
100
AcDbEntity
  8
AM_0
100
AcDbSpline
210
0.0
220
0.0
230
1.0
 70
     8
 71
     3
 72
     8
 73
     4
 74
     2
 42
0.0000000001
 43
0.0000000001
 44
0.0000000001
 12
-1.0
 22
0.0000000000000001
 32
0.0
 40
0.0
 40
0.0
 40
0.0
 40
0.0
 40
10.76289923765943
 40
10.76289923765943
 40
10.76289923765943
 40
10.76289923765943
 10
-6.171428571422024
 20
-7.999999999999076
 30
0.0
 10
-9.759061650641836
 20
-7.999999999999076
 30
0.0
 10
-11.56524511103229
 20
-3.99999999999909
 30
0.0
 10
-13.37142857142275
 20
0.0000000000008953
 30
0.0
 11
-6.171428571422024
 21
-7.999999999999076
 31
0.0
 11
-13.37142857142275
 21
0.0000000000008953
 31
0.0
  0
SPLINE
  5
4452
330
1F
100
AcDbEntity
  8
AM_0
100
AcDbSpline
210
0.0
220
0.0
230
1.0
 70
     8
 71
     3
 72
     8
 73
     4
 74
     0
 42
0.0000000001
 43
0.0000000001
 40
0.0
 40
0.0
 40
0.0
 40
0.0
 40
0.9875149968653097
 40
0.9875149968653097
 40
0.9875149968653097
 40
0.9875149968653097
 10
-6.171428571427838
 20
-7.999999999998721
 30
0.0
 10
-5.644753906433062
 20
-7.999999999998721
 30
0.0
 10
-5.156471384967459
 20
-7.913795724283048
 30
0.0
 10
-4.700944931966975
 20
-7.754042203907189
 30
0.0
  0
SPLINE
  5
4453
330
1F
100
AcDbEntity
  8
AM_0
100
AcDbSpline
210
0.0
220
0.0
230
1.0
 70
     8
 71
     3
 72
     8
 73
     4
 74
     2
 42
0.0000000001
 43
0.0000000001
 44
0.0000000001
 12
-1.0
 22
0.0000000000000001
 32
0.0
 40
0.0
 40
0.0
 40
0.0
 40
0.0
 40
10.75282233651097
 40
10.75282233651097
 40
10.75282233651097
 40
10.75282233651097
 10
-4.700944931966975
 20
-7.754042203907189
 30
0.0
 10
-8.285219044137299
 20
-7.754042203907189
 30
0.0
 10
-10.21793157228297
 20
-3.877021101953047
 30
0.0
 10
-12.15064410042864
 20
0.0000000000010942
 30
0.0
 11
-4.700944931966975
 21
-7.754042203907189
 31
0.0
 11
-12.15064410042864
 21
0.0000000000010942
 31
0.0
  0
SPLINE
  5
4454
330
1F
100
AcDbEntity
  8
AM_0
100
AcDbSpline
210
0.0
220
0.0
230
1.0
 70
     8
 71
     3
 72
     8
 73
     4
 74
     0
 42
0.0000000001
 43
0.0000000001
 40
0.0
 40
0.0
 40
0.0
 40
0.0
 40
3.138307834541913
 40
3.138307834541913
 40
3.138307834541913
 40
3.138307834541913
 10
-4.700944931966975
 20
-7.754042203907189
 30
0.0
 10
-2.705451350583456
 20
-7.76061569271242
 30
0.0
 10
-1.412605993796748
 20
-6.887606375336332
 30
0.0
 10
-0.3200000000135379
 20
-5.555678202605491
 30
0.0
  0
SPLINE
  5
4455
330
1F
100
AcDbEntity
  8
AM_0
100
AcDbSpline
210
0.0
220
0.0
230
1.0
 70
     8
 71
     3
 72
     8
 73
     4
 74
     2
 42
0.0000000001
 43
0.0000000001
 44
0.0000000001
 12
-1.0
 22
0.0000000000000001
 32
0.0
 40
0.0
 40
0.0
 40
0.0
 40
0.0
 40
10.3233047137448
 40
10.3233047137448
 40
10.3233047137448
 40
10.3233047137448
 10
-3.707967354326998
 20
-7.398014612908625
 30
0.0
 10
-7.149068925575267
 20
-7.398014612908625
 30
0.0
 10
-9.028518139951133
 20
-3.699007306453764
 30
0.0
 10
-10.90796735432699
 20
0.0000000000010942
 30
0.0
 11
-3.707967354326998
 21
-7.398014612908625
 31
0.0
 11
-10.90796735432699
 21
0.0000000000010942
 31
0.0
  0
SPLINE
  5
4456
330
1F
100
AcDbEntity
  8
AM_0
100
AcDbSpline
210
0.0
220
0.0
230
1.0
 70
     8
 71
     3
 72
     8
 73
     4
 74
     0
 42
0.0000000001
 43
0.0000000001
 40
0.0
 40
0.0
 40
0.0
 40
0.0
 40
0.4556590281797062
 40
0.4556590281797062
 40
0.4556590281797062
 40
0.4556590281797062
 10
-3.707967354326998
 20
-7.398014612908625
 30
0.0
 10
-3.160389307630935
 20
-7.394364701240832
 30
0.0
 10
-2.658291218744847
 20
-7.379565834252375
 30
0.0
 10
-2.613902004079201
 20
-7.367664318503344
 30
0.0
  0
SPLINE
  5
4457
330
1F
100
AcDbEntity
  8
AM_0
100
AcDbSpline
210
0.0
220
0.0
230
1.0
 70
     8
 71
     3
 72
     8
 73
     4
 74
     0
 42
0.0000000001
 43
0.0000000001
 40
0.0
 40
0.0
 40
0.0
 40
0.0
 40
2.948331486770748
 40
2.948331486770748
 40
2.948331486770748
 40
2.948331486770748
 10
-10.39999999999927
 20
8.00000000000108
 30
0.0
 10
-11.97244345961008
 20
8.000000000001804
 30
0.0
 10
-13.20266518947537
 20
7.231588193957563
 30
0.0
 10
-14.5210291811833
 20
5.75320876866624
 30
0.0
  0
SPLINE
  5
4458
330
1F
100
AcDbEntity
  8
AM_0
100
AcDbSpline
210
0.0
220
0.0
230
1.0
 70
     8
 71
     3
 72
     8
 73
     4
 74
     0
 42
0.0000000001
 43
0.0000000001
 40
0.0
 40
0.0
 40
0.0
 40
0.0
 40
2.948331486770748
 40
2.948331486770748
 40
2.948331486770748
 40
2.948331486770748
 10
-20.57142857141984
 20
8.00000000000108
 30
0.0
 10
-22.14387203103064
 20
8.000000000001804
 30
0.0
 10
-23.37409376089667
 20
7.231588193957563
 30
0.0
 10
-24.69245775260457
 20
5.753208768666439
 30
0.0
  0
SPLINE
  5
4459
330
1F
100
AcDbEntity
  8
AM_0
100
AcDbSpline
210
0.0
220
0.0
230
1.0
 70
     8
 71
     3
 72
     8
 73
     4
 74
     0
 42
0.0000000001
 43
0.0000000001
 40
0.0
 40
0.0
 40
0.0
 40
0.0
 40
2.420483029949796
 40
2.420483029949796
 40
2.420483029949796
 40
2.420483029949796
 10
-24.05082449717832
 20
-7.398014612908625
 30
0.0
 10
-22.75990021453857
 20
-7.398014612908625
 30
0.0
 10
-21.68875732269318
 20
-6.877429498817576
 30
0.0
 10
-20.41183770962212
 20
-5.756965940519378
 30
0.0
  0
LINE
  5
445A
330
1F
100
AcDbEntity
  8
AM_0
100
AcDbLine
 10
0.0
 20
0.0
 30
0.0
 11
-0.000000000000723
 21
7.785640646057785
 31
0.0
  0
LINE
  5
445E
330
1F
100
AcDbEntity
  8
AM_0
100
AcDbLine
 10
-37.94849494283231
 20
1.484706563869423
 30
0.0
 11
-35.0992037017863
 21
2.942281015272769
 31
0.0
  0
LINE
  5
445F
330
1F
100
AcDbEntity
  8
AM_0
100
AcDbLine
 10
-36.24641969326103
 20
-7.999999999999985
 30
0.0
 11
-38.24983017549189
 21
-7.999999999999985
 31
0.0
  0
ARC
  5
4460
330
1F
100
AcDbEntity
  8
AM_0
100
AcDbCircle
 10
-36.49113280805291
 20
-1.364169637040859
 30
0.0
 40
3.199999999999999
100
AcDbArc
 50
117.0923257436931
 51
211.247911487523
  0
LINE
  5
4463
330
1F
100
AcDbEntity
  8
AM_0
100
AcDbLine
 10
-35.0
 20
5.91392667008471
 30
0.0
 11
-35.0
 21
2.746710428424762
 31
0.0
  0
LINE
  5
4464
330
1F
100
AcDbEntity
  8
AM_0
100
AcDbLine
 10
0.0
 20
-1.244579061488366
 30
0.0
 11
-0.3200000000004319
 21
0.0
 31
0.0
  0
LINE
  5
4465
330
1F
100
AcDbEntity
  8
AM_0
100
AcDbLine
 10
-0.319999999999709
 20
-2.411304044415032
 30
0.0
 11
-0.3200000000004319
 21
0.0
 31
0.0
  0
ARC
  5
4466
330
1F
100
AcDbEntity
  8
AM_0
100
AcDbCircle
 10
8.010179680305741
 20
1.367869512043583
 30
0.0
 40
9.147351872318301
100
AcDbArc
 50
171.6411574078215
 51
204.4024896870891
  0
LINE
  5
4467
330
1F
100
AcDbEntity
  8
AM_0
100
AcDbLine
 10
-1.040000000000142
 20
-5.468922976442996
 30
0.0
 11
-0.694101911791222
 21
-3.999999999970171
 31
0.0
  0
LINE
  5
4468
330
1F
100
AcDbEntity
  8
AM_0
100
AcDbLine
 10
0.000000000000731
 20
-3.999999999995822
 30
0.0
 11
-0.319999999999709
 21
-5.555678202588765
 31
0.0
  0
LINE
  5
4469
330
1F
100
AcDbEntity
  8
AM_0
100
AcDbLine
 10
-0.3200000000135299
 20
-5.555678202655712
 30
0.0
 11
-0.3199999999560532
 21
-3.999999999983998
 31
0.0
  0
LINE
  5
446A
330
1F
100
AcDbEntity
  8
AM_0
100
AcDbLine
 10
0.000000000000731
 20
-3.999999999995822
 30
0.0
 11
-0.319999999999709
 21
-2.411304044415032
 31
0.0
  0
LINE
  5
446B
330
1F
100
AcDbEntity
  8
AM_0
100
AcDbLine
 10
0.000000000000731
 20
-3.999999999995822
 30
0.0
 11
0.0
 21
-1.244579061488551
 31
0.0
  0
LINE
  5
446C
330
1F
100
AcDbEntity
  8
AM_0
100
AcDbLine
 10
-1.243533940806083
 20
-3.999999999950162
 30
0.0
 11
0.000000000000731
 21
-3.999999999995822
 31
0.0
  0
LINE
  5
446D
330
1F
100
AcDbEntity
  8
AM_0
100
AcDbLine
 10
-1.040000000000142
 20
2.697641684331742
 30
0.0
 11
-2.430300478111891
 21
4.444444444444329
 31
0.0
  0
LINE
  5
446E
330
1F
100
AcDbEntity
  8
AM_0
100
AcDbLine
 10
-0.3200000000004319
 20
0.0
 30
0.0
 11
-1.040000000000142
 21
2.697641684331742
 31
0.0
  0
LINE
  5
446F
330
1F
100
AcDbEntity
  8
AM_0
100
AcDbLine
 10
0.0
 20
0.0
 30
0.0
 11
-0.1633014318045731
 21
-0.6094492404423449
 31
0.0
  0
LINE
  5
4471
330
1F
100
AcDbEntity
  8
AM_0
100
AcDbLine
 10
-0.7999999999992724
 20
8.000000000002543
 30
0.0
 11
-0.000000000000723
 21
7.785640646057785
 31
0.0
  0
VIEWPORT
  5
110
330
101
100
AcDbEntity
 67
     1
  8
0
100
AcDbViewport
 10
420.5
 20
297.0
 30
0.0
 40
948.9782706766916
 41
628.452
 68
     1
 69
     1
1001
ACAD
1000
MVIEW
1002
{
1070
    16
1010
0.0
1020
0.0
1030
0.0
1010
0.0
1020
0.0
1030
1.0
1040
0.0
1040
628.452
1040
420.5
1040
297.0
1040
50.0
1040
0.0
1040
0.0
1070
     0
1070
   100
1070
     1
1070
     1
1070
     0
1070
     0
1070
     0
1070
     0
1040
0.0
1040
0.0
1040
0.0
1040
10.0
1040
10.0
1040
10.0
1040
10.0
1070
     0
1002
{
1002
}
1002
}
  0
ENDSEC
  0
SECTION
  2
OBJECTS
  0
DICTIONARY
  5
C
330
0
100
AcDbDictionary
  3
ACAD_GROUP
350
D
  3
ACAD_LAYOUT
350
1A
  3
ACAD_MLINESTYLE
350
17
  3
ACAD_PLOTSETTINGS
350
19
  3
ACAD_PLOTSTYLENAME
350
E
  3
ACDBVARIABLEDICTIONARY
350
34
  3
ACMDICTIONARY
350
43
  3
AMG
350
2B
  3
AMGSNAPSETTINGS
350
6E
  3
ASE_INDEX_DICTIONARY
350
151A
  3
DWGPROPS
350
44E0
  3
ACDBHEADERROUNDTRIPXREC
350
44EC
  0
DICTIONARY
  5
74
330
1F
100
AcDbDictionary
280
     1
  3
ACAD_INDEX
360
44E2
  3
ACAD_LAYOUTSELFREF
360
450F
  0
DICTIONARY
  5
4514
330
101
100
AcDbDictionary
280
     1
  3
ACAD_LAYOUTSELFREF
360
4515
  0
DICTIONARY
  5
D
102
{ACAD_REACTORS
330
C
102
}
330
C
100
AcDbDictionary
  0
DICTIONARY
  5
1A
102
{ACAD_REACTORS
330
C
102
}
330
C
100
AcDbDictionary
  0
DICTIONARY
  5
17
102
{ACAD_REACTORS
330
C
102
}
330
C
100
AcDbDictionary
  3
STANDARD
350
18
  0
DICTIONARY
  5
19
102
{ACAD_REACTORS
330
C
102
}
330
C
100
AcDbDictionary
  0
ACDBDICTIONARYWDFLT
  5
E
102
{ACAD_REACTORS
330
C
102
}
330
C
100
AcDbDictionary
281
     1
  3
Normal
350
F
100
AcDbDictionaryWithDefault
340
F
  0
DICTIONARY
  5
34
102
{ACAD_REACTORS
330
C
102
}
330
C
100
AcDbDictionary
  3
INDEXCTL
350
35
  3
SORTENTS
350
B5E
  0
DICTIONARY
  5
43
102
{ACAD_REACTORS
330
C
102
}
330
C
100
AcDbDictionary
  3
ACMSTDDICTIONARY
350
260
  0
DICTIONARY
  5
2B
102
{ACAD_REACTORS
330
C
102
}
330
C
100
AcDbDictionary
  3
ACMGSETTINGS
350
2C
  0
DICTIONARY
  5
6E
102
{ACAD_REACTORS
330
C
102
}
330
C
100
AcDbDictionary
  0
DICTIONARY
  5
151A
102
{ACAD_REACTORS
330
C
102
}
330
C
100
AcDbDictionary
  3
ASEBLOCKHIERARCHYINDEXRECORD
350
151C
1001
DCO15
1040
1471862535.906
  0
XRECORD
  5
44E0
102
{ACAD_REACTORS
330
C
102
}
330
C
100
AcDbXrecord
  1
DWGPROPS COOKIE
  2

  3

  4

  6

  7

  8

  9

300
AmdtFileType=82
301
=
302
=
303
=
304
=
305
=
306
=
307
=
308
=
309
=
 40
0.1529918402777778
 41
2452838.430434386
 42
2453045.475408402
  1

 90
        1
  0
DICTIONARY
  5
44EC
102
{ACAD_REACTORS
330
C
102
}
330
C
100
AcDbDictionary
  3
TSTACKALIGN
350
44ED
  3
TSTACKSIZE
350
44EE
  3
HYPERLINKBASE
350
44EF
  3
STYLESHEET
350
44F0
  3
LAYOUTDICT
350
44F1
  3
PLOTSETDICT
350
44F2
  3
PLOTSTYLNAMDICT
350
44F3
  3
LWETCUNION
350
44F4
  3
INSUNITS
350
44F5
  3
CEPSNTYPE
350
44F6
  3
FINGERPRINTGUID
350
44F7
  3
VERSIONGUID
350
44F8
  3
PSVPSCALE
350
44F9
  3
DIMSTYLEDATA
350
44FA
  3
PUCSORTHOREF
350
44FB
  3
PUCSORTHOVIEW
350
44FC
  3
PUCSBASE
350
44FD
  3
PUCSORGTOP
350
44FE
  3
PUCSORGBOTTOM
350
44FF
  3
PUCSORGLEFT
350
4500
  3
PUCSORGRIGHT
350
4501
  3
PUCSORGFRONT
350
4502
  3
PUCSORGBACK
350
4503
  3
UCSORTHOREF
350
4504
  3
UCSORTHOVIEW
350
4505
  3
UCSBASE
350
4506
  3
UCSORGTOP
350
4507
  3
UCSORGBOTTOM
350
4508
  3
UCSORGLEFT
350
4509
  3
UCSORGRIGHT
350
450A
  3
UCSORGFRONT
350
450B
  3
UCSORGBACK
350
450C
  0
DICTIONARY
  5
44E2
102
{ACAD_REACTORS
330
74
102
}
330
74
100
AcDbDictionary
  3
*A1
350
44E3
  0
XRECORD
  5
450F
102
{ACAD_REACTORS
330
74
102
}
330
74
100
AcDbXrecord
340
1F
  0
XRECORD
  5
4515
102
{ACAD_REACTORS
330
4514
102
}
330
4514
100
AcDbXrecord
340
101
  0
MLINESTYLE
  5
18
102
{ACAD_REACTORS
330
17
102
}
330
17
100
AcDbMlineStyle
  2
STANDARD
 70
     0
  3

 62
   256
 51
90.0
 52
90.0
 71
     2
 49
0.5
 62
   256
  6
BYLAYER
 49
-0.5
 62
   256
  6
BYLAYER
  0
ACDBPLACEHOLDER
  5
F
102
{ACAD_REACTORS
330
E
102
}
330
E
100
AcDbPlaceHolder
280
     0
  0
DICTIONARYVAR
  5
35
102
{ACAD_REACTORS
330
34
102
}
330
34
100
DictionaryVariables
280
     0
  1
1
  0
DICTIONARYVAR
  5
B5E
102
{ACAD_REACTORS
330
34
102
}
330
34
100
DictionaryVariables
280
     0
  1
96
  0
DICTIONARY
  5
260
102
{ACAD_REACTORS
330
43
102
}
330
43
100
AcDbDictionary
  0
DICTIONARY
  5
2C
102
{ACAD_REACTORS
330
2B
102
}
330
2B
100
AcDbDictionary
  3
DWGSETTINGS
350
2D
  0
XRECORD
  5
151C
102
{ACAD_REACTORS
330
151A
102
}
330
151A
100
AcDbXrecord
330
0
330
0
330
0
330
0
330
0
330
0
330
0
330
0
  0
XRECORD
  5
44ED
102
{ACAD_REACTORS
330
44EC
102
}
330
44EC
100
AcDbXrecord
 90
        1
  0
XRECORD
  5
44EE
102
{ACAD_REACTORS
330
44EC
102
}
330
44EC
100
AcDbXrecord
 90
       70
  0
XRECORD
  5
44EF
102
{ACAD_REACTORS
330
44EC
102
}
330
44EC
100
AcDbXrecord
  1

  0
XRECORD
  5
44F0
102
{ACAD_REACTORS
330
44EC
102
}
330
44EC
100
AcDbXrecord
  1
ASAMI.ctb
  0
XRECORD
  5
44F1
102
{ACAD_REACTORS
330
44EC
102
}
330
44EC
100
AcDbXrecord
340
1A
  0
XRECORD
  5
44F2
102
{ACAD_REACTORS
330
44EC
102
}
330
44EC
100
AcDbXrecord
340
19
  0
XRECORD
  5
44F3
102
{ACAD_REACTORS
330
44EC
102
}
330
44EC
100
AcDbXrecord
340
E
  0
XRECORD
  5
44F4
102
{ACAD_REACTORS
330
44EC
102
}
330
44EC
100
AcDbXrecord
 90
    10781
  0
XRECORD
  5
44F5
102
{ACAD_REACTORS
330
44EC
102
}
330
44EC
100
AcDbXrecord
 90
        4
  0
XRECORD
  5
44F6
102
{ACAD_REACTORS
330
44EC
102
}
330
44EC
100
AcDbXrecord
 90
        0
  0
XRECORD
  5
44F7
102
{ACAD_REACTORS
330
44EC
102
}
330
44EC
100
AcDbXrecord
  1
{AFB28963-8C59-40AE-9337-C84526B81ACE}
  0
XRECORD
  5
44F8
102
{ACAD_REACTORS
330
44EC
102
}
330
44EC
100
AcDbXrecord
  1
{651F99CE-A816-48C6-BCB6-CC0E1982C3A4}
  0
XRECORD
  5
44F9
102
{ACAD_REACTORS
330
44EC
102
}
330
44EC
100
AcDbXrecord
 40
0.0
  0
XRECORD
  5
44FA
102
{ACAD_REACTORS
330
44EC
102
}
330
44EC
100
AcDbXrecord
1000
DSTYLE
1002
{
1070
    79
 70
     2
1070
   341
340
59
1070
   342
340
59
1070
   371
 70
    -1
1070
   372
 70
    -1
1002
}
  0
XRECORD
  5
44FB
102
{ACAD_REACTORS
330
44EC
102
}
330
44EC
100
AcDbXrecord
340
0
  0
XRECORD
  5
44FC
102
{ACAD_REACTORS
330
44EC
102
}
330
44EC
100
AcDbXrecord
 70
     0
  0
XRECORD
  5
44FD
102
{ACAD_REACTORS
330
44EC
102
}
330
44EC
100
AcDbXrecord
340
0
  0
XRECORD
  5
44FE
102
{ACAD_REACTORS
330
44EC
102
}
330
44EC
100
AcDbXrecord
 10
0.0
 20
0.0
 30
0.0
  0
XRECORD
  5
44FF
102
{ACAD_REACTORS
330
44EC
102
}
330
44EC
100
AcDbXrecord
 10
0.0
 20
0.0
 30
0.0
  0
XRECORD
  5
4500
102
{ACAD_REACTORS
330
44EC
102
}
330
44EC
100
AcDbXrecord
 10
0.0
 20
0.0
 30
0.0
  0
XRECORD
  5
4501
102
{ACAD_REACTORS
330
44EC
102
}
330
44EC
100
AcDbXrecord
 10
0.0
 20
0.0
 30
0.0
  0
XRECORD
  5
4502
102
{ACAD_REACTORS
330
44EC
102
}
330
44EC
100
AcDbXrecord
 10
0.0
 20
0.0
 30
0.0
  0
XRECORD
  5
4503
102
{ACAD_REACTORS
330
44EC
102
}
330
44EC
100
AcDbXrecord
 10
0.0
 20
0.0
 30
0.0
  0
XRECORD
  5
4504
102
{ACAD_REACTORS
330
44EC
102
}
330
44EC
100
AcDbXrecord
340
0
  0
XRECORD
  5
4505
102
{ACAD_REACTORS
330
44EC
102
}
330
44EC
100
AcDbXrecord
 70
     0
  0
XRECORD
  5
4506
102
{ACAD_REACTORS
330
44EC
102
}
330
44EC
100
AcDbXrecord
340
0
  0
XRECORD
  5
4507
102
{ACAD_REACTORS
330
44EC
102
}
330
44EC
100
AcDbXrecord
 10
0.0
 20
0.0
 30
0.0
  0
XRECORD
  5
4508
102
{ACAD_REACTORS
330
44EC
102
}
330
44EC
100
AcDbXrecord
 10
0.0
 20
0.0
 30
0.0
  0
XRECORD
  5
4509
102
{ACAD_REACTORS
330
44EC
102
}
330
44EC
100
AcDbXrecord
 10
0.0
 20
0.0
 30
0.0
  0
XRECORD
  5
450A
102
{ACAD_REACTORS
330
44EC
102
}
330
44EC
100
AcDbXrecord
 10
0.0
 20
0.0
 30
0.0
  0
XRECORD
  5
450B
102
{ACAD_REACTORS
330
44EC
102
}
330
44EC
100
AcDbXrecord
 10
0.0
 20
0.0
 30
0.0
  0
XRECORD
  5
450C
102
{ACAD_REACTORS
330
44EC
102
}
330
44EC
100
AcDbXrecord
 10
0.0
 20
0.0
 30
0.0
  0
LAYER_INDEX
  5
44E3
102
{ACAD_REACTORS
330
44E2
102
}
330
44E2
100
AcDbIndex
 40
2453152.472777546
100
AcDbLayerIndex
  8
0
360
44E4
 90
        0
  8
AM_0
360
44E5
 90
       67
  8
AM_11
360
44E6
 90
        4
  8
AM_7
360
44E7
 90
        1
  8
AM_5
360
44E8
 90
        4
  8
Defpoints
360
44E9
 90
        0
  8
AM_6
360
44EA
 90
        1
  0
XRECORD
  5
2D
102
{ACAD_REACTORS
330
2C
102
}
330
2C
100
AcDbXrecord
  1
VERSION
140
15.0
  1
PRODUCT
  2
AutoCAD Mechanical 2000
  0
IDBUFFER
  5
44E4
330
0
100
AcDbIdBuffer
  0
IDBUFFER
  5
44E5
330
0
100
AcDbIdBuffer
330
4459
330
445A
330
445E
330
445F
330
4460
330
4463
330
4464
330
4465
330
4466
330
4467
330
4468
330
4469
330
446A
330
446B
330
446C
330
446D
330
446E
330
446F
330
4471
330
420A
330
420D
330
420E
330
421C
330
424A
330
424D
330
442F
330
4430
330
4431
330
4432
330
4433
330
4434
330
4435
330
4436
330
4437
330
4438
330
4439
330
443A
330
443B
330
443C
330
443D
330
443E
330
443F
330
4440
330
4441
330
4442
330
4443
330
4444
330
4445
330
4446
330
4447
330
4448
330
4449
330
444A
330
444B
330
444C
330
444D
330
444E
330
444F
330
4450
330
4451
330
4452
330
4453
330
4454
330
4455
330
4456
330
4457
330
4458
  0
IDBUFFER
  5
44E6
330
0
100
AcDbIdBuffer
330
431C
330
4334
330
4348
330
4349
  0
IDBUFFER
  5
44E7
330
0
100
AcDbIdBuffer
330
3B7D
  0
IDBUFFER
  5
44E8
330
0
100
AcDbIdBuffer
330
3CAC
330
3D34
330
3E27
330
420F
  0
IDBUFFER
  5
44E9
330
0
100
AcDbIdBuffer
  0
IDBUFFER
  5
44EA
330
0
100
AcDbIdBuffer
330
1500
  0
ENDSEC
  0
EOF
