  0
SECTION
  2
HEADER
  9
$ACADVER
  1
AC1014
  9
$ACADMAINTVER
 70
     9
  9
$DWGCODEPAGE
  3
ANSI_932
  9
$INSBASE
 10
0.0
 20
0.0
 30
0.0
  9
$EXTMIN
 10
-151.3947004505847
 20
-64.50000100000019
 30
-0.00000001
  9
$EXTMAX
 10
19.55776903085519
 20
18.52136453096945
 30
0.00000001
  9
$LIMMIN
 10
-158.4019257598536
 20
-81.84358379589367
  9
$LIMMAX
 10
33.22041635168034
 20
36.24910860757427
  9
$ORTHOMODE
 70
     0
  9
$REGENMODE
 70
     1
  9
$FILLMODE
 70
     1
  9
$QTEXTMODE
 70
     0
  9
$MIRRTEXT
 70
     0
  9
$DRAGMODE
 70
     2
  9
$LTSCALE
 40
1.0
  9
$OSMODE
 70
    55
  9
$ATTMODE
 70
     1
  9
$TEXTSIZE
 40
2.5
  9
$TRACEWID
 40
1.0
  9
$TEXTSTYLE
  7
STANDARD
  9
$CLAYER
  8
AM_0
  9
$CELTYPE
  6
BYLAYER
  9
$CECOLOR
 62
   256
  9
$CELTSCALE
 40
1.0
  9
$DELOBJ
 70
     1
  9
$DISPSILH
 70
     0
  9
$DIMSCALE
 40
1.0
  9
$DIMASZ
 40
2.5
  9
$DIMEXO
 40
1.0
  9
$DIMDLI
 40
12.0
  9
$DIMRND
 40
0.0
  9
$DIMDLE
 40
0.0
  9
$DIMEXE
 40
1.0
  9
$DIMTP
 40
0.1
  9
$DIMTM
 40
0.1
  9
$DIMTXT
 40
3.2
  9
$DIMCEN
 40
0.0
  9
$DIMTSZ
 40
0.0
  9
$DIMTOL
 70
     0
  9
$DIMLIM
 70
     0
  9
$DIMTIH
 70
     0
  9
$DIMTOH
 70
     0
  9
$DIMSE1
 70
     0
  9
$DIMSE2
 70
     0
  9
$DIMTAD
 70
     3
  9
$DIMZIN
 70
     8
  9
$DIMBLK
  1
OPEN30
  9
$DIMASO
 70
     1
  9
$DIMSHO
 70
     1
  9
$DIMPOST
  1

  9
$DIMAPOST
  1
"
  9
$DIMALT
 70
     0
  9
$DIMALTD
 70
     2
  9
$DIMALTF
 40
0.0393701
  9
$DIMLFAC
 40
1.0
  9
$DIMTOFL
 70
     1
  9
$DIMTVP
 40
0.0
  9
$DIMTIX
 70
     0
  9
$DIMSOXD
 70
     0
  9
$DIMSAH
 70
     0
  9
$DIMBLK1
  1

  9
$DIMBLK2
  1

  9
$DIMSTYLE
  2
AM_JIS
  9
$DIMCLRD
 70
   256
  9
$DIMCLRE
 70
   256
  9
$DIMCLRT
 70
     2
  9
$DIMTFAC
 40
0.71
  9
$DIMGAP
 40
1.5
  9
$DIMJUST
 70
     0
  9
$DIMSD1
 70
     0
  9
$DIMSD2
 70
     0
  9
$DIMTOLJ
 70
     0
  9
$DIMTZIN
 70
     0
  9
$DIMALTZ
 70
     0
  9
$DIMALTTZ
 70
     0
  9
$DIMFIT
 70
     3
  9
$DIMUPT
 70
     0
  9
$DIMUNIT
 70
     2
  9
$DIMDEC
 70
     3
  9
$DIMTDEC
 70
     3
  9
$DIMALTU
 70
     2
  9
$DIMALTTD
 70
     2
  9
$DIMTXSTY
  7
ASAMI
  9
$DIMAUNIT
 70
     0
  9
$LUNITS
 70
     2
  9
$LUPREC
 70
     2
  9
$SKETCHINC
 40
1.0
  9
$FILLETRAD
 40
2.5
  9
$AUNITS
 70
     0
  9
$AUPREC
 70
     0
  9
$MENU
  1
.
  9
$ELEVATION
 40
0.0
  9
$PELEVATION
 40
0.0
  9
$THICKNESS
 40
0.0
  9
$LIMCHECK
 70
     0
  9
$BLIPMODE
 70
     0
  9
$CHAMFERA
 40
1.5
  9
$CHAMFERB
 40
1.5
  9
$CHAMFERC
 40
20.0
  9
$CHAMFERD
 40
0.0
  9
$SKPOLY
 70
     0
  9
$TDCREATE
 40
2452838.430434386
  9
$TDUPDATE
 40
2453152.468491585
  9
$TDINDWG
 40
0.1823515741
  9
$TDUSRTIMER
 40
0.1823515741
  9
$USRTIMER
 70
     1
  9
$ANGBASE
 50
0.0
  9
$ANGDIR
 70
     0
  9
$PDMODE
 70
     0
  9
$PDSIZE
 40
0.0
  9
$PLINEWID
 40
0.0
  9
$COORDS
 70
     1
  9
$SPLFRAME
 70
     0
  9
$SPLINETYPE
 70
     6
  9
$SPLINESEGS
 70
     8
  9
$ATTDIA
 70
     1
  9
$ATTREQ
 70
     1
  9
$HANDLING
 70
 12289
  9
$HANDSEED
  5
4A7F
  9
$SURFTAB1
 70
     6
  9
$SURFTAB2
 70
     6
  9
$SURFTYPE
 70
     6
  9
$SURFU
 70
     6
  9
$SURFV
 70
     6
  9
$UCSNAME
  2

  9
$UCSORG
 10
0.0
 20
0.0
 30
0.0
  9
$UCSXDIR
 10
1.0
 20
0.0
 30
0.0
  9
$UCSYDIR
 10
0.0
 20
1.0
 30
0.0
  9
$PUCSNAME
  2

  9
$PUCSORG
 10
0.0
 20
0.0
 30
0.0
  9
$PUCSXDIR
 10
1.0
 20
0.0
 30
0.0
  9
$PUCSYDIR
 10
0.0
 20
1.0
 30
0.0
  9
$USERI1
 70
     0
  9
$USERI2
 70
     0
  9
$USERI3
 70
     0
  9
$USERI4
 70
     0
  9
$USERI5
 70
     0
  9
$USERR1
 40
0.0
  9
$USERR2
 40
0.0
  9
$USERR3
 40
0.0
  9
$USERR4
 40
0.0
  9
$USERR5
 40
0.0
  9
$WORLDVIEW
 70
     1
  9
$SHADEDGE
 70
     3
  9
$SHADEDIF
 70
    70
  9
$TILEMODE
 70
     1
  9
$MAXACTVP
 70
    64
  9
$PINSBASE
 10
0.0
 20
0.0
 30
0.0
  9
$PLIMCHECK
 70
     0
  9
$PEXTMIN
 10
1.000000000000000E+20
 20
1.000000000000000E+20
 30
1.000000000000000E+20
  9
$PEXTMAX
 10
-1.000000000000000E+20
 20
-1.000000000000000E+20
 30
-1.000000000000000E+20
  9
$PLIMMIN
 10
0.0
 20
0.0
  9
$PLIMMAX
 10
841.0
 20
594.0
  9
$UNITMODE
 70
     0
  9
$VISRETAIN
 70
     1
  9
$PLINEGEN
 70
     0
  9
$PSLTSCALE
 70
     0
  9
$TREEDEPTH
 70
  3020
  9
$PICKSTYLE
 70
     0
  9
$CMLSTYLE
  2
STANDARD
  9
$CMLJUST
 70
     0
  9
$CMLSCALE
 40
20.0
  9
$PROXYGRAPHICS
 70
     1
  9
$MEASUREMENT
 70
     1
  0
ENDSEC
  0
SECTION
  2
CLASSES
  0
CLASS
  1
ACDBDICTIONARYWDFLT
  2
AcDbDictionaryWithDefault
  3
AutoCAD 2000
 90
        0
280
     0
281
     0
  0
CLASS
  1
ACDBPLACEHOLDER
  2
AcDbPlaceHolder
  3
AutoCAD 2000
 90
        0
280
     0
281
     0
  0
CLASS
  1
LAYOUT
  2
AcDbLayout
  3
AutoCAD 2000
 90
        0
280
     0
281
     0
  0
CLASS
  1
AMGSETTINGSOBJ
  2
AmgSettingsObj
  3
"AcadM|Product Description: AutoCAD Mechanical 2000|Company: Autodesk"
 90
        0
280
     0
281
     0
  0
CLASS
  1
ACME_DOCUMENT
  2
AcMeDbDoc
  3
AcMeServices
 90
        0
280
     0
281
     0
  0
CLASS
  1
ACMESCOPE
  2
AcMeScope
  3
AcMeServices
 90
        0
280
     0
281
     0
  0
CLASS
  1
ACMECOMMANDHISTORY
  2
AcMeCommandHistory
  3
AcMeServices
 90
        0
280
     0
281
     0
  0
CLASS
  1
DICTIONARYVAR
  2
AcDbDictionaryVar
  3
AutoCAD 2000
 90
        0
280
     0
281
     0
  0
CLASS
  1
ACIMSYSVARMAN
  2
AcImSysVarManager
  3
AcMeServices
 90
        0
280
     0
281
     0
  0
CLASS
  1
ACIMREALSYSVAR
  2
AcImRealSysVar
  3
AcMeServices
 90
        0
280
     0
281
     0
  0
CLASS
  1
ACIMINTSYSVAR
  2
AcImIntSysVar
  3
AcMeServices
 90
        0
280
     0
281
     0
  0
CLASS
  1
ACMEDRAWINGMAN
  2
AcMeDrawingMan
  3
AcMeServices
 90
        0
280
     0
281
     0
  0
CLASS
  1
ACMEVIEW
  2
AcMeView
  3
AcMeServices
 90
        0
280
     0
281
     0
  0
CLASS
  1
ACDBENTITYCACHE
  2
AcMeEntityCache
  3
AcMeServices
 90
        0
280
     0
281
     0
  0
CLASS
  1
GSMANAGER
  2
AcMeGSManager
  3
AcMeServices
 90
        0
280
     0
281
     0
  0
CLASS
  1
AmdtInternalReactor
  2
AmdtInternalReactor
  3
AcMeServices
 90
        0
280
     0
281
     0
  0
CLASS
  1
ACMESTATEMGR
  2
AcMeStateMgr
  3
AcMeServices
 90
        0
280
     0
281
     0
  0
CLASS
  1
ACME_DATABASE
  2
AcMeDbDatabase
  3
AcMeServices
 90
        0
280
     0
281
     0
  0
CLASS
  1
ACRFINSADJUSTERMGR
  2
AcRfInsAdjusterMgr
  3
AcMeServices
 90
        0
280
     0
281
     0
  0
CLASS
  1
ACMDATADICTIONARY
  2
AcmDataDictionary
  3
"AcmSymBB|Product Description: AutoCAD Mechanical 2000|Company: Autodesk"
 90
        0
280
     0
281
     0
  0
CLASS
  1
ACMDATAENTRYBLOCK
  2
AcmDataEntryBlock
  3
"AcmSymBB|Product Description: AutoCAD Mechanical 2000|Company: Autodesk"
 90
        0
280
     0
281
     0
  0
CLASS
  1
AMGOBJPROPCFG
  2
AmgObjPropCfg
  3
"AmgLay|Product Description: AutoCAD Mechanical 2000|Company: Autodesk"
 90
        1
280
     0
281
     0
  0
CLASS
  1
ACAMGFILTERDAT
  2
AcAmgFilterDat
  3
"AcadM|Product Description: AutoCAD Mechanical 2000|Company: Autodesk"
 90
        0
280
     0
281
     0
  0
CLASS
  1
LAYER_INDEX
  2
AcDbLayerIndex
  3
AutoCAD 2000
 90
        0
280
     0
281
     0
  0
CLASS
  1
IDBUFFER
  2
AcDbIdBuffer
  3
AutoCAD 2000
 90
        0
280
     0
281
     0
  0
CLASS
  1
ACIMSTRSYSVAR
  2
AcImStrSysVar
  3
AcMeServices
 90
        0
280
     0
281
     0
  0
CLASS
  1
ACMSTANDARDJIS
  2
AcmStandardJIS
  3
"AcmSymBB|Product Description: AutoCAD Mechanical 2000|Company: Autodesk"
 90
        0
280
     0
281
     0
  0
CLASS
  1
ACMSURFSTANDARDJIS
  2
AcmSurfTextStdJIS
  3
"AcmSymBB|Product Description: AutoCAD Mechanical 2000|Company: Autodesk"
 90
        0
280
     0
281
     0
  0
CLASS
  1
ACMFCFSTANDARDJIS
  2
AcmFCFStdJIS
  3
"AcmSymBB|Product Description: AutoCAD Mechanical 2000|Company: Autodesk"
 90
        0
280
     0
281
     0
  0
CLASS
  1
ACMWELDSTANDARDJIS
  2
AcmWeldingStdJIS
  3
"AcmSymBB|Product Description: AutoCAD Mechanical 2000|Company: Autodesk"
 90
        0
280
     0
281
     0
  0
CLASS
  1
ACMIDSTANDARDJIS
  2
AcmIdStdJIS
  3
"AcmSymBB|Product Description: AutoCAD Mechanical 2000|Company: Autodesk"
 90
        0
280
     0
281
     0
  0
CLASS
  1
ACMDATUMSTANDARDJIS
  2
AcmDatumStdJIS
  3
"AcmSymBB|Product Description: AutoCAD Mechanical 2000|Company: Autodesk"
 90
        0
280
     0
281
     0
  0
CLASS
  1
ACMBOMSTANDARDJIS
  2
AcmBOMStdJIS
  3
"AcmSymBB|Product Description: AutoCAD Mechanical 2000|Company: Autodesk"
 90
        0
280
     0
281
     0
  0
CLASS
  1
ACMSTANDARDANSI
  2
AcmStandardANSI
  3
"AcmSymBB|Product Description: AutoCAD Mechanical 2000|Company: Autodesk"
 90
        0
280
     0
281
     0
  0
CLASS
  1
ACMSURFSTANDARDANSI
  2
AcmSurfTextStdANSI
  3
"AcmSymBB|Product Description: AutoCAD Mechanical 2000|Company: Autodesk"
 90
        0
280
     0
281
     0
  0
CLASS
  1
ACMFCFSTANDARDANSI
  2
AcmFCFStdANSI
  3
"AcmSymBB|Product Description: AutoCAD Mechanical 2000|Company: Autodesk"
 90
        0
280
     0
281
     0
  0
CLASS
  1
ACMWELDSTANDARDANSI
  2
AcmWeldingStdANSI
  3
"AcmSymBB|Product Description: AutoCAD Mechanical 2000|Company: Autodesk"
 90
        0
280
     0
281
     0
  0
CLASS
  1
ACMIDSTANDARDANSI
  2
AcmIdStdANSI
  3
"AcmSymBB|Product Description: AutoCAD Mechanical 2000|Company: Autodesk"
 90
        0
280
     0
281
     0
  0
CLASS
  1
ACMDATUMSTANDARDANSI
  2
AcmDatumStdANSI
  3
"AcmSymBB|Product Description: AutoCAD Mechanical 2000|Company: Autodesk"
 90
        0
280
     0
281
     0
  0
CLASS
  1
ACMBOMSTANDARDANSI
  2
AcmBOMStdANSI
  3
"AcmSymBB|Product Description: AutoCAD Mechanical 2000|Company: Autodesk"
 90
        0
280
     0
281
     0
  0
CLASS
  1
ACMSTANDARDBSI
  2
AcmStandardBSI
  3
"AcmSymBB|Product Description: AutoCAD Mechanical 2000|Company: Autodesk"
 90
        0
280
     0
281
     0
  0
CLASS
  1
ACMSURFSTANDARDBSI
  2
AcmSurfTextStdBSI
  3
"AcmSymBB|Product Description: AutoCAD Mechanical 2000|Company: Autodesk"
 90
        0
280
     0
281
     0
  0
CLASS
  1
ACMFCFSTANDARDBSI
  2
AcmFCFStdBSI
  3
"AcmSymBB|Product Description: AutoCAD Mechanical 2000|Company: Autodesk"
 90
        0
280
     0
281
     0
  0
CLASS
  1
ACMWELDSTANDARDBSI
  2
AcmWeldingStdBSI
  3
"AcmSymBB|Product Description: AutoCAD Mechanical 2000|Company: Autodesk"
 90
        0
280
     0
281
     0
  0
CLASS
  1
ACMIDSTANDARDBSI
  2
AcmIdStdBSI
  3
"AcmSymBB|Product Description: AutoCAD Mechanical 2000|Company: Autodesk"
 90
        0
280
     0
281
     0
  0
CLASS
  1
ACMDATUMSTANDARDBSI
  2
AcmDatumStdBSI
  3
"AcmSymBB|Product Description: AutoCAD Mechanical 2000|Company: Autodesk"
 90
        0
280
     0
281
     0
  0
CLASS
  1
ACMBOMSTANDARDBSI
  2
AcmBOMStdBSI
  3
"AcmSymBB|Product Description: AutoCAD Mechanical 2000|Company: Autodesk"
 90
        0
280
     0
281
     0
  0
CLASS
  1
LONG_TRANSACTION
  2
AcDbLongTransaction
  3
AutoCAD 2000
 90
        0
280
     0
281
     0
  0
CLASS
  1
LWPOLYLINE
  2
AcDbPolyline
  3
AutoCAD 2000
 90
        0
280
     0
281
     1
  0
CLASS
  1
HATCH
  2
AcDbHatch
  3
AutoCAD 2000
 90
        0
280
     0
281
     1
  0
CLASS
  1
XRECORD
  2
AcDbXrecord
  3
AutoCAD 2000
 90
        0
280
     0
281
     0
  0
ENDSEC
  0
SECTION
  2
TABLES
  0
TABLE
  2
VPORT
  5
8
330
0
100
AcDbSymbolTable
 70
     3
  0
VPORT
  5
4A54
330
8
100
AcDbSymbolTableRecord
100
AcDbViewportTableRecord
  2
*ACTIVE
 70
     0
 10
0.0
 20
0.0
 11
1.0
 21
1.0
 12
-49.1533842452594
 22
-13.97441657153463
 13
0.0
 23
0.0
 14
2.5
 24
2.5
 15
10.0
 25
10.0
 16
0.0
 26
0.0
 36
1.0
 17
0.0
 27
0.0
 37
0.0
 40
152.0086133051666
 41
1.56570841889117
 42
50.0
 43
0.0
 44
0.0
 50
0.0
 51
0.0
 71
     0
 72
   100
 73
     1
 74
     3
 75
     0
 76
     0
 77
     0
 78
     0
  0
ENDTAB
  0
TABLE
  2
LTYPE
  5
5
330
0
100
AcDbSymbolTable
 70
    10
  0
LTYPE
  5
14
330
5
100
AcDbSymbolTableRecord
100
AcDbLinetypeTableRecord
  2
BYBLOCK
 70
     0
  3

 72
    65
 73
     0
 40
0.0
  0
LTYPE
  5
15
330
5
100
AcDbSymbolTableRecord
100
AcDbLinetypeTableRecord
  2
BYLAYER
 70
     0
  3

 72
    65
 73
     0
 40
0.0
  0
LTYPE
  5
16
330
5
100
AcDbSymbolTableRecord
100
AcDbLinetypeTableRecord
  2
CONTINUOUS
 70
     0
  3
Solid line
 72
    65
 73
     0
 40
0.0
  0
LTYPE
  5
4B
330
5
100
AcDbSymbolTableRecord
100
AcDbLinetypeTableRecord
  2
AM_ISO02W050
 70
     0
  3
__ __ __ __ __ __ __ __ __ __ __ __ __ __ __
 72
    65
 73
     2
 40
7.5
 49
6.0
 74
     0
 49
-1.5
 74
     0
  0
LTYPE
  5
4C
330
5
100
AcDbSymbolTableRecord
100
AcDbLinetypeTableRecord
  2
AM_ISO08W050
 70
     0
  3
____ . ____ . ____ . ____ . ____ . ____ . ____
 72
    65
 73
     4
 40
18.0
 49
12.0
 74
     0
 49
-1.5
 74
     0
 49
3.0
 74
     0
 49
-1.5
 74
     0
  0
LTYPE
  5
4D
330
5
100
AcDbSymbolTableRecord
100
AcDbLinetypeTableRecord
  2
AM_ISO09W050
 70
     0
  3
_____ . . _____ . . _____ . . ____ .. ____
 72
    65
 73
     6
 40
22.5
 49
12.0
 74
     0
 49
-1.5
 74
     0
 49
3.0
 74
     0
 49
-1.5
 74
     0
 49
3.0
 74
     0
 49
-1.5
 74
     0
  0
LTYPE
  5
4E
330
5
100
AcDbSymbolTableRecord
100
AcDbLinetypeTableRecord
  2
AMCONSTR
 70
     0
  3
_______________________
 72
    65
 73
     2
 40
9999.0
 49
9999.0
 74
     0
 49
0.0
 74
     0
  0
LTYPE
  5
4F
330
5
100
AcDbSymbolTableRecord
100
AcDbLinetypeTableRecord
  2
AM_ISO02W050X2
 70
     0
  3
 _ _ _ _ _ _ _ _ _ _ _ _
 72
    65
 73
     2
 40
3.75
 49
3.0
 74
     0
 49
-0.75
 74
     0
  0
LTYPE
  5
50
330
5
100
AcDbSymbolTableRecord
100
AcDbLinetypeTableRecord
  2
AM_ISO08W050X2
 70
     0
  3
__ . __ . __ . __ . __ . __
 72
    65
 73
     4
 40
9.0
 49
6.0
 74
     0
 49
-0.75
 74
     0
 49
1.5
 74
     0
 49
-0.75
 74
     0
  0
LTYPE
  5
53
330
5
100
AcDbSymbolTableRecord
100
AcDbLinetypeTableRecord
  2
AMZIGZAG
 70
     0
  3
/\/-/\/-/\/-/\/-/\/-/\/
 72
    65
 73
     2
 40
11.00009999999999
 49
0.0001
 74
     4
 75
   135
340
52
 46
0.04
 50
0.0
 44
0.0
 45
0.0
 49
-11.0
 74
     0
  0
LTYPE
  5
166
330
5
100
AcDbSymbolTableRecord
100
AcDbLinetypeTableRecord
  2
ACJISTGL
 70
     0
  3
_ _ _ _ _
 72
    65
 73
     2
 40
3.0
 49
2.0
 74
     0
 49
-1.0
 74
     0
  0
LTYPE
  5
26A
330
5
100
AcDbSymbolTableRecord
100
AcDbLinetypeTableRecord
  2
ACJISTGB
 70
     0
  3
__ . . __ . .
 72
    65
 73
     6
 40
9.0
 49
4.0
 74
     0
 49
-1.0
 74
     0
 49
1.0
 74
     0
 49
-1.0
 74
     0
 49
1.0
 74
     0
 49
-1.0
 74
     0
  0
ENDTAB
  0
TABLE
  2
LAYER
  5
2
330
0
100
AcDbSymbolTable
 70
     7
  0
LAYER
  5
10
330
2
100
AcDbSymbolTableRecord
100
AcDbLayerTableRecord
  2
0
 70
     0
 62
     7
  6
CONTINUOUS
  0
LAYER
  5
3F9
330
2
100
AcDbSymbolTableRecord
100
AcDbLayerTableRecord
  2
AM_0
 70
     0
 62
     7
  6
CONTINUOUS
  0
LAYER
  5
BDD
330
2
100
AcDbSymbolTableRecord
100
AcDbLayerTableRecord
  2
AM_11
 70
     0
 62
     3
  6
AM_ISO09W050
  0
LAYER
  5
BDE
330
2
100
AcDbSymbolTableRecord
100
AcDbLayerTableRecord
  2
AM_7
 70
     0
 62
     4
  6
AM_ISO08W050
  0
LAYER
  5
BDF
330
2
100
AcDbSymbolTableRecord
100
AcDbLayerTableRecord
  2
AM_5
 70
     0
 62
     3
  6
CONTINUOUS
  0
LAYER
  5
BE0
330
2
100
AcDbSymbolTableRecord
100
AcDbLayerTableRecord
  2
DEFPOINTS
 70
     0
 62
     7
  6
CONTINUOUS
  0
LAYER
  5
14FF
330
2
100
AcDbSymbolTableRecord
100
AcDbLayerTableRecord
  2
AM_6
 70
     0
 62
     2
  6
CONTINUOUS
  0
ENDTAB
  0
TABLE
  2
STYLE
  5
3
330
0
100
AcDbSymbolTable
 70
     5
  0
STYLE
  5
11
330
3
100
AcDbSymbolTableRecord
100
AcDbTextStyleTableRecord
  2
STANDARD
 70
     0
 40
0.0
 41
1.0
 50
0.0
 71
     0
 42
2.5
  3
simplex.shx
  4
EXTFONT.SHX
  0
STYLE
  5
52
330
3
100
AcDbSymbolTableRecord
100
AcDbTextStyleTableRecord
  2

 70
     1
 40
0.0
 41
1.0
 50
0.0
 71
     0
 42
2.5
  3
ltypeshp.shx
  4

  0
STYLE
  5
6B
330
3
100
AcDbSymbolTableRecord
100
AcDbTextStyleTableRecord
  2
ASAMI
 70
     0
 40
0.0
 41
1.0
 50
0.0
 71
     0
 42
2.5
  3
simplex.shx
  4
EXTFONT.SHX
  0
STYLE
  5
262
330
3
100
AcDbSymbolTableRecord
100
AcDbTextStyleTableRecord
  2
ACJISTS
 70
     0
 40
1.0
 41
1.0
 50
0.0
 71
     0
 42
2.5
  3
simplex.shx
  4
bigfont.shx
  0
STYLE
  5
269
330
3
100
AcDbSymbolTableRecord
100
AcDbTextStyleTableRecord
  2
ACJISGDT
 70
     0
 40
0.0
 41
1.0
 50
0.0
 71
     0
 42
2.5
  3
amgdtans.shx
  4

  0
ENDTAB
  0
TABLE
  2
VIEW
  5
6
330
0
100
AcDbSymbolTable
 70
     0
  0
ENDTAB
  0
TABLE
  2
UCS
  5
7
330
0
100
AcDbSymbolTable
 70
     0
  0
ENDTAB
  0
TABLE
  2
APPID
  5
9
330
0
100
AcDbSymbolTable
 70
    14
  0
APPID
  5
12
330
9
100
AcDbSymbolTableRecord
100
AcDbRegAppTableRecord
  2
ACAD
 70
     0
  0
APPID
  5
30
330
9
100
AcDbSymbolTableRecord
100
AcDbRegAppTableRecord
  2
MCAD_NO_VIS
 70
     0
  0
APPID
  5
31
330
9
100
AcDbSymbolTableRecord
100
AcDbRegAppTableRecord
  2
ACAD_TEMP_GRAPHIC
 70
     0
  0
APPID
  5
2C2
330
9
100
AcDbSymbolTableRecord
100
AcDbRegAppTableRecord
  2
GENIUS_GENDTOL_13
 70
     0
  0
APPID
  5
339
330
9
100
AcDbSymbolTableRecord
100
AcDbRegAppTableRecord
  2
GENIUS_GENODEF_13
 70
     0
  0
APPID
  5
33A
330
9
100
AcDbSymbolTableRecord
100
AcDbRegAppTableRecord
  2
GENIUS_GENOBJ-N-RSBK_13
 70
     0
  0
APPID
  5
33B
330
9
100
AcDbSymbolTableRecord
100
AcDbRegAppTableRecord
  2
GENIUS_GENOBJ-N-LIB_13
 70
     0
  0
APPID
  5
33C
330
9
100
AcDbSymbolTableRecord
100
AcDbRegAppTableRecord
  2
GENIUS_GENSCALE_13
 70
     0
  0
APPID
  5
378
330
9
100
AcDbSymbolTableRecord
100
AcDbRegAppTableRecord
  2
GENIUS_GENDIMSH_14
 70
     0
  0
APPID
  5
BE1
330
9
100
AcDbSymbolTableRecord
100
AcDbRegAppTableRecord
  2
GENIUS_GENFIL_13
 70
     0
  0
APPID
  5
BE2
330
9
100
AcDbSymbolTableRecord
100
AcDbRegAppTableRecord
  2
GENIUS_GENOBJ-N-CHA_13
 70
     0
  0
APPID
  5
151B
330
9
100
AcDbSymbolTableRecord
100
AcDbRegAppTableRecord
  2
DCO15
 70
     0
  0
APPID
  5
1860
330
9
100
AcDbSymbolTableRecord
100
AcDbRegAppTableRecord
  2
GENIUS_GENOBJ-N-CEN_13
 70
     0
  0
APPID
  5
359C
330
9
100
AcDbSymbolTableRecord
100
AcDbRegAppTableRecord
  2
GENIUS_GENOBJ-N-FIL_13
 70
     0
  0
ENDTAB
  0
TABLE
  2
DIMSTYLE
  5
A
330
0
100
AcDbSymbolTable
 70
     8
  0
DIMSTYLE
105
58
102
{ACAD_REACTORS
330
424D
330
4255
330
4288
330
4510
102
}
330
A
100
AcDbSymbolTableRecord
100
AcDbDimStyleTableRecord
  2
AM_JIS
 70
     0
  3

  4
"
  5
OPEN30
  6

  7

 40
1.0
 41
2.5
 42
1.0
 43
12.0
 44
1.0
 45
0.0
 46
0.0
 47
0.1
 48
0.1
140
3.2
141
0.0
142
0.0
143
0.0393701
144
1.0
145
0.0
146
0.71
147
1.5
 71
     0
 72
     0
 73
     0
 74
     0
 75
     0
 76
     0
 77
     3
 78
     8
170
     0
171
     2
172
     1
173
     0
174
     0
175
     0
176
   256
177
   256
178
     2
270
     2
271
     3
272
     3
273
     2
274
     2
340
6B
275
     0
280
     0
281
     0
282
     0
283
     0
284
     0
285
     0
286
     0
287
     3
288
     0
  0
DIMSTYLE
105
5F
330
A
100
AcDbSymbolTableRecord
100
AcDbDimStyleTableRecord
  2
AM_JIS$3
 70
     0
  3

  4
"
  5
OPEN30
  6

  7

 40
1.0
 41
2.5
 42
1.0
 43
10.0
 44
1.0
 45
0.0
 46
0.0
 47
0.1
 48
0.1
140
3.2
141
0.0
142
0.0
143
0.0393701
144
1.0
145
0.0
146
0.71
147
1.5
 71
     0
 72
     0
 73
     0
 74
     1
 75
     0
 76
     0
 77
     3
 78
     8
170
     0
171
     2
172
     0
173
     0
174
     0
175
     0
176
   256
177
   256
178
     2
270
     2
271
     2
272
     3
273
     2
274
     2
340
6B
275
     0
280
     0
281
     0
282
     0
283
     0
284
     0
285
     0
286
     0
287
     0
288
     1
  0
DIMSTYLE
105
60
330
A
100
AcDbSymbolTableRecord
100
AcDbDimStyleTableRecord
  2
AM_JIS$4
 70
     0
  3

  4
"
  5
OPEN30
  6

  7

 40
1.0
 41
2.5
 42
1.0
 43
10.0
 44
1.0
 45
0.0
 46
0.0
 47
0.1
 48
0.1
140
3.2
141
0.0
142
0.0
143
0.0393701
144
1.0
145
0.0
146
0.71
147
1.5
 71
     0
 72
     0
 73
     0
 74
     1
 75
     0
 76
     0
 77
     3
 78
     8
170
     0
171
     2
172
     0
173
     0
174
     0
175
     0
176
   256
177
   256
178
     2
270
     2
271
     2
272
     3
273
     2
274
     2
340
6B
275
     0
280
     0
281
     0
282
     0
283
     0
284
     0
285
     0
286
     0
287
     0
288
     1
  0
DIMSTYLE
105
61
330
A
100
AcDbSymbolTableRecord
100
AcDbDimStyleTableRecord
  2
AM_JIS$6
 70
     0
  3

  4
"
  5
OPEN30
  6

  7

 40
1.0
 41
2.5
 42
1.0
 43
10.0
 44
1.0
 45
0.0
 46
0.0
 47
0.1
 48
0.1
140
3.2
141
0.0
142
0.0
143
0.0393701
144
1.0
145
0.0
146
0.71
147
1.5
 71
     0
 72
     0
 73
     0
 74
     0
 75
     0
 76
     0
 77
     0
 78
     8
170
     0
171
     2
172
     1
173
     0
174
     0
175
     0
176
   256
177
   256
178
     2
270
     2
271
     2
272
     2
273
     2
274
     2
340
6B
275
     0
280
     0
281
     0
282
     0
283
     0
284
     0
285
     0
286
     0
287
     3
288
     0
  0
DIMSTYLE
105
62
330
A
100
AcDbSymbolTableRecord
100
AcDbDimStyleTableRecord
  2
AM_JIS$7
 70
     0
  3

  4
"
  5
OPEN30
  6

  7

 40
1.0
 41
2.5
 42
1.0
 43
10.0
 44
1.0
 45
0.0
 46
0.0
 47
0.1
 48
0.1
140
3.2
141
0.0
142
0.0
143
0.0393701
144
1.0
145
0.0
146
0.71
147
1.5
 71
     0
 72
     0
 73
     0
 74
     0
 75
     0
 76
     0
 77
     3
 78
     8
170
     0
171
     2
172
     1
173
     0
174
     0
175
     0
176
   256
177
   256
178
     2
270
     2
271
     2
272
     3
273
     2
274
     2
340
6B
275
     0
280
     0
281
     0
282
     0
283
     0
284
     0
285
     0
286
     0
287
     3
288
     0
  0
DIMSTYLE
105
63
330
A
100
AcDbSymbolTableRecord
100
AcDbDimStyleTableRecord
  2
AM_JIS$SF
 70
     0
  3

  4
"
  5
OPEN30
  6

  7

 40
1.0
 41
2.5
 42
1.0
 43
10.0
 44
1.0
 45
0.0
 46
0.0
 47
0.1
 48
0.1
140
3.2
141
0.0
142
0.0
143
0.0393701
144
1.0
145
0.0
146
0.71
147
1.5
 71
     0
 72
     0
 73
     0
 74
     0
 75
     1
 76
     1
 77
     3
 78
     8
170
     0
171
     2
172
     1
173
     0
174
     0
175
     0
176
   256
177
   256
178
     2
270
     2
271
     2
272
     2
273
     2
274
     2
340
6B
275
     0
280
     0
281
     0
282
     0
283
     0
284
     0
285
     0
286
     0
287
     3
288
     0
  0
DIMSTYLE
105
68
330
A
100
AcDbSymbolTableRecord
100
AcDbDimStyleTableRecord
  2
AM_JIS$SH
 70
     0
  3

  4
"
  5

  6
GENAXEH
  7
OPEN30
 40
1.0
 41
2.5
 42
1.0
 43
10.0
 44
1.0
 45
0.0
 46
0.0
 47
0.1
 48
0.1
140
3.2
141
0.0
142
0.0
143
0.0393701
144
2.0
145
0.0
146
0.71
147
1.5
 71
     0
 72
     0
 73
     0
 74
     0
 75
     1
 76
     1
 77
     3
 78
     8
170
     0
171
     2
172
     1
173
     1
174
     0
175
     0
176
   256
177
   256
178
     2
270
     2
271
     2
272
     2
273
     2
274
     2
340
6B
275
     0
280
     0
281
     0
282
     0
283
     0
284
     0
285
     0
286
     0
287
     3
288
     0
  0
DIMSTYLE
105
B34
330
A
100
AcDbSymbolTableRecord
100
AcDbDimStyleTableRecord
  2
AM_JIS$2
 70
     0
  3

  4
"
  5
OPEN30
  6

  7

 40
1.0
 41
2.5
 42
1.0
 43
12.0
 44
1.0
 45
0.0
 46
0.0
 47
0.1
 48
0.1
140
3.2
141
0.0
142
0.0
143
0.0393701
144
1.0
145
0.0
146
0.71
147
1.5
 71
     0
 72
     0
 73
     0
 74
     0
 75
     0
 76
     0
 77
     3
 78
     8
170
     0
171
     2
172
     1
173
     0
174
     0
175
     0
176
   256
177
   256
178
     2
270
     2
271
     3
272
     3
273
     2
274
     2
340
6B
275
     0
280
     0
281
     0
282
     0
283
     0
284
     0
285
     0
286
     0
287
     3
288
     0
  0
ENDTAB
  0
TABLE
  2
BLOCK_RECORD
  5
1
330
0
100
AcDbSymbolTable
 70
     9
  0
BLOCK_RECORD
  5
1F
102
{ACAD_XDICTIONARY
360
74
102
}
330
1
100
AcDbSymbolTableRecord
100
AcDbBlockTableRecord
  2
*MODEL_SPACE
  0
BLOCK_RECORD
  5
101
102
{ACAD_XDICTIONARY
360
4A7D
102
}
330
1
100
AcDbSymbolTableRecord
100
AcDbBlockTableRecord
  2
*PAPER_SPACE
  0
BLOCK_RECORD
  5
59
330
1
100
AcDbSymbolTableRecord
100
AcDbBlockTableRecord
  2
_OPEN30
  0
BLOCK_RECORD
  5
64
330
1
100
AcDbSymbolTableRecord
100
AcDbBlockTableRecord
  2
GENAXEH
  0
BLOCK_RECORD
  5
4290
330
1
100
AcDbSymbolTableRecord
100
AcDbBlockTableRecord
  2
*D5
  0
BLOCK_RECORD
  5
42A8
330
1
100
AcDbSymbolTableRecord
100
AcDbBlockTableRecord
  2
*D6
  0
BLOCK_RECORD
  5
42B4
330
1
100
AcDbSymbolTableRecord
100
AcDbBlockTableRecord
  2
*D7
  0
BLOCK_RECORD
  5
4511
330
1
100
AcDbSymbolTableRecord
100
AcDbBlockTableRecord
  2
*D8
  0
ENDTAB
  0
ENDSEC
  0
SECTION
  2
BLOCKS
  0
BLOCK
  5
20
330
1F
100
AcDbEntity
  8
0
100
AcDbBlockBegin
  2
*MODEL_SPACE
 70
     0
 10
0.0
 20
0.0
 30
0.0
  3
*MODEL_SPACE
  1

  0
ENDBLK
  5
21
330
1F
100
AcDbEntity
  8
0
100
AcDbBlockEnd
  0
BLOCK
  5
103
330
101
100
AcDbEntity
 67
     1
  8
0
100
AcDbBlockBegin
  2
*PAPER_SPACE
 70
     0
 10
0.0
 20
0.0
 30
0.0
  3
*PAPER_SPACE
  1

  0
ENDBLK
  5
104
330
101
100
AcDbEntity
 67
     1
  8
0
100
AcDbBlockEnd
  0
BLOCK
  5
5D
330
59
100
AcDbEntity
  8
0
100
AcDbBlockBegin
  2
_OPEN30
 70
     0
 10
0.0
 20
0.0
 30
0.0
  3
_OPEN30
  1

  0
LINE
  5
5A
330
59
100
AcDbEntity
  8
0
 62
     0
100
AcDbLine
 10
-1.0
 20
0.26794919
 30
0.0
 11
0.0
 21
0.0
 31
0.0
  0
LINE
  5
5B
330
59
100
AcDbEntity
  8
0
 62
     0
100
AcDbLine
 10
0.0
 20
0.0
 30
0.0
 11
-1.0
 21
-0.26794919
 31
0.0
  0
LINE
  5
5C
330
59
100
AcDbEntity
  8
0
 62
     0
100
AcDbLine
 10
0.0
 20
0.0
 30
0.0
 11
-1.0
 21
0.0
 31
0.0
  0
ENDBLK
  5
5E
330
59
100
AcDbEntity
  8
0
100
AcDbBlockEnd
  0
BLOCK
  5
66
330
64
100
AcDbEntity
  8
0
100
AcDbBlockBegin
  2
GENAXEH
 70
     0
 10
0.0
 20
0.0
 30
0.0
  3
GENAXEH
  1

  0
LINE
  5
65
330
64
100
AcDbEntity
  8
0
100
AcDbLine
 10
-1.0
 20
0.0
 30
0.0
 11
1.0
 21
0.0
 31
0.0
  0
ENDBLK
  5
67
330
64
100
AcDbEntity
  8
0
100
AcDbBlockEnd
  0
BLOCK
  5
429A
330
4290
100
AcDbEntity
  8
0
100
AcDbBlockBegin
  2
*D5
 70
     1
 10
0.0
 20
0.0
 30
0.0
  3
*D5
  1

  0
LINE
  5
46D4
330
4290
100
AcDbEntity
  8
AM_5
100
AcDbLine
 10
-0.0000000000000001
 20
-9.999999999999985
 30
0.0
 11
-0.0000000000000021
 21
-43.00000100000016
 31
0.0
  0
LINE
  5
46D5
330
4290
100
AcDbEntity
  8
AM_5
100
AcDbLine
 10
-129.9999999999998
 20
-15.50000000000006
 30
0.0
 11
-129.9999999999998
 21
-43.00000100000016
 31
0.0
  0
LINE
  5
46D6
330
4290
100
AcDbEntity
  8
AM_5
100
AcDbLine
 10
-2.500000000000002
 20
-42.00000100000017
 30
0.0
 11
-127.4999999999998
 21
-42.00000100000017
 31
0.0
  0
INSERT
  5
46D7
330
4290
100
AcDbEntity
  8
AM_5
100
AcDbBlockReference
  2
_OPEN30
 10
-0.000000000000002
 20
-42.00000100000017
 30
0.0
 41
2.5
 42
2.5
 43
2.5
  0
INSERT
  5
46D8
330
4290
100
AcDbEntity
  8
AM_5
100
AcDbBlockReference
  2
_OPEN30
 10
-129.9999999999998
 20
-42.00000100000017
 30
0.0
 41
2.5
 42
2.5
 43
2.5
 50
180.0
  0
MTEXT
  5
46D9
330
4290
100
AcDbEntity
  8
AM_5
 62
     2
100
AcDbMText
 10
-64.99999999999992
 20
-38.90000100000016
 30
0.0
 40
3.2
 41
0.0
 71
     5
 72
     1
  1
130
  7
ASAMI
1001
ACAD
1000
MTEXTBEGIN
1070
    73
1070
     1
1070
    44
1040
1.0
1070
    74
1070
     0
1000
MTEXTEND
  0
POINT
  5
46DA
330
4290
100
AcDbEntity
  8
DEFPOINTS
 62
     0
100
AcDbPoint
 10
0.0
 20
-8.999999999999985
 30
0.0
  0
POINT
  5
46DB
330
4290
100
AcDbEntity
  8
DEFPOINTS
 62
     0
100
AcDbPoint
 10
-129.9999999999998
 20
-14.50000000000006
 30
0.0
  0
POINT
  5
46DC
330
4290
100
AcDbEntity
  8
DEFPOINTS
 62
     0
100
AcDbPoint
 10
-129.9999999999998
 20
-42.00000100000017
 30
0.0
  0
ENDBLK
  5
429B
330
4290
100
AcDbEntity
  8
0
100
AcDbBlockEnd
  0
BLOCK
  5
42B2
330
42A8
100
AcDbEntity
  8
0
100
AcDbBlockBegin
  2
*D6
 70
     1
 10
0.0
 20
0.0
 30
0.0
  3
*D6
  1

  0
LINE
  5
4845
330
42A8
100
AcDbEntity
  8
AM_5
100
AcDbLine
 10
0.0000000000000141
 20
-16.99999999999997
 30
0.0
 11
0.0000000000000133
 21
-31.00000100000017
 31
0.0
  0
LINE
  5
4846
330
42A8
100
AcDbEntity
  8
AM_5
100
AcDbLine
 10
-55.0
 20
-16.99999999999997
 30
0.0
 11
-55.0
 21
-31.00000100000017
 31
0.0
  0
LINE
  5
4847
330
42A8
100
AcDbEntity
  8
AM_5
100
AcDbLine
 10
-2.499999999999986
 20
-30.00000100000017
 30
0.0
 11
-52.5
 21
-30.00000100000017
 31
0.0
  0
INSERT
  5
4848
330
42A8
100
AcDbEntity
  8
AM_5
100
AcDbBlockReference
  2
_OPEN30
 10
0.0000000000000134
 20
-30.00000100000017
 30
0.0
 41
2.5
 42
2.5
 43
2.5
  0
INSERT
  5
4849
330
42A8
100
AcDbEntity
  8
AM_5
100
AcDbBlockReference
  2
_OPEN30
 10
-55.0
 20
-30.00000100000017
 30
0.0
 41
2.5
 42
2.5
 43
2.5
 50
180.0
  0
MTEXT
  5
484A
330
42A8
100
AcDbEntity
  8
AM_5
 62
     2
100
AcDbMText
 10
-27.49999999999999
 20
-26.90000100000017
 30
0.0
 40
3.2
 41
0.0
 71
     5
 72
     1
  1
55
  7
ASAMI
1001
ACAD
1000
MTEXTBEGIN
1070
    73
1070
     1
1070
    44
1040
1.0
1070
    74
1070
     0
1000
MTEXTEND
  0
POINT
  5
484B
330
42A8
100
AcDbEntity
  8
DEFPOINTS
 62
     0
100
AcDbPoint
 10
0.0000000000000142
 20
-15.99999999999997
 30
0.0
  0
POINT
  5
484C
330
42A8
100
AcDbEntity
  8
DEFPOINTS
 62
     0
100
AcDbPoint
 10
-55.0
 20
-15.99999999999997
 30
0.0
  0
POINT
  5
484D
330
42A8
100
AcDbEntity
  8
DEFPOINTS
 62
     0
100
AcDbPoint
 10
-55.0
 20
-30.00000100000017
 30
0.0
  0
ENDBLK
  5
42B3
330
42A8
100
AcDbEntity
  8
0
100
AcDbBlockEnd
  0
BLOCK
  5
42BE
330
42B4
100
AcDbEntity
  8
0
100
AcDbBlockBegin
  2
*D7
 70
     1
 10
0.0
 20
0.0
 30
0.0
  3
*D7
  1

  0
LINE
  5
48E2
330
42B4
100
AcDbEntity
  8
AM_5
100
AcDbLine
 10
1.0
 20
16.00000000000002
 30
0.0
 11
19.55776903085519
 21
16.00000000000002
 31
0.0
  0
LINE
  5
48E3
330
42B4
100
AcDbEntity
  8
AM_5
100
AcDbLine
 10
1.0
 20
-15.99999999999997
 30
0.0
 11
19.55776903085518
 21
-15.99999999999997
 31
0.0
  0
LINE
  5
48E4
330
42B4
100
AcDbEntity
  8
AM_5
100
AcDbLine
 10
18.55776903085519
 20
13.50000000000002
 30
0.0
 11
18.55776903085518
 21
-13.49999999999997
 31
0.0
  0
INSERT
  5
48E5
330
42B4
100
AcDbEntity
  8
AM_5
100
AcDbBlockReference
  2
_OPEN30
 10
18.55776903085519
 20
16.00000000000002
 30
0.0
 41
2.5
 42
2.5
 43
2.5
 50
90.0
  0
INSERT
  5
48E6
330
42B4
100
AcDbEntity
  8
AM_5
100
AcDbBlockReference
  2
_OPEN30
 10
18.55776903085518
 20
-15.99999999999997
 30
0.0
 41
2.5
 42
2.5
 43
2.5
 50
270.0
  0
MTEXT
  5
48E7
330
42B4
100
AcDbEntity
  8
AM_5
 62
     2
100
AcDbMText
 10
15.45776903085518
 20
0.0000000000000241
 30
0.0
 40
3.2
 41
0.0
 71
     5
 72
     1
  1
%%c32
  7
ASAMI
 11
0.0000000000000001
 21
1.0
 31
0.0
1001
ACAD
1000
MTEXTBEGIN
1070
    73
1070
     1
1070
    44
1040
1.0
1070
    74
1070
     0
1000
MTEXTEND
  0
POINT
  5
48E8
330
42B4
100
AcDbEntity
  8
DEFPOINTS
 62
     0
100
AcDbPoint
 10
0.0
 20
16.00000000000002
 30
0.0
  0
POINT
  5
48E9
330
42B4
100
AcDbEntity
  8
DEFPOINTS
 62
     0
100
AcDbPoint
 10
0.0
 20
-15.99999999999997
 30
0.0
  0
POINT
  5
48EA
330
42B4
100
AcDbEntity
  8
DEFPOINTS
 62
     0
100
AcDbPoint
 10
18.55776903085518
 20
-15.99999999999997
 30
0.0
  0
ENDBLK
  5
42BF
330
42B4
100
AcDbEntity
  8
0
100
AcDbBlockEnd
  0
BLOCK
  5
451B
330
4511
100
AcDbEntity
  8
0
100
AcDbBlockBegin
  2
*D8
 70
     1
 10
0.0
 20
0.0
 30
0.0
  3
*D8
  1

  0
LINE
  5
4541
330
4511
100
AcDbEntity
  8
AM_5
100
AcDbLine
 10
-129.4999999999999
 20
16.00000000000015
 30
0.0
 11
-147.6947004505847
 21
16.00000000000016
 31
0.0
  0
LINE
  5
4542
330
4511
100
AcDbEntity
  8
AM_5
100
AcDbLine
 10
-129.4999999999998
 20
-16.00000000000003
 30
0.0
 11
-147.6947004505847
 21
-16.00000000000003
 31
0.0
  0
LINE
  5
4543
330
4511
100
AcDbEntity
  8
AM_5
100
AcDbLine
 10
-146.6947004505847
 20
13.50000000000016
 30
0.0
 11
-146.6947004505847
 21
-13.50000000000003
 31
0.0
  0
INSERT
  5
4544
330
4511
100
AcDbEntity
  8
AM_5
100
AcDbBlockReference
  2
_OPEN30
 10
-146.6947004505847
 20
16.00000000000016
 30
0.0
 41
2.5
 42
2.5
 43
2.5
 50
90.0
  0
INSERT
  5
4545
330
4511
100
AcDbEntity
  8
AM_5
100
AcDbBlockReference
  2
_OPEN30
 10
-146.6947004505847
 20
-16.00000000000003
 30
0.0
 41
2.5
 42
2.5
 43
2.5
 50
270.0
  0
MTEXT
  5
4546
330
4511
100
AcDbEntity
  8
AM_5
 62
     2
100
AcDbMText
 10
-149.7947004505847
 20
0.0000000000000413
 30
0.0
 40
3.2
 41
0.0
 71
     5
 72
     1
  1
%%c32
  7
ASAMI
 11
0.0000000000000001
 21
1.0
 31
0.0
1001
ACAD
1000
MTEXTBEGIN
1070
    73
1070
     1
1070
    44
1040
1.0
1070
    74
1070
     0
1000
MTEXTEND
  0
POINT
  5
4547
330
4511
100
AcDbEntity
  8
DEFPOINTS
 62
     0
100
AcDbPoint
 10
-128.4999999999999
 20
16.00000000000015
 30
0.0
  0
POINT
  5
4548
330
4511
100
AcDbEntity
  8
DEFPOINTS
 62
     0
100
AcDbPoint
 10
-128.4999999999998
 20
-16.00000000000003
 30
0.0
  0
POINT
  5
4549
330
4511
100
AcDbEntity
  8
DEFPOINTS
 62
     0
100
AcDbPoint
 10
-146.6947004505847
 20
-16.00000000000003
 30
0.0
  0
ENDBLK
  5
451C
330
4511
100
AcDbEntity
  8
0
100
AcDbBlockEnd
  0
ENDSEC
  0
SECTION
  2
ENTITIES
  0
TEXT
  5
1500
330
1F
100
AcDbEntity
  8
AM_6
100
AcDbText
 10
-81.66666666666655
 20
-64.50000100000017
 30
0.0
 40
5.0
  1
HSM4320
 72
     4
 11
-64.9999999999999
 21
-62.00000100000017
 31
0.0
100
AcDbText
  0
DIMENSION
  5
424D
330
1F
100
AcDbEntity
  8
AM_5
100
AcDbDimension
  2
*D5
 10
-129.9999999999998
 20
-42.00000100000017
 30
0.0
 11
-64.99999999999992
 21
-38.90000100000016
 31
0.0
 70
    32
  1
<>
  3
AM_JIS
100
AcDbAlignedDimension
 13
0.0
 23
-8.999999999999985
 33
0.0
 14
-129.9999999999998
 24
-14.50000000000006
 34
0.0
100
AcDbRotatedDimension
1001
GENIUS_GENDTOL_13
1000

1000
h7
1000

1040
0.0
  0
LINE
  5
424E
330
1F
100
AcDbEntity
  8
AM_7
  6
AM_ISO08W050X2
100
AcDbLine
 10
4.557768030855186
 20
0.0
 30
0.0
 11
-132.6946994505847
 21
-0.0000000000000426
 31
0.0
1001
GENIUS_GENODEF_13
1002
{
1000
HIER
1070
     0
1002
}
1002
{
1000
MANEDIT
1070
     0
1002
}
1002
{
1000
NOSEL
1070
     0
1002
}
1002
{
1000
BEHIND
1070
     0
1002
}
1002
{
1000
REACTOR
1002
}
1001
GENIUS_GENOBJ-N-CEN_13
1002
{
1000
OWNER
1000
GEN
1002
}
  0
DIMENSION
  5
4255
330
1F
100
AcDbEntity
  8
AM_5
100
AcDbDimension
  2
*D6
 10
-55.0
 20
-30.00000100000017
 30
0.0
 11
-27.49999999999999
 21
-26.90000100000017
 31
0.0
 70
    32
  1
<>
  3
AM_JIS
100
AcDbAlignedDimension
 13
0.0000000000000142
 23
-15.99999999999997
 33
0.0
 14
-55.0
 24
-15.99999999999997
 34
0.0
100
AcDbRotatedDimension
1001
GENIUS_GENDTOL_13
1000

1000
h7
1000

1040
0.0
  0
LINE
  5
4277
330
1F
100
AcDbEntity
  8
AM_11
100
AcDbLine
 10
-55.0
 20
-15.99999999999997
 30
0.0
 11
0.0
 21
-15.99999999999997
 31
0.0
  0
LINE
  5
4278
330
1F
100
AcDbEntity
  8
AM_11
100
AcDbLine
 10
0.0
 20
16.00000000000002
 30
0.0
 11
-55.0
 21
16.00000000000002
 31
0.0
  0
DIMENSION
  5
4288
330
1F
100
AcDbEntity
  8
AM_5
100
AcDbDimension
  2
*D7
 10
18.55776903085518
 20
-15.99999999999997
 30
0.0
 11
15.45776903085518
 21
0.0000000000000241
 31
0.0
 70
    32
  1
%%c<>
  3
AM_JIS
100
AcDbAlignedDimension
 13
0.0
 23
16.00000000000002
 33
0.0
 14
0.0
 24
-15.99999999999997
 34
0.0
 50
90.0
100
AcDbRotatedDimension
1001
GENIUS_GENDTOL_13
1000

1000
h7
1000

1040
0.0
  0
LINE
  5
4289
330
1F
100
AcDbEntity
  8
AM_11
100
AcDbLine
 10
0.0
 20
16.00000000000002
 30
0.0
 11
0.0
 21
-15.99999999999997
 31
0.0
  0
LINE
  5
450B
330
1F
100
AcDbEntity
  8
AM_0
100
AcDbLine
 10
-63.65771995670025
 20
-15.99999999999999
 30
0.0
 11
-128.4999999999998
 21
-16.00000000000006
 31
0.0
  0
LINE
  5
450E
330
1F
100
AcDbEntity
  8
AM_0
100
AcDbLine
 10
-128.4999999999999
 20
15.99999999999992
 30
0.0
 11
-128.4999999999998
 21
-16.00000000000017
 31
0.0
  0
LINE
  5
450F
330
1F
100
AcDbEntity
  8
AM_0
100
AcDbLine
 10
-130.0
 20
14.50000000000001
 30
0.0
 11
-129.9999999999998
 21
-14.50000000000006
 31
0.0
  0
DIMENSION
  5
4510
330
1F
100
AcDbEntity
  8
AM_5
100
AcDbDimension
  2
*D8
 10
-146.6947004505847
 20
-16.00000000000003
 30
0.0
 11
-149.7947004505847
 21
0.0000000000000413
 31
0.0
 70
    32
  1
%%c<>
  3
AM_JIS
100
AcDbAlignedDimension
 13
-128.4999999999999
 23
16.00000000000015
 33
0.0
 14
-128.4999999999998
 24
-16.00000000000003
 34
0.0
 50
270.0
100
AcDbRotatedDimension
1001
GENIUS_GENDTOL_13
1000

1000
h7
1000

1040
0.0
  0
LINE
  5
451D
330
1F
100
AcDbEntity
  8
AM_0
100
AcDbLine
 10
-66.65903272107829
 20
16.00000000000119
 30
0.0
 11
-128.5
 21
16.00000000000004
 31
0.0
  0
LINE
  5
4529
330
1F
100
AcDbEntity
  8
AM_0
100
AcDbLine
 10
-130.0
 20
14.50000000000001
 30
0.0
 11
-128.5
 21
16.00000000000004
 31
0.0
1001
GENIUS_GENFIL_13
1070
     0
1040
1.5
1040
1.5
1040
20.0
1040
0.0
1002
{
1002
}
1001
GENIUS_GENODEF_13
1002
{
1000
HIER
1070
     0
1002
}
1002
{
1000
MANEDIT
1070
     0
1002
}
1002
{
1000
NOSEL
1070
     0
1002
}
1002
{
1000
BEHIND
1070
     0
1002
}
1002
{
1000
REACTOR
1002
}
1001
GENIUS_GENOBJ-N-CHA_13
1002
{
1000
OWNER
1000
GEN
1002
}
  0
LINE
  5
4536
330
1F
100
AcDbEntity
  8
AM_0
100
AcDbLine
 10
-129.9999999999998
 20
-14.50000000000006
 30
0.0
 11
-128.4999999999998
 21
-16.00000000000006
 31
0.0
1001
GENIUS_GENFIL_13
1070
     0
1040
1.5
1040
1.5
1040
20.0
1040
0.0
1002
{
1002
}
1001
GENIUS_GENODEF_13
1002
{
1000
HIER
1070
     0
1002
}
1002
{
1000
MANEDIT
1070
     0
1002
}
1002
{
1000
NOSEL
1070
     0
1002
}
1002
{
1000
BEHIND
1070
     0
1002
}
1002
{
1000
REACTOR
1002
}
1001
GENIUS_GENOBJ-N-CHA_13
1002
{
1000
OWNER
1000
GEN
1002
}
  0
LINE
  5
4844
330
1F
100
AcDbEntity
  8
AM_11
100
AcDbLine
 10
-55.0
 20
16.00000000000002
 30
0.0
 11
-55.0
 21
-15.99999999999997
 31
0.0
  0
SPLINE
  5
499E
330
1F
100
AcDbEntity
  8
AM_0
100
AcDbSpline
210
0.0
220
0.0
230
1.0
 70
     8
 71
     3
 72
     8
 73
     4
 74
     0
 42
0.0000000001
 43
0.0000000001
 40
1.335037241116488
 40
1.335037241116488
 40
1.335037241116488
 40
1.335037241116488
 40
6.452065446090842
 40
6.452065446090842
 40
6.452065446090842
 40
6.452065446090842
 10
-0.4785067234859178
 20
-14.20460813150674
 30
0.0
 10
-4.110835105535837
 20
-11.73449021909738
 30
0.0
 10
-7.091956335669999
 20
-5.867245109547468
 30
0.0
 10
-10.07307756580415
 20
0.0000000000022453
 30
0.0
  0
SPLINE
  5
499F
330
1F
100
AcDbEntity
  8
AM_0
100
AcDbSpline
210
0.0
220
0.0
230
1.0
 70
     8
 71
     3
 72
     8
 73
     4
 74
     0
 42
0.0000000001
 43
0.0000000001
 40
0.2792346998959001
 40
0.2792346998959001
 40
0.2792346998959001
 40
0.2792346998959001
 40
6.616360992657454
 40
6.616360992657454
 40
6.616360992657454
 40
6.616360992657454
 10
-0.000000000000032
 20
-15.57128129211207
 30
0.0
 10
-5.525765250044091
 20
-14.86617849566767
 30
0.0
 10
-9.042098154025767
 20
-7.43308924783281
 30
0.0
 10
-12.55843105800744
 20
0.0000000000019043
 30
0.0
  0
SPLINE
  5
49A0
330
1F
100
AcDbEntity
  8
AM_0
100
AcDbSpline
210
0.0
220
0.0
230
1.0
 70
     8
 71
     3
 72
     8
 73
     4
 74
     2
 42
0.0000000001
 43
0.0000000001
 44
0.0000000001
 12
-1.0
 22
0.0000000000000001
 32
0.0
 40
0.0
 40
0.0
 40
0.0
 40
0.0
 40
20.87007426915147
 40
20.87007426915147
 40
20.87007426915147
 40
20.87007426915147
 10
-1.599999999997123
 20
-15.99999999999755
 30
0.0
 10
-8.556691423047613
 20
-15.99999999999755
 30
0.0
 10
-11.77834571152091
 20
-7.999999999997926
 30
0.0
 10
-14.99999999999421
 20
0.0000000000017053
 30
0.0
 11
-1.599999999997123
 21
-15.99999999999755
 31
0.0
 11
-14.99999999999421
 21
0.0000000000017053
 31
0.0
  0
SPLINE
  5
49A1
330
1F
100
AcDbEntity
  8
AM_0
100
AcDbSpline
210
0.0
220
0.0
230
1.0
 70
     8
 71
     3
 72
     8
 73
     4
 74
     2
 42
0.0000000001
 43
0.0000000001
 44
0.0000000001
 12
1.0
 22
-0.0000000000000002
 32
0.0
 40
0.0
 40
0.0
 40
0.0
 40
0.0
 40
21.52579847531988
 40
21.52579847531988
 40
21.52579847531988
 40
21.52579847531988
 10
-29.39999999999711
 20
16.0000000000017
 30
0.0
 10
-22.22473384155715
 20
16.0000000000017
 30
0.0
 10
-18.61236692077568
 20
8.000000000001705
 30
0.0
 10
-14.99999999999421
 20
0.0000000000017053
 30
0.0
 11
-29.39999999999711
 21
16.0000000000017
 31
0.0
 11
-14.99999999999421
 21
0.0000000000017053
 31
0.0
  0
SPLINE
  5
49A2
330
1F
100
AcDbEntity
  8
AM_0
100
AcDbSpline
210
0.0
220
0.0
230
1.0
 70
     8
 71
     3
 72
     8
 73
     4
 74
     0
 42
0.0000000001
 43
0.0000000001
 40
0.157854605497133
 40
0.157854605497133
 40
0.157854605497133
 40
0.157854605497133
 40
6.616360992657454
 40
6.616360992657454
 40
6.616360992657454
 40
6.616360992657454
 10
-26.45903272107247
 20
15.5080844078179
 30
0.0
 10
-19.72579919005514
 20
15.15092241046611
 30
0.0
 10
-16.14211512402983
 20
7.575461205233722
 30
0.0
 10
-12.55843105800744
 20
0.0000000000013358
 30
0.0
  0
SPLINE
  5
49A3
330
1F
100
AcDbEntity
  8
AM_0
100
AcDbSpline
210
0.0
220
0.0
230
1.0
 70
     8
 71
     3
 72
     8
 73
     4
 74
     0
 42
0.0000000001
 43
0.0000000001
 40
0.3982504941345976
 40
0.3982504941345976
 40
0.3982504941345976
 40
0.3982504941345976
 40
6.452065446090842
 40
6.452065446090842
 40
6.452065446090842
 40
6.452065446090842
 10
-23.23364005527113
 20
14.71321159205206
 30
0.0
 10
-17.12684219389051
 20
13.88275176457361
 30
0.0
 10
-13.59995987984587
 20
6.941375882287928
 30
0.0
 10
-10.07307756580415
 20
0.0000000000020748
 30
0.0
  0
SPLINE
  5
49A4
330
1F
100
AcDbEntity
  8
AM_0
100
AcDbSpline
210
0.0
220
0.0
230
1.0
 70
     8
 71
     3
 72
     8
 73
     4
 74
     2
 42
0.0000000001
 43
0.0000000001
 44
0.0000000001
 12
1.0
 22
-0.0000000000000002
 32
0.0
 40
0.0
 40
0.0
 40
0.0
 40
0.0
 40
21.52579847531793
 40
21.52579847531793
 40
21.52579847531793
 40
21.52579847531793
 10
-15.99999999999421
 20
16.0000000000017
 30
0.0
 10
-8.824733841554898
 20
16.0000000000017
 30
0.0
 10
-5.212366920774556
 20
8.000000000001705
 30
0.0
 10
-1.599999999994214
 20
0.0000000000017053
 30
0.0
 11
-15.99999999999421
 21
16.0000000000017
 31
0.0
 11
-1.599999999994214
 21
0.0000000000017053
 31
0.0
  0
SPLINE
  5
49A5
330
1F
100
AcDbEntity
  8
AM_0
100
AcDbSpline
210
0.0
220
0.0
230
1.0
 70
     8
 71
     3
 72
     8
 73
     4
 74
     0
 42
0.0000000001
 43
0.0000000001
 40
0.157854605497133
 40
0.157854605497133
 40
0.157854605497133
 40
0.157854605497133
 40
5.969429285227189
 40
5.969429285227189
 40
5.969429285227189
 40
5.969429285227189
 10
-13.05903272106955
 20
15.5080844078179
 30
0.0
 10
-7.000249597565593
 20
15.18669839440505
 30
0.0
 10
-3.491652681541783
 20
9.02066466676905
 30
0.0
 10
-0.2385012537765228
 20
2.269187850835322
 30
0.0
  0
SPLINE
  5
49A6
330
1F
100
AcDbEntity
  8
AM_0
100
AcDbSpline
210
0.0
220
0.0
230
1.0
 70
     8
 71
     3
 72
     8
 73
     4
 74
     0
 42
0.0000000001
 43
0.0000000001
 40
0.3982504941345976
 40
0.3982504941345976
 40
0.3982504941345976
 40
0.3982504941345976
 40
3.593152844925358
 40
3.593152844925358
 40
3.593152844925358
 40
3.593152844925358
 10
-9.833640055268221
 20
14.71321159205206
 30
0.0
 10
-6.610775960814532
 20
14.27493621097335
 30
0.0
 10
-4.106470785025191
 20
12.13464649964996
 30
0.0
 10
-1.94150487935698
 20
9.190580945371834
 30
0.0
  0
SPLINE
  5
49A7
330
1F
100
AcDbEntity
  8
AM_0
100
AcDbSpline
210
0.0
220
0.0
230
1.0
 70
     8
 71
     3
 72
     8
 73
     4
 74
     0
 42
0.0000000001
 43
0.0000000001
 40
0.0
 40
0.0
 40
0.0
 40
0.0
 40
1.274172826456642
 40
1.274172826456642
 40
1.274172826456642
 40
1.274172826456642
 10
-11.5584310580118
 20
-15.52123138542495
 30
0.0
 10
-10.19931337645687
 20
-15.52123138542495
 30
0.0
 10
-8.965777876602112
 20
-15.23341569218129
 30
0.0
 10
-7.833640055272587
 20
-14.71321159204774
 30
0.0
  0
SPLINE
  5
49A8
330
1F
100
AcDbEntity
  8
AM_0
100
AcDbSpline
210
0.0
220
0.0
230
1.0
 70
     8
 71
     3
 72
     8
 73
     4
 74
     0
 42
0.0000000001
 43
0.0000000001
 40
0.0
 40
0.0
 40
0.0
 40
0.0
 40
0.9875149967633806
 40
0.9875149967633806
 40
0.9875149967633806
 40
0.9875149967633806
 10
-14.00000000000003
 20
-15.99999999999755
 30
0.0
 10
-12.94665067011814
 20
-15.99999999999755
 30
0.0
 10
-11.97008562728009
 20
-15.82759144860168
 30
0.0
 10
-11.05903272136059
 20
-15.50808440791345
 30
0.0
  0
SPLINE
  5
49A9
330
1F
100
AcDbEntity
  8
AM_0
100
AcDbSpline
210
0.0
220
0.0
230
1.0
 70
     8
 71
     3
 72
     8
 73
     4
 74
     0
 42
0.0000000001
 43
0.0000000001
 40
0.0
 40
0.0
 40
0.0
 40
0.0
 40
0.8611065156852788
 40
0.8611065156852788
 40
0.8611065156852788
 40
0.8611065156852788
 10
-9.073077565808523
 20
-14.79602922581736
 30
0.0
 10
-8.154563949077472
 20
-14.79602922581736
 30
0.0
 10
-7.291683088913034
 20
-14.66425471652165
 30
0.0
 10
-6.477010118105214
 20
-14.41829260703769
 30
0.0
  0
SPLINE
  5
49AA
330
1F
100
AcDbEntity
  8
AM_0
100
AcDbSpline
210
0.0
220
0.0
230
1.0
 70
     8
 71
     3
 72
     8
 73
     4
 74
     2
 42
0.0000000001
 43
0.0000000001
 44
0.0000000001
 12
-1.0
 22
0.0000000000000001
 32
0.0
 40
0.0
 40
0.0
 40
0.0
 40
0.0
 40
20.64660942749074
 40
20.64660942749074
 40
20.64660942749074
 40
20.64660942749074
 10
-9.073077565804156
 20
-14.79602922581736
 30
0.0
 10
-15.95528070830107
 20
-14.79602922581736
 30
0.0
 10
-19.71417913705334
 20
-7.398014612907559
 30
0.0
 10
-23.47307756580561
 20
0.0000000000022453
 30
0.0
 11
-9.073077565804156
 21
-14.79602922581736
 31
0.0
 11
-23.47307756580561
 21
0.0000000000022453
 31
0.0
  0
SPLINE
  5
49AB
330
1F
100
AcDbEntity
  8
AM_0
100
AcDbSpline
210
0.0
220
0.0
230
1.0
 70
     8
 71
     3
 72
     8
 73
     4
 74
     2
 42
0.0000000001
 43
0.0000000001
 44
0.0000000001
 12
-1.0
 22
0.0000000000000001
 32
0.0
 40
0.0
 40
0.0
 40
0.0
 40
0.0
 40
21.17235517650399
 40
21.17235517650399
 40
21.17235517650399
 40
21.17235517650399
 10
-11.55843105800744
 20
-15.52123138542603
 30
0.0
 10
-18.61588278350877
 20
-15.52123138542603
 30
0.0
 10
-22.28715692075883
 20
-7.760615692712065
 30
0.0
 10
-25.9584310580089
 20
0.0000000000019043
 30
0.0
 11
-11.55843105800744
 21
-15.52123138542603
 31
0.0
 11
-25.9584310580089
 21
0.0000000000019043
 31
0.0
  0
SPLINE
  5
49AC
330
1F
100
AcDbEntity
  8
AM_0
100
AcDbSpline
210
0.0
220
0.0
230
1.0
 70
     8
 71
     3
 72
     8
 73
     4
 74
     2
 42
0.0000000001
 43
0.0000000001
 44
0.0000000001
 12
-1.0
 22
0.0000000000000001
 32
0.0
 40
0.0
 40
0.0
 40
0.0
 40
0.0
 40
21.5257984753189
 40
21.5257984753189
 40
21.5257984753189
 40
21.5257984753189
 10
-13.99999999999566
 20
-15.99999999999829
 30
0.0
 10
-21.1752661584353
 20
-15.99999999999829
 30
0.0
 10
-24.78763307921621
 20
-7.999999999998293
 30
0.0
 10
-28.39999999999712
 20
0.0000000000017053
 30
0.0
 11
-13.99999999999566
 21
-15.99999999999829
 31
0.0
 11
-28.39999999999712
 21
0.0000000000017053
 31
0.0
  0
SPLINE
  5
49AD
330
1F
100
AcDbEntity
  8
AM_0
100
AcDbSpline
210
0.0
220
0.0
230
1.0
 70
     8
 71
     3
 72
     8
 73
     4
 74
     0
 42
0.0000000001
 43
0.0000000001
 40
0.0
 40
0.0
 40
0.0
 40
0.0
 40
2.064174349630627
 40
2.064174349630627
 40
2.064174349630627
 40
2.064174349630627
 10
-1.599999999988394
 20
15.99999999999806
 30
0.0
 10
-3.801785972929824
 20
15.99999999999843
 30
0.0
 10
-5.668083389580747
 20
15.24670660849887
 30
0.0
 10
-7.301839510852039
 20
13.97127373481586
 30
0.0
  0
SPLINE
  5
49AE
330
1F
100
AcDbEntity
  8
AM_0
100
AcDbSpline
210
0.0
220
0.0
230
1.0
 70
     8
 71
     3
 72
     8
 73
     4
 74
     0
 42
0.0000000001
 43
0.0000000001
 40
0.0
 40
0.0
 40
0.0
 40
0.0
 40
1.915308258249046
 40
1.915308258249046
 40
1.915308258249046
 40
1.915308258249046
 10
-15.9999999999913
 20
16.0000000000017
 30
0.0
 10
-18.04299547545619
 20
16.00000000000238
 30
0.0
 10
-19.79714763693574
 20
15.35144208192689
 30
0.0
 10
-21.3446981142959
 20
14.23898850957857
 30
0.0
  0
SPLINE
  5
49AF
330
1F
100
AcDbEntity
  8
AM_0
100
AcDbSpline
210
0.0
220
0.0
230
1.0
 70
     8
 71
     3
 72
     8
 73
     4
 74
     0
 42
0.0000000001
 43
0.0000000001
 40
0.0
 40
0.0
 40
0.0
 40
0.0
 40
0.9875149967633806
 40
0.9875149967633806
 40
0.9875149967633806
 40
0.9875149967633806
 10
-27.40000000000148
 20
-15.99999999999755
 30
0.0
 10
-26.34665067011959
 20
-15.99999999999755
 30
0.0
 10
-25.37008562728008
 20
-15.82759144860168
 30
0.0
 10
-24.45903272136205
 20
-15.50808440791345
 30
0.0
  0
SPLINE
  5
49B0
330
1F
100
AcDbEntity
  8
AM_0
100
AcDbSpline
210
0.0
220
0.0
230
1.0
 70
     8
 71
     3
 72
     8
 73
     4
 74
     0
 42
0.0000000001
 43
0.0000000001
 40
0.0
 40
0.0
 40
0.0
 40
0.0
 40
1.274172826456642
 40
1.274172826456642
 40
1.274172826456642
 40
1.274172826456642
 10
-24.95843105801326
 20
-15.52123138542495
 30
0.0
 10
-23.59931337645979
 20
-15.52123138542495
 30
0.0
 10
-22.36577787660356
 20
-15.23341569218129
 30
0.0
 10
-21.23364005527404
 20
-14.71321159204774
 30
0.0
  0
SPLINE
  5
49B1
330
1F
100
AcDbEntity
  8
AM_0
100
AcDbSpline
210
0.0
220
0.0
230
1.0
 70
     8
 71
     3
 72
     8
 73
     4
 74
     2
 42
0.0000000001
 43
0.0000000001
 44
0.0000000001
 12
-1.0
 22
0.0000000000000001
 32
0.0
 40
0.0
 40
0.0
 40
0.0
 40
0.0
 40
20.64660942748973
 40
20.64660942748973
 40
20.64660942748973
 40
20.64660942748973
 10
-22.47307756580706
 20
-14.79602922581736
 30
0.0
 10
-29.35528070830364
 20
-14.79602922581736
 30
0.0
 10
-33.11417913705536
 20
-7.398014612907558
 30
0.0
 10
-36.87307756580706
 20
0.0000000000022453
 30
0.0
 11
-22.47307756580706
 21
-14.79602922581736
 31
0.0
 11
-36.87307756580706
 21
0.0000000000022453
 31
0.0
  0
SPLINE
  5
49B2
330
1F
100
AcDbEntity
  8
AM_0
100
AcDbSpline
210
0.0
220
0.0
230
1.0
 70
     8
 71
     3
 72
     8
 73
     4
 74
     0
 42
0.0000000001
 43
0.0000000001
 40
0.0
 40
0.0
 40
0.0
 40
0.0
 40
1.051109913173972
 40
1.051109913173972
 40
1.051109913173972
 40
1.051109913173972
 10
-22.47307756580998
 20
-14.79602922581736
 30
0.0
 10
-21.3518936584243
 20
-14.79602922581736
 30
0.0
 10
-20.31360184158014
 20
-14.59968690467921
 30
0.0
 10
-19.34469811429916
 20
-14.23898850957414
 30
0.0
  0
SPLINE
  5
49B3
330
1F
100
AcDbEntity
  8
AM_0
100
AcDbSpline
210
0.0
220
0.0
230
1.0
 70
     8
 71
     3
 72
     8
 73
     4
 74
     2
 42
0.0000000001
 43
0.0000000001
 44
0.0000000001
 12
-1.0
 22
0.0000000000000001
 32
0.0
 40
0.0
 40
0.0
 40
0.0
 40
0.0
 40
21.17235517650299
 40
21.17235517650299
 40
21.17235517650299
 40
21.17235517650299
 10
-24.95843105801035
 20
-15.52123138542603
 30
0.0
 10
-32.01588278351135
 20
-15.52123138542603
 30
0.0
 10
-35.68715692076084
 20
-7.760615692712065
 30
0.0
 10
-39.35843105801035
 20
0.0000000000019043
 30
0.0
 11
-24.95843105801035
 21
-15.52123138542603
 31
0.0
 11
-39.35843105801035
 21
0.0000000000019043
 31
0.0
  0
SPLINE
  5
49B4
330
1F
100
AcDbEntity
  8
AM_0
100
AcDbSpline
210
0.0
220
0.0
230
1.0
 70
     8
 71
     3
 72
     8
 73
     4
 74
     2
 42
0.0000000001
 43
0.0000000001
 44
0.0000000001
 12
-1.0
 22
0.0000000000000001
 32
0.0
 40
0.0
 40
0.0
 40
0.0
 40
0.0
 40
21.52579847531891
 40
21.52579847531891
 40
21.52579847531891
 40
21.52579847531891
 10
-27.39999999999711
 20
-15.99999999999829
 30
0.0
 10
-34.57526615843675
 20
-15.99999999999829
 30
0.0
 10
-38.18763307921766
 20
-7.999999999998293
 30
0.0
 10
-41.79999999999857
 20
0.0000000000017053
 30
0.0
 11
-27.39999999999711
 21
-15.99999999999829
 31
0.0
 11
-41.79999999999857
 21
0.0000000000017053
 31
0.0
  0
SPLINE
  5
49B5
330
1F
100
AcDbEntity
  8
AM_0
100
AcDbSpline
210
0.0
220
0.0
230
1.0
 70
     8
 71
     3
 72
     8
 73
     4
 74
     0
 42
0.0000000001
 43
0.0000000001
 40
0.0
 40
0.0
 40
0.0
 40
0.0
 40
1.915308258248965
 40
1.915308258248965
 40
1.915308258248965
 40
1.915308258248965
 10
-29.39999999999275
 20
16.0000000000017
 30
0.0
 10
-31.44299547545891
 20
16.00000000000238
 30
0.0
 10
-33.19714763693848
 20
15.35144208192693
 30
0.0
 10
-34.74469811429745
 20
14.23898850957873
 30
0.0
  0
SPLINE
  5
49B6
330
1F
100
AcDbEntity
  8
AM_0
100
AcDbSpline
210
0.0
220
0.0
230
1.0
 70
     8
 71
     3
 72
     8
 73
     4
 74
     2
 42
0.0000000001
 43
0.0000000001
 44
0.0000000001
 12
1.0
 22
-0.0000000000000002
 32
0.0
 40
0.0
 40
0.0
 40
0.0
 40
0.0
 40
21.52579847531793
 40
21.52579847531793
 40
21.52579847531793
 40
21.52579847531793
 10
-42.79999999999712
 20
16.0000000000017
 30
0.0
 10
-35.6247338415578
 20
16.0000000000017
 30
0.0
 10
-32.01236692077745
 20
8.000000000001705
 30
0.0
 10
-28.39999999999712
 20
0.0000000000017053
 30
0.0
 11
-42.79999999999712
 21
16.0000000000017
 31
0.0
 11
-28.39999999999712
 21
0.0000000000017053
 31
0.0
  0
SPLINE
  5
49B7
330
1F
100
AcDbEntity
  8
AM_0
100
AcDbSpline
210
0.0
220
0.0
230
1.0
 70
     8
 71
     3
 72
     8
 73
     4
 74
     0
 42
0.0000000001
 43
0.0000000001
 40
0.157854605497133
 40
0.157854605497133
 40
0.157854605497133
 40
0.157854605497133
 40
6.616360992657454
 40
6.616360992657454
 40
6.616360992657454
 40
6.616360992657454
 10
-39.85903272107391
 20
15.5080844078179
 30
0.0
 10
-33.12579919005514
 20
15.15092241046611
 30
0.0
 10
-29.54211512403274
 20
7.575461205233722
 30
0.0
 10
-25.9584310580089
 20
0.0000000000013358
 30
0.0
  0
SPLINE
  5
49B8
330
1F
100
AcDbEntity
  8
AM_0
100
AcDbSpline
210
0.0
220
0.0
230
1.0
 70
     8
 71
     3
 72
     8
 73
     4
 74
     0
 42
0.0000000001
 43
0.0000000001
 40
0.3982504941345976
 40
0.3982504941345976
 40
0.3982504941345976
 40
0.3982504941345976
 40
6.452065446090842
 40
6.452065446090842
 40
6.452065446090842
 40
6.452065446090842
 10
-36.63364005527258
 20
14.71321159205206
 30
0.0
 10
-30.52684219389051
 20
13.88275176457361
 30
0.0
 10
-26.99995987984878
 20
6.941375882287928
 30
0.0
 10
-23.47307756580561
 20
0.0000000000020748
 30
0.0
  0
SPLINE
  5
49B9
330
1F
100
AcDbEntity
  8
AM_0
100
AcDbSpline
210
0.0
220
0.0
230
1.0
 70
     8
 71
     3
 72
     8
 73
     4
 74
     0
 42
0.0000000001
 43
0.0000000001
 40
0.0
 40
0.0
 40
0.0
 40
0.0
 40
0.9875149967633806
 40
0.9875149967633806
 40
0.9875149967633806
 40
0.9875149967633806
 10
-40.80000000000294
 20
-15.99999999999755
 30
0.0
 10
-39.7466506701225
 20
-15.99999999999755
 30
0.0
 10
-38.77008562728299
 20
-15.82759144860168
 30
0.0
 10
-37.8590327213635
 20
-15.50808440791345
 30
0.0
  0
SPLINE
  5
49BA
330
1F
100
AcDbEntity
  8
AM_0
100
AcDbSpline
210
0.0
220
0.0
230
1.0
 70
     8
 71
     3
 72
     8
 73
     4
 74
     0
 42
0.0000000001
 43
0.0000000001
 40
0.0
 40
0.0
 40
0.0
 40
0.0
 40
1.274172826456642
 40
1.274172826456642
 40
1.274172826456642
 40
1.274172826456642
 10
-38.35843105801616
 20
-15.52123138542495
 30
0.0
 10
-36.99931337646124
 20
-15.52123138542495
 30
0.0
 10
-35.76577787660648
 20
-15.23341569218129
 30
0.0
 10
-34.63364005527695
 20
-14.71321159204774
 30
0.0
  0
SPLINE
  5
49BB
330
1F
100
AcDbEntity
  8
AM_0
100
AcDbSpline
210
0.0
220
0.0
230
1.0
 70
     8
 71
     3
 72
     8
 73
     4
 74
     2
 42
0.0000000001
 43
0.0000000001
 44
0.0000000001
 12
-1.0
 22
0.0000000000000001
 32
0.0
 40
0.0
 40
0.0
 40
0.0
 40
0.0
 40
20.64660942749076
 40
20.64660942749076
 40
20.64660942749076
 40
20.64660942749076
 10
-35.87307756580851
 20
-14.79602922581736
 30
0.0
 10
-42.75528070830543
 20
-14.79602922581736
 30
0.0
 10
-46.51417913705771
 20
-7.398014612907558
 30
0.0
 10
-50.27307756580999
 20
0.0000000000022453
 30
0.0
 11
-35.87307756580851
 21
-14.79602922581736
 31
0.0
 11
-50.27307756580999
 21
0.0000000000022453
 31
0.0
  0
SPLINE
  5
49BC
330
1F
100
AcDbEntity
  8
AM_0
100
AcDbSpline
210
0.0
220
0.0
230
1.0
 70
     8
 71
     3
 72
     8
 73
     4
 74
     0
 42
0.0000000001
 43
0.0000000001
 40
0.0
 40
0.0
 40
0.0
 40
0.0
 40
1.051109913174166
 40
1.051109913174166
 40
1.051109913174166
 40
1.051109913174166
 10
-35.87307756581288
 20
-14.79602922581736
 30
0.0
 10
-34.75189365842581
 20
-14.79602922581736
 30
0.0
 10
-33.71360184158126
 20
-14.59968690467911
 30
0.0
 10
-32.74469811430087
 20
-14.23898850957394
 30
0.0
  0
SPLINE
  5
49BD
330
1F
100
AcDbEntity
  8
AM_0
100
AcDbSpline
210
0.0
220
0.0
230
1.0
 70
     8
 71
     3
 72
     8
 73
     4
 74
     2
 42
0.0000000001
 43
0.0000000001
 44
0.0000000001
 12
-1.0
 22
0.0000000000000001
 32
0.0
 40
0.0
 40
0.0
 40
0.0
 40
0.0
 40
21.17235517650399
 40
21.17235517650399
 40
21.17235517650399
 40
21.17235517650399
 10
-38.3584310580118
 20
-15.52123138542603
 30
0.0
 10
-45.41588278351313
 20
-15.52123138542603
 30
0.0
 10
-49.0871569207632
 20
-7.760615692712065
 30
0.0
 10
-52.75843105801327
 20
0.0000000000019043
 30
0.0
 11
-38.3584310580118
 21
-15.52123138542603
 31
0.0
 11
-52.75843105801327
 21
0.0000000000019043
 31
0.0
  0
SPLINE
  5
49BE
330
1F
100
AcDbEntity
  8
AM_0
100
AcDbSpline
210
0.0
220
0.0
230
1.0
 70
     8
 71
     3
 72
     8
 73
     4
 74
     2
 42
0.0000000001
 43
0.0000000001
 44
0.0000000001
 12
-1.0
 22
0.0000000000000001
 32
0.0
 40
0.0
 40
0.0
 40
0.0
 40
0.0
 40
21.52579847531793
 40
21.52579847531793
 40
21.52579847531793
 40
21.52579847531793
 10
-40.80000000000002
 20
-15.99999999999829
 30
0.0
 10
-47.97526615843934
 20
-15.99999999999829
 30
0.0
 10
-51.58763307921969
 20
-7.999999999998293
 30
0.0
 10
-55.20000000000003
 20
0.0000000000017053
 30
0.0
 11
-40.80000000000002
 21
-15.99999999999829
 31
0.0
 11
-55.20000000000003
 21
0.0000000000017053
 31
0.0
  0
SPLINE
  5
49BF
330
1F
100
AcDbEntity
  8
AM_0
100
AcDbSpline
210
0.0
220
0.0
230
1.0
 70
     8
 71
     3
 72
     8
 73
     4
 74
     0
 42
0.0000000001
 43
0.0000000001
 40
0.0
 40
0.0
 40
0.0
 40
0.0
 40
1.915308258249056
 40
1.915308258249056
 40
1.915308258249056
 40
1.915308258249056
 10
-42.79999999999421
 20
16.0000000000017
 30
0.0
 10
-44.84299547545912
 20
16.00000000000238
 30
0.0
 10
-46.59714763693866
 20
15.35144208192687
 30
0.0
 10
-48.14469811429884
 20
14.23898850957856
 30
0.0
  0
SPLINE
  5
49C0
330
1F
100
AcDbEntity
  8
AM_0
100
AcDbSpline
210
0.0
220
0.0
230
1.0
 70
     8
 71
     3
 72
     8
 73
     4
 74
     2
 42
0.0000000001
 43
0.0000000001
 44
0.0000000001
 12
1.0
 22
-0.0000000000000002
 32
0.0
 40
0.0
 40
0.0
 40
0.0
 40
0.0
 40
21.52579847531891
 40
21.52579847531891
 40
21.52579847531891
 40
21.52579847531891
 10
-56.20000000000003
 20
16.0000000000017
 30
0.0
 10
-49.02473384156039
 20
16.0000000000017
 30
0.0
 10
-45.41236692077948
 20
8.000000000001705
 30
0.0
 10
-41.79999999999857
 20
0.0000000000017053
 30
0.0
 11
-56.20000000000003
 21
16.0000000000017
 31
0.0
 11
-41.79999999999857
 21
0.0000000000017053
 31
0.0
  0
SPLINE
  5
49C1
330
1F
100
AcDbEntity
  8
AM_0
100
AcDbSpline
210
0.0
220
0.0
230
1.0
 70
     8
 71
     3
 72
     8
 73
     4
 74
     0
 42
0.0000000001
 43
0.0000000001
 40
0.157854605497133
 40
0.157854605497133
 40
0.157854605497133
 40
0.157854605497133
 40
6.616360992657454
 40
6.616360992657454
 40
6.616360992657454
 40
6.616360992657454
 10
-53.25903272107538
 20
15.5080844078179
 30
0.0
 10
-46.52579919005805
 20
15.15092241046611
 30
0.0
 10
-42.9421151240342
 20
7.575461205233722
 30
0.0
 10
-39.35843105801035
 20
0.0000000000013358
 30
0.0
  0
SPLINE
  5
49C2
330
1F
100
AcDbEntity
  8
AM_0
100
AcDbSpline
210
0.0
220
0.0
230
1.0
 70
     8
 71
     3
 72
     8
 73
     4
 74
     0
 42
0.0000000001
 43
0.0000000001
 40
0.3982504941345976
 40
0.3982504941345976
 40
0.3982504941345976
 40
0.3982504941345976
 40
6.452065446090842
 40
6.452065446090842
 40
6.452065446090842
 40
6.452065446090842
 10
-50.03364005527405
 20
14.71321159205206
 30
0.0
 10
-43.92684219389342
 20
13.88275176457361
 30
0.0
 10
-40.39995987985024
 20
6.941375882287928
 30
0.0
 10
-36.87307756580706
 20
0.0000000000020748
 30
0.0
  0
SPLINE
  5
49C3
330
1F
100
AcDbEntity
  8
AM_0
100
AcDbSpline
210
0.0
220
0.0
230
1.0
 70
     8
 71
     3
 72
     8
 73
     4
 74
     0
 42
0.0000000001
 43
0.0000000001
 40
0.0
 40
0.0
 40
0.0
 40
0.0
 40
0.9875149967633806
 40
0.9875149967633806
 40
0.9875149967633806
 40
0.9875149967633806
 10
-54.20000000000586
 20
-15.99999999999755
 30
0.0
 10
-53.14665067012396
 20
-15.99999999999755
 30
0.0
 10
-52.17008562728446
 20
-15.82759144860168
 30
0.0
 10
-51.25903272136643
 20
-15.50808440791345
 30
0.0
  0
SPLINE
  5
49C4
330
1F
100
AcDbEntity
  8
AM_0
100
AcDbSpline
210
0.0
220
0.0
230
1.0
 70
     8
 71
     3
 72
     8
 73
     4
 74
     0
 42
0.0000000001
 43
0.0000000001
 40
0.0
 40
0.0
 40
0.0
 40
0.0
 40
1.274172826456642
 40
1.274172826456642
 40
1.274172826456642
 40
1.274172826456642
 10
-51.75843105801617
 20
-15.52123138542495
 30
0.0
 10
-50.3993133764627
 20
-15.52123138542495
 30
0.0
 10
-49.16577787660648
 20
-15.23341569218129
 30
0.0
 10
-48.03364005527841
 20
-14.71321159204774
 30
0.0
  0
SPLINE
  5
49C5
330
1F
100
AcDbEntity
  8
AM_0
100
AcDbSpline
210
0.0
220
0.0
230
1.0
 70
     8
 71
     3
 72
     8
 73
     4
 74
     0
 42
0.0000000001
 43
0.0000000001
 40
0.0
 40
0.0
 40
0.0
 40
0.0
 40
1.051109913174047
 40
1.051109913174047
 40
1.051109913174047
 40
1.051109913174047
 10
-49.27307756581289
 20
-14.79602922581736
 30
0.0
 10
-48.15189365842832
 20
-14.79602922581736
 30
0.0
 10
-47.11360184158429
 20
-14.59968690467916
 30
0.0
 10
-46.14469811430331
 20
-14.23898850957407
 30
0.0
  0
SPLINE
  5
49C6
330
1F
100
AcDbEntity
  8
AM_0
100
AcDbSpline
210
0.0
220
0.0
230
1.0
 70
     8
 71
     3
 72
     8
 73
     4
 74
     0
 42
0.0000000001
 43
0.0000000001
 40
0.0
 40
0.0
 40
0.0
 40
0.0
 40
1.891263403944138
 40
1.891263403944138
 40
1.891263403944138
 40
1.891263403944138
 10
-56.19999999999713
 20
16.0000000000017
 30
0.0
 10
-58.21734763087014
 20
16.00000000000238
 30
0.0
 10
-59.95305872530444
 20
15.36762390928929
 30
0.0
 10
-61.3827897366616
 20
14.36026683535489
 30
0.0
  0
SPLINE
  5
49C7
330
1F
100
AcDbEntity
  8
AM_0
100
AcDbSpline
210
0.0
220
0.0
230
1.0
 70
     8
 71
     3
 72
     8
 73
     4
 74
     0
 42
0.0000000001
 43
0.0000000001
 40
0.157854605497133
 40
0.157854605497133
 40
0.157854605497133
 40
0.157854605497133
 40
6.616360992657454
 40
6.616360992657454
 40
6.616360992657454
 40
6.616360992657454
 10
-66.65903272107829
 20
16.00000000000008
 30
0.0
 10
-59.92579919005952
 20
15.15092241046611
 30
0.0
 10
-56.34211512403566
 20
7.575461205233722
 30
0.0
 10
-52.75843105801327
 20
0.0000000000013358
 30
0.0
  0
SPLINE
  5
49C8
330
1F
100
AcDbEntity
  8
AM_0
100
AcDbSpline
210
0.0
220
0.0
230
1.0
 70
     8
 71
     3
 72
     8
 73
     4
 74
     0
 42
0.0000000001
 43
0.0000000001
 40
0.3982504941345976
 40
0.3982504941345976
 40
0.3982504941345976
 40
0.3982504941345976
 40
6.452065446090842
 40
6.452065446090842
 40
6.452065446090842
 40
6.452065446090842
 10
-63.3175136067659
 20
14.93048405718775
 30
0.0
 10
-57.32684219389487
 20
13.88275176457361
 30
0.0
 10
-53.7999598798517
 20
6.941375882287928
 30
0.0
 10
-50.27307756580999
 20
0.0000000000020748
 30
0.0
  0
SPLINE
  5
49C9
330
1F
100
AcDbEntity
  8
AM_0
100
AcDbSpline
210
0.0
220
0.0
230
1.0
 70
     8
 71
     3
 72
     8
 73
     4
 74
     0
 42
0.0000000001
 43
0.0000000001
 40
0.0
 40
0.0
 40
0.0
 40
0.0
 40
0.9875149967633806
 40
0.9875149967633806
 40
0.9875149967633806
 40
0.9875149967633806
 10
-54.20000000000316
 20
-15.99999999999937
 30
0.0
 10
-53.14665067012272
 20
-15.99999999999937
 30
0.0
 10
-52.17008562728323
 20
-15.82759144860367
 30
0.0
 10
-51.25903272136373
 20
-15.50808440791527
 30
0.0
  0
SPLINE
  5
49CA
330
1F
100
AcDbEntity
  8
AM_0
100
AcDbSpline
210
0.0
220
0.0
230
1.0
 70
     8
 71
     3
 72
     8
 73
     4
 74
     0
 42
0.0000000001
 43
0.0000000001
 40
0.0
 40
0.0
 40
0.0
 40
0.0
 40
1.274172826456642
 40
1.274172826456642
 40
1.274172826456642
 40
1.274172826456642
 10
-51.75843105801494
 20
-15.52123138542677
 30
0.0
 10
-50.39931337646146
 20
-15.52123138542677
 30
0.0
 10
-49.16577787660523
 20
-15.23341569218331
 30
0.0
 10
-48.03364005527571
 20
-14.71321159204973
 30
0.0
  0
SPLINE
  5
49CB
330
1F
100
AcDbEntity
  8
AM_0
100
AcDbSpline
210
0.0
220
0.0
230
1.0
 70
     8
 71
     3
 72
     8
 73
     4
 74
     0
 42
0.0000000001
 43
0.0000000001
 40
0.0
 40
0.0
 40
0.0
 40
0.0
 40
5.54163154095646
 40
5.54163154095646
 40
5.54163154095646
 40
5.54163154095646
 10
-49.27307756580728
 20
-14.79602922581938
 30
0.0
 10
-55.18415120949528
 20
-14.79602922581935
 30
0.0
 10
-58.79117367428432
 20
-9.33853921039909
 30
0.0
 10
-62.0730775658102
 20
-3.110957200641593
 30
0.0
  0
SPLINE
  5
49CC
330
1F
100
AcDbEntity
  8
AM_0
100
AcDbSpline
210
0.0
220
0.0
230
1.0
 70
     8
 71
     3
 72
     8
 73
     4
 74
     0
 42
0.0000000001
 43
0.0000000001
 40
0.0
 40
0.0
 40
0.0
 40
0.0
 40
1.051109913174042
 40
1.051109913174042
 40
1.051109913174042
 40
1.051109913174042
 10
-49.27307756581164
 20
-14.79602922581938
 30
0.0
 10
-48.15189365842591
 20
-14.79602922581938
 30
0.0
 10
-47.11360184158167
 20
-14.59968690468107
 30
0.0
 10
-46.14469811430064
 20
-14.23898850957598
 30
0.0
  0
SPLINE
  5
49CD
330
1F
100
AcDbEntity
  8
AM_0
100
AcDbSpline
210
0.0
220
0.0
230
1.0
 70
     8
 71
     3
 72
     8
 73
     4
 74
     0
 42
0.0000000001
 43
0.0000000001
 40
0.0
 40
0.0
 40
0.0
 40
0.0
 40
5.726914414331478
 40
5.726914414331478
 40
5.726914414331478
 40
5.726914414331478
 10
-51.75843105801057
 20
-15.52123138542785
 30
0.0
 10
-57.86713976663183
 20
-15.52123138542782
 30
0.0
 10
-61.43889366387473
 20
-9.706908064292747
 30
0.0
 10
-64.66960120968022
 20
-3.110957200614848
 30
0.0
  0
SPLINE
  5
49CE
330
1F
100
AcDbEntity
  8
AM_0
100
AcDbSpline
210
0.0
220
0.0
230
1.0
 70
     8
 71
     3
 72
     8
 73
     4
 74
     0
 42
0.0000000001
 43
0.0000000001
 40
0.0
 40
0.0
 40
0.0
 40
0.0
 40
3.032279494220809
 40
3.032279494220809
 40
3.032279494220809
 40
3.032279494220809
 10
-54.1999999999988
 20
-16.00000000000011
 30
0.0
 10
-57.43443146050147
 20
-16.00000000000008
 30
0.0
 10
-59.94488817912376
 20
-14.37441433262839
 30
0.0
 10
-62.0577199567039
 20
-11.85601657146224
 30
0.0
  0
SPLINE
  5
49CF
330
1F
100
AcDbEntity
  8
AM_0
100
AcDbSpline
210
0.0
220
0.0
230
1.0
 70
     8
 71
     3
 72
     8
 73
     4
 74
     0
 42
0.0000000001
 43
0.0000000001
 40
2.607850398636477
 40
2.607850398636477
 40
2.607850398636477
 40
2.607850398636477
 40
6.726812023537463
 40
6.726812023537463
 40
6.726812023537463
 40
6.726812023537463
 10
-62.6537465536332
 20
12.85903476700255
 30
0.0
 10
-59.62384911892612
 20
9.797120206097105
 30
0.0
 10
-57.41192455946174
 20
4.898560103048495
 30
0.0
 10
-55.19999999999734
 20
-0.0000000000000853
 30
0.0
  0
SPLINE
  5
49D0
330
1F
100
AcDbEntity
  8
AM_0
100
AcDbSpline
210
0.0
220
0.0
230
1.0
 70
     8
 71
     3
 72
     8
 73
     4
 74
     0
 42
0.0000000001
 43
0.0000000001
 40
0.0
 40
0.0
 40
0.0
 40
0.0
 40
1.597243125086987
 40
1.597243125086987
 40
1.597243125086987
 40
1.597243125086987
 10
-1.599999999997127
 20
15.99999999999988
 30
0.0
 10
-1.078215256995495
 20
14.37814212541169
 30
0.0
 10
-1.669199269429409
 20
11.7707353145665
 30
0.0
 10
-2.924862240247637
 20
10.44034377141585
 30
0.0
  0
LINE
  5
49D1
330
1F
100
AcDbEntity
  8
AM_0
100
AcDbLine
 10
-0.000000000000032
 20
0.0000000000002558
 30
0.0
 11
-4.587549637795053
 21
0.0000000000002558
 31
0.0
  0
LINE
  5
49D2
330
1F
100
AcDbEntity
  8
AM_0
100
AcDbLine
 10
-4.587549637795053
 20
-2.560000000000144
 30
0.0
 11
-0.2329409499303772
 21
-2.560000000000144
 31
0.0
  0
LINE
  5
49D3
330
1F
100
AcDbEntity
  8
AM_0
100
AcDbLine
 10
-4.587549637795053
 20
-2.560000000000144
 30
0.0
 11
-1.941504879356976
 21
-4.698593986103617
 31
0.0
  0
ARC
  5
49D6
330
1F
100
AcDbEntity
  8
AM_0
100
AcDbCircle
 10
-41.61150975160005
 20
2.113526059699239
 30
0.0
 40
23.64256346140338
100
AcDbArc
 50
154.3427485787783
 51
192.7664743502497
  0
ARC
  5
49E7
330
1F
100
AcDbEntity
  8
AM_0
100
AcDbCircle
 10
-64.32139727876807
 20
-10.28021563743449
 30
0.0
 40
5.75815949258768
100
AcDbArc
 50
276.6185401226247
 51
320.1325631260581
  0
POLYLINE
  5
49E8
330
1F
100
AcDbEntity
  8
AM_0
100
AcDb2dPolyline
 66
     1
 10
0.0
 20
0.0
 30
0.0
 70
     2
  0
VERTEX
  5
49E9
330
49E8
100
AcDbEntity
  8
AM_0
100
AcDbVertex
100
AcDb2dVertex
 10
-62.05771995670099
 20
-11.85601657146588
 30
0.0
 42
0.0225616673275365
  0
VERTEX
  5
49EA
330
49E8
100
AcDbEntity
  8
AM_0
100
AcDbVertex
100
AcDb2dVertex
 10
-62.46592867322057
 20
-12.20824158125478
 30
0.0
 42
0.0423125101835395
 70
     1
  0
VERTEX
  5
49EB
330
49E8
100
AcDbEntity
  8
AM_0
100
AcDbVertex
100
AcDb2dVertex
 10
-62.65771995670099
 20
-12.42290027812458
 30
0.0
 42
0.0217109162744619
  0
VERTEX
  5
49EC
330
49E8
100
AcDbEntity
  8
AM_0
100
AcDbVertex
100
AcDb2dVertex
 10
-63.1758967785691
 20
-13.17835976618961
 30
0.0
 42
0.0333094259893894
 70
     1
  0
VERTEX
  5
49ED
330
49E8
100
AcDbEntity
  8
AM_0
100
AcDbVertex
100
AcDb2dVertex
 10
-63.45771995670098
 20
-13.70520392915831
 30
0.0
 42
0.0380198083069077
  0
VERTEX
  5
49EE
330
49E8
100
AcDbEntity
  8
AM_0
100
AcDbVertex
100
AcDb2dVertex
 10
-63.61514507534763
 20
-14.1383535851798
 30
0.0
 42
0.0615250772855249
 70
     1
  0
VERTEX
  5
49EF
330
49E8
100
AcDbEntity
  8
AM_0
100
AcDbVertex
100
AcDb2dVertex
 10
-63.65771995670098
 20
-14.42062387353334
 30
0.0
 42
0.0958038443148593
  0
VERTEX
  5
49F0
330
49E8
100
AcDbEntity
  8
AM_0
100
AcDbVertex
100
AcDb2dVertex
 10
-63.62198636259879
 20
-14.63626263154591
 30
0.0
 42
0.057384580605143
 70
     1
  0
VERTEX
  5
49F1
330
49E8
100
AcDbEntity
  8
AM_0
100
AcDbVertex
100
AcDb2dVertex
 10
-63.45771995670098
 20
-14.95973451625476
 30
0.0
 42
0.0905881314495874
  0
VERTEX
  5
49F2
330
49E8
100
AcDbEntity
  8
AM_0
100
AcDbVertex
100
AcDb2dVertex
 10
-63.16288025620476
 20
-15.2667240105934
 30
0.0
 42
0.06706495725993
 70
     1
  0
VERTEX
  5
49F3
330
49E8
100
AcDbEntity
  8
AM_0
100
AcDbVertex
100
AcDb2dVertex
 10
-62.65771995670099
 20
-15.53680096067319
 30
0.0
 42
0.0735990152040616
  0
VERTEX
  5
49F4
330
49E8
100
AcDbEntity
  8
AM_0
100
AcDbVertex
100
AcDb2dVertex
 10
-62.40983061354805
 20
-15.58966484487909
 30
0.0
 42
0.0527936728642789
 70
     1
  0
VERTEX
  5
49F5
330
49E8
100
AcDbEntity
  8
AM_0
100
AcDbVertex
100
AcDb2dVertex
 10
-62.05771995670099
 20
-15.57475676237035
 30
0.0
  0
SEQEND
  5
49F6
330
49E8
100
AcDbEntity
  8
AM_0
  0
LINE
  5
49F9
330
1F
100
AcDbEntity
  8
AM_0
100
AcDbLine
 10
-4.587549637795053
 20
0.0000000000002558
 30
0.0
 11
-4.587549637795053
 21
-2.560000000000144
 31
0.0
  0
LINE
  5
49FA
330
1F
100
AcDbEntity
  8
AM_0
100
AcDbLine
 10
-0.000000000000032
 20
-3.200000000000102
 30
0.0
 11
-1.16470474965175
 21
-0.0000000000000995
 31
0.0
  0
LINE
  5
49FB
330
1F
100
AcDbEntity
  8
AM_11
100
AcDbLine
 10
0.0000000000000142
 20
15.9999999999999
 30
0.0
 11
0.0
 21
-16.00000000000011
 31
0.0
  0
LINE
  5
49FC
330
1F
100
AcDbEntity
  8
AM_0
100
AcDbLine
 10
-0.000000000000032
 20
-15.57128129211207
 30
0.0
 11
-0.000000000000032
 21
15.57128129211277
 31
0.0
  0
ARC
  5
49FD
330
1F
100
AcDbEntity
  8
AM_0
100
AcDbCircle
 10
28.22708107989161
 20
-4.921163468159747
 30
0.0
 40
30.16940695397977
100
AcDbArc
 50
179.5773066515289
 51
200.671562484757
  0
LINE
  5
49FE
330
1F
100
AcDbEntity
  8
AM_0
100
AcDbLine
 10
-0.3363335528498617
 20
-4.246073134602298
 30
0.0
 11
-0.3363335528498617
 21
-14.63324153996939
 31
0.0
  0
LINE
  5
49FF
330
1F
100
AcDbEntity
  8
AM_0
100
AcDbLine
 10
-1.599999999997123
 20
-15.99999999999755
 30
0.0
 11
-0.000000000000032
 21
-15.57128129211207
 31
0.0
  0
LINE
  5
4A00
330
1F
100
AcDbEntity
  8
AM_0
100
AcDbLine
 10
-0.3363335528498617
 20
-4.246073134602298
 30
0.0
 11
-0.000000000000032
 21
-3.200000000000102
 31
0.0
  0
LINE
  5
4A01
330
1F
100
AcDbEntity
  8
AM_0
100
AcDbLine
 10
-1.941504879356976
 20
-4.698593986103617
 30
0.0
 11
-0.3363335528498617
 21
-4.246073134602298
 31
0.0
  0
LINE
  5
4A02
330
1F
100
AcDbEntity
  8
AM_0
100
AcDbLine
 10
-0.3363335528498617
 20
3.200000000000258
 30
0.0
 11
-1.941504879356976
 21
9.190580945372019
 31
0.0
  0
LINE
  5
4A03
330
1F
100
AcDbEntity
  8
AM_0
100
AcDbLine
 10
-0.000000000000032
 20
0.0000000000002558
 30
0.0
 11
-0.3363335528498617
 21
3.200000000000258
 31
0.0
  0
LINE
  5
4A04
330
1F
100
AcDbEntity
  8
AM_0
100
AcDbLine
 10
-1.599999999982571
 20
15.99999999999808
 30
0.0
 11
-0.000000000000032
 21
15.57128129211277
 31
0.0
  0
POLYLINE
  5
4A24
330
1F
100
AcDbEntity
  8
AM_0
100
AcDb2dPolyline
 66
     1
 10
0.0
 20
0.0
 30
0.0
  0
VERTEX
  5
4A25
330
4A24
100
AcDbEntity
  8
AM_0
100
AcDbVertex
100
AcDb2dVertex
 10
-62.07307756581018
 20
-3.110957200641578
 30
0.0
 42
-0.0093592997281701
  0
VERTEX
  5
4A26
330
4A24
100
AcDbEntity
  8
AM_0
100
AcDbVertex
100
AcDb2dVertex
 10
-62.54499098521506
 20
-1.586873675855244
 30
0.0
 42
-0.0264443010942447
  0
VERTEX
  5
4A27
330
4A24
100
AcDbEntity
  8
AM_0
100
AcDbVertex
100
AcDb2dVertex
 10
-62.67307756581018
 20
-1.036560233279203
 30
0.0
 42
-0.0056919647829364
  0
VERTEX
  5
4A28
330
4A24
100
AcDbEntity
  8
AM_0
100
AcDbVertex
100
AcDb2dVertex
 10
-63.27627382081143
 20
2.598940162271816
 30
0.0
 42
-0.0134174959760068
  0
VERTEX
  5
4A29
330
4A24
100
AcDbEntity
  8
AM_0
100
AcDbVertex
100
AcDb2dVertex
 10
-63.47307756581018
 20
4.150070435528604
 30
0.0
 42
-0.0087991397927587
  0
VERTEX
  5
4A2A
330
4A24
100
AcDbEntity
  8
AM_0
100
AcDbVertex
100
AcDb2dVertex
 10
-63.62590868525754
 20
6.014891153322153
 30
0.0
 42
-0.0131902285363526
  0
VERTEX
  5
4A2B
330
4A24
100
AcDbEntity
  8
AM_0
100
AcDbVertex
100
AcDb2dVertex
 10
-63.67307756581019
 20
7.262304136974037
 30
0.0
 42
-0.0223038229887529
  0
VERTEX
  5
4A2C
330
4A24
100
AcDbEntity
  8
AM_0
100
AcDbVertex
100
AcDb2dVertex
 10
-63.65236458221066
 20
7.886264212736492
 30
0.0
 42
-0.0071363004437145
  0
VERTEX
  5
4A2D
330
4A24
100
AcDbEntity
  8
AM_0
100
AcDbVertex
100
AcDb2dVertex
 10
-63.47307756581018
 20
9.828336881403913
 30
0.0
 42
-0.0385495993333262
  0
VERTEX
  5
4A2E
330
4A24
100
AcDbEntity
  8
AM_0
100
AcDbVertex
100
AcDb2dVertex
 10
-63.10007998026001
 20
11.83938976127385
 30
0.0
 42
-0.0733676270270131
  0
VERTEX
  5
4A2F
330
4A24
100
AcDbEntity
  8
AM_0
100
AcDbVertex
100
AcDb2dVertex
 10
-62.67307756581018
 20
12.8301637221196
 30
0.0
 42
-0.0183066724511516
  0
VERTEX
  5
4A30
330
4A24
100
AcDbEntity
  8
AM_0
100
AcDbVertex
100
AcDb2dVertex
 10
-62.6537465536332
 20
12.85903476700255
 30
0.0
 42
-0.0315847571227467
  0
SEQEND
  5
4A31
330
4A24
100
AcDbEntity
  8
AM_0
  0
LINE
  5
4A32
330
1F
100
AcDbEntity
  8
AM_0
100
AcDbLine
 10
-55.0
 20
8.458363967946585
 30
0.0
 11
-55.0
 21
-0.4428230426647631
 31
0.0
  0
VIEWPORT
  5
110
330
101
100
AcDbEntity
 67
     1
  8
0
100
AcDbViewport
 10
420.5
 20
297.0
 30
0.0
 40
948.9782706766916
 41
628.452
 68
     1
 69
     1
1001
ACAD
1000
MVIEW
1002
{
1070
    16
1010
0.0
1020
0.0
1030
0.0
1010
0.0
1020
0.0
1030
1.0
1040
0.0
1040
628.452
1040
420.5
1040
297.0
1040
50.0
1040
0.0
1040
0.0
1070
     0
1070
   100
1070
     1
1070
     1
1070
     0
1070
     0
1070
     0
1070
     0
1040
0.0
1040
0.0
1040
0.0
1040
10.0
1040
10.0
1040
10.0
1040
10.0
1070
     0
1002
{
1002
}
1002
}
  0
ENDSEC
  0
SECTION
  2
OBJECTS
  0
DICTIONARY
  5
C
330
0
100
AcDbDictionary
  3
ACAD_GROUP
350
D
  3
ACAD_LAYOUT
350
1A
  3
ACAD_MLINESTYLE
350
17
  3
ACAD_PLOTSETTINGS
350
19
  3
ACAD_PLOTSTYLENAME
350
E
  3
ACDBVARIABLEDICTIONARY
350
34
  3
ACMDICTIONARY
350
43
  3
AMG
350
2B
  3
AMGSNAPSETTINGS
350
6E
  3
ASE_INDEX_DICTIONARY
350
151A
  3
DWGPROPS
350
4A49
  3
ACDBHEADERROUNDTRIPXREC
350
4A55
  0
DICTIONARY
  5
74
330
1F
100
AcDbDictionary
280
     1
  3
ACAD_INDEX
360
4A4B
  3
ACAD_LAYOUTSELFREF
360
4A78
  0
DICTIONARY
  5
4A7D
330
101
100
AcDbDictionary
280
     1
  3
ACAD_LAYOUTSELFREF
360
4A7E
  0
DICTIONARY
  5
D
102
{ACAD_REACTORS
330
C
102
}
330
C
100
AcDbDictionary
  0
DICTIONARY
  5
1A
102
{ACAD_REACTORS
330
C
102
}
330
C
100
AcDbDictionary
  0
DICTIONARY
  5
17
102
{ACAD_REACTORS
330
C
102
}
330
C
100
AcDbDictionary
  3
STANDARD
350
18
  0
DICTIONARY
  5
19
102
{ACAD_REACTORS
330
C
102
}
330
C
100
AcDbDictionary
  0
ACDBDICTIONARYWDFLT
  5
E
102
{ACAD_REACTORS
330
C
102
}
330
C
100
AcDbDictionary
281
     1
  3
Normal
350
F
100
AcDbDictionaryWithDefault
340
F
  0
DICTIONARY
  5
34
102
{ACAD_REACTORS
330
C
102
}
330
C
100
AcDbDictionary
  3
INDEXCTL
350
35
  3
SORTENTS
350
B5E
  0
DICTIONARY
  5
43
102
{ACAD_REACTORS
330
C
102
}
330
C
100
AcDbDictionary
  3
ACMSTDDICTIONARY
350
260
  0
DICTIONARY
  5
2B
102
{ACAD_REACTORS
330
C
102
}
330
C
100
AcDbDictionary
  3
ACMGSETTINGS
350
2C
  0
DICTIONARY
  5
6E
102
{ACAD_REACTORS
330
C
102
}
330
C
100
AcDbDictionary
  0
DICTIONARY
  5
151A
102
{ACAD_REACTORS
330
C
102
}
330
C
100
AcDbDictionary
  3
ASEBLOCKHIERARCHYINDEXRECORD
350
151C
1001
DCO15
1040
1471862535.906
  0
XRECORD
  5
4A49
102
{ACAD_REACTORS
330
C
102
}
330
C
100
AcDbXrecord
  1
DWGPROPS COOKIE
  2

  3

  4

  6

  7

  8

  9

300
AmdtFileType=82
301
=
302
=
303
=
304
=
305
=
306
=
307
=
308
=
309
=
 40
0.1822150347222222
 41
2452838.430434386
 42
2453045.480915509
  1

 90
        1
  0
DICTIONARY
  5
4A55
102
{ACAD_REACTORS
330
C
102
}
330
C
100
AcDbDictionary
  3
TSTACKALIGN
350
4A56
  3
TSTACKSIZE
350
4A57
  3
HYPERLINKBASE
350
4A58
  3
STYLESHEET
350
4A59
  3
LAYOUTDICT
350
4A5A
  3
PLOTSETDICT
350
4A5B
  3
PLOTSTYLNAMDICT
350
4A5C
  3
LWETCUNION
350
4A5D
  3
INSUNITS
350
4A5E
  3
CEPSNTYPE
350
4A5F
  3
FINGERPRINTGUID
350
4A60
  3
VERSIONGUID
350
4A61
  3
PSVPSCALE
350
4A62
  3
DIMSTYLEDATA
350
4A63
  3
PUCSORTHOREF
350
4A64
  3
PUCSORTHOVIEW
350
4A65
  3
PUCSBASE
350
4A66
  3
PUCSORGTOP
350
4A67
  3
PUCSORGBOTTOM
350
4A68
  3
PUCSORGLEFT
350
4A69
  3
PUCSORGRIGHT
350
4A6A
  3
PUCSORGFRONT
350
4A6B
  3
PUCSORGBACK
350
4A6C
  3
UCSORTHOREF
350
4A6D
  3
UCSORTHOVIEW
350
4A6E
  3
UCSBASE
350
4A6F
  3
UCSORGTOP
350
4A70
  3
UCSORGBOTTOM
350
4A71
  3
UCSORGLEFT
350
4A72
  3
UCSORGRIGHT
350
4A73
  3
UCSORGFRONT
350
4A74
  3
UCSORGBACK
350
4A75
  0
DICTIONARY
  5
4A4B
102
{ACAD_REACTORS
330
74
102
}
330
74
100
AcDbDictionary
  3
*A1
350
4A4C
  0
XRECORD
  5
4A78
102
{ACAD_REACTORS
330
74
102
}
330
74
100
AcDbXrecord
340
1F
  0
XRECORD
  5
4A7E
102
{ACAD_REACTORS
330
4A7D
102
}
330
4A7D
100
AcDbXrecord
340
101
  0
MLINESTYLE
  5
18
102
{ACAD_REACTORS
330
17
102
}
330
17
100
AcDbMlineStyle
  2
STANDARD
 70
     0
  3

 62
   256
 51
90.0
 52
90.0
 71
     2
 49
0.5
 62
   256
  6
BYLAYER
 49
-0.5
 62
   256
  6
BYLAYER
  0
ACDBPLACEHOLDER
  5
F
102
{ACAD_REACTORS
330
E
102
}
330
E
100
AcDbPlaceHolder
280
     0
  0
DICTIONARYVAR
  5
35
102
{ACAD_REACTORS
330
34
102
}
330
34
100
DictionaryVariables
280
     0
  1
1
  0
DICTIONARYVAR
  5
B5E
102
{ACAD_REACTORS
330
34
102
}
330
34
100
DictionaryVariables
280
     0
  1
96
  0
DICTIONARY
  5
260
102
{ACAD_REACTORS
330
43
102
}
330
43
100
AcDbDictionary
  0
DICTIONARY
  5
2C
102
{ACAD_REACTORS
330
2B
102
}
330
2B
100
AcDbDictionary
  3
DWGSETTINGS
350
2D
  0
XRECORD
  5
151C
102
{ACAD_REACTORS
330
151A
102
}
330
151A
100
AcDbXrecord
330
0
330
0
330
0
330
0
330
0
330
0
330
0
330
0
  0
XRECORD
  5
4A56
102
{ACAD_REACTORS
330
4A55
102
}
330
4A55
100
AcDbXrecord
 90
        1
  0
XRECORD
  5
4A57
102
{ACAD_REACTORS
330
4A55
102
}
330
4A55
100
AcDbXrecord
 90
       70
  0
XRECORD
  5
4A58
102
{ACAD_REACTORS
330
4A55
102
}
330
4A55
100
AcDbXrecord
  1

  0
XRECORD
  5
4A59
102
{ACAD_REACTORS
330
4A55
102
}
330
4A55
100
AcDbXrecord
  1
ASAMI.ctb
  0
XRECORD
  5
4A5A
102
{ACAD_REACTORS
330
4A55
102
}
330
4A55
100
AcDbXrecord
340
1A
  0
XRECORD
  5
4A5B
102
{ACAD_REACTORS
330
4A55
102
}
330
4A55
100
AcDbXrecord
340
19
  0
XRECORD
  5
4A5C
102
{ACAD_REACTORS
330
4A55
102
}
330
4A55
100
AcDbXrecord
340
E
  0
XRECORD
  5
4A5D
102
{ACAD_REACTORS
330
4A55
102
}
330
4A55
100
AcDbXrecord
 90
    10781
  0
XRECORD
  5
4A5E
102
{ACAD_REACTORS
330
4A55
102
}
330
4A55
100
AcDbXrecord
 90
        4
  0
XRECORD
  5
4A5F
102
{ACAD_REACTORS
330
4A55
102
}
330
4A55
100
AcDbXrecord
 90
        0
  0
XRECORD
  5
4A60
102
{ACAD_REACTORS
330
4A55
102
}
330
4A55
100
AcDbXrecord
  1
{AFB28963-8C59-40AE-9337-C84526B81ACE}
  0
XRECORD
  5
4A61
102
{ACAD_REACTORS
330
4A55
102
}
330
4A55
100
AcDbXrecord
  1
{344AF9B0-A0AD-491A-B122-01DCE99703FD}
  0
XRECORD
  5
4A62
102
{ACAD_REACTORS
330
4A55
102
}
330
4A55
100
AcDbXrecord
 40
0.0
  0
XRECORD
  5
4A63
102
{ACAD_REACTORS
330
4A55
102
}
330
4A55
100
AcDbXrecord
1000
DSTYLE
1002
{
1070
    79
 70
     2
1070
   341
340
59
1070
   342
340
59
1070
   371
 70
    -1
1070
   372
 70
    -1
1002
}
  0
XRECORD
  5
4A64
102
{ACAD_REACTORS
330
4A55
102
}
330
4A55
100
AcDbXrecord
340
0
  0
XRECORD
  5
4A65
102
{ACAD_REACTORS
330
4A55
102
}
330
4A55
100
AcDbXrecord
 70
     0
  0
XRECORD
  5
4A66
102
{ACAD_REACTORS
330
4A55
102
}
330
4A55
100
AcDbXrecord
340
0
  0
XRECORD
  5
4A67
102
{ACAD_REACTORS
330
4A55
102
}
330
4A55
100
AcDbXrecord
 10
0.0
 20
0.0
 30
0.0
  0
XRECORD
  5
4A68
102
{ACAD_REACTORS
330
4A55
102
}
330
4A55
100
AcDbXrecord
 10
0.0
 20
0.0
 30
0.0
  0
XRECORD
  5
4A69
102
{ACAD_REACTORS
330
4A55
102
}
330
4A55
100
AcDbXrecord
 10
0.0
 20
0.0
 30
0.0
  0
XRECORD
  5
4A6A
102
{ACAD_REACTORS
330
4A55
102
}
330
4A55
100
AcDbXrecord
 10
0.0
 20
0.0
 30
0.0
  0
XRECORD
  5
4A6B
102
{ACAD_REACTORS
330
4A55
102
}
330
4A55
100
AcDbXrecord
 10
0.0
 20
0.0
 30
0.0
  0
XRECORD
  5
4A6C
102
{ACAD_REACTORS
330
4A55
102
}
330
4A55
100
AcDbXrecord
 10
0.0
 20
0.0
 30
0.0
  0
XRECORD
  5
4A6D
102
{ACAD_REACTORS
330
4A55
102
}
330
4A55
100
AcDbXrecord
340
0
  0
XRECORD
  5
4A6E
102
{ACAD_REACTORS
330
4A55
102
}
330
4A55
100
AcDbXrecord
 70
     0
  0
XRECORD
  5
4A6F
102
{ACAD_REACTORS
330
4A55
102
}
330
4A55
100
AcDbXrecord
340
0
  0
XRECORD
  5
4A70
102
{ACAD_REACTORS
330
4A55
102
}
330
4A55
100
AcDbXrecord
 10
0.0
 20
0.0
 30
0.0
  0
XRECORD
  5
4A71
102
{ACAD_REACTORS
330
4A55
102
}
330
4A55
100
AcDbXrecord
 10
0.0
 20
0.0
 30
0.0
  0
XRECORD
  5
4A72
102
{ACAD_REACTORS
330
4A55
102
}
330
4A55
100
AcDbXrecord
 10
0.0
 20
0.0
 30
0.0
  0
XRECORD
  5
4A73
102
{ACAD_REACTORS
330
4A55
102
}
330
4A55
100
AcDbXrecord
 10
0.0
 20
0.0
 30
0.0
  0
XRECORD
  5
4A74
102
{ACAD_REACTORS
330
4A55
102
}
330
4A55
100
AcDbXrecord
 10
0.0
 20
0.0
 30
0.0
  0
XRECORD
  5
4A75
102
{ACAD_REACTORS
330
4A55
102
}
330
4A55
100
AcDbXrecord
 10
0.0
 20
0.0
 30
0.0
  0
LAYER_INDEX
  5
4A4C
102
{ACAD_REACTORS
330
4A4B
102
}
330
4A4B
100
AcDbIndex
 40
2453152.468491585
100
AcDbLayerIndex
  8
0
360
4A4D
 90
        0
  8
AM_0
360
4A4E
 90
       76
  8
AM_11
360
4A4F
 90
        5
  8
AM_7
360
4A50
 90
        1
  8
AM_5
360
4A51
 90
        4
  8
Defpoints
360
4A52
 90
        0
  8
AM_6
360
4A53
 90
        1
  0
XRECORD
  5
2D
102
{ACAD_REACTORS
330
2C
102
}
330
2C
100
AcDbXrecord
  1
VERSION
140
15.0
  1
PRODUCT
  2
AutoCAD Mechanical 2000
  0
IDBUFFER
  5
4A4D
330
0
100
AcDbIdBuffer
  0
IDBUFFER
  5
4A4E
330
0
100
AcDbIdBuffer
330
49C8
330
49C9
330
49CA
330
49CB
330
49CC
330
49CD
330
49CE
330
49CF
330
49D0
330
49D1
330
49D2
330
49D3
330
49D6
330
49E7
330
49E8
330
49F9
330
49FA
330
49FC
330
49FD
330
49FE
330
49FF
330
4A00
330
4A01
330
4A02
330
4A03
330
4A04
330
4A24
330
4A32
330
450B
330
450E
330
450F
330
451D
330
4529
330
4536
330
499E
330
499F
330
49A0
330
49A1
330
49A2
330
49A3
330
49A4
330
49A5
330
49A6
330
49A7
330
49A8
330
49A9
330
49AA
330
49AB
330
49AC
330
49AD
330
49AE
330
49AF
330
49B0
330
49B1
330
49B2
330
49B3
330
49B4
330
49B5
330
49B6
330
49B7
330
49B8
330
49B9
330
49BA
330
49BB
330
49BC
330
49BD
330
49BE
330
49BF
330
49C0
330
49C1
330
49C2
330
49C3
330
49C4
330
49C5
330
49C6
330
49C7
  0
IDBUFFER
  5
4A4F
330
0
100
AcDbIdBuffer
330
4277
330
4278
330
4289
330
4844
330
49FB
  0
IDBUFFER
  5
4A50
330
0
100
AcDbIdBuffer
330
424E
  0
IDBUFFER
  5
4A51
330
0
100
AcDbIdBuffer
330
424D
330
4255
330
4288
330
4510
  0
IDBUFFER
  5
4A52
330
0
100
AcDbIdBuffer
  0
IDBUFFER
  5
4A53
330
0
100
AcDbIdBuffer
330
1500
  0
ENDSEC
  0
EOF
