  0
SECTION
  2
HEADER
  9
$ACADVER
  1
AC1014
  9
$ACADMAINTVER
 70
     9
  9
$DWGCODEPAGE
  3
ANSI_932
  9
$INSBASE
 10
0.0
 20
0.0
 30
0.0
  9
$EXTMIN
 10
-56.31900544538311
 20
-27.25000099999999
 30
-0.00000001
  9
$EXTMAX
 10
6.548469189025837
 20
3.999999999999998
 30
0.00000001
  9
$LIMMIN
 10
-62.8767156736551
 20
-30.44334232968214
  9
$LIMMAX
 10
10.95323338114485
 20
8.241515234745349
  9
$ORTHOMODE
 70
     0
  9
$REGENMODE
 70
     1
  9
$FILLMODE
 70
     1
  9
$QTEXTMODE
 70
     0
  9
$MIRRTEXT
 70
     0
  9
$DRAGMODE
 70
     2
  9
$LTSCALE
 40
1.0
  9
$OSMODE
 70
    55
  9
$ATTMODE
 70
     1
  9
$TEXTSIZE
 40
2.5
  9
$TRACEWID
 40
1.0
  9
$TEXTSTYLE
  7
STANDARD
  9
$CLAYER
  8
AM_0
  9
$CELTYPE
  6
BYLAYER
  9
$CECOLOR
 62
   256
  9
$CELTSCALE
 40
1.0
  9
$DELOBJ
 70
     1
  9
$DISPSILH
 70
     0
  9
$DIMSCALE
 40
0.5
  9
$DIMASZ
 40
2.5
  9
$DIMEXO
 40
1.0
  9
$DIMDLI
 40
12.0
  9
$DIMRND
 40
0.0
  9
$DIMDLE
 40
0.0
  9
$DIMEXE
 40
1.0
  9
$DIMTP
 40
0.1
  9
$DIMTM
 40
0.1
  9
$DIMTXT
 40
3.2
  9
$DIMCEN
 40
0.0
  9
$DIMTSZ
 40
0.0
  9
$DIMTOL
 70
     0
  9
$DIMLIM
 70
     0
  9
$DIMTIH
 70
     0
  9
$DIMTOH
 70
     0
  9
$DIMSE1
 70
     0
  9
$DIMSE2
 70
     0
  9
$DIMTAD
 70
     3
  9
$DIMZIN
 70
     8
  9
$DIMBLK
  1
OPEN30
  9
$DIMASO
 70
     1
  9
$DIMSHO
 70
     1
  9
$DIMPOST
  1

  9
$DIMAPOST
  1
"
  9
$DIMALT
 70
     0
  9
$DIMALTD
 70
     2
  9
$DIMALTF
 40
0.0393701
  9
$DIMLFAC
 40
1.0
  9
$DIMTOFL
 70
     1
  9
$DIMTVP
 40
0.0
  9
$DIMTIX
 70
     0
  9
$DIMSOXD
 70
     0
  9
$DIMSAH
 70
     0
  9
$DIMBLK1
  1

  9
$DIMBLK2
  1

  9
$DIMSTYLE
  2
AM_JIS
  9
$DIMCLRD
 70
   256
  9
$DIMCLRE
 70
   256
  9
$DIMCLRT
 70
     2
  9
$DIMTFAC
 40
0.71
  9
$DIMGAP
 40
1.5
  9
$DIMJUST
 70
     0
  9
$DIMSD1
 70
     0
  9
$DIMSD2
 70
     0
  9
$DIMTOLJ
 70
     0
  9
$DIMTZIN
 70
     0
  9
$DIMALTZ
 70
     0
  9
$DIMALTTZ
 70
     0
  9
$DIMFIT
 70
     3
  9
$DIMUPT
 70
     0
  9
$DIMUNIT
 70
     2
  9
$DIMDEC
 70
     3
  9
$DIMTDEC
 70
     3
  9
$DIMALTU
 70
     2
  9
$DIMALTTD
 70
     2
  9
$DIMTXSTY
  7
ASAMI
  9
$DIMAUNIT
 70
     0
  9
$LUNITS
 70
     2
  9
$LUPREC
 70
     2
  9
$SKETCHINC
 40
1.0
  9
$FILLETRAD
 40
2.5
  9
$AUNITS
 70
     0
  9
$AUPREC
 70
     0
  9
$MENU
  1
.
  9
$ELEVATION
 40
0.0
  9
$PELEVATION
 40
0.0
  9
$THICKNESS
 40
0.0
  9
$LIMCHECK
 70
     0
  9
$BLIPMODE
 70
     0
  9
$CHAMFERA
 40
0.5
  9
$CHAMFERB
 40
0.5
  9
$CHAMFERC
 40
20.0
  9
$CHAMFERD
 40
0.0
  9
$SKPOLY
 70
     0
  9
$TDCREATE
 40
2452836.771637361
  9
$TDUPDATE
 40
2453152.464273634
  9
$TDINDWG
 40
0.0764591898
  9
$TDUSRTIMER
 40
0.0764591898
  9
$USRTIMER
 70
     1
  9
$ANGBASE
 50
0.0
  9
$ANGDIR
 70
     0
  9
$PDMODE
 70
     0
  9
$PDSIZE
 40
0.0
  9
$PLINEWID
 40
0.0
  9
$COORDS
 70
     1
  9
$SPLFRAME
 70
     0
  9
$SPLINETYPE
 70
     6
  9
$SPLINESEGS
 70
     8
  9
$ATTDIA
 70
     1
  9
$ATTREQ
 70
     1
  9
$HANDLING
 70
 12289
  9
$HANDSEED
  5
23CD
  9
$SURFTAB1
 70
     6
  9
$SURFTAB2
 70
     6
  9
$SURFTYPE
 70
     6
  9
$SURFU
 70
     6
  9
$SURFV
 70
     6
  9
$UCSNAME
  2

  9
$UCSORG
 10
0.0
 20
0.0
 30
0.0
  9
$UCSXDIR
 10
1.0
 20
0.0
 30
0.0
  9
$UCSYDIR
 10
0.0
 20
1.0
 30
0.0
  9
$PUCSNAME
  2

  9
$PUCSORG
 10
0.0
 20
0.0
 30
0.0
  9
$PUCSXDIR
 10
1.0
 20
0.0
 30
0.0
  9
$PUCSYDIR
 10
0.0
 20
1.0
 30
0.0
  9
$USERI1
 70
     0
  9
$USERI2
 70
     0
  9
$USERI3
 70
     0
  9
$USERI4
 70
     0
  9
$USERI5
 70
     0
  9
$USERR1
 40
0.0
  9
$USERR2
 40
0.0
  9
$USERR3
 40
0.0
  9
$USERR4
 40
0.0
  9
$USERR5
 40
0.0
  9
$WORLDVIEW
 70
     1
  9
$SHADEDGE
 70
     3
  9
$SHADEDIF
 70
    70
  9
$TILEMODE
 70
     1
  9
$MAXACTVP
 70
    64
  9
$PINSBASE
 10
0.0
 20
0.0
 30
0.0
  9
$PLIMCHECK
 70
     0
  9
$PEXTMIN
 10
1.000000000000000E+20
 20
1.000000000000000E+20
 30
1.000000000000000E+20
  9
$PEXTMAX
 10
-1.000000000000000E+20
 20
-1.000000000000000E+20
 30
-1.000000000000000E+20
  9
$PLIMMIN
 10
0.0
 20
0.0
  9
$PLIMMAX
 10
841.0
 20
594.0
  9
$UNITMODE
 70
     0
  9
$VISRETAIN
 70
     1
  9
$PLINEGEN
 70
     0
  9
$PSLTSCALE
 70
     0
  9
$TREEDEPTH
 70
  3020
  9
$PICKSTYLE
 70
     0
  9
$CMLSTYLE
  2
STANDARD
  9
$CMLJUST
 70
     0
  9
$CMLSCALE
 40
20.0
  9
$PROXYGRAPHICS
 70
     1
  9
$MEASUREMENT
 70
     1
  0
ENDSEC
  0
SECTION
  2
CLASSES
  0
CLASS
  1
ACDBDICTIONARYWDFLT
  2
AcDbDictionaryWithDefault
  3
AutoCAD 2000
 90
        0
280
     0
281
     0
  0
CLASS
  1
ACDBPLACEHOLDER
  2
AcDbPlaceHolder
  3
AutoCAD 2000
 90
        0
280
     0
281
     0
  0
CLASS
  1
LAYOUT
  2
AcDbLayout
  3
AutoCAD 2000
 90
        0
280
     0
281
     0
  0
CLASS
  1
AMGSETTINGSOBJ
  2
AmgSettingsObj
  3
"AcadM|Product Description: AutoCAD Mechanical 2000|Company: Autodesk"
 90
        0
280
     0
281
     0
  0
CLASS
  1
ACME_DOCUMENT
  2
AcMeDbDoc
  3
AcMeServices
 90
        0
280
     0
281
     0
  0
CLASS
  1
ACMESCOPE
  2
AcMeScope
  3
AcMeServices
 90
        0
280
     0
281
     0
  0
CLASS
  1
ACMECOMMANDHISTORY
  2
AcMeCommandHistory
  3
AcMeServices
 90
        0
280
     0
281
     0
  0
CLASS
  1
DICTIONARYVAR
  2
AcDbDictionaryVar
  3
AutoCAD 2000
 90
        0
280
     0
281
     0
  0
CLASS
  1
ACIMSYSVARMAN
  2
AcImSysVarManager
  3
AcMeServices
 90
        0
280
     0
281
     0
  0
CLASS
  1
ACIMREALSYSVAR
  2
AcImRealSysVar
  3
AcMeServices
 90
        0
280
     0
281
     0
  0
CLASS
  1
ACIMINTSYSVAR
  2
AcImIntSysVar
  3
AcMeServices
 90
        0
280
     0
281
     0
  0
CLASS
  1
ACMEDRAWINGMAN
  2
AcMeDrawingMan
  3
AcMeServices
 90
        0
280
     0
281
     0
  0
CLASS
  1
ACMEVIEW
  2
AcMeView
  3
AcMeServices
 90
        0
280
     0
281
     0
  0
CLASS
  1
ACDBENTITYCACHE
  2
AcMeEntityCache
  3
AcMeServices
 90
        0
280
     0
281
     0
  0
CLASS
  1
GSMANAGER
  2
AcMeGSManager
  3
AcMeServices
 90
        0
280
     0
281
     0
  0
CLASS
  1
AmdtInternalReactor
  2
AmdtInternalReactor
  3
AcMeServices
 90
        0
280
     0
281
     0
  0
CLASS
  1
ACMESTATEMGR
  2
AcMeStateMgr
  3
AcMeServices
 90
        0
280
     0
281
     0
  0
CLASS
  1
ACME_DATABASE
  2
AcMeDbDatabase
  3
AcMeServices
 90
        0
280
     0
281
     0
  0
CLASS
  1
ACRFINSADJUSTERMGR
  2
AcRfInsAdjusterMgr
  3
AcMeServices
 90
        0
280
     0
281
     0
  0
CLASS
  1
ACMDATADICTIONARY
  2
AcmDataDictionary
  3
"AcmSymBB|Product Description: AutoCAD Mechanical 2000|Company: Autodesk"
 90
        0
280
     0
281
     0
  0
CLASS
  1
ACMDATAENTRYBLOCK
  2
AcmDataEntryBlock
  3
"AcmSymBB|Product Description: AutoCAD Mechanical 2000|Company: Autodesk"
 90
        0
280
     0
281
     0
  0
CLASS
  1
AMGOBJPROPCFG
  2
AmgObjPropCfg
  3
"AmgLay|Product Description: AutoCAD Mechanical 2000|Company: Autodesk"
 90
        1
280
     0
281
     0
  0
CLASS
  1
ACAMGFILTERDAT
  2
AcAmgFilterDat
  3
"AcadM|Product Description: AutoCAD Mechanical 2000|Company: Autodesk"
 90
        0
280
     0
281
     0
  0
CLASS
  1
LAYER_INDEX
  2
AcDbLayerIndex
  3
AutoCAD 2000
 90
        0
280
     0
281
     0
  0
CLASS
  1
IDBUFFER
  2
AcDbIdBuffer
  3
AutoCAD 2000
 90
        0
280
     0
281
     0
  0
CLASS
  1
ACIMSTRSYSVAR
  2
AcImStrSysVar
  3
AcMeServices
 90
        0
280
     0
281
     0
  0
CLASS
  1
ACMSTANDARDJIS
  2
AcmStandardJIS
  3
"AcmSymBB|Product Description: AutoCAD Mechanical 2000|Company: Autodesk"
 90
        0
280
     0
281
     0
  0
CLASS
  1
ACMSURFSTANDARDJIS
  2
AcmSurfTextStdJIS
  3
"AcmSymBB|Product Description: AutoCAD Mechanical 2000|Company: Autodesk"
 90
        0
280
     0
281
     0
  0
CLASS
  1
ACMFCFSTANDARDJIS
  2
AcmFCFStdJIS
  3
"AcmSymBB|Product Description: AutoCAD Mechanical 2000|Company: Autodesk"
 90
        0
280
     0
281
     0
  0
CLASS
  1
ACMWELDSTANDARDJIS
  2
AcmWeldingStdJIS
  3
"AcmSymBB|Product Description: AutoCAD Mechanical 2000|Company: Autodesk"
 90
        0
280
     0
281
     0
  0
CLASS
  1
ACMIDSTANDARDJIS
  2
AcmIdStdJIS
  3
"AcmSymBB|Product Description: AutoCAD Mechanical 2000|Company: Autodesk"
 90
        0
280
     0
281
     0
  0
CLASS
  1
ACMDATUMSTANDARDJIS
  2
AcmDatumStdJIS
  3
"AcmSymBB|Product Description: AutoCAD Mechanical 2000|Company: Autodesk"
 90
        0
280
     0
281
     0
  0
CLASS
  1
ACMBOMSTANDARDJIS
  2
AcmBOMStdJIS
  3
"AcmSymBB|Product Description: AutoCAD Mechanical 2000|Company: Autodesk"
 90
        0
280
     0
281
     0
  0
CLASS
  1
ACMSTANDARDANSI
  2
AcmStandardANSI
  3
"AcmSymBB|Product Description: AutoCAD Mechanical 2000|Company: Autodesk"
 90
        0
280
     0
281
     0
  0
CLASS
  1
ACMSURFSTANDARDANSI
  2
AcmSurfTextStdANSI
  3
"AcmSymBB|Product Description: AutoCAD Mechanical 2000|Company: Autodesk"
 90
        0
280
     0
281
     0
  0
CLASS
  1
ACMFCFSTANDARDANSI
  2
AcmFCFStdANSI
  3
"AcmSymBB|Product Description: AutoCAD Mechanical 2000|Company: Autodesk"
 90
        0
280
     0
281
     0
  0
CLASS
  1
ACMWELDSTANDARDANSI
  2
AcmWeldingStdANSI
  3
"AcmSymBB|Product Description: AutoCAD Mechanical 2000|Company: Autodesk"
 90
        0
280
     0
281
     0
  0
CLASS
  1
ACMIDSTANDARDANSI
  2
AcmIdStdANSI
  3
"AcmSymBB|Product Description: AutoCAD Mechanical 2000|Company: Autodesk"
 90
        0
280
     0
281
     0
  0
CLASS
  1
ACMDATUMSTANDARDANSI
  2
AcmDatumStdANSI
  3
"AcmSymBB|Product Description: AutoCAD Mechanical 2000|Company: Autodesk"
 90
        0
280
     0
281
     0
  0
CLASS
  1
ACMBOMSTANDARDANSI
  2
AcmBOMStdANSI
  3
"AcmSymBB|Product Description: AutoCAD Mechanical 2000|Company: Autodesk"
 90
        0
280
     0
281
     0
  0
CLASS
  1
ACMSTANDARDBSI
  2
AcmStandardBSI
  3
"AcmSymBB|Product Description: AutoCAD Mechanical 2000|Company: Autodesk"
 90
        0
280
     0
281
     0
  0
CLASS
  1
ACMSURFSTANDARDBSI
  2
AcmSurfTextStdBSI
  3
"AcmSymBB|Product Description: AutoCAD Mechanical 2000|Company: Autodesk"
 90
        0
280
     0
281
     0
  0
CLASS
  1
ACMFCFSTANDARDBSI
  2
AcmFCFStdBSI
  3
"AcmSymBB|Product Description: AutoCAD Mechanical 2000|Company: Autodesk"
 90
        0
280
     0
281
     0
  0
CLASS
  1
ACMWELDSTANDARDBSI
  2
AcmWeldingStdBSI
  3
"AcmSymBB|Product Description: AutoCAD Mechanical 2000|Company: Autodesk"
 90
        0
280
     0
281
     0
  0
CLASS
  1
ACMIDSTANDARDBSI
  2
AcmIdStdBSI
  3
"AcmSymBB|Product Description: AutoCAD Mechanical 2000|Company: Autodesk"
 90
        0
280
     0
281
     0
  0
CLASS
  1
ACMDATUMSTANDARDBSI
  2
AcmDatumStdBSI
  3
"AcmSymBB|Product Description: AutoCAD Mechanical 2000|Company: Autodesk"
 90
        0
280
     0
281
     0
  0
CLASS
  1
ACMBOMSTANDARDBSI
  2
AcmBOMStdBSI
  3
"AcmSymBB|Product Description: AutoCAD Mechanical 2000|Company: Autodesk"
 90
        0
280
     0
281
     0
  0
CLASS
  1
LONG_TRANSACTION
  2
AcDbLongTransaction
  3
AutoCAD 2000
 90
        0
280
     0
281
     0
  0
CLASS
  1
LWPOLYLINE
  2
AcDbPolyline
  3
AutoCAD 2000
 90
        0
280
     0
281
     1
  0
CLASS
  1
HATCH
  2
AcDbHatch
  3
AutoCAD 2000
 90
        0
280
     0
281
     1
  0
CLASS
  1
XRECORD
  2
AcDbXrecord
  3
AutoCAD 2000
 90
        0
280
     0
281
     0
  0
ENDSEC
  0
SECTION
  2
TABLES
  0
TABLE
  2
VPORT
  5
8
330
0
100
AcDbSymbolTable
 70
     3
  0
VPORT
  5
23A2
330
8
100
AcDbSymbolTableRecord
100
AcDbViewportTableRecord
  2
*ACTIVE
 70
     0
 10
0.0
 20
0.0
 11
1.0
 21
1.0
 12
-18.51709996063794
 22
-5.906296843754162
 13
0.0
 23
0.0
 14
2.5
 24
2.5
 15
10.0
 25
10.0
 16
0.0
 26
0.0
 36
1.0
 17
0.0
 27
0.0
 37
0.0
 40
77.56194950669049
 41
1.56570841889117
 42
50.0
 43
0.0
 44
0.0
 50
0.0
 51
0.0
 71
     0
 72
   100
 73
     1
 74
     3
 75
     0
 76
     0
 77
     0
 78
     0
  0
ENDTAB
  0
TABLE
  2
LTYPE
  5
5
330
0
100
AcDbSymbolTable
 70
    10
  0
LTYPE
  5
14
330
5
100
AcDbSymbolTableRecord
100
AcDbLinetypeTableRecord
  2
BYBLOCK
 70
     0
  3

 72
    65
 73
     0
 40
0.0
  0
LTYPE
  5
15
330
5
100
AcDbSymbolTableRecord
100
AcDbLinetypeTableRecord
  2
BYLAYER
 70
     0
  3

 72
    65
 73
     0
 40
0.0
  0
LTYPE
  5
16
330
5
100
AcDbSymbolTableRecord
100
AcDbLinetypeTableRecord
  2
CONTINUOUS
 70
     0
  3
Solid line
 72
    65
 73
     0
 40
0.0
  0
LTYPE
  5
4B
330
5
100
AcDbSymbolTableRecord
100
AcDbLinetypeTableRecord
  2
AM_ISO02W050
 70
     0
  3
__ __ __ __ __ __ __ __ __ __ __ __ __ __ __
 72
    65
 73
     2
 40
7.5
 49
6.0
 74
     0
 49
-1.5
 74
     0
  0
LTYPE
  5
4C
330
5
100
AcDbSymbolTableRecord
100
AcDbLinetypeTableRecord
  2
AM_ISO08W050
 70
     0
  3
____ . ____ . ____ . ____ . ____ . ____ . ____
 72
    65
 73
     4
 40
18.0
 49
12.0
 74
     0
 49
-1.5
 74
     0
 49
3.0
 74
     0
 49
-1.5
 74
     0
  0
LTYPE
  5
4D
330
5
100
AcDbSymbolTableRecord
100
AcDbLinetypeTableRecord
  2
AM_ISO09W050
 70
     0
  3
_____ . . _____ . . _____ . . ____ .. ____
 72
    65
 73
     6
 40
22.5
 49
12.0
 74
     0
 49
-1.5
 74
     0
 49
3.0
 74
     0
 49
-1.5
 74
     0
 49
3.0
 74
     0
 49
-1.5
 74
     0
  0
LTYPE
  5
4E
330
5
100
AcDbSymbolTableRecord
100
AcDbLinetypeTableRecord
  2
AMCONSTR
 70
     0
  3
_______________________
 72
    65
 73
     2
 40
9999.0
 49
9999.0
 74
     0
 49
0.0
 74
     0
  0
LTYPE
  5
4F
330
5
100
AcDbSymbolTableRecord
100
AcDbLinetypeTableRecord
  2
AM_ISO02W050X2
 70
     0
  3
 _ _ _ _ _ _ _ _ _ _ _ _
 72
    65
 73
     2
 40
3.75
 49
3.0
 74
     0
 49
-0.75
 74
     0
  0
LTYPE
  5
50
330
5
100
AcDbSymbolTableRecord
100
AcDbLinetypeTableRecord
  2
AM_ISO08W050X2
 70
     0
  3
__ . __ . __ . __ . __ . __
 72
    65
 73
     4
 40
9.0
 49
6.0
 74
     0
 49
-0.75
 74
     0
 49
1.5
 74
     0
 49
-0.75
 74
     0
  0
LTYPE
  5
53
330
5
100
AcDbSymbolTableRecord
100
AcDbLinetypeTableRecord
  2
AMZIGZAG
 70
     0
  3
/\/-/\/-/\/-/\/-/\/-/\/
 72
    65
 73
     2
 40
11.00009999999999
 49
0.0001
 74
     4
 75
   135
340
52
 46
0.04
 50
0.0
 44
0.0
 45
0.0
 49
-11.0
 74
     0
  0
LTYPE
  5
166
330
5
100
AcDbSymbolTableRecord
100
AcDbLinetypeTableRecord
  2
ACJISTGL
 70
     0
  3
_ _ _ _ _
 72
    65
 73
     2
 40
3.0
 49
2.0
 74
     0
 49
-1.0
 74
     0
  0
LTYPE
  5
26A
330
5
100
AcDbSymbolTableRecord
100
AcDbLinetypeTableRecord
  2
ACJISTGB
 70
     0
  3
__ . . __ . .
 72
    65
 73
     6
 40
9.0
 49
4.0
 74
     0
 49
-1.0
 74
     0
 49
1.0
 74
     0
 49
-1.0
 74
     0
 49
1.0
 74
     0
 49
-1.0
 74
     0
  0
ENDTAB
  0
TABLE
  2
LAYER
  5
2
330
0
100
AcDbSymbolTable
 70
     7
  0
LAYER
  5
10
330
2
100
AcDbSymbolTableRecord
100
AcDbLayerTableRecord
  2
0
 70
     0
 62
     7
  6
CONTINUOUS
  0
LAYER
  5
3F9
330
2
100
AcDbSymbolTableRecord
100
AcDbLayerTableRecord
  2
AM_0
 70
     0
 62
     7
  6
CONTINUOUS
  0
LAYER
  5
BD4
330
2
100
AcDbSymbolTableRecord
100
AcDbLayerTableRecord
  2
AM_11
 70
     0
 62
     3
  6
AM_ISO09W050
  0
LAYER
  5
BD5
330
2
100
AcDbSymbolTableRecord
100
AcDbLayerTableRecord
  2
AM_7
 70
     0
 62
     4
  6
AM_ISO08W050
  0
LAYER
  5
BD6
330
2
100
AcDbSymbolTableRecord
100
AcDbLayerTableRecord
  2
AM_5
 70
     0
 62
     3
  6
CONTINUOUS
  0
LAYER
  5
BD7
330
2
100
AcDbSymbolTableRecord
100
AcDbLayerTableRecord
  2
DEFPOINTS
 70
     0
 62
     7
  6
CONTINUOUS
  0
LAYER
  5
E59
330
2
100
AcDbSymbolTableRecord
100
AcDbLayerTableRecord
  2
AM_6
 70
     0
 62
     2
  6
CONTINUOUS
  0
ENDTAB
  0
TABLE
  2
STYLE
  5
3
330
0
100
AcDbSymbolTable
 70
     5
  0
STYLE
  5
11
330
3
100
AcDbSymbolTableRecord
100
AcDbTextStyleTableRecord
  2
STANDARD
 70
     0
 40
0.0
 41
1.0
 50
0.0
 71
     0
 42
2.5
  3
simplex.shx
  4
EXTFONT.SHX
  0
STYLE
  5
52
330
3
100
AcDbSymbolTableRecord
100
AcDbTextStyleTableRecord
  2

 70
     1
 40
0.0
 41
1.0
 50
0.0
 71
     0
 42
2.5
  3
ltypeshp.shx
  4

  0
STYLE
  5
6B
330
3
100
AcDbSymbolTableRecord
100
AcDbTextStyleTableRecord
  2
ASAMI
 70
     0
 40
0.0
 41
1.0
 50
0.0
 71
     0
 42
2.5
  3
simplex.shx
  4
EXTFONT.SHX
  0
STYLE
  5
262
330
3
100
AcDbSymbolTableRecord
100
AcDbTextStyleTableRecord
  2
ACJISTS
 70
     0
 40
1.0
 41
1.0
 50
0.0
 71
     0
 42
2.5
  3
simplex.shx
  4
bigfont.shx
  0
STYLE
  5
269
330
3
100
AcDbSymbolTableRecord
100
AcDbTextStyleTableRecord
  2
ACJISGDT
 70
     0
 40
0.0
 41
1.0
 50
0.0
 71
     0
 42
2.5
  3
amgdtans.shx
  4

  0
ENDTAB
  0
TABLE
  2
VIEW
  5
6
330
0
100
AcDbSymbolTable
 70
     0
  0
ENDTAB
  0
TABLE
  2
UCS
  5
7
330
0
100
AcDbSymbolTable
 70
     0
  0
ENDTAB
  0
TABLE
  2
APPID
  5
9
330
0
100
AcDbSymbolTable
 70
    12
  0
APPID
  5
12
330
9
100
AcDbSymbolTableRecord
100
AcDbRegAppTableRecord
  2
ACAD
 70
     0
  0
APPID
  5
30
330
9
100
AcDbSymbolTableRecord
100
AcDbRegAppTableRecord
  2
MCAD_NO_VIS
 70
     0
  0
APPID
  5
31
330
9
100
AcDbSymbolTableRecord
100
AcDbRegAppTableRecord
  2
ACAD_TEMP_GRAPHIC
 70
     0
  0
APPID
  5
2C2
330
9
100
AcDbSymbolTableRecord
100
AcDbRegAppTableRecord
  2
GENIUS_GENDTOL_13
 70
     0
  0
APPID
  5
339
330
9
100
AcDbSymbolTableRecord
100
AcDbRegAppTableRecord
  2
GENIUS_GENODEF_13
 70
     0
  0
APPID
  5
33A
330
9
100
AcDbSymbolTableRecord
100
AcDbRegAppTableRecord
  2
GENIUS_GENOBJ-N-RSBK_13
 70
     0
  0
APPID
  5
33B
330
9
100
AcDbSymbolTableRecord
100
AcDbRegAppTableRecord
  2
GENIUS_GENOBJ-N-LIB_13
 70
     0
  0
APPID
  5
33C
330
9
100
AcDbSymbolTableRecord
100
AcDbRegAppTableRecord
  2
GENIUS_GENSCALE_13
 70
     0
  0
APPID
  5
378
330
9
100
AcDbSymbolTableRecord
100
AcDbRegAppTableRecord
  2
GENIUS_GENDIMSH_14
 70
     0
  0
APPID
  5
BD8
330
9
100
AcDbSymbolTableRecord
100
AcDbRegAppTableRecord
  2
GENIUS_GENOBJ-N-CEN_13
 70
     0
  0
APPID
  5
BD9
330
9
100
AcDbSymbolTableRecord
100
AcDbRegAppTableRecord
  2
GENIUS_GENFIL_13
 70
     0
  0
APPID
  5
BDA
330
9
100
AcDbSymbolTableRecord
100
AcDbRegAppTableRecord
  2
GENIUS_GENOBJ-N-CHA_13
 70
     0
  0
ENDTAB
  0
TABLE
  2
DIMSTYLE
  5
A
330
0
100
AcDbSymbolTable
 70
     8
  0
DIMSTYLE
105
58
102
{ACAD_REACTORS
330
FCE
330
105F
330
10EF
330
1315
102
}
330
A
100
AcDbSymbolTableRecord
100
AcDbDimStyleTableRecord
  2
AM_JIS
 70
     0
  3

  4
"
  5
OPEN30
  6

  7

 40
0.5
 41
2.5
 42
1.0
 43
12.0
 44
1.0
 45
0.0
 46
0.0
 47
0.1
 48
0.1
140
3.2
141
0.0
142
0.0
143
0.0393701
144
1.0
145
0.0
146
0.71
147
1.5
 71
     0
 72
     0
 73
     0
 74
     0
 75
     0
 76
     0
 77
     3
 78
     8
170
     0
171
     2
172
     1
173
     0
174
     0
175
     0
176
   256
177
   256
178
     2
270
     2
271
     3
272
     3
273
     2
274
     2
340
6B
275
     0
280
     0
281
     0
282
     0
283
     0
284
     0
285
     0
286
     0
287
     3
288
     0
  0
DIMSTYLE
105
5F
330
A
100
AcDbSymbolTableRecord
100
AcDbDimStyleTableRecord
  2
AM_JIS$3
 70
     0
  3

  4
"
  5
OPEN30
  6

  7

 40
0.5
 41
2.5
 42
1.0
 43
10.0
 44
1.0
 45
0.0
 46
0.0
 47
0.1
 48
0.1
140
3.2
141
0.0
142
0.0
143
0.0393701
144
1.0
145
0.0
146
0.71
147
1.5
 71
     0
 72
     0
 73
     0
 74
     1
 75
     0
 76
     0
 77
     3
 78
     8
170
     0
171
     2
172
     0
173
     0
174
     0
175
     0
176
   256
177
   256
178
     2
270
     2
271
     2
272
     3
273
     2
274
     2
340
6B
275
     0
280
     0
281
     0
282
     0
283
     0
284
     0
285
     0
286
     0
287
     0
288
     1
  0
DIMSTYLE
105
60
330
A
100
AcDbSymbolTableRecord
100
AcDbDimStyleTableRecord
  2
AM_JIS$4
 70
     0
  3

  4
"
  5
OPEN30
  6

  7

 40
0.5
 41
2.5
 42
1.0
 43
10.0
 44
1.0
 45
0.0
 46
0.0
 47
0.1
 48
0.1
140
3.2
141
0.0
142
0.0
143
0.0393701
144
1.0
145
0.0
146
0.71
147
1.5
 71
     0
 72
     0
 73
     0
 74
     1
 75
     0
 76
     0
 77
     3
 78
     8
170
     0
171
     2
172
     0
173
     0
174
     0
175
     0
176
   256
177
   256
178
     2
270
     2
271
     2
272
     3
273
     2
274
     2
340
6B
275
     0
280
     0
281
     0
282
     0
283
     0
284
     0
285
     0
286
     0
287
     0
288
     1
  0
DIMSTYLE
105
61
330
A
100
AcDbSymbolTableRecord
100
AcDbDimStyleTableRecord
  2
AM_JIS$6
 70
     0
  3

  4
"
  5
OPEN30
  6

  7

 40
0.5
 41
2.5
 42
1.0
 43
10.0
 44
1.0
 45
0.0
 46
0.0
 47
0.1
 48
0.1
140
3.2
141
0.0
142
0.0
143
0.0393701
144
1.0
145
0.0
146
0.71
147
1.5
 71
     0
 72
     0
 73
     0
 74
     0
 75
     0
 76
     0
 77
     0
 78
     8
170
     0
171
     2
172
     1
173
     0
174
     0
175
     0
176
   256
177
   256
178
     2
270
     2
271
     2
272
     2
273
     2
274
     2
340
6B
275
     0
280
     0
281
     0
282
     0
283
     0
284
     0
285
     0
286
     0
287
     3
288
     0
  0
DIMSTYLE
105
62
330
A
100
AcDbSymbolTableRecord
100
AcDbDimStyleTableRecord
  2
AM_JIS$7
 70
     0
  3

  4
"
  5
OPEN30
  6

  7

 40
0.5
 41
2.5
 42
1.0
 43
10.0
 44
1.0
 45
0.0
 46
0.0
 47
0.1
 48
0.1
140
3.2
141
0.0
142
0.0
143
0.0393701
144
1.0
145
0.0
146
0.71
147
1.5
 71
     0
 72
     0
 73
     0
 74
     0
 75
     0
 76
     0
 77
     3
 78
     8
170
     0
171
     2
172
     1
173
     0
174
     0
175
     0
176
   256
177
   256
178
     2
270
     2
271
     2
272
     3
273
     2
274
     2
340
6B
275
     0
280
     0
281
     0
282
     0
283
     0
284
     0
285
     0
286
     0
287
     3
288
     0
  0
DIMSTYLE
105
63
330
A
100
AcDbSymbolTableRecord
100
AcDbDimStyleTableRecord
  2
AM_JIS$SF
 70
     0
  3

  4
"
  5
OPEN30
  6

  7

 40
0.5
 41
2.5
 42
1.0
 43
10.0
 44
1.0
 45
0.0
 46
0.0
 47
0.1
 48
0.1
140
3.2
141
0.0
142
0.0
143
0.0393701
144
1.0
145
0.0
146
0.71
147
1.5
 71
     0
 72
     0
 73
     0
 74
     0
 75
     1
 76
     1
 77
     3
 78
     8
170
     0
171
     2
172
     1
173
     0
174
     0
175
     0
176
   256
177
   256
178
     2
270
     2
271
     2
272
     2
273
     2
274
     2
340
6B
275
     0
280
     0
281
     0
282
     0
283
     0
284
     0
285
     0
286
     0
287
     3
288
     0
  0
DIMSTYLE
105
68
330
A
100
AcDbSymbolTableRecord
100
AcDbDimStyleTableRecord
  2
AM_JIS$SH
 70
     0
  3

  4
"
  5

  6
GENAXEH
  7
OPEN30
 40
0.5
 41
2.5
 42
1.0
 43
10.0
 44
1.0
 45
0.0
 46
0.0
 47
0.1
 48
0.1
140
3.2
141
0.0
142
0.0
143
0.0393701
144
2.0
145
0.0
146
0.71
147
1.5
 71
     0
 72
     0
 73
     0
 74
     0
 75
     1
 76
     1
 77
     3
 78
     8
170
     0
171
     2
172
     1
173
     1
174
     0
175
     0
176
   256
177
   256
178
     2
270
     2
271
     2
272
     2
273
     2
274
     2
340
6B
275
     0
280
     0
281
     0
282
     0
283
     0
284
     0
285
     0
286
     0
287
     3
288
     0
  0
DIMSTYLE
105
B34
330
A
100
AcDbSymbolTableRecord
100
AcDbDimStyleTableRecord
  2
AM_JIS$2
 70
     0
  3

  4
"
  5
OPEN30
  6

  7

 40
0.5
 41
2.5
 42
1.0
 43
12.0
 44
1.0
 45
0.0
 46
0.0
 47
0.1
 48
0.1
140
3.2
141
0.0
142
0.0
143
0.0393701
144
1.0
145
0.0
146
0.71
147
1.5
 71
     0
 72
     0
 73
     0
 74
     0
 75
     0
 76
     0
 77
     3
 78
     8
170
     0
171
     2
172
     1
173
     0
174
     0
175
     0
176
   256
177
   256
178
     2
270
     2
271
     3
272
     3
273
     2
274
     2
340
6B
275
     0
280
     0
281
     0
282
     0
283
     0
284
     0
285
     0
286
     0
287
     3
288
     0
  0
ENDTAB
  0
TABLE
  2
BLOCK_RECORD
  5
1
330
0
100
AcDbSymbolTable
 70
     9
  0
BLOCK_RECORD
  5
1F
102
{ACAD_XDICTIONARY
360
74
102
}
330
1
100
AcDbSymbolTableRecord
100
AcDbBlockTableRecord
  2
*MODEL_SPACE
  0
BLOCK_RECORD
  5
101
102
{ACAD_XDICTIONARY
360
23CB
102
}
330
1
100
AcDbSymbolTableRecord
100
AcDbBlockTableRecord
  2
*PAPER_SPACE
  0
BLOCK_RECORD
  5
59
330
1
100
AcDbSymbolTableRecord
100
AcDbBlockTableRecord
  2
_OPEN30
  0
BLOCK_RECORD
  5
64
330
1
100
AcDbSymbolTableRecord
100
AcDbBlockTableRecord
  2
GENAXEH
  0
BLOCK_RECORD
  5
FCF
330
1
100
AcDbSymbolTableRecord
100
AcDbBlockTableRecord
  2
*D5
  0
BLOCK_RECORD
  5
1060
330
1
100
AcDbSymbolTableRecord
100
AcDbBlockTableRecord
  2
*D6
  0
BLOCK_RECORD
  5
10F0
330
1
100
AcDbSymbolTableRecord
100
AcDbBlockTableRecord
  2
*D7
  0
BLOCK_RECORD
  5
1316
330
1
100
AcDbSymbolTableRecord
100
AcDbBlockTableRecord
  2
*D8
  0
ENDTAB
  0
ENDSEC
  0
SECTION
  2
BLOCKS
  0
BLOCK
  5
20
330
1F
100
AcDbEntity
  8
0
100
AcDbBlockBegin
  2
*MODEL_SPACE
 70
     0
 10
0.0
 20
0.0
 30
0.0
  3
*MODEL_SPACE
  1

  0
ENDBLK
  5
21
330
1F
100
AcDbEntity
  8
0
100
AcDbBlockEnd
  0
BLOCK
  5
103
330
101
100
AcDbEntity
 67
     1
  8
0
100
AcDbBlockBegin
  2
*PAPER_SPACE
 70
     0
 10
0.0
 20
0.0
 30
0.0
  3
*PAPER_SPACE
  1

  0
ENDBLK
  5
104
330
101
100
AcDbEntity
 67
     1
  8
0
100
AcDbBlockEnd
  0
BLOCK
  5
5D
330
59
100
AcDbEntity
  8
0
100
AcDbBlockBegin
  2
_OPEN30
 70
     0
 10
0.0
 20
0.0
 30
0.0
  3
_OPEN30
  1

  0
LINE
  5
5A
330
59
100
AcDbEntity
  8
0
 62
     0
100
AcDbLine
 10
-1.0
 20
0.26794919
 30
0.0
 11
0.0
 21
0.0
 31
0.0
  0
LINE
  5
5B
330
59
100
AcDbEntity
  8
0
 62
     0
100
AcDbLine
 10
0.0
 20
0.0
 30
0.0
 11
-1.0
 21
-0.26794919
 31
0.0
  0
LINE
  5
5C
330
59
100
AcDbEntity
  8
0
 62
     0
100
AcDbLine
 10
0.0
 20
0.0
 30
0.0
 11
-1.0
 21
0.0
 31
0.0
  0
ENDBLK
  5
5E
330
59
100
AcDbEntity
  8
0
100
AcDbBlockEnd
  0
BLOCK
  5
66
330
64
100
AcDbEntity
  8
0
100
AcDbBlockBegin
  2
GENAXEH
 70
     0
 10
0.0
 20
0.0
 30
0.0
  3
GENAXEH
  1

  0
LINE
  5
65
330
64
100
AcDbEntity
  8
0
100
AcDbLine
 10
-1.0
 20
0.0
 30
0.0
 11
1.0
 21
0.0
 31
0.0
  0
ENDBLK
  5
67
330
64
100
AcDbEntity
  8
0
100
AcDbBlockEnd
  0
BLOCK
  5
FD9
330
FCF
100
AcDbEntity
  8
0
100
AcDbBlockBegin
  2
*D5
 70
     1
 10
0.0
 20
0.0
 30
0.0
  3
*D5
  1

  0
LINE
  5
1AC5
330
FCF
100
AcDbEntity
  8
AM_5
100
AcDbLine
 10
-45.0
 20
2.99999999999996
 30
0.0
 11
-54.46900544538311
 21
2.999999999999963
 31
0.0
  0
LINE
  5
1AC6
330
FCF
100
AcDbEntity
  8
AM_5
100
AcDbLine
 10
-45.00000000000001
 20
-3.000000000000038
 30
0.0
 11
-54.46900544538311
 21
-3.000000000000036
 31
0.0
  0
LINE
  5
1AC7
330
FCF
100
AcDbEntity
  8
AM_5
100
AcDbLine
 10
-53.96900544538311
 20
1.749999999999963
 30
0.0
 11
-53.96900544538311
 21
-1.750000000000036
 31
0.0
  0
INSERT
  5
1AC8
330
FCF
100
AcDbEntity
  8
AM_5
100
AcDbBlockReference
  2
_OPEN30
 10
-53.96900544538311
 20
2.999999999999963
 30
0.0
 41
1.25
 42
1.25
 43
1.25
 50
90.0
  0
INSERT
  5
1AC9
330
FCF
100
AcDbEntity
  8
AM_5
100
AcDbBlockReference
  2
_OPEN30
 10
-53.96900544538311
 20
-3.000000000000036
 30
0.0
 41
1.25
 42
1.25
 43
1.25
 50
270.0
  0
MTEXT
  5
1ACA
330
FCF
100
AcDbEntity
  8
AM_5
 62
     2
100
AcDbMText
 10
-55.51900544538311
 20
-0.0000000000000449
 30
0.0
 40
1.6
 41
0.0
 71
     5
 72
     1
  1
%%c6
  7
ASAMI
 11
0.0000000000000001
 21
1.0
 31
0.0
1001
ACAD
1000
MTEXTBEGIN
1070
    73
1070
     1
1070
    44
1040
1.0
1070
    74
1070
     0
1000
MTEXTEND
  0
POINT
  5
1ACB
330
FCF
100
AcDbEntity
  8
DEFPOINTS
 62
     0
100
AcDbPoint
 10
-44.5
 20
2.99999999999996
 30
0.0
  0
POINT
  5
1ACC
330
FCF
100
AcDbEntity
  8
DEFPOINTS
 62
     0
100
AcDbPoint
 10
-44.50000000000001
 20
-3.000000000000039
 30
0.0
  0
POINT
  5
1ACD
330
FCF
100
AcDbEntity
  8
DEFPOINTS
 62
     0
100
AcDbPoint
 10
-53.96900544538311
 20
-3.000000000000036
 30
0.0
  0
ENDBLK
  5
FDA
330
FCF
100
AcDbEntity
  8
0
100
AcDbBlockEnd
  0
BLOCK
  5
106A
330
1060
100
AcDbEntity
  8
0
100
AcDbBlockBegin
  2
*D6
 70
     1
 10
0.0
 20
0.0
 30
0.0
  3
*D6
  1

  0
LINE
  5
2201
330
1060
100
AcDbEntity
  8
AM_5
100
AcDbLine
 10
-10.0
 20
-1.999999999999976
 30
0.0
 11
-10.0
 21
-10.50000099999999
 31
0.0
  0
LINE
  5
2202
330
1060
100
AcDbEntity
  8
AM_5
100
AcDbLine
 10
-0.000000000000771
 20
-2.0
 30
0.0
 11
-0.0000000000007715
 21
-10.50000099999999
 31
0.0
  0
LINE
  5
2203
330
1060
100
AcDbEntity
  8
AM_5
100
AcDbLine
 10
-8.75
 20
-10.00000099999999
 30
0.0
 11
-1.250000000000771
 21
-10.00000099999999
 31
0.0
  0
INSERT
  5
2204
330
1060
100
AcDbEntity
  8
AM_5
100
AcDbBlockReference
  2
_OPEN30
 10
-10.0
 20
-10.00000099999999
 30
0.0
 41
1.25
 42
1.25
 43
1.25
 50
180.0
  0
INSERT
  5
2205
330
1060
100
AcDbEntity
  8
AM_5
100
AcDbBlockReference
  2
_OPEN30
 10
-0.0000000000007715
 20
-10.00000099999999
 30
0.0
 41
1.25
 42
1.25
 43
1.25
  0
MTEXT
  5
2206
330
1060
100
AcDbEntity
  8
AM_5
 62
     2
100
AcDbMText
 10
-5.000000000000385
 20
-8.450000999999991
 30
0.0
 40
1.6
 41
0.0
 71
     5
 72
     1
  1
10
  7
ASAMI
1001
ACAD
1000
MTEXTBEGIN
1070
    73
1070
     1
1070
    44
1040
1.0
1070
    74
1070
     0
1000
MTEXTEND
  0
POINT
  5
2207
330
1060
100
AcDbEntity
  8
DEFPOINTS
 62
     0
100
AcDbPoint
 10
-10.0
 20
-1.499999999999976
 30
0.0
  0
POINT
  5
2208
330
1060
100
AcDbEntity
  8
DEFPOINTS
 62
     0
100
AcDbPoint
 10
-0.0000000000007709
 20
-1.5
 30
0.0
  0
POINT
  5
2209
330
1060
100
AcDbEntity
  8
DEFPOINTS
 62
     0
100
AcDbPoint
 10
-0.0000000000007715
 20
-10.00000099999999
 30
0.0
  0
ENDBLK
  5
106B
330
1060
100
AcDbEntity
  8
0
100
AcDbBlockEnd
  0
BLOCK
  5
10FA
330
10F0
100
AcDbEntity
  8
0
100
AcDbBlockBegin
  2
*D7
 70
     1
 10
0.0
 20
0.0
 30
0.0
  3
*D7
  1

  0
LINE
  5
220A
330
10F0
100
AcDbEntity
  8
AM_5
100
AcDbLine
 10
-45.00000000000001
 20
-3.000000000000039
 30
0.0
 11
-45.00000000000001
 21
-16.50000099999999
 31
0.0
  0
LINE
  5
220B
330
10F0
100
AcDbEntity
  8
AM_5
100
AcDbLine
 10
0.0000000000000071
 20
-2.0
 30
0.0
 11
0.0000000000000062
 21
-16.50000099999999
 31
0.0
  0
LINE
  5
220C
330
10F0
100
AcDbEntity
  8
AM_5
100
AcDbLine
 10
-43.75000000000001
 20
-16.00000099999999
 30
0.0
 11
-1.249999999999993
 21
-16.00000099999999
 31
0.0
  0
INSERT
  5
220D
330
10F0
100
AcDbEntity
  8
AM_5
100
AcDbBlockReference
  2
_OPEN30
 10
-45.00000000000001
 20
-16.00000099999999
 30
0.0
 41
1.25
 42
1.25
 43
1.25
 50
180.0
  0
INSERT
  5
220E
330
10F0
100
AcDbEntity
  8
AM_5
100
AcDbBlockReference
  2
_OPEN30
 10
0.0000000000000062
 20
-16.00000099999999
 30
0.0
 41
1.25
 42
1.25
 43
1.25
  0
MTEXT
  5
220F
330
10F0
100
AcDbEntity
  8
AM_5
 62
     2
100
AcDbMText
 10
-22.5
 20
-14.45000099999998
 30
0.0
 40
1.6
 41
0.0
 71
     5
 72
     1
  1
45
  7
ASAMI
1001
ACAD
1000
MTEXTBEGIN
1070
    73
1070
     1
1070
    44
1040
1.0
1070
    74
1070
     0
1000
MTEXTEND
  0
POINT
  5
2210
330
10F0
100
AcDbEntity
  8
DEFPOINTS
 62
     0
100
AcDbPoint
 10
-45.00000000000001
 20
-2.500000000000039
 30
0.0
  0
POINT
  5
2211
330
10F0
100
AcDbEntity
  8
DEFPOINTS
 62
     0
100
AcDbPoint
 10
0.0000000000000071
 20
-1.5
 30
0.0
  0
POINT
  5
2212
330
10F0
100
AcDbEntity
  8
DEFPOINTS
 62
     0
100
AcDbPoint
 10
0.0000000000000062
 20
-16.00000099999999
 30
0.0
  0
ENDBLK
  5
10FB
330
10F0
100
AcDbEntity
  8
0
100
AcDbBlockEnd
  0
BLOCK
  5
1320
330
1316
100
AcDbEntity
  8
0
100
AcDbBlockBegin
  2
*D8
 70
     1
 10
0.0
 20
0.0
 30
0.0
  3
*D8
  1

  0
LINE
  5
237C
330
1316
100
AcDbEntity
  8
AM_5
100
AcDbLine
 10
0.5
 20
1.5
 30
0.0
 11
6.548469189025837
 21
1.499999999999998
 31
0.0
  0
LINE
  5
237D
330
1316
100
AcDbEntity
  8
AM_5
100
AcDbLine
 10
0.5000000000000053
 20
-1.500000000000014
 30
0.0
 11
6.548469189025837
 21
-1.500000000000015
 31
0.0
  0
LINE
  5
237E
330
1316
100
AcDbEntity
  8
AM_5
100
AcDbLine
 10
6.048469189025838
 20
2.749999999999998
 30
0.0
 11
6.048469189025838
 21
3.999999999999998
 31
0.0
  0
LINE
  5
237F
330
1316
100
AcDbEntity
  8
AM_5
100
AcDbLine
 10
6.048469189025836
 20
-2.750000000000015
 30
0.0
 11
6.048469189025835
 21
-8.01428571428573
 31
0.0
  0
LINE
  5
2380
330
1316
100
AcDbEntity
  8
AM_5
100
AcDbLine
 10
6.048469189025837
 20
1.499999999999998
 30
0.0
 11
6.048469189025837
 21
-1.500000000000015
 31
0.0
  0
INSERT
  5
2381
330
1316
100
AcDbEntity
  8
AM_5
100
AcDbBlockReference
  2
_OPEN30
 10
6.048469189025837
 20
1.499999999999998
 30
0.0
 41
1.25
 42
1.25
 43
1.25
 50
270.0
  0
INSERT
  5
2382
330
1316
100
AcDbEntity
  8
AM_5
100
AcDbBlockReference
  2
_OPEN30
 10
6.048469189025837
 20
-1.500000000000015
 30
0.0
 41
1.25
 42
1.25
 43
1.25
 50
90.0
  0
MTEXT
  5
2383
330
1316
100
AcDbEntity
  8
AM_5
 62
     2
100
AcDbMText
 10
4.498469189025836
 20
-6.007142857142871
 30
0.0
 40
1.6
 41
0.0
 71
     5
 72
     1
  1
%%c3
  7
ASAMI
 11
0.0000000000000001
 21
1.0
 31
0.0
1001
ACAD
1000
MTEXTBEGIN
1070
    73
1070
     1
1070
    44
1040
1.0
1070
    74
1070
     0
1000
MTEXTEND
  0
POINT
  5
2384
330
1316
100
AcDbEntity
  8
DEFPOINTS
 62
     0
100
AcDbPoint
 10
0.0
 20
1.5
 30
0.0
  0
POINT
  5
2385
330
1316
100
AcDbEntity
  8
DEFPOINTS
 62
     0
100
AcDbPoint
 10
0.0000000000000052
 20
-1.500000000000013
 30
0.0
  0
POINT
  5
2386
330
1316
100
AcDbEntity
  8
DEFPOINTS
 62
     0
100
AcDbPoint
 10
6.048469189025837
 20
-1.500000000000015
 30
0.0
  0
ENDBLK
  5
1321
330
1316
100
AcDbEntity
  8
0
100
AcDbBlockEnd
  0
ENDSEC
  0
SECTION
  2
ENTITIES
  0
TEXT
  5
E5A
330
1F
100
AcDbEntity
  8
AM_6
100
AcDbText
 10
-30.47619047619047
 20
-27.25000099999999
 30
0.0
 40
2.5
  1
JSM2030
 72
     4
 11
-22.49999999999999
 21
-26.00000099999999
 31
0.0
100
AcDbText
  0
DIMENSION
  5
FCE
330
1F
100
AcDbEntity
  8
AM_5
100
AcDbDimension
  2
*D5
 10
-53.96900544538311
 20
-3.000000000000036
 30
0.0
 11
-55.51900544538311
 21
-0.0000000000000449
 31
0.0
 70
    32
  1
%%c<>
  3
AM_JIS
100
AcDbAlignedDimension
 13
-44.5
 23
2.99999999999996
 33
0.0
 14
-44.50000000000001
 24
-3.000000000000039
 34
0.0
 50
270.0000000000001
100
AcDbRotatedDimension
1001
GENIUS_GENDTOL_13
1000

1000
h7
1000

1040
0.0
  0
DIMENSION
  5
105F
330
1F
100
AcDbEntity
  8
AM_5
100
AcDbDimension
  2
*D6
 10
-0.0000000000007715
 20
-10.00000099999999
 30
0.0
 11
-5.000000000000385
 21
-8.450000999999991
 31
0.0
 70
    32
  1
<>
  3
AM_JIS
100
AcDbAlignedDimension
 13
-10.0
 23
-1.499999999999976
 33
0.0
 14
-0.0000000000007709
 24
-1.5
 34
0.0
 50
0.0000000000001132
100
AcDbRotatedDimension
1001
GENIUS_GENDTOL_13
1000

1000
h7
1000

1040
0.0
  0
DIMENSION
  5
10EF
330
1F
100
AcDbEntity
  8
AM_5
100
AcDbDimension
  2
*D7
 10
0.0000000000000062
 20
-16.00000099999999
 30
0.0
 11
-22.5
 21
-14.45000099999998
 31
0.0
 70
    32
  1
<>
  3
AM_JIS
100
AcDbAlignedDimension
 13
-45.00000000000001
 23
-2.500000000000039
 33
0.0
 14
0.0000000000000071
 24
-1.5
 34
0.0
 50
0.0000000000001132
100
AcDbRotatedDimension
1001
GENIUS_GENDTOL_13
1000

1000
h7
1000

1040
0.0
  0
DIMENSION
  5
1315
330
1F
100
AcDbEntity
  8
AM_5
100
AcDbDimension
  2
*D8
 10
6.048469189025837
 20
-1.500000000000015
 30
0.0
 11
4.498469189025836
 21
-6.007142857142871
 31
0.0
 70
    32
  1
%%c<>
  3
AM_JIS
100
AcDbAlignedDimension
 13
0.0
 23
1.5
 33
0.0
 14
0.0000000000000052
 24
-1.500000000000013
 34
0.0
 50
90.0
100
AcDbRotatedDimension
1001
GENIUS_GENDTOL_13
1000

1000
h7
1000

1040
0.0
  0
LINE
  5
1759
330
1F
100
AcDbEntity
  8
AM_7
  6
AM_ISO08W050X2
100
AcDbLine
 10
2.278884015427479
 20
0.0000000000000036
 30
0.0
 11
-46.96900444538312
 21
-0.0000000000000391
 31
0.0
1001
GENIUS_GENODEF_13
1002
{
1000
HIER
1070
     0
1002
}
1002
{
1000
MANEDIT
1070
     0
1002
}
1002
{
1000
NOSEL
1070
     0
1002
}
1002
{
1000
BEHIND
1070
     0
1002
}
1002
{
1000
REACTOR
1002
}
1001
GENIUS_GENOBJ-N-CEN_13
1002
{
1000
OWNER
1000
GEN
1002
}
  0
LINE
  5
1849
330
1F
100
AcDbEntity
  8
AM_0
100
AcDbLine
 10
-45.0
 20
2.49999999999996
 30
0.0
 11
-45.00000000000001
 21
-2.500000000000039
 31
0.0
  0
LINE
  5
184A
330
1F
100
AcDbEntity
  8
AM_0
100
AcDbLine
 10
-44.50000000000001
 20
-3.000000000000039
 30
0.0
 11
-20.50000000000001
 21
-3.000000000000039
 31
0.0
  0
LINE
  5
184B
330
1F
100
AcDbEntity
  8
AM_0
100
AcDbLine
 10
-44.5
 20
2.99999999999996
 30
0.0
 11
-20.5
 21
2.999999999999961
 31
0.0
  0
LINE
  5
1857
330
1F
100
AcDbEntity
  8
AM_0
100
AcDbLine
 10
-44.5
 20
2.99999999999996
 30
0.0
 11
-45.0
 21
2.49999999999996
 31
0.0
1001
GENIUS_GENFIL_13
1070
     0
1040
0.5
1040
0.5
1040
20.0
1040
0.0
1002
{
1002
}
1001
GENIUS_GENODEF_13
1002
{
1000
HIER
1070
     0
1002
}
1002
{
1000
MANEDIT
1070
     0
1002
}
1002
{
1000
NOSEL
1070
     0
1002
}
1002
{
1000
BEHIND
1070
     0
1002
}
1002
{
1000
REACTOR
1002
}
1001
GENIUS_GENOBJ-N-CHA_13
1002
{
1000
OWNER
1000
GEN
1002
}
  0
LINE
  5
185A
330
1F
100
AcDbEntity
  8
AM_0
100
AcDbLine
 10
-45.00000000000001
 20
-2.500000000000039
 30
0.0
 11
-44.50000000000001
 21
-3.000000000000039
 31
0.0
1001
GENIUS_GENFIL_13
1070
     0
1040
0.5
1040
0.5
1040
20.0
1040
0.0
1002
{
1002
}
1001
GENIUS_GENODEF_13
1002
{
1000
HIER
1070
     0
1002
}
1002
{
1000
MANEDIT
1070
     0
1002
}
1002
{
1000
NOSEL
1070
     0
1002
}
1002
{
1000
BEHIND
1070
     0
1002
}
1002
{
1000
REACTOR
1002
}
1001
GENIUS_GENOBJ-N-CHA_13
1002
{
1000
OWNER
1000
GEN
1002
}
  0
LINE
  5
185B
330
1F
100
AcDbEntity
  8
AM_0
100
AcDbLine
 10
-44.5
 20
2.99999999999996
 30
0.0
 11
-44.50000000000001
 21
-3.000000000000039
 31
0.0
  0
LINE
  5
1863
330
1F
100
AcDbEntity
  8
AM_0
100
AcDbLine
 10
-20.5
 20
2.999999999999959
 30
0.0
 11
-20.50000000000001
 21
-3.000000000000036
 31
0.0
  0
LINE
  5
187A
330
1F
100
AcDbEntity
  8
AM_0
100
AcDbLine
 10
-20.5
 20
2.999999999999959
 30
0.0
 11
-14.90192378864674
 21
1.499999999999976
 31
0.0
  0
LINE
  5
187B
330
1F
100
AcDbEntity
  8
AM_0
100
AcDbLine
 10
-14.90192378864674
 20
1.499999999999976
 30
0.0
 11
-14.90192378864683
 21
-1.500000000000069
 31
0.0
  0
LINE
  5
187C
330
1F
100
AcDbEntity
  8
AM_0
100
AcDbLine
 10
-14.90192378864519
 20
-1.499999999999631
 30
0.0
 11
-20.50000000000002
 21
-3.00000000000004
 31
0.0
  0
SPLINE
  5
2170
330
1F
100
AcDbEntity
  8
AM_0
100
AcDbSpline
210
0.0
220
0.0
230
1.0
 70
     8
 71
     3
 72
     8
 73
     4
 74
     0
 42
0.0000000001
 43
0.0000000001
 40
4.219358800530717
 40
4.219358800530717
 40
4.219358800530717
 40
4.219358800530717
 40
14.36247867694493
 40
14.36247867694493
 40
14.36247867694493
 40
14.36247867694493
 10
-0.1124999999999833
 20
-1.223466055353917
 30
0.0
 10
-1.086325127067041
 20
-0.9782843375066434
 30
0.0
 10
-2.019865061387228
 20
-0.4891421687533111
 30
0.0
 10
-2.953404995707408
 20
0.0000000000000142
 30
0.0
  0
SPLINE
  5
2172
330
1F
100
AcDbEntity
  8
AM_0
100
AcDbSpline
210
0.0
220
0.0
230
1.0
 70
     8
 71
     3
 72
     8
 73
     4
 74
     2
 42
0.0000000001
 43
0.0000000001
 44
0.0000000001
 12
-1.0
 22
-0.0000000000000008
 32
0.0
 40
0.0
 40
0.0
 40
0.0
 40
0.0
 40
4.346998964803185
 40
4.346998964803185
 40
4.346998964803185
 40
4.346998964803185
 10
-0.0000000000000003
 20
-1.5
 30
0.0
 10
-1.448999654934395
 20
-1.500000000000001
 30
0.0
 10
-2.764499827467197
 20
-0.7500000000000041
 30
0.0
 10
-4.079999999999999
 20
-0.0000000000000071
 30
0.0
 11
-0.0000000000000003
 21
-1.5
 31
0.0
 11
-4.079999999999999
 21
-0.0000000000000071
 31
0.0
  0
SPLINE
  5
2174
330
1F
100
AcDbEntity
  8
AM_0
100
AcDbSpline
210
0.0
220
0.0
230
1.0
 70
     8
 71
     3
 72
     8
 73
     4
 74
     0
 42
0.0000000001
 43
0.0000000001
 40
0.7142832446738512
 40
0.7142832446738512
 40
0.7142832446738512
 40
0.7142832446738512
 40
14.36247867694493
 40
14.36247867694493
 40
14.36247867694493
 40
14.36247867694493
 10
-7.082238319817744
 20
1.367780750734973
 30
0.0
 10
-5.465676490606797
 20
1.316342110642658
 30
0.0
 10
-4.209540743157107
 20
0.6581710553213398
 30
0.0
 10
-2.953404995707408
 20
0.0000000000000142
 30
0.0
  0
SPLINE
  5
2175
330
1F
100
AcDbEntity
  8
AM_0
100
AcDbSpline
210
0.0
220
0.0
230
1.0
 70
     8
 71
     3
 72
     8
 73
     4
 74
     0
 42
0.0000000001
 43
0.0000000001
 40
0.0
 40
0.0
 40
0.0
 40
0.0
 40
7.57842115059705
 40
7.57842115059705
 40
7.57842115059705
 40
7.57842115059705
 10
-0.0000000000000003
 20
1.5
 30
0.0
 10
-0.7578421150597027
 20
1.5
 30
0.0
 10
-1.479166776148758
 20
1.294844968794713
 30
0.0
 10
-2.183072997169247
 20
0.9918331533052437
 30
0.0
  0
SPLINE
  5
2176
330
1F
100
AcDbEntity
  8
AM_0
100
AcDbSpline
210
0.0
220
0.0
230
1.0
 70
     8
 71
     3
 72
     8
 73
     4
 74
     2
 42
0.0000000001
 43
0.0000000001
 44
0.0000000001
 12
-0.6417012268563094
 22
-0.7669547153848832
 32
0.0
 13
-0.990099942783104
 23
-0.140364180975397
 33
0.0
 40
0.0
 40
0.0
 40
0.0
 40
0.0
 40
0.7759695970850268
 40
0.7759695970850268
 40
0.7759695970850268
 40
0.7759695970850268
 10
-0.0000000000000003
 20
1.222410806005193
 30
0.0
 10
-0.1659802141508862
 20
1.024032958845303
 30
0.0
 10
-0.450875851414805
 20
0.9388421390773018
 30
0.0
 10
-0.7069716693065761
 20
0.902536026758419
 30
0.0
 11
-0.0000000000000003
 21
1.222410806005193
 31
0.0
 11
-0.7069716693065761
 21
0.902536026758419
 31
0.0
  0
SPLINE
  5
2178
330
1F
100
AcDbEntity
  8
AM_0
100
AcDbSpline
210
0.0
220
0.0
230
1.0
 70
     8
 71
     3
 72
     8
 73
     4
 74
     2
 42
0.0000000001
 43
0.0000000001
 44
0.0000000001
 12
1.0
 22
0.0000000000000006
 32
0.0
 40
0.0
 40
0.0
 40
0.0
 40
0.0
 40
4.346998964803182
 40
4.346998964803182
 40
4.346998964803182
 40
4.346998964803182
 10
-8.159999999999996
 20
1.500000000000021
 30
0.0
 10
-6.711000345065603
 20
1.500000000000022
 30
0.0
 10
-5.3955001725328
 20
0.7500000000000289
 30
0.0
 10
-4.079999999999999
 20
0.0000000000000355
 30
0.0
 11
-8.159999999999996
 21
1.500000000000021
 31
0.0
 11
-4.079999999999999
 21
0.0000000000000355
 31
0.0
  0
LINE
  5
2179
330
1F
100
AcDbEntity
  8
AM_0
100
AcDbLine
 10
-5.734329849480148
 20
1.178909904665055
 30
0.0
 11
-0.7069716693065761
 21
0.9025360267584261
 31
0.0
  0
LINE
  5
217A
330
1F
100
AcDbEntity
  8
AM_11
100
AcDbLine
 10
-0.0000000000002277
 20
1.5
 30
0.0
 11
-10.0
 21
1.499999999999991
 31
0.0
  0
LINE
  5
217B
330
1F
100
AcDbEntity
  8
AM_11
100
AcDbLine
 10
-10.0
 20
-1.499999999999976
 30
0.0
 11
0.0000000000000068
 21
-1.5
 31
0.0
  0
LINE
  5
217C
330
1F
100
AcDbEntity
  8
AM_7
  6
AM_ISO08W050X2
100
AcDbLine
 10
1.367330409256488
 20
0.0
 30
0.0
 11
-12.23999999999998
 21
-0.0000000000000071
 31
0.0
1001
GENIUS_GENODEF_13
1002
{
1000
HIER
1070
     0
1002
}
1002
{
1000
MANEDIT
1070
     0
1002
}
1002
{
1000
NOSEL
1070
     0
1002
}
1002
{
1000
BEHIND
1070
     0
1002
}
1002
{
1000
REACTOR
1002
}
1001
GENIUS_GENOBJ-N-CEN_13
1002
{
1000
OWNER
1000
GEN
1002
}
  0
LINE
  5
217E
330
1F
100
AcDbEntity
  8
AM_0
100
AcDbLine
 10
0.0000000000000068
 20
-1.5
 30
0.0
 11
-0.0000000000000003
 21
0.0600000000000023
 31
0.0
  0
ARC
  5
217F
330
1F
100
AcDbEntity
  8
AM_0
100
AcDbCircle
 10
4.262030532714802
 20
0.0063111935125164
 30
0.0
 40
4.539756116973554
100
AcDbArc
 50
175.3635181775062
 51
195.5055110014725
  0
LINE
  5
2180
330
1F
100
AcDbEntity
  8
AM_0
100
AcDbLine
 10
-0.0000000000000003
 20
0.3000000000000043
 30
0.0
 11
-0.0000000000000003
 21
1.5
 31
0.0
  0
LINE
  5
2181
330
1F
100
AcDbEntity
  8
AM_0
100
AcDbLine
 10
-0.0000000000000003
 20
0.0600000000000023
 30
0.0
 11
-0.7069716693065761
 21
0.9025360267584261
 31
0.0
  0
LINE
  5
2182
330
1F
100
AcDbEntity
  8
AM_0
100
AcDbLine
 10
-0.1006919557412761
 20
0.1799999999999926
 30
0.0
 11
-0.0000000000000003
 21
0.3000000000000043
 31
0.0
  0
LINE
  5
2183
330
1F
100
AcDbEntity
  8
AM_0
100
AcDbLine
 10
-0.1124999999999975
 20
-1.223466055353981
 30
0.0
 11
-0.1124999999999975
 21
-1.207306629339782
 31
0.0
  0
LINE
  5
2184
330
1F
100
AcDbEntity
  8
AM_0
100
AcDbLine
 10
0.0000000000000068
 20
-1.5
 30
0.0
 11
-0.0315000000000015
 21
-1.420032347286543
 31
0.0
  0
LINE
  5
2185
330
1F
100
AcDbEntity
  8
AM_0
100
AcDbLine
 10
-0.0315000000000015
 20
-1.420032347286543
 30
0.0
 11
-0.1124999999999975
 21
-1.223466055353981
 31
0.0
  0
LINE
  5
2189
330
1F
100
AcDbEntity
  8
AM_0
100
AcDbLine
 10
-11.57546304573874
 20
-1.499999999999627
 30
0.0
 11
-14.90192378864683
 21
-1.499999999999632
 31
0.0
  0
LINE
  5
218B
330
1F
100
AcDbEntity
  8
AM_11
100
AcDbLine
 10
-10.0
 20
-1.499999999999625
 30
0.0
 11
-10.0
 21
1.499999999999998
 31
0.0
  0
LINE
  5
218F
330
1F
100
AcDbEntity
  8
AM_0
100
AcDbLine
 10
-12.1139212230771
 20
1.499999999999981
 30
0.0
 11
-14.90192378864674
 21
1.499999999999975
 31
0.0
  0
SPLINE
  5
21C7
330
1F
100
AcDbEntity
  8
AM_0
100
AcDbSpline
210
0.0
220
0.0
230
1.0
 70
     8
 71
     3
 72
     8
 73
     4
 74
     0
 42
0.0000000001
 43
0.0000000001
 40
0.0
 40
0.0
 40
0.0
 40
0.0
 40
3.000656968708724
 40
3.000656968708724
 40
3.000656968708724
 40
3.000656968708724
 10
-8.159999999999984
 20
1.499999999999992
 30
0.0
 10
-8.460065696870843
 20
1.499999999999991
 30
0.0
 10
-9.24138714351389
 20
1.467836937117093
 30
0.0
 10
-9.750986124813385
 20
1.384208321656004
 30
0.0
  0
ARC
  5
21C9
330
1F
100
AcDbEntity
  8
AM_0
100
AcDbCircle
 10
-11.98671210031781
 20
-20.08330469213373
 30
0.0
 40
21.58367956569024
100
AcDbArc
 50
68.51065011002623
 51
90.33768978197276
  0
LINE
  5
21D1
330
1F
100
AcDbEntity
  8
AM_0
100
AcDbLine
 10
-5.034311086963579
 20
-1.207265302064882
 30
0.0
 11
-7.950192852250242
 21
-1.338086022871026
 31
0.0
  0
SPLINE
  5
21D2
330
1F
100
AcDbEntity
  8
AM_0
100
AcDbSpline
210
0.0
220
0.0
230
1.0
 70
     8
 71
     3
 72
     8
 73
     4
 74
     0
 42
0.0000000001
 43
0.0000000001
 40
0.0
 40
0.0
 40
0.0
 40
0.0
 40
2.238610194515266
 40
2.238610194515266
 40
2.238610194515266
 40
2.238610194515266
 10
-5.034311086963579
 20
-1.207265302064882
 30
0.0
 10
-4.136781703034984
 20
-1.15764781406105
 30
0.0
 10
-2.588927208106841
 20
-1.094576843188074
 30
0.0
 10
-2.163424666322614
 20
-0.999212753139826
 30
0.0
  0
SPLINE
  5
21D6
330
1F
100
AcDbEntity
  8
AM_0
100
AcDbSpline
210
0.0
220
0.0
230
1.0
 70
     8
 71
     3
 72
     8
 73
     4
 74
     2
 42
0.0000000001
 43
0.0000000001
 44
0.0000000001
 12
-1.0
 22
-0.0000000000000008
 32
0.0
 40
0.0
 40
0.0
 40
0.0
 40
0.0
 40
4.184832795148202
 40
4.184832795148202
 40
4.184832795148202
 40
4.184832795148202
 10
-9.85226853209582
 20
-1.456162751014424
 30
0.0
 10
-11.24721279714522
 20
-1.456162751014425
 30
0.0
 10
-12.4624450571941
 20
-0.6077711624972425
 30
0.0
 10
-13.67767731724298
 20
0.2406204260199409
 30
0.0
 11
-9.85226853209582
 21
-1.456162751014424
 31
0.0
 11
-13.67767731724298
 21
0.2406204260199409
 31
0.0
  0
ARC
  5
21D7
330
1F
100
AcDbEntity
  8
AM_0
100
AcDbCircle
 10
-9.892980941901985
 20
3.533347458276335
 30
0.0
 40
5.016570338634879
100
AcDbArc
 50
221.0236239108343
 51
266.7540960529804
  0
ARC
  5
21D8
330
1F
100
AcDbEntity
  8
AM_0
100
AcDbCircle
 10
-10.74711706934147
 20
-1.954397350324821
 30
0.0
 40
3.661459600357443
100
AcDbArc
 50
123.961714920256
 51
143.1664366795295
  0
ARC
  5
21D9
330
1F
100
AcDbEntity
  8
AM_0
100
AcDbCircle
 10
-8.168198869170865
 20
12.18680356336602
 30
0.0
 40
12.02876244696265
100
AcDbArc
 50
242.6775550540566
 51
255.1915110763029
  0
SPLINE
  5
21DA
330
1F
100
AcDbEntity
  8
AM_0
100
AcDbSpline
210
0.0
220
0.0
230
1.0
 70
     8
 71
     3
 72
     8
 73
     4
 74
     2
 42
0.0000000001
 43
0.0000000001
 44
0.0000000001
 12
-1.0
 22
-0.0000000000000008
 32
0.0
 40
0.0
 40
0.0
 40
0.0
 40
0.0
 40
4.508669338441266
 40
4.508669338441266
 40
4.508669338441266
 40
4.508669338441266
 10
-5.811220436607776
 20
-1.242121256216197
 30
0.0
 10
-7.314110216088198
 20
-1.242121256216198
 30
0.0
 10
-8.714734936517421
 20
-0.5708380120969358
 30
0.0
 10
-10.11535965694664
 20
0.1004452320223272
 30
0.0
 11
-5.811220436607776
 21
-1.242121256216197
 31
0.0
 11
-10.11535965694664
 21
0.1004452320223272
 31
0.0
  0
SPLINE
  5
21DB
330
1F
100
AcDbEntity
  8
AM_0
100
AcDbSpline
210
0.0
220
0.0
230
1.0
 70
     8
 71
     3
 72
     8
 73
     4
 74
     0
 42
0.0000000001
 43
0.0000000001
 40
5.297458184749251
 40
5.297458184749251
 40
5.297458184749251
 40
5.297458184749251
 40
7.218994763998551
 40
7.218994763998551
 40
7.218994763998551
 40
7.218994763998551
 10
-11.24261822658097
 20
0.5575700709882466
 30
0.0
 10
-10.8248725544379
 20
0.4128533313948087
 30
0.0
 10
-10.47011610569227
 20
0.2566492817085422
 30
0.0
 10
-10.11535965694664
 20
0.100445232022258
 30
0.0
  0
SPLINE
  5
21DF
330
1F
100
AcDbEntity
  8
AM_0
100
AcDbSpline
210
0.0
220
0.0
230
1.0
 70
     8
 71
     3
 72
     8
 73
     4
 74
     0
 42
0.0000000001
 43
0.0000000001
 40
0.0
 40
0.0
 40
0.0
 40
0.0
 40
2.221495395472776
 40
2.221495395472776
 40
2.221495395472776
 40
2.221495395472776
 10
-9.85226853209582
 20
-1.456162751014424
 30
0.0
 10
-8.386706492353237
 20
-1.385233351141559
 30
0.0
 10
-8.167293172742869
 20
-1.368663256670888
 30
0.0
 10
-7.950192852250242
 20
-1.338086022871026
 30
0.0
  0
SPLINE
  5
21E0
330
1F
100
AcDbEntity
  8
AM_0
100
AcDbSpline
210
0.0
220
0.0
230
1.0
 70
     8
 71
     3
 72
     8
 73
     4
 74
     0
 42
0.0000000001
 43
0.0000000001
 40
0.0
 40
0.0
 40
0.0
 40
0.0
 40
2.130230809022907
 40
2.130230809022907
 40
2.130230809022907
 40
2.130230809022907
 10
-11.57546304574424
 20
-1.499999999999669
 30
0.0
 10
-10.52243996484187
 20
-1.499999999999669
 30
0.0
 10
-10.31230221958308
 20
-1.483790186345716
 30
0.0
 10
-9.85226853209582
 20
-1.456162751014424
 30
0.0
  0
LINE
  5
2374
330
1F
100
AcDbEntity
  8
AM_0
100
AcDbLine
 10
-9.999999999999998
 20
-1.452999938851478
 30
0.0
 11
-10.0
 21
-1.46502766442409
 31
0.0
  0
VIEWPORT
  5
110
330
101
100
AcDbEntity
 67
     1
  8
0
100
AcDbViewport
 10
420.5
 20
297.0
 30
0.0
 40
948.9782706766916
 41
628.452
 68
     1
 69
     1
1001
ACAD
1000
MVIEW
1002
{
1070
    16
1010
0.0
1020
0.0
1030
0.0
1010
0.0
1020
0.0
1030
1.0
1040
0.0
1040
628.452
1040
420.5
1040
297.0
1040
50.0
1040
0.0
1040
0.0
1070
     0
1070
   100
1070
     1
1070
     1
1070
     0
1070
     0
1070
     0
1070
     0
1040
0.0
1040
0.0
1040
0.0
1040
10.0
1040
10.0
1040
10.0
1040
10.0
1070
     0
1002
{
1002
}
1002
}
  0
ENDSEC
  0
SECTION
  2
OBJECTS
  0
DICTIONARY
  5
C
330
0
100
AcDbDictionary
  3
ACAD_GROUP
350
D
  3
ACAD_LAYOUT
350
1A
  3
ACAD_MLINESTYLE
350
17
  3
ACAD_PLOTSETTINGS
350
19
  3
ACAD_PLOTSTYLENAME
350
E
  3
ACDBVARIABLEDICTIONARY
350
34
  3
ACMDICTIONARY
350
43
  3
AMG
350
2B
  3
AMGSNAPSETTINGS
350
6E
  3
DWGPROPS
350
2397
  3
ACDBHEADERROUNDTRIPXREC
350
23A3
  0
DICTIONARY
  5
74
330
1F
100
AcDbDictionary
280
     1
  3
ACAD_INDEX
360
2399
  3
ACAD_LAYOUTSELFREF
360
23C6
  0
DICTIONARY
  5
23CB
330
101
100
AcDbDictionary
280
     1
  3
ACAD_LAYOUTSELFREF
360
23CC
  0
DICTIONARY
  5
D
102
{ACAD_REACTORS
330
C
102
}
330
C
100
AcDbDictionary
  0
DICTIONARY
  5
1A
102
{ACAD_REACTORS
330
C
102
}
330
C
100
AcDbDictionary
  0
DICTIONARY
  5
17
102
{ACAD_REACTORS
330
C
102
}
330
C
100
AcDbDictionary
  3
STANDARD
350
18
  0
DICTIONARY
  5
19
102
{ACAD_REACTORS
330
C
102
}
330
C
100
AcDbDictionary
  0
ACDBDICTIONARYWDFLT
  5
E
102
{ACAD_REACTORS
330
C
102
}
330
C
100
AcDbDictionary
281
     1
  3
Normal
350
F
100
AcDbDictionaryWithDefault
340
F
  0
DICTIONARY
  5
34
102
{ACAD_REACTORS
330
C
102
}
330
C
100
AcDbDictionary
  3
INDEXCTL
350
35
  3
SORTENTS
350
B5E
  0
DICTIONARY
  5
43
102
{ACAD_REACTORS
330
C
102
}
330
C
100
AcDbDictionary
  3
ACMSTDDICTIONARY
350
260
  0
DICTIONARY
  5
2B
102
{ACAD_REACTORS
330
C
102
}
330
C
100
AcDbDictionary
  3
ACMGSETTINGS
350
2C
  0
DICTIONARY
  5
6E
102
{ACAD_REACTORS
330
C
102
}
330
C
100
AcDbDictionary
  0
XRECORD
  5
2397
102
{ACAD_REACTORS
330
C
102
}
330
C
100
AcDbXrecord
  1
DWGPROPS COOKIE
  2

  3

  4

  6

  7

  8

  9

300
AmdtFileType=82
301
=
302
=
303
=
304
=
305
=
306
=
307
=
308
=
309
=
 40
0.0763246412037037
 41
2452836.771637361
 42
2453045.490872546
  1

 90
        1
  0
DICTIONARY
  5
23A3
102
{ACAD_REACTORS
330
C
102
}
330
C
100
AcDbDictionary
  3
TSTACKALIGN
350
23A4
  3
TSTACKSIZE
350
23A5
  3
HYPERLINKBASE
350
23A6
  3
STYLESHEET
350
23A7
  3
LAYOUTDICT
350
23A8
  3
PLOTSETDICT
350
23A9
  3
PLOTSTYLNAMDICT
350
23AA
  3
LWETCUNION
350
23AB
  3
INSUNITS
350
23AC
  3
CEPSNTYPE
350
23AD
  3
FINGERPRINTGUID
350
23AE
  3
VERSIONGUID
350
23AF
  3
PSVPSCALE
350
23B0
  3
DIMSTYLEDATA
350
23B1
  3
PUCSORTHOREF
350
23B2
  3
PUCSORTHOVIEW
350
23B3
  3
PUCSBASE
350
23B4
  3
PUCSORGTOP
350
23B5
  3
PUCSORGBOTTOM
350
23B6
  3
PUCSORGLEFT
350
23B7
  3
PUCSORGRIGHT
350
23B8
  3
PUCSORGFRONT
350
23B9
  3
PUCSORGBACK
350
23BA
  3
UCSORTHOREF
350
23BB
  3
UCSORTHOVIEW
350
23BC
  3
UCSBASE
350
23BD
  3
UCSORGTOP
350
23BE
  3
UCSORGBOTTOM
350
23BF
  3
UCSORGLEFT
350
23C0
  3
UCSORGRIGHT
350
23C1
  3
UCSORGFRONT
350
23C2
  3
UCSORGBACK
350
23C3
  0
DICTIONARY
  5
2399
102
{ACAD_REACTORS
330
74
102
}
330
74
100
AcDbDictionary
  3
*A1
350
239A
  0
XRECORD
  5
23C6
102
{ACAD_REACTORS
330
74
102
}
330
74
100
AcDbXrecord
340
1F
  0
XRECORD
  5
23CC
102
{ACAD_REACTORS
330
23CB
102
}
330
23CB
100
AcDbXrecord
340
101
  0
MLINESTYLE
  5
18
102
{ACAD_REACTORS
330
17
102
}
330
17
100
AcDbMlineStyle
  2
STANDARD
 70
     0
  3

 62
   256
 51
90.0
 52
90.0
 71
     2
 49
0.5
 62
   256
  6
BYLAYER
 49
-0.5
 62
   256
  6
BYLAYER
  0
ACDBPLACEHOLDER
  5
F
102
{ACAD_REACTORS
330
E
102
}
330
E
100
AcDbPlaceHolder
280
     0
  0
DICTIONARYVAR
  5
35
102
{ACAD_REACTORS
330
34
102
}
330
34
100
DictionaryVariables
280
     0
  1
1
  0
DICTIONARYVAR
  5
B5E
102
{ACAD_REACTORS
330
34
102
}
330
34
100
DictionaryVariables
280
     0
  1
96
  0
DICTIONARY
  5
260
102
{ACAD_REACTORS
330
43
102
}
330
43
100
AcDbDictionary
  0
DICTIONARY
  5
2C
102
{ACAD_REACTORS
330
2B
102
}
330
2B
100
AcDbDictionary
  3
DWGSETTINGS
350
2D
  0
XRECORD
  5
23A4
102
{ACAD_REACTORS
330
23A3
102
}
330
23A3
100
AcDbXrecord
 90
        1
  0
XRECORD
  5
23A5
102
{ACAD_REACTORS
330
23A3
102
}
330
23A3
100
AcDbXrecord
 90
       70
  0
XRECORD
  5
23A6
102
{ACAD_REACTORS
330
23A3
102
}
330
23A3
100
AcDbXrecord
  1

  0
XRECORD
  5
23A7
102
{ACAD_REACTORS
330
23A3
102
}
330
23A3
100
AcDbXrecord
  1
ASAMI.ctb
  0
XRECORD
  5
23A8
102
{ACAD_REACTORS
330
23A3
102
}
330
23A3
100
AcDbXrecord
340
1A
  0
XRECORD
  5
23A9
102
{ACAD_REACTORS
330
23A3
102
}
330
23A3
100
AcDbXrecord
340
19
  0
XRECORD
  5
23AA
102
{ACAD_REACTORS
330
23A3
102
}
330
23A3
100
AcDbXrecord
340
E
  0
XRECORD
  5
23AB
102
{ACAD_REACTORS
330
23A3
102
}
330
23A3
100
AcDbXrecord
 90
    10781
  0
XRECORD
  5
23AC
102
{ACAD_REACTORS
330
23A3
102
}
330
23A3
100
AcDbXrecord
 90
        4
  0
XRECORD
  5
23AD
102
{ACAD_REACTORS
330
23A3
102
}
330
23A3
100
AcDbXrecord
 90
        0
  0
XRECORD
  5
23AE
102
{ACAD_REACTORS
330
23A3
102
}
330
23A3
100
AcDbXrecord
  1
{AFB28963-8C59-40AE-9337-C84526B81ACE}
  0
XRECORD
  5
23AF
102
{ACAD_REACTORS
330
23A3
102
}
330
23A3
100
AcDbXrecord
  1
{DF2635F5-1234-42FC-80A5-62AC8F388938}
  0
XRECORD
  5
23B0
102
{ACAD_REACTORS
330
23A3
102
}
330
23A3
100
AcDbXrecord
 40
0.0
  0
XRECORD
  5
23B1
102
{ACAD_REACTORS
330
23A3
102
}
330
23A3
100
AcDbXrecord
1000
DSTYLE
1002
{
1070
    79
 70
     2
1070
   341
340
59
1070
   342
340
59
1070
   371
 70
    -1
1070
   372
 70
    -1
1002
}
  0
XRECORD
  5
23B2
102
{ACAD_REACTORS
330
23A3
102
}
330
23A3
100
AcDbXrecord
340
0
  0
XRECORD
  5
23B3
102
{ACAD_REACTORS
330
23A3
102
}
330
23A3
100
AcDbXrecord
 70
     0
  0
XRECORD
  5
23B4
102
{ACAD_REACTORS
330
23A3
102
}
330
23A3
100
AcDbXrecord
340
0
  0
XRECORD
  5
23B5
102
{ACAD_REACTORS
330
23A3
102
}
330
23A3
100
AcDbXrecord
 10
0.0
 20
0.0
 30
0.0
  0
XRECORD
  5
23B6
102
{ACAD_REACTORS
330
23A3
102
}
330
23A3
100
AcDbXrecord
 10
0.0
 20
0.0
 30
0.0
  0
XRECORD
  5
23B7
102
{ACAD_REACTORS
330
23A3
102
}
330
23A3
100
AcDbXrecord
 10
0.0
 20
0.0
 30
0.0
  0
XRECORD
  5
23B8
102
{ACAD_REACTORS
330
23A3
102
}
330
23A3
100
AcDbXrecord
 10
0.0
 20
0.0
 30
0.0
  0
XRECORD
  5
23B9
102
{ACAD_REACTORS
330
23A3
102
}
330
23A3
100
AcDbXrecord
 10
0.0
 20
0.0
 30
0.0
  0
XRECORD
  5
23BA
102
{ACAD_REACTORS
330
23A3
102
}
330
23A3
100
AcDbXrecord
 10
0.0
 20
0.0
 30
0.0
  0
XRECORD
  5
23BB
102
{ACAD_REACTORS
330
23A3
102
}
330
23A3
100
AcDbXrecord
340
0
  0
XRECORD
  5
23BC
102
{ACAD_REACTORS
330
23A3
102
}
330
23A3
100
AcDbXrecord
 70
     0
  0
XRECORD
  5
23BD
102
{ACAD_REACTORS
330
23A3
102
}
330
23A3
100
AcDbXrecord
340
0
  0
XRECORD
  5
23BE
102
{ACAD_REACTORS
330
23A3
102
}
330
23A3
100
AcDbXrecord
 10
0.0
 20
0.0
 30
0.0
  0
XRECORD
  5
23BF
102
{ACAD_REACTORS
330
23A3
102
}
330
23A3
100
AcDbXrecord
 10
0.0
 20
0.0
 30
0.0
  0
XRECORD
  5
23C0
102
{ACAD_REACTORS
330
23A3
102
}
330
23A3
100
AcDbXrecord
 10
0.0
 20
0.0
 30
0.0
  0
XRECORD
  5
23C1
102
{ACAD_REACTORS
330
23A3
102
}
330
23A3
100
AcDbXrecord
 10
0.0
 20
0.0
 30
0.0
  0
XRECORD
  5
23C2
102
{ACAD_REACTORS
330
23A3
102
}
330
23A3
100
AcDbXrecord
 10
0.0
 20
0.0
 30
0.0
  0
XRECORD
  5
23C3
102
{ACAD_REACTORS
330
23A3
102
}
330
23A3
100
AcDbXrecord
 10
0.0
 20
0.0
 30
0.0
  0
LAYER_INDEX
  5
239A
102
{ACAD_REACTORS
330
2399
102
}
330
2399
100
AcDbIndex
 40
2453152.464273634
100
AcDbLayerIndex
  8
0
360
239B
 90
        0
  8
AM_0
360
239C
 90
       40
  8
AM_11
360
239D
 90
        3
  8
AM_7
360
239E
 90
        2
  8
AM_5
360
239F
 90
        4
  8
Defpoints
360
23A0
 90
        0
  8
AM_6
360
23A1
 90
        1
  0
XRECORD
  5
2D
102
{ACAD_REACTORS
330
2C
102
}
330
2C
100
AcDbXrecord
  1
VERSION
140
15.0
  1
PRODUCT
  2
AutoCAD Mechanical 2000
  0
IDBUFFER
  5
239B
330
0
100
AcDbIdBuffer
  0
IDBUFFER
  5
239C
330
0
100
AcDbIdBuffer
330
2179
330
217E
330
217F
330
2180
330
2181
330
2182
330
2183
330
2184
330
2185
330
2189
330
218F
330
21C7
330
21C9
330
21D1
330
21D2
330
21D6
330
21D7
330
21D8
330
21D9
330
21DA
330
21DB
330
21DF
330
21E0
330
2374
330
1849
330
184A
330
184B
330
1857
330
185A
330
185B
330
1863
330
187A
330
187B
330
187C
330
2170
330
2172
330
2174
330
2175
330
2176
330
2178
  0
IDBUFFER
  5
239D
330
0
100
AcDbIdBuffer
330
217A
330
217B
330
218B
  0
IDBUFFER
  5
239E
330
0
100
AcDbIdBuffer
330
1759
330
217C
  0
IDBUFFER
  5
239F
330
0
100
AcDbIdBuffer
330
FCE
330
105F
330
10EF
330
1315
  0
IDBUFFER
  5
23A0
330
0
100
AcDbIdBuffer
  0
IDBUFFER
  5
23A1
330
0
100
AcDbIdBuffer
330
E5A
  0
ENDSEC
  0
EOF
