  0
SECTION
  2
HEADER
  9
$ACADVER
  1
AC1014
  9
$ACADMAINTVER
 70
     9
  9
$DWGCODEPAGE
  3
ANSI_932
  9
$INSBASE
 10
0.0
 20
0.0
 30
0.0
  9
$EXTMIN
 10
-56.31900544538311
 20
-27.25000099999999
 30
-0.00000001
  9
$EXTMAX
 10
8.228885015427476
 20
4.249999999999998
 30
0.00000001
  9
$LIMMIN
 10
-62.8767156736551
 20
-30.44334232968214
  9
$LIMMAX
 10
10.95323338114485
 20
8.241515234745349
  9
$ORTHOMODE
 70
     0
  9
$REGENMODE
 70
     1
  9
$FILLMODE
 70
     1
  9
$QTEXTMODE
 70
     0
  9
$MIRRTEXT
 70
     0
  9
$DRAGMODE
 70
     2
  9
$LTSCALE
 40
1.0
  9
$OSMODE
 70
    55
  9
$ATTMODE
 70
     1
  9
$TEXTSIZE
 40
2.5
  9
$TRACEWID
 40
1.0
  9
$TEXTSTYLE
  7
STANDARD
  9
$CLAYER
  8
AM_0
  9
$CELTYPE
  6
BYLAYER
  9
$CECOLOR
 62
   256
  9
$CELTSCALE
 40
1.0
  9
$DELOBJ
 70
     1
  9
$DISPSILH
 70
     0
  9
$DIMSCALE
 40
0.5
  9
$DIMASZ
 40
2.5
  9
$DIMEXO
 40
1.0
  9
$DIMDLI
 40
12.0
  9
$DIMRND
 40
0.0
  9
$DIMDLE
 40
0.0
  9
$DIMEXE
 40
1.0
  9
$DIMTP
 40
0.1
  9
$DIMTM
 40
0.1
  9
$DIMTXT
 40
3.2
  9
$DIMCEN
 40
0.0
  9
$DIMTSZ
 40
0.0
  9
$DIMTOL
 70
     0
  9
$DIMLIM
 70
     0
  9
$DIMTIH
 70
     0
  9
$DIMTOH
 70
     0
  9
$DIMSE1
 70
     0
  9
$DIMSE2
 70
     0
  9
$DIMTAD
 70
     3
  9
$DIMZIN
 70
     8
  9
$DIMBLK
  1
OPEN30
  9
$DIMASO
 70
     1
  9
$DIMSHO
 70
     1
  9
$DIMPOST
  1

  9
$DIMAPOST
  1
"
  9
$DIMALT
 70
     0
  9
$DIMALTD
 70
     2
  9
$DIMALTF
 40
0.0393701
  9
$DIMLFAC
 40
1.0
  9
$DIMTOFL
 70
     1
  9
$DIMTVP
 40
0.0
  9
$DIMTIX
 70
     0
  9
$DIMSOXD
 70
     0
  9
$DIMSAH
 70
     0
  9
$DIMBLK1
  1

  9
$DIMBLK2
  1

  9
$DIMSTYLE
  2
AM_JIS
  9
$DIMCLRD
 70
   256
  9
$DIMCLRE
 70
   256
  9
$DIMCLRT
 70
     2
  9
$DIMTFAC
 40
0.71
  9
$DIMGAP
 40
1.5
  9
$DIMJUST
 70
     0
  9
$DIMSD1
 70
     0
  9
$DIMSD2
 70
     0
  9
$DIMTOLJ
 70
     0
  9
$DIMTZIN
 70
     0
  9
$DIMALTZ
 70
     0
  9
$DIMALTTZ
 70
     0
  9
$DIMFIT
 70
     3
  9
$DIMUPT
 70
     0
  9
$DIMUNIT
 70
     2
  9
$DIMDEC
 70
     3
  9
$DIMTDEC
 70
     3
  9
$DIMALTU
 70
     2
  9
$DIMALTTD
 70
     2
  9
$DIMTXSTY
  7
ASAMI
  9
$DIMAUNIT
 70
     0
  9
$LUNITS
 70
     2
  9
$LUPREC
 70
     2
  9
$SKETCHINC
 40
1.0
  9
$FILLETRAD
 40
2.5
  9
$AUNITS
 70
     0
  9
$AUPREC
 70
     0
  9
$MENU
  1
.
  9
$ELEVATION
 40
0.0
  9
$PELEVATION
 40
0.0
  9
$THICKNESS
 40
0.0
  9
$LIMCHECK
 70
     0
  9
$BLIPMODE
 70
     0
  9
$CHAMFERA
 40
0.5
  9
$CHAMFERB
 40
0.5
  9
$CHAMFERC
 40
20.0
  9
$CHAMFERD
 40
0.0
  9
$SKPOLY
 70
     0
  9
$TDCREATE
 40
2452836.771637361
  9
$TDUPDATE
 40
2453152.461092847
  9
$TDINDWG
 40
0.0760272569
  9
$TDUSRTIMER
 40
0.0760272569
  9
$USRTIMER
 70
     1
  9
$ANGBASE
 50
0.0
  9
$ANGDIR
 70
     0
  9
$PDMODE
 70
     0
  9
$PDSIZE
 40
0.0
  9
$PLINEWID
 40
0.0
  9
$COORDS
 70
     1
  9
$SPLFRAME
 70
     0
  9
$SPLINETYPE
 70
     6
  9
$SPLINESEGS
 70
     8
  9
$ATTDIA
 70
     1
  9
$ATTREQ
 70
     1
  9
$HANDLING
 70
 12289
  9
$HANDSEED
  5
2237
  9
$SURFTAB1
 70
     6
  9
$SURFTAB2
 70
     6
  9
$SURFTYPE
 70
     6
  9
$SURFU
 70
     6
  9
$SURFV
 70
     6
  9
$UCSNAME
  2

  9
$UCSORG
 10
0.0
 20
0.0
 30
0.0
  9
$UCSXDIR
 10
1.0
 20
0.0
 30
0.0
  9
$UCSYDIR
 10
0.0
 20
1.0
 30
0.0
  9
$PUCSNAME
  2

  9
$PUCSORG
 10
0.0
 20
0.0
 30
0.0
  9
$PUCSXDIR
 10
1.0
 20
0.0
 30
0.0
  9
$PUCSYDIR
 10
0.0
 20
1.0
 30
0.0
  9
$USERI1
 70
     0
  9
$USERI2
 70
     0
  9
$USERI3
 70
     0
  9
$USERI4
 70
     0
  9
$USERI5
 70
     0
  9
$USERR1
 40
0.0
  9
$USERR2
 40
0.0
  9
$USERR3
 40
0.0
  9
$USERR4
 40
0.0
  9
$USERR5
 40
0.0
  9
$WORLDVIEW
 70
     1
  9
$SHADEDGE
 70
     3
  9
$SHADEDIF
 70
    70
  9
$TILEMODE
 70
     1
  9
$MAXACTVP
 70
    64
  9
$PINSBASE
 10
0.0
 20
0.0
 30
0.0
  9
$PLIMCHECK
 70
     0
  9
$PEXTMIN
 10
1.000000000000000E+20
 20
1.000000000000000E+20
 30
1.000000000000000E+20
  9
$PEXTMAX
 10
-1.000000000000000E+20
 20
-1.000000000000000E+20
 30
-1.000000000000000E+20
  9
$PLIMMIN
 10
0.0
 20
0.0
  9
$PLIMMAX
 10
841.0
 20
594.0
  9
$UNITMODE
 70
     0
  9
$VISRETAIN
 70
     1
  9
$PLINEGEN
 70
     0
  9
$PSLTSCALE
 70
     0
  9
$TREEDEPTH
 70
  3020
  9
$PICKSTYLE
 70
     0
  9
$CMLSTYLE
  2
STANDARD
  9
$CMLJUST
 70
     0
  9
$CMLSCALE
 40
20.0
  9
$PROXYGRAPHICS
 70
     1
  9
$MEASUREMENT
 70
     1
  0
ENDSEC
  0
SECTION
  2
CLASSES
  0
CLASS
  1
ACDBDICTIONARYWDFLT
  2
AcDbDictionaryWithDefault
  3
AutoCAD 2000
 90
        0
280
     0
281
     0
  0
CLASS
  1
ACDBPLACEHOLDER
  2
AcDbPlaceHolder
  3
AutoCAD 2000
 90
        0
280
     0
281
     0
  0
CLASS
  1
LAYOUT
  2
AcDbLayout
  3
AutoCAD 2000
 90
        0
280
     0
281
     0
  0
CLASS
  1
AMGSETTINGSOBJ
  2
AmgSettingsObj
  3
"AcadM|Product Description: AutoCAD Mechanical 2000|Company: Autodesk"
 90
        0
280
     0
281
     0
  0
CLASS
  1
ACME_DOCUMENT
  2
AcMeDbDoc
  3
AcMeServices
 90
        0
280
     0
281
     0
  0
CLASS
  1
ACMESCOPE
  2
AcMeScope
  3
AcMeServices
 90
        0
280
     0
281
     0
  0
CLASS
  1
ACMECOMMANDHISTORY
  2
AcMeCommandHistory
  3
AcMeServices
 90
        0
280
     0
281
     0
  0
CLASS
  1
DICTIONARYVAR
  2
AcDbDictionaryVar
  3
AutoCAD 2000
 90
        0
280
     0
281
     0
  0
CLASS
  1
ACIMSYSVARMAN
  2
AcImSysVarManager
  3
AcMeServices
 90
        0
280
     0
281
     0
  0
CLASS
  1
ACIMREALSYSVAR
  2
AcImRealSysVar
  3
AcMeServices
 90
        0
280
     0
281
     0
  0
CLASS
  1
ACIMINTSYSVAR
  2
AcImIntSysVar
  3
AcMeServices
 90
        0
280
     0
281
     0
  0
CLASS
  1
ACMEDRAWINGMAN
  2
AcMeDrawingMan
  3
AcMeServices
 90
        0
280
     0
281
     0
  0
CLASS
  1
ACMEVIEW
  2
AcMeView
  3
AcMeServices
 90
        0
280
     0
281
     0
  0
CLASS
  1
ACDBENTITYCACHE
  2
AcMeEntityCache
  3
AcMeServices
 90
        0
280
     0
281
     0
  0
CLASS
  1
GSMANAGER
  2
AcMeGSManager
  3
AcMeServices
 90
        0
280
     0
281
     0
  0
CLASS
  1
AmdtInternalReactor
  2
AmdtInternalReactor
  3
AcMeServices
 90
        0
280
     0
281
     0
  0
CLASS
  1
ACMESTATEMGR
  2
AcMeStateMgr
  3
AcMeServices
 90
        0
280
     0
281
     0
  0
CLASS
  1
ACME_DATABASE
  2
AcMeDbDatabase
  3
AcMeServices
 90
        0
280
     0
281
     0
  0
CLASS
  1
ACRFINSADJUSTERMGR
  2
AcRfInsAdjusterMgr
  3
AcMeServices
 90
        0
280
     0
281
     0
  0
CLASS
  1
ACMDATADICTIONARY
  2
AcmDataDictionary
  3
"AcmSymBB|Product Description: AutoCAD Mechanical 2000|Company: Autodesk"
 90
        0
280
     0
281
     0
  0
CLASS
  1
ACMDATAENTRYBLOCK
  2
AcmDataEntryBlock
  3
"AcmSymBB|Product Description: AutoCAD Mechanical 2000|Company: Autodesk"
 90
        0
280
     0
281
     0
  0
CLASS
  1
AMGOBJPROPCFG
  2
AmgObjPropCfg
  3
"AmgLay|Product Description: AutoCAD Mechanical 2000|Company: Autodesk"
 90
        1
280
     0
281
     0
  0
CLASS
  1
ACAMGFILTERDAT
  2
AcAmgFilterDat
  3
"AcadM|Product Description: AutoCAD Mechanical 2000|Company: Autodesk"
 90
        0
280
     0
281
     0
  0
CLASS
  1
LAYER_INDEX
  2
AcDbLayerIndex
  3
AutoCAD 2000
 90
        0
280
     0
281
     0
  0
CLASS
  1
IDBUFFER
  2
AcDbIdBuffer
  3
AutoCAD 2000
 90
        0
280
     0
281
     0
  0
CLASS
  1
ACIMSTRSYSVAR
  2
AcImStrSysVar
  3
AcMeServices
 90
        0
280
     0
281
     0
  0
CLASS
  1
ACMSTANDARDJIS
  2
AcmStandardJIS
  3
"AcmSymBB|Product Description: AutoCAD Mechanical 2000|Company: Autodesk"
 90
        0
280
     0
281
     0
  0
CLASS
  1
ACMSURFSTANDARDJIS
  2
AcmSurfTextStdJIS
  3
"AcmSymBB|Product Description: AutoCAD Mechanical 2000|Company: Autodesk"
 90
        0
280
     0
281
     0
  0
CLASS
  1
ACMFCFSTANDARDJIS
  2
AcmFCFStdJIS
  3
"AcmSymBB|Product Description: AutoCAD Mechanical 2000|Company: Autodesk"
 90
        0
280
     0
281
     0
  0
CLASS
  1
ACMWELDSTANDARDJIS
  2
AcmWeldingStdJIS
  3
"AcmSymBB|Product Description: AutoCAD Mechanical 2000|Company: Autodesk"
 90
        0
280
     0
281
     0
  0
CLASS
  1
ACMIDSTANDARDJIS
  2
AcmIdStdJIS
  3
"AcmSymBB|Product Description: AutoCAD Mechanical 2000|Company: Autodesk"
 90
        0
280
     0
281
     0
  0
CLASS
  1
ACMDATUMSTANDARDJIS
  2
AcmDatumStdJIS
  3
"AcmSymBB|Product Description: AutoCAD Mechanical 2000|Company: Autodesk"
 90
        0
280
     0
281
     0
  0
CLASS
  1
ACMBOMSTANDARDJIS
  2
AcmBOMStdJIS
  3
"AcmSymBB|Product Description: AutoCAD Mechanical 2000|Company: Autodesk"
 90
        0
280
     0
281
     0
  0
CLASS
  1
ACMSTANDARDANSI
  2
AcmStandardANSI
  3
"AcmSymBB|Product Description: AutoCAD Mechanical 2000|Company: Autodesk"
 90
        0
280
     0
281
     0
  0
CLASS
  1
ACMSURFSTANDARDANSI
  2
AcmSurfTextStdANSI
  3
"AcmSymBB|Product Description: AutoCAD Mechanical 2000|Company: Autodesk"
 90
        0
280
     0
281
     0
  0
CLASS
  1
ACMFCFSTANDARDANSI
  2
AcmFCFStdANSI
  3
"AcmSymBB|Product Description: AutoCAD Mechanical 2000|Company: Autodesk"
 90
        0
280
     0
281
     0
  0
CLASS
  1
ACMWELDSTANDARDANSI
  2
AcmWeldingStdANSI
  3
"AcmSymBB|Product Description: AutoCAD Mechanical 2000|Company: Autodesk"
 90
        0
280
     0
281
     0
  0
CLASS
  1
ACMIDSTANDARDANSI
  2
AcmIdStdANSI
  3
"AcmSymBB|Product Description: AutoCAD Mechanical 2000|Company: Autodesk"
 90
        0
280
     0
281
     0
  0
CLASS
  1
ACMDATUMSTANDARDANSI
  2
AcmDatumStdANSI
  3
"AcmSymBB|Product Description: AutoCAD Mechanical 2000|Company: Autodesk"
 90
        0
280
     0
281
     0
  0
CLASS
  1
ACMBOMSTANDARDANSI
  2
AcmBOMStdANSI
  3
"AcmSymBB|Product Description: AutoCAD Mechanical 2000|Company: Autodesk"
 90
        0
280
     0
281
     0
  0
CLASS
  1
ACMSTANDARDBSI
  2
AcmStandardBSI
  3
"AcmSymBB|Product Description: AutoCAD Mechanical 2000|Company: Autodesk"
 90
        0
280
     0
281
     0
  0
CLASS
  1
ACMSURFSTANDARDBSI
  2
AcmSurfTextStdBSI
  3
"AcmSymBB|Product Description: AutoCAD Mechanical 2000|Company: Autodesk"
 90
        0
280
     0
281
     0
  0
CLASS
  1
ACMFCFSTANDARDBSI
  2
AcmFCFStdBSI
  3
"AcmSymBB|Product Description: AutoCAD Mechanical 2000|Company: Autodesk"
 90
        0
280
     0
281
     0
  0
CLASS
  1
ACMWELDSTANDARDBSI
  2
AcmWeldingStdBSI
  3
"AcmSymBB|Product Description: AutoCAD Mechanical 2000|Company: Autodesk"
 90
        0
280
     0
281
     0
  0
CLASS
  1
ACMIDSTANDARDBSI
  2
AcmIdStdBSI
  3
"AcmSymBB|Product Description: AutoCAD Mechanical 2000|Company: Autodesk"
 90
        0
280
     0
281
     0
  0
CLASS
  1
ACMDATUMSTANDARDBSI
  2
AcmDatumStdBSI
  3
"AcmSymBB|Product Description: AutoCAD Mechanical 2000|Company: Autodesk"
 90
        0
280
     0
281
     0
  0
CLASS
  1
ACMBOMSTANDARDBSI
  2
AcmBOMStdBSI
  3
"AcmSymBB|Product Description: AutoCAD Mechanical 2000|Company: Autodesk"
 90
        0
280
     0
281
     0
  0
CLASS
  1
LONG_TRANSACTION
  2
AcDbLongTransaction
  3
AutoCAD 2000
 90
        0
280
     0
281
     0
  0
CLASS
  1
LWPOLYLINE
  2
AcDbPolyline
  3
AutoCAD 2000
 90
        0
280
     0
281
     1
  0
CLASS
  1
HATCH
  2
AcDbHatch
  3
AutoCAD 2000
 90
        0
280
     0
281
     1
  0
CLASS
  1
XRECORD
  2
AcDbXrecord
  3
AutoCAD 2000
 90
        0
280
     0
281
     0
  0
ENDSEC
  0
SECTION
  2
TABLES
  0
TABLE
  2
VPORT
  5
8
330
0
100
AcDbSymbolTable
 70
     3
  0
VPORT
  5
220C
330
8
100
AcDbSymbolTableRecord
100
AcDbViewportTableRecord
  2
*ACTIVE
 70
     0
 10
0.0
 20
0.0
 11
1.0
 21
1.0
 12
-18.64263843122328
 22
-5.954557688133267
 13
0.0
 23
0.0
 14
2.5
 24
2.5
 15
10.0
 25
10.0
 16
0.0
 26
0.0
 36
1.0
 17
0.0
 27
0.0
 37
0.0
 40
59.10688107053911
 41
1.56570841889117
 42
50.0
 43
0.0
 44
0.0
 50
0.0
 51
0.0
 71
     0
 72
   100
 73
     1
 74
     3
 75
     0
 76
     0
 77
     0
 78
     0
  0
ENDTAB
  0
TABLE
  2
LTYPE
  5
5
330
0
100
AcDbSymbolTable
 70
    10
  0
LTYPE
  5
14
330
5
100
AcDbSymbolTableRecord
100
AcDbLinetypeTableRecord
  2
BYBLOCK
 70
     0
  3

 72
    65
 73
     0
 40
0.0
  0
LTYPE
  5
15
330
5
100
AcDbSymbolTableRecord
100
AcDbLinetypeTableRecord
  2
BYLAYER
 70
     0
  3

 72
    65
 73
     0
 40
0.0
  0
LTYPE
  5
16
330
5
100
AcDbSymbolTableRecord
100
AcDbLinetypeTableRecord
  2
CONTINUOUS
 70
     0
  3
Solid line
 72
    65
 73
     0
 40
0.0
  0
LTYPE
  5
4B
330
5
100
AcDbSymbolTableRecord
100
AcDbLinetypeTableRecord
  2
AM_ISO02W050
 70
     0
  3
__ __ __ __ __ __ __ __ __ __ __ __ __ __ __
 72
    65
 73
     2
 40
7.5
 49
6.0
 74
     0
 49
-1.5
 74
     0
  0
LTYPE
  5
4C
330
5
100
AcDbSymbolTableRecord
100
AcDbLinetypeTableRecord
  2
AM_ISO08W050
 70
     0
  3
____ . ____ . ____ . ____ . ____ . ____ . ____
 72
    65
 73
     4
 40
18.0
 49
12.0
 74
     0
 49
-1.5
 74
     0
 49
3.0
 74
     0
 49
-1.5
 74
     0
  0
LTYPE
  5
4D
330
5
100
AcDbSymbolTableRecord
100
AcDbLinetypeTableRecord
  2
AM_ISO09W050
 70
     0
  3
_____ . . _____ . . _____ . . ____ .. ____
 72
    65
 73
     6
 40
22.5
 49
12.0
 74
     0
 49
-1.5
 74
     0
 49
3.0
 74
     0
 49
-1.5
 74
     0
 49
3.0
 74
     0
 49
-1.5
 74
     0
  0
LTYPE
  5
4E
330
5
100
AcDbSymbolTableRecord
100
AcDbLinetypeTableRecord
  2
AMCONSTR
 70
     0
  3
_______________________
 72
    65
 73
     2
 40
9999.0
 49
9999.0
 74
     0
 49
0.0
 74
     0
  0
LTYPE
  5
4F
330
5
100
AcDbSymbolTableRecord
100
AcDbLinetypeTableRecord
  2
AM_ISO02W050X2
 70
     0
  3
 _ _ _ _ _ _ _ _ _ _ _ _
 72
    65
 73
     2
 40
3.75
 49
3.0
 74
     0
 49
-0.75
 74
     0
  0
LTYPE
  5
50
330
5
100
AcDbSymbolTableRecord
100
AcDbLinetypeTableRecord
  2
AM_ISO08W050X2
 70
     0
  3
__ . __ . __ . __ . __ . __
 72
    65
 73
     4
 40
9.0
 49
6.0
 74
     0
 49
-0.75
 74
     0
 49
1.5
 74
     0
 49
-0.75
 74
     0
  0
LTYPE
  5
53
330
5
100
AcDbSymbolTableRecord
100
AcDbLinetypeTableRecord
  2
AMZIGZAG
 70
     0
  3
/\/-/\/-/\/-/\/-/\/-/\/
 72
    65
 73
     2
 40
11.00009999999999
 49
0.0001
 74
     4
 75
   135
340
52
 46
0.04
 50
0.0
 44
0.0
 45
0.0
 49
-11.0
 74
     0
  0
LTYPE
  5
166
330
5
100
AcDbSymbolTableRecord
100
AcDbLinetypeTableRecord
  2
ACJISTGL
 70
     0
  3
_ _ _ _ _
 72
    65
 73
     2
 40
3.0
 49
2.0
 74
     0
 49
-1.0
 74
     0
  0
LTYPE
  5
26A
330
5
100
AcDbSymbolTableRecord
100
AcDbLinetypeTableRecord
  2
ACJISTGB
 70
     0
  3
__ . . __ . .
 72
    65
 73
     6
 40
9.0
 49
4.0
 74
     0
 49
-1.0
 74
     0
 49
1.0
 74
     0
 49
-1.0
 74
     0
 49
1.0
 74
     0
 49
-1.0
 74
     0
  0
ENDTAB
  0
TABLE
  2
LAYER
  5
2
330
0
100
AcDbSymbolTable
 70
     7
  0
LAYER
  5
10
330
2
100
AcDbSymbolTableRecord
100
AcDbLayerTableRecord
  2
0
 70
     0
 62
     7
  6
CONTINUOUS
  0
LAYER
  5
3F9
330
2
100
AcDbSymbolTableRecord
100
AcDbLayerTableRecord
  2
AM_0
 70
     0
 62
     7
  6
CONTINUOUS
  0
LAYER
  5
BD4
330
2
100
AcDbSymbolTableRecord
100
AcDbLayerTableRecord
  2
AM_11
 70
     0
 62
     3
  6
AM_ISO09W050
  0
LAYER
  5
BD5
330
2
100
AcDbSymbolTableRecord
100
AcDbLayerTableRecord
  2
AM_7
 70
     0
 62
     4
  6
AM_ISO08W050
  0
LAYER
  5
BD6
330
2
100
AcDbSymbolTableRecord
100
AcDbLayerTableRecord
  2
AM_5
 70
     0
 62
     3
  6
CONTINUOUS
  0
LAYER
  5
BD7
330
2
100
AcDbSymbolTableRecord
100
AcDbLayerTableRecord
  2
DEFPOINTS
 70
     0
 62
     7
  6
CONTINUOUS
  0
LAYER
  5
E59
330
2
100
AcDbSymbolTableRecord
100
AcDbLayerTableRecord
  2
AM_6
 70
     0
 62
     2
  6
CONTINUOUS
  0
ENDTAB
  0
TABLE
  2
STYLE
  5
3
330
0
100
AcDbSymbolTable
 70
     5
  0
STYLE
  5
11
330
3
100
AcDbSymbolTableRecord
100
AcDbTextStyleTableRecord
  2
STANDARD
 70
     0
 40
0.0
 41
1.0
 50
0.0
 71
     0
 42
2.5
  3
simplex.shx
  4
EXTFONT.SHX
  0
STYLE
  5
52
330
3
100
AcDbSymbolTableRecord
100
AcDbTextStyleTableRecord
  2

 70
     1
 40
0.0
 41
1.0
 50
0.0
 71
     0
 42
2.5
  3
ltypeshp.shx
  4

  0
STYLE
  5
6B
330
3
100
AcDbSymbolTableRecord
100
AcDbTextStyleTableRecord
  2
ASAMI
 70
     0
 40
0.0
 41
1.0
 50
0.0
 71
     0
 42
2.5
  3
simplex.shx
  4
EXTFONT.SHX
  0
STYLE
  5
262
330
3
100
AcDbSymbolTableRecord
100
AcDbTextStyleTableRecord
  2
ACJISTS
 70
     0
 40
1.0
 41
1.0
 50
0.0
 71
     0
 42
2.5
  3
simplex.shx
  4
bigfont.shx
  0
STYLE
  5
269
330
3
100
AcDbSymbolTableRecord
100
AcDbTextStyleTableRecord
  2
ACJISGDT
 70
     0
 40
0.0
 41
1.0
 50
0.0
 71
     0
 42
2.5
  3
amgdtans.shx
  4

  0
ENDTAB
  0
TABLE
  2
VIEW
  5
6
330
0
100
AcDbSymbolTable
 70
     0
  0
ENDTAB
  0
TABLE
  2
UCS
  5
7
330
0
100
AcDbSymbolTable
 70
     0
  0
ENDTAB
  0
TABLE
  2
APPID
  5
9
330
0
100
AcDbSymbolTable
 70
    12
  0
APPID
  5
12
330
9
100
AcDbSymbolTableRecord
100
AcDbRegAppTableRecord
  2
ACAD
 70
     0
  0
APPID
  5
30
330
9
100
AcDbSymbolTableRecord
100
AcDbRegAppTableRecord
  2
MCAD_NO_VIS
 70
     0
  0
APPID
  5
31
330
9
100
AcDbSymbolTableRecord
100
AcDbRegAppTableRecord
  2
ACAD_TEMP_GRAPHIC
 70
     0
  0
APPID
  5
2C2
330
9
100
AcDbSymbolTableRecord
100
AcDbRegAppTableRecord
  2
GENIUS_GENDTOL_13
 70
     0
  0
APPID
  5
339
330
9
100
AcDbSymbolTableRecord
100
AcDbRegAppTableRecord
  2
GENIUS_GENODEF_13
 70
     0
  0
APPID
  5
33A
330
9
100
AcDbSymbolTableRecord
100
AcDbRegAppTableRecord
  2
GENIUS_GENOBJ-N-RSBK_13
 70
     0
  0
APPID
  5
33B
330
9
100
AcDbSymbolTableRecord
100
AcDbRegAppTableRecord
  2
GENIUS_GENOBJ-N-LIB_13
 70
     0
  0
APPID
  5
33C
330
9
100
AcDbSymbolTableRecord
100
AcDbRegAppTableRecord
  2
GENIUS_GENSCALE_13
 70
     0
  0
APPID
  5
378
330
9
100
AcDbSymbolTableRecord
100
AcDbRegAppTableRecord
  2
GENIUS_GENDIMSH_14
 70
     0
  0
APPID
  5
BD8
330
9
100
AcDbSymbolTableRecord
100
AcDbRegAppTableRecord
  2
GENIUS_GENOBJ-N-CEN_13
 70
     0
  0
APPID
  5
BD9
330
9
100
AcDbSymbolTableRecord
100
AcDbRegAppTableRecord
  2
GENIUS_GENFIL_13
 70
     0
  0
APPID
  5
BDA
330
9
100
AcDbSymbolTableRecord
100
AcDbRegAppTableRecord
  2
GENIUS_GENOBJ-N-CHA_13
 70
     0
  0
ENDTAB
  0
TABLE
  2
DIMSTYLE
  5
A
330
0
100
AcDbSymbolTable
 70
     8
  0
DIMSTYLE
105
58
102
{ACAD_REACTORS
330
FCE
330
105F
330
10EF
330
1315
102
}
330
A
100
AcDbSymbolTableRecord
100
AcDbDimStyleTableRecord
  2
AM_JIS
 70
     0
  3

  4
"
  5
OPEN30
  6

  7

 40
0.5
 41
2.5
 42
1.0
 43
12.0
 44
1.0
 45
0.0
 46
0.0
 47
0.1
 48
0.1
140
3.2
141
0.0
142
0.0
143
0.0393701
144
1.0
145
0.0
146
0.71
147
1.5
 71
     0
 72
     0
 73
     0
 74
     0
 75
     0
 76
     0
 77
     3
 78
     8
170
     0
171
     2
172
     1
173
     0
174
     0
175
     0
176
   256
177
   256
178
     2
270
     2
271
     3
272
     3
273
     2
274
     2
340
6B
275
     0
280
     0
281
     0
282
     0
283
     0
284
     0
285
     0
286
     0
287
     3
288
     0
  0
DIMSTYLE
105
5F
330
A
100
AcDbSymbolTableRecord
100
AcDbDimStyleTableRecord
  2
AM_JIS$3
 70
     0
  3

  4
"
  5
OPEN30
  6

  7

 40
0.5
 41
2.5
 42
1.0
 43
10.0
 44
1.0
 45
0.0
 46
0.0
 47
0.1
 48
0.1
140
3.2
141
0.0
142
0.0
143
0.0393701
144
1.0
145
0.0
146
0.71
147
1.5
 71
     0
 72
     0
 73
     0
 74
     1
 75
     0
 76
     0
 77
     3
 78
     8
170
     0
171
     2
172
     0
173
     0
174
     0
175
     0
176
   256
177
   256
178
     2
270
     2
271
     2
272
     3
273
     2
274
     2
340
6B
275
     0
280
     0
281
     0
282
     0
283
     0
284
     0
285
     0
286
     0
287
     0
288
     1
  0
DIMSTYLE
105
60
330
A
100
AcDbSymbolTableRecord
100
AcDbDimStyleTableRecord
  2
AM_JIS$4
 70
     0
  3

  4
"
  5
OPEN30
  6

  7

 40
0.5
 41
2.5
 42
1.0
 43
10.0
 44
1.0
 45
0.0
 46
0.0
 47
0.1
 48
0.1
140
3.2
141
0.0
142
0.0
143
0.0393701
144
1.0
145
0.0
146
0.71
147
1.5
 71
     0
 72
     0
 73
     0
 74
     1
 75
     0
 76
     0
 77
     3
 78
     8
170
     0
171
     2
172
     0
173
     0
174
     0
175
     0
176
   256
177
   256
178
     2
270
     2
271
     2
272
     3
273
     2
274
     2
340
6B
275
     0
280
     0
281
     0
282
     0
283
     0
284
     0
285
     0
286
     0
287
     0
288
     1
  0
DIMSTYLE
105
61
330
A
100
AcDbSymbolTableRecord
100
AcDbDimStyleTableRecord
  2
AM_JIS$6
 70
     0
  3

  4
"
  5
OPEN30
  6

  7

 40
0.5
 41
2.5
 42
1.0
 43
10.0
 44
1.0
 45
0.0
 46
0.0
 47
0.1
 48
0.1
140
3.2
141
0.0
142
0.0
143
0.0393701
144
1.0
145
0.0
146
0.71
147
1.5
 71
     0
 72
     0
 73
     0
 74
     0
 75
     0
 76
     0
 77
     0
 78
     8
170
     0
171
     2
172
     1
173
     0
174
     0
175
     0
176
   256
177
   256
178
     2
270
     2
271
     2
272
     2
273
     2
274
     2
340
6B
275
     0
280
     0
281
     0
282
     0
283
     0
284
     0
285
     0
286
     0
287
     3
288
     0
  0
DIMSTYLE
105
62
330
A
100
AcDbSymbolTableRecord
100
AcDbDimStyleTableRecord
  2
AM_JIS$7
 70
     0
  3

  4
"
  5
OPEN30
  6

  7

 40
0.5
 41
2.5
 42
1.0
 43
10.0
 44
1.0
 45
0.0
 46
0.0
 47
0.1
 48
0.1
140
3.2
141
0.0
142
0.0
143
0.0393701
144
1.0
145
0.0
146
0.71
147
1.5
 71
     0
 72
     0
 73
     0
 74
     0
 75
     0
 76
     0
 77
     3
 78
     8
170
     0
171
     2
172
     1
173
     0
174
     0
175
     0
176
   256
177
   256
178
     2
270
     2
271
     2
272
     3
273
     2
274
     2
340
6B
275
     0
280
     0
281
     0
282
     0
283
     0
284
     0
285
     0
286
     0
287
     3
288
     0
  0
DIMSTYLE
105
63
330
A
100
AcDbSymbolTableRecord
100
AcDbDimStyleTableRecord
  2
AM_JIS$SF
 70
     0
  3

  4
"
  5
OPEN30
  6

  7

 40
0.5
 41
2.5
 42
1.0
 43
10.0
 44
1.0
 45
0.0
 46
0.0
 47
0.1
 48
0.1
140
3.2
141
0.0
142
0.0
143
0.0393701
144
1.0
145
0.0
146
0.71
147
1.5
 71
     0
 72
     0
 73
     0
 74
     0
 75
     1
 76
     1
 77
     3
 78
     8
170
     0
171
     2
172
     1
173
     0
174
     0
175
     0
176
   256
177
   256
178
     2
270
     2
271
     2
272
     2
273
     2
274
     2
340
6B
275
     0
280
     0
281
     0
282
     0
283
     0
284
     0
285
     0
286
     0
287
     3
288
     0
  0
DIMSTYLE
105
68
330
A
100
AcDbSymbolTableRecord
100
AcDbDimStyleTableRecord
  2
AM_JIS$SH
 70
     0
  3

  4
"
  5

  6
GENAXEH
  7
OPEN30
 40
0.5
 41
2.5
 42
1.0
 43
10.0
 44
1.0
 45
0.0
 46
0.0
 47
0.1
 48
0.1
140
3.2
141
0.0
142
0.0
143
0.0393701
144
2.0
145
0.0
146
0.71
147
1.5
 71
     0
 72
     0
 73
     0
 74
     0
 75
     1
 76
     1
 77
     3
 78
     8
170
     0
171
     2
172
     1
173
     1
174
     0
175
     0
176
   256
177
   256
178
     2
270
     2
271
     2
272
     2
273
     2
274
     2
340
6B
275
     0
280
     0
281
     0
282
     0
283
     0
284
     0
285
     0
286
     0
287
     3
288
     0
  0
DIMSTYLE
105
B34
330
A
100
AcDbSymbolTableRecord
100
AcDbDimStyleTableRecord
  2
AM_JIS$2
 70
     0
  3

  4
"
  5
OPEN30
  6

  7

 40
0.5
 41
2.5
 42
1.0
 43
12.0
 44
1.0
 45
0.0
 46
0.0
 47
0.1
 48
0.1
140
3.2
141
0.0
142
0.0
143
0.0393701
144
1.0
145
0.0
146
0.71
147
1.5
 71
     0
 72
     0
 73
     0
 74
     0
 75
     0
 76
     0
 77
     3
 78
     8
170
     0
171
     2
172
     1
173
     0
174
     0
175
     0
176
   256
177
   256
178
     2
270
     2
271
     3
272
     3
273
     2
274
     2
340
6B
275
     0
280
     0
281
     0
282
     0
283
     0
284
     0
285
     0
286
     0
287
     3
288
     0
  0
ENDTAB
  0
TABLE
  2
BLOCK_RECORD
  5
1
330
0
100
AcDbSymbolTable
 70
     9
  0
BLOCK_RECORD
  5
1F
102
{ACAD_XDICTIONARY
360
74
102
}
330
1
100
AcDbSymbolTableRecord
100
AcDbBlockTableRecord
  2
*MODEL_SPACE
  0
BLOCK_RECORD
  5
101
102
{ACAD_XDICTIONARY
360
2235
102
}
330
1
100
AcDbSymbolTableRecord
100
AcDbBlockTableRecord
  2
*PAPER_SPACE
  0
BLOCK_RECORD
  5
59
330
1
100
AcDbSymbolTableRecord
100
AcDbBlockTableRecord
  2
_OPEN30
  0
BLOCK_RECORD
  5
64
330
1
100
AcDbSymbolTableRecord
100
AcDbBlockTableRecord
  2
GENAXEH
  0
BLOCK_RECORD
  5
FCF
330
1
100
AcDbSymbolTableRecord
100
AcDbBlockTableRecord
  2
*D5
  0
BLOCK_RECORD
  5
1060
330
1
100
AcDbSymbolTableRecord
100
AcDbBlockTableRecord
  2
*D6
  0
BLOCK_RECORD
  5
10F0
330
1
100
AcDbSymbolTableRecord
100
AcDbBlockTableRecord
  2
*D7
  0
BLOCK_RECORD
  5
1316
330
1
100
AcDbSymbolTableRecord
100
AcDbBlockTableRecord
  2
*D8
  0
ENDTAB
  0
ENDSEC
  0
SECTION
  2
BLOCKS
  0
BLOCK
  5
20
330
1F
100
AcDbEntity
  8
0
100
AcDbBlockBegin
  2
*MODEL_SPACE
 70
     0
 10
0.0
 20
0.0
 30
0.0
  3
*MODEL_SPACE
  1

  0
ENDBLK
  5
21
330
1F
100
AcDbEntity
  8
0
100
AcDbBlockEnd
  0
BLOCK
  5
103
330
101
100
AcDbEntity
 67
     1
  8
0
100
AcDbBlockBegin
  2
*PAPER_SPACE
 70
     0
 10
0.0
 20
0.0
 30
0.0
  3
*PAPER_SPACE
  1

  0
ENDBLK
  5
104
330
101
100
AcDbEntity
 67
     1
  8
0
100
AcDbBlockEnd
  0
BLOCK
  5
5D
330
59
100
AcDbEntity
  8
0
100
AcDbBlockBegin
  2
_OPEN30
 70
     0
 10
0.0
 20
0.0
 30
0.0
  3
_OPEN30
  1

  0
LINE
  5
5A
330
59
100
AcDbEntity
  8
0
 62
     0
100
AcDbLine
 10
-1.0
 20
0.26794919
 30
0.0
 11
0.0
 21
0.0
 31
0.0
  0
LINE
  5
5B
330
59
100
AcDbEntity
  8
0
 62
     0
100
AcDbLine
 10
0.0
 20
0.0
 30
0.0
 11
-1.0
 21
-0.26794919
 31
0.0
  0
LINE
  5
5C
330
59
100
AcDbEntity
  8
0
 62
     0
100
AcDbLine
 10
0.0
 20
0.0
 30
0.0
 11
-1.0
 21
0.0
 31
0.0
  0
ENDBLK
  5
5E
330
59
100
AcDbEntity
  8
0
100
AcDbBlockEnd
  0
BLOCK
  5
66
330
64
100
AcDbEntity
  8
0
100
AcDbBlockBegin
  2
GENAXEH
 70
     0
 10
0.0
 20
0.0
 30
0.0
  3
GENAXEH
  1

  0
LINE
  5
65
330
64
100
AcDbEntity
  8
0
100
AcDbLine
 10
-1.0
 20
0.0
 30
0.0
 11
1.0
 21
0.0
 31
0.0
  0
ENDBLK
  5
67
330
64
100
AcDbEntity
  8
0
100
AcDbBlockEnd
  0
BLOCK
  5
FD9
330
FCF
100
AcDbEntity
  8
0
100
AcDbBlockBegin
  2
*D5
 70
     1
 10
0.0
 20
0.0
 30
0.0
  3
*D5
  1

  0
LINE
  5
1AC5
330
FCF
100
AcDbEntity
  8
AM_5
100
AcDbLine
 10
-45.0
 20
2.99999999999996
 30
0.0
 11
-54.46900544538311
 21
2.999999999999963
 31
0.0
  0
LINE
  5
1AC6
330
FCF
100
AcDbEntity
  8
AM_5
100
AcDbLine
 10
-45.00000000000001
 20
-3.000000000000038
 30
0.0
 11
-54.46900544538311
 21
-3.000000000000036
 31
0.0
  0
LINE
  5
1AC7
330
FCF
100
AcDbEntity
  8
AM_5
100
AcDbLine
 10
-53.96900544538311
 20
1.749999999999963
 30
0.0
 11
-53.96900544538311
 21
-1.750000000000036
 31
0.0
  0
INSERT
  5
1AC8
330
FCF
100
AcDbEntity
  8
AM_5
100
AcDbBlockReference
  2
_OPEN30
 10
-53.96900544538311
 20
2.999999999999963
 30
0.0
 41
1.25
 42
1.25
 43
1.25
 50
90.0
  0
INSERT
  5
1AC9
330
FCF
100
AcDbEntity
  8
AM_5
100
AcDbBlockReference
  2
_OPEN30
 10
-53.96900544538311
 20
-3.000000000000036
 30
0.0
 41
1.25
 42
1.25
 43
1.25
 50
270.0
  0
MTEXT
  5
1ACA
330
FCF
100
AcDbEntity
  8
AM_5
 62
     2
100
AcDbMText
 10
-55.51900544538311
 20
-0.0000000000000449
 30
0.0
 40
1.6
 41
0.0
 71
     5
 72
     1
  1
%%c6
  7
ASAMI
 11
0.0000000000000001
 21
1.0
 31
0.0
1001
ACAD
1000
MTEXTBEGIN
1070
    73
1070
     1
1070
    44
1040
1.0
1070
    74
1070
     0
1000
MTEXTEND
  0
POINT
  5
1ACB
330
FCF
100
AcDbEntity
  8
DEFPOINTS
 62
     0
100
AcDbPoint
 10
-44.5
 20
2.99999999999996
 30
0.0
  0
POINT
  5
1ACC
330
FCF
100
AcDbEntity
  8
DEFPOINTS
 62
     0
100
AcDbPoint
 10
-44.50000000000001
 20
-3.000000000000039
 30
0.0
  0
POINT
  5
1ACD
330
FCF
100
AcDbEntity
  8
DEFPOINTS
 62
     0
100
AcDbPoint
 10
-53.96900544538311
 20
-3.000000000000036
 30
0.0
  0
ENDBLK
  5
FDA
330
FCF
100
AcDbEntity
  8
0
100
AcDbBlockEnd
  0
BLOCK
  5
106A
330
1060
100
AcDbEntity
  8
0
100
AcDbBlockBegin
  2
*D6
 70
     1
 10
0.0
 20
0.0
 30
0.0
  3
*D6
  1

  0
LINE
  5
1FA1
330
1060
100
AcDbEntity
  8
AM_5
100
AcDbLine
 10
-10.00000000000007
 20
-2.250000000000042
 30
0.0
 11
-10.00000000000007
 21
-10.50000099999999
 31
0.0
  0
LINE
  5
1FA2
330
1060
100
AcDbEntity
  8
AM_5
100
AcDbLine
 10
-0.0000000000027367
 20
-2.250000000000015
 30
0.0
 11
-0.0000000000027372
 21
-10.50000099999999
 31
0.0
  0
LINE
  5
1FA3
330
1060
100
AcDbEntity
  8
AM_5
100
AcDbLine
 10
-8.750000000000071
 20
-10.00000099999999
 30
0.0
 11
-1.250000000002737
 21
-10.00000099999999
 31
0.0
  0
INSERT
  5
1FA4
330
1060
100
AcDbEntity
  8
AM_5
100
AcDbBlockReference
  2
_OPEN30
 10
-10.00000000000007
 20
-10.00000099999999
 30
0.0
 41
1.25
 42
1.25
 43
1.25
 50
180.0
  0
INSERT
  5
1FA5
330
1060
100
AcDbEntity
  8
AM_5
100
AcDbBlockReference
  2
_OPEN30
 10
-0.0000000000027371
 20
-10.00000099999999
 30
0.0
 41
1.25
 42
1.25
 43
1.25
  0
MTEXT
  5
1FA6
330
1060
100
AcDbEntity
  8
AM_5
 62
     2
100
AcDbMText
 10
-5.000000000001404
 20
-8.450000999999991
 30
0.0
 40
1.6
 41
0.0
 71
     5
 72
     1
  1
10
  7
ASAMI
1001
ACAD
1000
MTEXTBEGIN
1070
    73
1070
     1
1070
    44
1040
1.0
1070
    74
1070
     0
1000
MTEXTEND
  0
POINT
  5
1FA7
330
1060
100
AcDbEntity
  8
DEFPOINTS
 62
     0
100
AcDbPoint
 10
-10.00000000000007
 20
-1.750000000000042
 30
0.0
  0
POINT
  5
1FA8
330
1060
100
AcDbEntity
  8
DEFPOINTS
 62
     0
100
AcDbPoint
 10
-0.0000000000027366
 20
-1.750000000000016
 30
0.0
  0
POINT
  5
1FA9
330
1060
100
AcDbEntity
  8
DEFPOINTS
 62
     0
100
AcDbPoint
 10
-0.0000000000027371
 20
-10.00000099999999
 30
0.0
  0
ENDBLK
  5
106B
330
1060
100
AcDbEntity
  8
0
100
AcDbBlockEnd
  0
BLOCK
  5
10FA
330
10F0
100
AcDbEntity
  8
0
100
AcDbBlockBegin
  2
*D7
 70
     1
 10
0.0
 20
0.0
 30
0.0
  3
*D7
  1

  0
LINE
  5
1F8D
330
10F0
100
AcDbEntity
  8
AM_5
100
AcDbLine
 10
-45.00000000000001
 20
-3.000000000000039
 30
0.0
 11
-45.00000000000001
 21
-16.50000099999999
 31
0.0
  0
LINE
  5
1F8E
330
10F0
100
AcDbEntity
  8
AM_5
100
AcDbLine
 10
-0.0000000000019586
 20
-2.250000000000015
 30
0.0
 11
-0.0000000000019595
 21
-16.50000099999999
 31
0.0
  0
LINE
  5
1F8F
330
10F0
100
AcDbEntity
  8
AM_5
100
AcDbLine
 10
-43.75000000000001
 20
-16.00000099999999
 30
0.0
 11
-1.250000000001959
 21
-16.00000099999999
 31
0.0
  0
INSERT
  5
1F90
330
10F0
100
AcDbEntity
  8
AM_5
100
AcDbBlockReference
  2
_OPEN30
 10
-45.00000000000001
 20
-16.00000099999999
 30
0.0
 41
1.25
 42
1.25
 43
1.25
 50
180.0
  0
INSERT
  5
1F91
330
10F0
100
AcDbEntity
  8
AM_5
100
AcDbBlockReference
  2
_OPEN30
 10
-0.0000000000019595
 20
-16.00000099999999
 30
0.0
 41
1.25
 42
1.25
 43
1.25
  0
MTEXT
  5
1F92
330
10F0
100
AcDbEntity
  8
AM_5
 62
     2
100
AcDbMText
 10
-22.50000000000099
 20
-14.45000099999998
 30
0.0
 40
1.6
 41
0.0
 71
     5
 72
     1
  1
45
  7
ASAMI
1001
ACAD
1000
MTEXTBEGIN
1070
    73
1070
     1
1070
    44
1040
1.0
1070
    74
1070
     0
1000
MTEXTEND
  0
POINT
  5
1F93
330
10F0
100
AcDbEntity
  8
DEFPOINTS
 62
     0
100
AcDbPoint
 10
-45.00000000000001
 20
-2.500000000000039
 30
0.0
  0
POINT
  5
1F94
330
10F0
100
AcDbEntity
  8
DEFPOINTS
 62
     0
100
AcDbPoint
 10
-0.0000000000019586
 20
-1.750000000000016
 30
0.0
  0
POINT
  5
1F95
330
10F0
100
AcDbEntity
  8
DEFPOINTS
 62
     0
100
AcDbPoint
 10
-0.0000000000019595
 20
-16.00000099999999
 30
0.0
  0
ENDBLK
  5
10FB
330
10F0
100
AcDbEntity
  8
0
100
AcDbBlockEnd
  0
BLOCK
  5
1320
330
1316
100
AcDbEntity
  8
0
100
AcDbBlockBegin
  2
*D8
 70
     1
 10
0.0
 20
0.0
 30
0.0
  3
*D8
  1

  0
LINE
  5
21E6
330
1316
100
AcDbEntity
  8
AM_5
100
AcDbLine
 10
0.5
 20
1.75
 30
0.0
 11
8.228885015427474
 21
1.749999999999997
 31
0.0
  0
LINE
  5
21E7
330
1316
100
AcDbEntity
  8
AM_5
100
AcDbLine
 10
0.5000000000000061
 20
-1.750000000000016
 30
0.0
 11
8.228885015427476
 21
-1.750000000000018
 31
0.0
  0
LINE
  5
21E8
330
1316
100
AcDbEntity
  8
AM_5
100
AcDbLine
 10
7.728885015427475
 20
2.999999999999997
 30
0.0
 11
7.728885015427475
 21
4.249999999999998
 31
0.0
  0
LINE
  5
21E9
330
1316
100
AcDbEntity
  8
AM_5
100
AcDbLine
 10
7.728885015427473
 20
-3.000000000000018
 30
0.0
 11
7.728885015427471
 21
-10.55000000000001
 31
0.0
  0
LINE
  5
21EA
330
1316
100
AcDbEntity
  8
AM_5
100
AcDbLine
 10
7.728885015427474
 20
1.749999999999997
 30
0.0
 11
7.728885015427474
 21
-1.750000000000018
 31
0.0
  0
INSERT
  5
21EB
330
1316
100
AcDbEntity
  8
AM_5
100
AcDbBlockReference
  2
_OPEN30
 10
7.728885015427474
 20
1.749999999999997
 30
0.0
 41
1.25
 42
1.25
 43
1.25
 50
270.0
  0
INSERT
  5
21EC
330
1316
100
AcDbEntity
  8
AM_5
100
AcDbBlockReference
  2
_OPEN30
 10
7.728885015427474
 20
-1.750000000000018
 30
0.0
 41
1.25
 42
1.25
 43
1.25
 50
90.0
  0
MTEXT
  5
21ED
330
1316
100
AcDbEntity
  8
AM_5
 62
     2
100
AcDbMText
 10
6.178885015427472
 20
-7.400000000000016
 30
0.0
 40
1.6
 41
0.0
 71
     5
 72
     1
  1
%%c3.5
  7
ASAMI
 11
0.0000000000000001
 21
1.0
 31
0.0
1001
ACAD
1000
MTEXTBEGIN
1070
    73
1070
     1
1070
    44
1040
1.0
1070
    74
1070
     0
1000
MTEXTEND
  0
POINT
  5
21EE
330
1316
100
AcDbEntity
  8
DEFPOINTS
 62
     0
100
AcDbPoint
 10
0.0
 20
1.75
 30
0.0
  0
POINT
  5
21EF
330
1316
100
AcDbEntity
  8
DEFPOINTS
 62
     0
100
AcDbPoint
 10
0.0000000000000061
 20
-1.750000000000016
 30
0.0
  0
POINT
  5
21F0
330
1316
100
AcDbEntity
  8
DEFPOINTS
 62
     0
100
AcDbPoint
 10
7.728885015427474
 20
-1.750000000000018
 30
0.0
  0
ENDBLK
  5
1321
330
1316
100
AcDbEntity
  8
0
100
AcDbBlockEnd
  0
ENDSEC
  0
SECTION
  2
ENTITIES
  0
TEXT
  5
E5A
330
1F
100
AcDbEntity
  8
AM_6
100
AcDbText
 10
-32.85714285714383
 20
-27.25000099999999
 30
0.0
 40
2.5
  1
JSM2035ZX
 72
     4
 11
-22.50000000000097
 21
-26.00000099999999
 31
0.0
100
AcDbText
  0
DIMENSION
  5
FCE
330
1F
100
AcDbEntity
  8
AM_5
100
AcDbDimension
  2
*D5
 10
-53.96900544538311
 20
-3.000000000000036
 30
0.0
 11
-55.51900544538311
 21
-0.0000000000000449
 31
0.0
 70
    32
  1
%%c<>
  3
AM_JIS
100
AcDbAlignedDimension
 13
-44.5
 23
2.99999999999996
 33
0.0
 14
-44.50000000000001
 24
-3.000000000000039
 34
0.0
 50
270.0000000000001
100
AcDbRotatedDimension
1001
GENIUS_GENDTOL_13
1000

1000
h7
1000

1040
0.0
  0
DIMENSION
  5
105F
330
1F
100
AcDbEntity
  8
AM_5
100
AcDbDimension
  2
*D6
 10
-0.0000000000027371
 20
-10.00000099999999
 30
0.0
 11
-5.000000000001404
 21
-8.450000999999991
 31
0.0
 70
    32
  1
<>
  3
AM_JIS
100
AcDbAlignedDimension
 13
-10.00000000000007
 23
-1.750000000000042
 33
0.0
 14
-0.0000000000027366
 24
-1.750000000000016
 34
0.0
 50
0.0000000000001132
100
AcDbRotatedDimension
1001
GENIUS_GENDTOL_13
1000

1000
h7
1000

1040
0.0
  0
DIMENSION
  5
10EF
330
1F
100
AcDbEntity
  8
AM_5
100
AcDbDimension
  2
*D7
 10
-0.0000000000019595
 20
-16.00000099999999
 30
0.0
 11
-22.50000000000099
 21
-14.45000099999998
 31
0.0
 70
    32
  1
<>
  3
AM_JIS
100
AcDbAlignedDimension
 13
-45.00000000000001
 23
-2.500000000000039
 33
0.0
 14
-0.0000000000019586
 24
-1.750000000000016
 34
0.0
 50
0.0000000000001132
100
AcDbRotatedDimension
1001
GENIUS_GENDTOL_13
1000

1000
h7
1000

1040
0.0
  0
DIMENSION
  5
1315
330
1F
100
AcDbEntity
  8
AM_5
100
AcDbDimension
  2
*D8
 10
7.728885015427474
 20
-1.750000000000018
 30
0.0
 11
7.728885015427473
 21
-7.400000000000017
 31
0.0
 70
   160
  1
%%c<>
  3
AM_JIS
100
AcDbAlignedDimension
 13
0.0
 23
1.75
 33
0.0
 14
0.0000000000000061
 24
-1.750000000000016
 34
0.0
 50
90.0
100
AcDbRotatedDimension
1001
GENIUS_GENDTOL_13
1000

1000
h7
1000

1040
0.0
  0
LINE
  5
1759
330
1F
100
AcDbEntity
  8
AM_7
  6
AM_ISO08W050X2
100
AcDbLine
 10
2.278884015427479
 20
0.0000000000000036
 30
0.0
 11
-46.96900444538312
 21
-0.0000000000000391
 31
0.0
1001
GENIUS_GENODEF_13
1002
{
1000
HIER
1070
     0
1002
}
1002
{
1000
MANEDIT
1070
     0
1002
}
1002
{
1000
NOSEL
1070
     0
1002
}
1002
{
1000
BEHIND
1070
     0
1002
}
1002
{
1000
REACTOR
1002
}
1001
GENIUS_GENOBJ-N-CEN_13
1002
{
1000
OWNER
1000
GEN
1002
}
  0
LINE
  5
1849
330
1F
100
AcDbEntity
  8
AM_0
100
AcDbLine
 10
-45.0
 20
2.49999999999996
 30
0.0
 11
-45.00000000000001
 21
-2.500000000000039
 31
0.0
  0
LINE
  5
184A
330
1F
100
AcDbEntity
  8
AM_0
100
AcDbLine
 10
-44.50000000000001
 20
-3.000000000000039
 30
0.0
 11
-19.50000000000001
 21
-3.000000000000039
 31
0.0
  0
LINE
  5
184B
330
1F
100
AcDbEntity
  8
AM_0
100
AcDbLine
 10
-44.5
 20
2.99999999999996
 30
0.0
 11
-19.5
 21
2.999999999999961
 31
0.0
  0
LINE
  5
1857
330
1F
100
AcDbEntity
  8
AM_0
100
AcDbLine
 10
-44.5
 20
2.99999999999996
 30
0.0
 11
-45.0
 21
2.49999999999996
 31
0.0
1001
GENIUS_GENFIL_13
1070
     0
1040
0.5
1040
0.5
1040
20.0
1040
0.0
1002
{
1002
}
1001
GENIUS_GENODEF_13
1002
{
1000
HIER
1070
     0
1002
}
1002
{
1000
MANEDIT
1070
     0
1002
}
1002
{
1000
NOSEL
1070
     0
1002
}
1002
{
1000
BEHIND
1070
     0
1002
}
1002
{
1000
REACTOR
1002
}
1001
GENIUS_GENOBJ-N-CHA_13
1002
{
1000
OWNER
1000
GEN
1002
}
  0
LINE
  5
185A
330
1F
100
AcDbEntity
  8
AM_0
100
AcDbLine
 10
-45.00000000000001
 20
-2.500000000000039
 30
0.0
 11
-44.50000000000001
 21
-3.000000000000039
 31
0.0
1001
GENIUS_GENFIL_13
1070
     0
1040
0.5
1040
0.5
1040
20.0
1040
0.0
1002
{
1002
}
1001
GENIUS_GENODEF_13
1002
{
1000
HIER
1070
     0
1002
}
1002
{
1000
MANEDIT
1070
     0
1002
}
1002
{
1000
NOSEL
1070
     0
1002
}
1002
{
1000
BEHIND
1070
     0
1002
}
1002
{
1000
REACTOR
1002
}
1001
GENIUS_GENOBJ-N-CHA_13
1002
{
1000
OWNER
1000
GEN
1002
}
  0
LINE
  5
185B
330
1F
100
AcDbEntity
  8
AM_0
100
AcDbLine
 10
-44.5
 20
2.99999999999996
 30
0.0
 11
-44.50000000000001
 21
-3.000000000000039
 31
0.0
  0
LINE
  5
1863
330
1F
100
AcDbEntity
  8
AM_0
100
AcDbLine
 10
-19.5
 20
2.99999999999996
 30
0.0
 11
-19.50000000000001
 21
-3.000000000000035
 31
0.0
  0
LINE
  5
187A
330
1F
100
AcDbEntity
  8
AM_0
100
AcDbLine
 10
-19.5
 20
2.99999999999996
 30
0.0
 11
-14.83493649053905
 21
1.750000000000003
 31
0.0
  0
LINE
  5
187B
330
1F
100
AcDbEntity
  8
AM_0
100
AcDbLine
 10
-14.83493649053905
 20
1.750000000000003
 30
0.0
 11
-14.83493649053915
 21
-1.750000000000046
 31
0.0
  0
LINE
  5
187C
330
1F
100
AcDbEntity
  8
AM_0
100
AcDbLine
 10
-14.83493649053895
 20
-1.750000000000046
 30
0.0
 11
-19.50000000000002
 21
-3.000000000000039
 31
0.0
  0
LINE
  5
1E86
330
1F
100
AcDbEntity
  8
AM_0
100
AcDbLine
 10
0.0
 20
0.3500000000000014
 30
0.0
 11
0.0
 21
1.75
 31
0.0
  0
LINE
  5
1E87
330
1F
100
AcDbEntity
  8
AM_0
100
AcDbLine
 10
-0.0350000000000037
 20
-1.656704405167637
 30
0.0
 11
-0.125
 21
-1.427377064579644
 31
0.0
  0
LINE
  5
1E88
330
1F
100
AcDbEntity
  8
AM_0
100
AcDbLine
 10
0.0
 20
-1.75
 30
0.0
 11
-0.0350000000000037
 21
-1.656704405167637
 31
0.0
  0
LINE
  5
1E8A
330
1F
100
AcDbEntity
  8
AM_0
100
AcDbLine
 10
0.0
 20
-1.75
 30
0.0
 11
0.0
 21
0.0699999999999932
 31
0.0
  0
LINE
  5
1E8B
330
1F
100
AcDbEntity
  8
AM_0
100
AcDbLine
 10
-0.125
 20
-1.427377064579644
 30
0.0
 11
-0.125
 21
-1.408524400896418
 31
0.0
  0
ELLIPSE
  5
1E8C
330
1F
100
AcDbEntity
  8
AM_0
100
AcDbEllipse
 10
4.735589480794217
 20
0.0073630590979263
 30
0.0
 11
-0.0000000000001558
 21
5.296382136469262
 31
0.0
210
0.0
220
0.0
230
1.0
 40
0.9523809523809303
 41
1.489874453283485
 42
1.841418545974761
  0
LINE
  5
1E8D
330
1F
100
AcDbEntity
  8
AM_0
100
AcDbLine
 10
-0.1118799508236421
 20
0.2099999999999866
 30
0.0
 11
0.0
 21
0.3500000000000014
 31
0.0
  0
LINE
  5
1E8E
330
1F
100
AcDbEntity
  8
AM_0
100
AcDbLine
 10
-6.372472647256579
 20
1.375016701776909
 30
0.0
 11
-0.7855240770073025
 21
1.052958697884825
 31
0.0
  0
LINE
  5
1E8F
330
1F
100
AcDbEntity
  8
AM_0
100
AcDbLine
 10
-5.384125983092843
 20
-1.342843410555481
 30
0.0
 11
-8.623994611189147
 21
-1.56110036001619
 31
0.0
  0
ELLIPSE
  5
1E91
330
1F
100
AcDbEntity
  8
AM_0
100
AcDbEllipse
 10
-11.93810245089205
 20
-0.5016286034834181
 30
0.0
 11
-1.478245916614857
 21
1.478245916614857
 31
0.0
210
0.0
220
0.0
230
1.0
 40
0.9999999999999872
 41
-0.2640912367577859
 42
0.4018298635773668
  0
ELLIPSE
  5
1E92
330
1F
100
AcDbEntity
  8
AM_0
100
AcDbEllipse
 10
-1.918892037248902
 20
27.87700494695639
 30
0.0
 11
-0.0000000000116761
 21
28.99327551240374
 31
0.0
210
0.0
220
0.0
230
1.0
 40
0.952380952380988
 41
2.693188654066759
 42
2.799910305627442
  0
LINE
  5
1E93
330
1F
100
AcDbEntity
  8
AM_0
100
AcDbLine
 10
-9.999992893859655
 20
-1.566070808698097
 30
0.0
 11
-9.999992893859655
 21
-1.697533046206246
 31
0.0
  0
ELLIPSE
  5
1E94
330
1F
100
AcDbEntity
  8
AM_0
100
AcDbEllipse
 10
-9.750305325376999
 20
4.015051329788839
 30
0.0
 11
0.0000000000001087
 21
5.719969663821575
 31
0.0
210
0.0
220
0.0
230
1.0
 40
0.9523809523809514
 41
2.282147587728589
 42
3.090999494916677
  0
LINE
  5
1E95
330
1F
100
AcDbEntity
  8
AM_11
100
AcDbLine
 10
-9.999992893859655
 20
-1.749999999999985
 30
0.0
 11
-9.999992893859655
 21
1.75
 31
0.0
  0
ELLIPSE
  5
1E96
330
1F
100
AcDbEntity
  8
AM_0
100
AcDbEllipse
 10
-12.00380579242249
 20
-16.66701664312091
 30
0.0
 11
-0.0000000000004736
 21
18.42057866401559
 31
0.0
210
0.0
220
0.0
230
1.0
 40
0.9523809523809585
 41
-0.4398766785916941
 42
0.0196661158540119
  0
LINE
  5
1E97
330
1F
100
AcDbEntity
  8
AM_11
100
AcDbLine
 10
-10.00000000000007
 20
-1.749999999999985
 30
0.0
 11
0.0
 21
-1.75
 31
0.0
  0
LINE
  5
1E98
330
1F
100
AcDbEntity
  8
AM_11
100
AcDbLine
 10
-0.0000000000002558
 20
1.75
 30
0.0
 11
-9.999992893859669
 21
1.750000000000007
 31
0.0
  0
LINE
  5
1E99
330
1F
100
AcDbEntity
  8
AM_0
100
AcDbLine
 10
0.0
 20
0.0699999999999932
 30
0.0
 11
-0.7855240770073025
 21
1.052958697884825
 31
0.0
  0
SPLINE
  5
1E9A
330
1F
100
AcDbEntity
  8
AM_0
100
AcDbSpline
210
0.0
220
0.0
230
1.0
 70
     8
 71
     3
 72
     8
 73
     4
 74
     0
 42
0.0000000001
 43
0.0000000001
 40
0.0
 40
0.0
 40
0.0
 40
0.0
 40
4.954212093633803
 40
4.954212093633803
 40
4.954212093633803
 40
4.954212093633803
 10
-5.384125983092843
 20
-1.342843410555474
 30
0.0
 10
-6.956891727103581
 20
-1.342843410555474
 30
0.0
 10
-8.437758060644384
 20
-0.6581957174154312
 30
0.0
 10
-9.918624394185201
 20
0.026451975724612
 30
0.0
  0
SPLINE
  5
1E9B
330
1F
100
AcDbEntity
  8
AM_0
100
AcDbSpline
210
0.0
220
0.0
230
1.0
 70
     8
 71
     3
 72
     8
 73
     4
 74
     0
 42
0.0000000001
 43
0.0000000001
 40
0.7142832446738512
 40
0.7142832446738512
 40
0.7142832446738512
 40
0.7142832446738512
 40
14.36247867694493
 40
14.36247867694493
 40
14.36247867694493
 40
14.36247867694493
 10
-7.957824791407123
 20
1.61722267602953
 30
0.0
 10
-6.072973878452003
 20
1.535732462416433
 30
0.0
 10
-4.677267492396779
 20
0.767866231208231
 30
0.0
 10
-3.28156110634157
 20
0.0000000000000142
 30
0.0
  0
SPLINE
  5
1E9D
330
1F
100
AcDbEntity
  8
AM_0
100
AcDbSpline
210
0.0
220
0.0
230
1.0
 70
     8
 71
     3
 72
     8
 73
     4
 74
     0
 42
0.0000000001
 43
0.0000000001
 40
0.0
 40
0.0
 40
0.0
 40
0.0
 40
5.071498792270379
 40
5.071498792270379
 40
5.071498792270379
 40
5.071498792270379
 10
-9.066666666666662
 20
1.750000000000042
 30
0.0
 10
-7.456667050072894
 20
1.750000000000042
 30
0.0
 10
-5.995000191703127
 20
0.8750000000000426
 30
0.0
 10
-4.533333333333331
 20
0.0000000000000426
 30
0.0
  0
SPLINE
  5
1E9E
330
1F
100
AcDbEntity
  8
AM_0
100
AcDbSpline
210
0.0
220
0.0
230
1.0
 70
     8
 71
     3
 72
     8
 73
     4
 74
     0
 42
0.0000000001
 43
0.0000000001
 40
4.219358800530717
 40
4.219358800530717
 40
4.219358800530717
 40
4.219358800530717
 40
14.36247867694493
 40
14.36247867694493
 40
14.36247867694493
 40
14.36247867694493
 10
-0.1249999999999787
 20
-1.427377064579566
 30
0.0
 10
-1.20702791896339
 20
-1.141331727091085
 30
0.0
 10
-2.244294512652473
 20
-0.5706658635455284
 30
0.0
 10
-3.28156110634157
 20
0.0000000000000142
 30
0.0
  0
SPLINE
  5
1EA0
330
1F
100
AcDbEntity
  8
AM_0
100
AcDbSpline
210
0.0
220
0.0
230
1.0
 70
     8
 71
     3
 72
     8
 73
     4
 74
     0
 42
0.0000000001
 43
0.0000000001
 40
0.0
 40
0.0
 40
0.0
 40
0.0
 40
5.071498792270392
 40
5.071498792270392
 40
5.071498792270392
 40
5.071498792270392
 10
0.0
 20
-1.75
 30
0.0
 10
-1.609999616593775
 20
-1.75
 30
0.0
 10
-3.071666474963549
 20
-0.8750000000000071
 30
0.0
 10
-4.533333333333331
 20
0.0
 30
0.0
  0
SPLINE
  5
1EA1
330
1F
100
AcDbEntity
  8
AM_0
100
AcDbSpline
210
0.0
220
0.0
230
1.0
 70
     8
 71
     3
 72
     8
 73
     4
 74
     0
 42
0.0000000001
 43
0.0000000001
 40
0.0
 40
0.0
 40
0.0
 40
0.0
 40
2.238610194515266
 40
2.238610194515266
 40
2.238610194515266
 40
2.238610194515266
 10
-5.384125983092843
 20
-1.342843410555481
 30
0.0
 10
-3.986795301236071
 20
-1.342843410555474
 30
0.0
 10
-2.876585786785398
 20
-1.277006317052752
 30
0.0
 10
-2.403805184802926
 20
-1.165748211996458
 30
0.0
  0
SPLINE
  5
1EA2
330
1F
100
AcDbEntity
  8
AM_0
100
AcDbSpline
210
0.0
220
0.0
230
1.0
 70
     8
 71
     3
 72
     8
 73
     4
 74
     0
 42
0.0000000001
 43
0.0000000001
 40
0.0
 40
0.0
 40
0.0
 40
0.0
 40
7.57842115059705
 40
7.57842115059705
 40
7.57842115059705
 40
7.57842115059705
 10
0.0
 20
1.75
 30
0.0
 10
-0.8420467945107859
 20
1.75
 30
0.0
 10
-1.643518640165289
 20
1.510652463593835
 30
0.0
 10
-2.425636663521387
 20
1.157138678856121
 30
0.0
  0
SPLINE
  5
1EA3
330
1F
100
AcDbEntity
  8
AM_0
100
AcDbSpline
210
0.0
220
0.0
230
1.0
 70
     8
 71
     3
 72
     8
 73
     4
 74
     0
 42
0.0000000001
 43
0.0000000001
 40
0.0
 40
0.0
 40
0.0
 40
0.0
 40
0.9052978632658597
 40
0.9052978632658597
 40
0.9052978632658597
 40
0.9052978632658597
 10
0.0
 20
1.426145940339381
 30
0.0
 10
-0.1844224601676529
 20
1.194705118652848
 30
0.0
 10
-0.5009731682386729
 20
1.095315828923524
 30
0.0
 10
-0.7855240770073096
 20
1.052958697884825
 30
0.0
  0
SPLINE
  5
1EA4
330
1F
100
AcDbEntity
  8
AM_0
100
AcDbSpline
210
0.0
220
0.0
230
1.0
 70
     8
 71
     3
 72
     8
 73
     4
 74
     0
 42
0.0000000001
 43
0.0000000001
 40
0.0
 40
0.0
 40
0.0
 40
0.0
 40
4.651668507325564
 40
4.651668507325564
 40
4.651668507325564
 40
4.651668507325564
 10
-9.355842588572755
 20
-1.616105576330937
 30
0.0
 10
-10.83256274962849
 20
-1.616105576330937
 30
0.0
 10
-12.17130069421649
 20
-0.8080527881654546
 30
0.0
 10
-13.51003863880448
 20
0.0000000000000213
 30
0.0
  0
SPLINE
  5
1EA5
330
1F
100
AcDbEntity
  8
AM_0
100
AcDbSpline
210
0.0
220
0.0
230
1.0
 70
     8
 71
     3
 72
     8
 73
     4
 74
     0
 42
0.0000000001
 43
0.0000000001
 40
0.0
 40
0.0
 40
0.0
 40
0.0
 40
3.000656968708724
 40
3.000656968708724
 40
3.000656968708724
 40
3.000656968708724
 10
-9.066666666666662
 20
1.75
 30
0.0
 10
-9.400072996523178
 20
1.75
 30
0.0
 10
-9.727118211939242
 20
1.712476426636619
 30
0.0
 10
-10.05787385162736
 20
1.639892857367541
 30
0.0
  0
SPLINE
  5
1EA6
330
1F
100
AcDbEntity
  8
AM_0
100
AcDbSpline
210
0.0
220
0.0
230
1.0
 70
     8
 71
     3
 72
     8
 73
     4
 74
     0
 42
0.0000000001
 43
0.0000000001
 40
5.297458184749251
 40
5.297458184749251
 40
5.297458184749251
 40
5.297458184749251
 40
7.218994763998551
 40
7.218994763998551
 40
7.218994763998551
 40
7.218994763998551
 10
-11.17113391600112
 20
0.5597642878515217
 30
0.0
 10
-10.70697205806438
 20
0.3909280916591768
 30
0.0
 10
-10.31279822612478
 20
0.208690033691866
 30
0.0
 10
-9.918624394185201
 20
0.0264519757245267
 30
0.0
  0
SPLINE
  5
1EA7
330
1F
100
AcDbEntity
  8
AM_0
100
AcDbSpline
210
0.0
220
0.0
230
1.0
 70
     8
 71
     3
 72
     8
 73
     4
 74
     0
 42
0.0000000001
 43
0.0000000001
 40
0.0
 40
0.0
 40
0.0
 40
0.0
 40
2.130230809022907
 40
2.130230809022907
 40
2.130230809022907
 40
2.130230809022907
 10
-11.54094814889792
 20
-1.750000000000042
 30
0.0
 10
-10.37092250345085
 20
-1.750000000000042
 30
0.0
 10
-10.13743611982998
 20
-1.731088550737098
 30
0.0
 10
-9.906684348671987
 20
-1.696045897998438
 30
0.0
  0
SPLINE
  5
1EA8
330
1F
100
AcDbEntity
  8
AM_0
100
AcDbSpline
210
0.0
220
0.0
230
1.0
 70
     8
 71
     3
 72
     8
 73
     4
 74
     0
 42
0.0000000001
 43
0.0000000001
 40
0.0
 40
0.0
 40
0.0
 40
0.0
 40
2.221495395472776
 40
2.221495395472776
 40
2.221495395472776
 40
2.221495395472776
 10
-9.355842588572755
 20
-1.61610557633098
 30
0.0
 10
-9.10900976685356
 20
-1.61610557633098
 30
0.0
 10
-8.865217189508697
 20
-1.596773799448527
 30
0.0
 10
-8.623994611183547
 20
-1.561100360015359
 30
0.0
  0
SPLINE
  5
1EA9
330
1F
100
AcDbEntity
  8
AM_0
100
AcDbSpline
210
0.0
220
0.0
230
1.0
 70
     8
 71
     3
 72
     8
 73
     4
 74
     0
 42
0.0000000001
 43
0.0000000001
 40
0.0
 40
0.0
 40
0.0
 40
0.0
 40
2.764560748519282
 40
2.764560748519282
 40
2.764560748519282
 40
2.764560748519282
 10
-10.02579855489965
 20
-1.697599284617425
 30
0.0
 10
-9.718625138397513
 20
-1.697599284617425
 30
0.0
 10
-9.416577940938509
 20
-1.66648340197856
 30
0.0
 10
-9.118675473089979
 20
-1.610209226445128
 30
0.0
  0
SPLINE
  5
1EAA
330
1F
100
AcDbEntity
  8
AM_0
100
AcDbSpline
210
0.0
220
0.0
230
1.0
 70
     8
 71
     3
 72
     8
 73
     4
 74
     0
 42
0.0000000001
 43
0.0000000001
 40
6.225830728781539
 40
6.225830728781539
 40
6.225830728781539
 40
6.225830728781539
 40
7.218994763998551
 40
7.218994763998551
 40
7.218994763998551
 40
7.218994763998551
 10
-13.87674802170734
 20
0.2807238303565569
 30
0.0
 10
-13.82225760509997
 20
0.2157684611981381
 30
0.0
 10
-13.70761933924178
 20
0.1380791295236605
 30
0.0
 10
-13.51003863880448
 20
-0.0000000000000568
 30
0.0
  0
LINE
  5
1FAF
330
1F
100
AcDbEntity
  8
AM_0
100
AcDbLine
 10
-12.34879425283399
 20
1.750000000000005
 30
0.0
 11
-14.83493649053905
 21
1.750000000000003
 31
0.0
  0
LINE
  5
1FB0
330
1F
100
AcDbEntity
  8
AM_0
100
AcDbLine
 10
-11.54094814889792
 20
-1.750000000000043
 30
0.0
 11
-14.83493649053915
 21
-1.750000000000046
 31
0.0
  0
VIEWPORT
  5
110
330
101
100
AcDbEntity
 67
     1
  8
0
100
AcDbViewport
 10
420.5
 20
297.0
 30
0.0
 40
948.9782706766916
 41
628.452
 68
     1
 69
     1
1001
ACAD
1000
MVIEW
1002
{
1070
    16
1010
0.0
1020
0.0
1030
0.0
1010
0.0
1020
0.0
1030
1.0
1040
0.0
1040
628.452
1040
420.5
1040
297.0
1040
50.0
1040
0.0
1040
0.0
1070
     0
1070
   100
1070
     1
1070
     1
1070
     0
1070
     0
1070
     0
1070
     0
1040
0.0
1040
0.0
1040
0.0
1040
10.0
1040
10.0
1040
10.0
1040
10.0
1070
     0
1002
{
1002
}
1002
}
  0
ENDSEC
  0
SECTION
  2
OBJECTS
  0
DICTIONARY
  5
C
330
0
100
AcDbDictionary
  3
ACAD_GROUP
350
D
  3
ACAD_LAYOUT
350
1A
  3
ACAD_MLINESTYLE
350
17
  3
ACAD_PLOTSETTINGS
350
19
  3
ACAD_PLOTSTYLENAME
350
E
  3
ACDBVARIABLEDICTIONARY
350
34
  3
ACMDICTIONARY
350
43
  3
AMG
350
2B
  3
AMGSNAPSETTINGS
350
6E
  3
DWGPROPS
350
2201
  3
ACDBHEADERROUNDTRIPXREC
350
220D
  0
DICTIONARY
  5
74
330
1F
100
AcDbDictionary
280
     1
  3
ACAD_INDEX
360
2203
  3
ACAD_LAYOUTSELFREF
360
2230
  0
DICTIONARY
  5
2235
330
101
100
AcDbDictionary
280
     1
  3
ACAD_LAYOUTSELFREF
360
2236
  0
DICTIONARY
  5
D
102
{ACAD_REACTORS
330
C
102
}
330
C
100
AcDbDictionary
  0
DICTIONARY
  5
1A
102
{ACAD_REACTORS
330
C
102
}
330
C
100
AcDbDictionary
  0
DICTIONARY
  5
17
102
{ACAD_REACTORS
330
C
102
}
330
C
100
AcDbDictionary
  3
STANDARD
350
18
  0
DICTIONARY
  5
19
102
{ACAD_REACTORS
330
C
102
}
330
C
100
AcDbDictionary
  0
ACDBDICTIONARYWDFLT
  5
E
102
{ACAD_REACTORS
330
C
102
}
330
C
100
AcDbDictionary
281
     1
  3
Normal
350
F
100
AcDbDictionaryWithDefault
340
F
  0
DICTIONARY
  5
34
102
{ACAD_REACTORS
330
C
102
}
330
C
100
AcDbDictionary
  3
INDEXCTL
350
35
  3
SORTENTS
350
B5E
  0
DICTIONARY
  5
43
102
{ACAD_REACTORS
330
C
102
}
330
C
100
AcDbDictionary
  3
ACMSTDDICTIONARY
350
260
  0
DICTIONARY
  5
2B
102
{ACAD_REACTORS
330
C
102
}
330
C
100
AcDbDictionary
  3
ACMGSETTINGS
350
2C
  0
DICTIONARY
  5
6E
102
{ACAD_REACTORS
330
C
102
}
330
C
100
AcDbDictionary
  0
XRECORD
  5
2201
102
{ACAD_REACTORS
330
C
102
}
330
C
100
AcDbXrecord
  1
DWGPROPS COOKIE
  2

  3

  4

  6

  7

  8

  9

300
AmdtFileType=82
301
=
302
=
303
=
304
=
305
=
306
=
307
=
308
=
309
=
 40
0.0758939699074074
 41
2452836.771637361
 42
2453045.497276076
  1

 90
        1
  0
DICTIONARY
  5
220D
102
{ACAD_REACTORS
330
C
102
}
330
C
100
AcDbDictionary
  3
TSTACKALIGN
350
220E
  3
TSTACKSIZE
350
220F
  3
HYPERLINKBASE
350
2210
  3
STYLESHEET
350
2211
  3
LAYOUTDICT
350
2212
  3
PLOTSETDICT
350
2213
  3
PLOTSTYLNAMDICT
350
2214
  3
LWETCUNION
350
2215
  3
INSUNITS
350
2216
  3
CEPSNTYPE
350
2217
  3
FINGERPRINTGUID
350
2218
  3
VERSIONGUID
350
2219
  3
PSVPSCALE
350
221A
  3
DIMSTYLEDATA
350
221B
  3
PUCSORTHOREF
350
221C
  3
PUCSORTHOVIEW
350
221D
  3
PUCSBASE
350
221E
  3
PUCSORGTOP
350
221F
  3
PUCSORGBOTTOM
350
2220
  3
PUCSORGLEFT
350
2221
  3
PUCSORGRIGHT
350
2222
  3
PUCSORGFRONT
350
2223
  3
PUCSORGBACK
350
2224
  3
UCSORTHOREF
350
2225
  3
UCSORTHOVIEW
350
2226
  3
UCSBASE
350
2227
  3
UCSORGTOP
350
2228
  3
UCSORGBOTTOM
350
2229
  3
UCSORGLEFT
350
222A
  3
UCSORGRIGHT
350
222B
  3
UCSORGFRONT
350
222C
  3
UCSORGBACK
350
222D
  0
DICTIONARY
  5
2203
102
{ACAD_REACTORS
330
74
102
}
330
74
100
AcDbDictionary
  3
*A1
350
2204
  0
XRECORD
  5
2230
102
{ACAD_REACTORS
330
74
102
}
330
74
100
AcDbXrecord
340
1F
  0
XRECORD
  5
2236
102
{ACAD_REACTORS
330
2235
102
}
330
2235
100
AcDbXrecord
340
101
  0
MLINESTYLE
  5
18
102
{ACAD_REACTORS
330
17
102
}
330
17
100
AcDbMlineStyle
  2
STANDARD
 70
     0
  3

 62
   256
 51
90.0
 52
90.0
 71
     2
 49
0.5
 62
   256
  6
BYLAYER
 49
-0.5
 62
   256
  6
BYLAYER
  0
ACDBPLACEHOLDER
  5
F
102
{ACAD_REACTORS
330
E
102
}
330
E
100
AcDbPlaceHolder
280
     0
  0
DICTIONARYVAR
  5
35
102
{ACAD_REACTORS
330
34
102
}
330
34
100
DictionaryVariables
280
     0
  1
1
  0
DICTIONARYVAR
  5
B5E
102
{ACAD_REACTORS
330
34
102
}
330
34
100
DictionaryVariables
280
     0
  1
96
  0
DICTIONARY
  5
260
102
{ACAD_REACTORS
330
43
102
}
330
43
100
AcDbDictionary
  0
DICTIONARY
  5
2C
102
{ACAD_REACTORS
330
2B
102
}
330
2B
100
AcDbDictionary
  3
DWGSETTINGS
350
2D
  0
XRECORD
  5
220E
102
{ACAD_REACTORS
330
220D
102
}
330
220D
100
AcDbXrecord
 90
        1
  0
XRECORD
  5
220F
102
{ACAD_REACTORS
330
220D
102
}
330
220D
100
AcDbXrecord
 90
       70
  0
XRECORD
  5
2210
102
{ACAD_REACTORS
330
220D
102
}
330
220D
100
AcDbXrecord
  1

  0
XRECORD
  5
2211
102
{ACAD_REACTORS
330
220D
102
}
330
220D
100
AcDbXrecord
  1
ASAMI.ctb
  0
XRECORD
  5
2212
102
{ACAD_REACTORS
330
220D
102
}
330
220D
100
AcDbXrecord
340
1A
  0
XRECORD
  5
2213
102
{ACAD_REACTORS
330
220D
102
}
330
220D
100
AcDbXrecord
340
19
  0
XRECORD
  5
2214
102
{ACAD_REACTORS
330
220D
102
}
330
220D
100
AcDbXrecord
340
E
  0
XRECORD
  5
2215
102
{ACAD_REACTORS
330
220D
102
}
330
220D
100
AcDbXrecord
 90
    10781
  0
XRECORD
  5
2216
102
{ACAD_REACTORS
330
220D
102
}
330
220D
100
AcDbXrecord
 90
        4
  0
XRECORD
  5
2217
102
{ACAD_REACTORS
330
220D
102
}
330
220D
100
AcDbXrecord
 90
        0
  0
XRECORD
  5
2218
102
{ACAD_REACTORS
330
220D
102
}
330
220D
100
AcDbXrecord
  1
{AFB28963-8C59-40AE-9337-C84526B81ACE}
  0
XRECORD
  5
2219
102
{ACAD_REACTORS
330
220D
102
}
330
220D
100
AcDbXrecord
  1
{D96B4B9D-D8C9-4143-B39E-53438E912505}
  0
XRECORD
  5
221A
102
{ACAD_REACTORS
330
220D
102
}
330
220D
100
AcDbXrecord
 40
0.0
  0
XRECORD
  5
221B
102
{ACAD_REACTORS
330
220D
102
}
330
220D
100
AcDbXrecord
1000
DSTYLE
1002
{
1070
    79
 70
     2
1070
   341
340
59
1070
   342
340
59
1070
   371
 70
    -1
1070
   372
 70
    -1
1002
}
  0
XRECORD
  5
221C
102
{ACAD_REACTORS
330
220D
102
}
330
220D
100
AcDbXrecord
340
0
  0
XRECORD
  5
221D
102
{ACAD_REACTORS
330
220D
102
}
330
220D
100
AcDbXrecord
 70
     0
  0
XRECORD
  5
221E
102
{ACAD_REACTORS
330
220D
102
}
330
220D
100
AcDbXrecord
340
0
  0
XRECORD
  5
221F
102
{ACAD_REACTORS
330
220D
102
}
330
220D
100
AcDbXrecord
 10
0.0
 20
0.0
 30
0.0
  0
XRECORD
  5
2220
102
{ACAD_REACTORS
330
220D
102
}
330
220D
100
AcDbXrecord
 10
0.0
 20
0.0
 30
0.0
  0
XRECORD
  5
2221
102
{ACAD_REACTORS
330
220D
102
}
330
220D
100
AcDbXrecord
 10
0.0
 20
0.0
 30
0.0
  0
XRECORD
  5
2222
102
{ACAD_REACTORS
330
220D
102
}
330
220D
100
AcDbXrecord
 10
0.0
 20
0.0
 30
0.0
  0
XRECORD
  5
2223
102
{ACAD_REACTORS
330
220D
102
}
330
220D
100
AcDbXrecord
 10
0.0
 20
0.0
 30
0.0
  0
XRECORD
  5
2224
102
{ACAD_REACTORS
330
220D
102
}
330
220D
100
AcDbXrecord
 10
0.0
 20
0.0
 30
0.0
  0
XRECORD
  5
2225
102
{ACAD_REACTORS
330
220D
102
}
330
220D
100
AcDbXrecord
340
0
  0
XRECORD
  5
2226
102
{ACAD_REACTORS
330
220D
102
}
330
220D
100
AcDbXrecord
 70
     0
  0
XRECORD
  5
2227
102
{ACAD_REACTORS
330
220D
102
}
330
220D
100
AcDbXrecord
340
0
  0
XRECORD
  5
2228
102
{ACAD_REACTORS
330
220D
102
}
330
220D
100
AcDbXrecord
 10
0.0
 20
0.0
 30
0.0
  0
XRECORD
  5
2229
102
{ACAD_REACTORS
330
220D
102
}
330
220D
100
AcDbXrecord
 10
0.0
 20
0.0
 30
0.0
  0
XRECORD
  5
222A
102
{ACAD_REACTORS
330
220D
102
}
330
220D
100
AcDbXrecord
 10
0.0
 20
0.0
 30
0.0
  0
XRECORD
  5
222B
102
{ACAD_REACTORS
330
220D
102
}
330
220D
100
AcDbXrecord
 10
0.0
 20
0.0
 30
0.0
  0
XRECORD
  5
222C
102
{ACAD_REACTORS
330
220D
102
}
330
220D
100
AcDbXrecord
 10
0.0
 20
0.0
 30
0.0
  0
XRECORD
  5
222D
102
{ACAD_REACTORS
330
220D
102
}
330
220D
100
AcDbXrecord
 10
0.0
 20
0.0
 30
0.0
  0
LAYER_INDEX
  5
2204
102
{ACAD_REACTORS
330
2203
102
}
330
2203
100
AcDbIndex
 40
2453152.461092847
100
AcDbLayerIndex
  8
0
360
2205
 90
        0
  8
AM_0
360
2206
 90
       42
  8
AM_11
360
2207
 90
        3
  8
AM_7
360
2208
 90
        1
  8
AM_5
360
2209
 90
        4
  8
Defpoints
360
220A
 90
        0
  8
AM_6
360
220B
 90
        1
  0
XRECORD
  5
2D
102
{ACAD_REACTORS
330
2C
102
}
330
2C
100
AcDbXrecord
  1
VERSION
140
15.0
  1
PRODUCT
  2
AutoCAD Mechanical 2000
  0
IDBUFFER
  5
2205
330
0
100
AcDbIdBuffer
  0
IDBUFFER
  5
2206
330
0
100
AcDbIdBuffer
330
1E8D
330
1E8E
330
1E8F
330
1E91
330
1E92
330
1E93
330
1E94
330
1E96
330
1E99
330
1E9A
330
1E9B
330
1E9D
330
1E9E
330
1EA0
330
1EA1
330
1EA2
330
1EA3
330
1EA4
330
1EA5
330
1EA6
330
1EA7
330
1EA8
330
1EA9
330
1EAA
330
1FAF
330
1FB0
330
1849
330
184A
330
184B
330
1857
330
185A
330
185B
330
1863
330
187A
330
187B
330
187C
330
1E86
330
1E87
330
1E88
330
1E8A
330
1E8B
330
1E8C
  0
IDBUFFER
  5
2207
330
0
100
AcDbIdBuffer
330
1E95
330
1E97
330
1E98
  0
IDBUFFER
  5
2208
330
0
100
AcDbIdBuffer
330
1759
  0
IDBUFFER
  5
2209
330
0
100
AcDbIdBuffer
330
FCE
330
105F
330
10EF
330
1315
  0
IDBUFFER
  5
220A
330
0
100
AcDbIdBuffer
  0
IDBUFFER
  5
220B
330
0
100
AcDbIdBuffer
330
E5A
  0
ENDSEC
  0
EOF
