  0
SECTION
  2
HEADER
  9
$ACADVER
  1
AC1014
  9
$ACADMAINTVER
 70
     9
  9
$DWGCODEPAGE
  3
ANSI_932
  9
$INSBASE
 10
0.0
 20
0.0
 30
0.0
  9
$EXTMIN
 10
-61.31900544538311
 20
-27.25000099999999
 30
-0.00000001
  9
$EXTMAX
 10
7.399228462577697
 20
3.028349673591777
 30
0.00000001
  9
$LIMMIN
 10
-62.8767156736551
 20
-30.44334232968214
  9
$LIMMAX
 10
10.95323338114485
 20
8.241515234745349
  9
$ORTHOMODE
 70
     0
  9
$REGENMODE
 70
     1
  9
$FILLMODE
 70
     1
  9
$QTEXTMODE
 70
     0
  9
$MIRRTEXT
 70
     0
  9
$DRAGMODE
 70
     2
  9
$LTSCALE
 40
1.0
  9
$OSMODE
 70
    55
  9
$ATTMODE
 70
     1
  9
$TEXTSIZE
 40
2.5
  9
$TRACEWID
 40
1.0
  9
$TEXTSTYLE
  7
STANDARD
  9
$CLAYER
  8
AM_0
  9
$CELTYPE
  6
BYLAYER
  9
$CECOLOR
 62
   256
  9
$CELTSCALE
 40
1.0
  9
$DELOBJ
 70
     1
  9
$DISPSILH
 70
     0
  9
$DIMSCALE
 40
0.5
  9
$DIMASZ
 40
2.5
  9
$DIMEXO
 40
1.0
  9
$DIMDLI
 40
12.0
  9
$DIMRND
 40
0.0
  9
$DIMDLE
 40
0.0
  9
$DIMEXE
 40
1.0
  9
$DIMTP
 40
0.1
  9
$DIMTM
 40
0.1
  9
$DIMTXT
 40
3.2
  9
$DIMCEN
 40
0.0
  9
$DIMTSZ
 40
0.0
  9
$DIMTOL
 70
     0
  9
$DIMLIM
 70
     0
  9
$DIMTIH
 70
     0
  9
$DIMTOH
 70
     0
  9
$DIMSE1
 70
     0
  9
$DIMSE2
 70
     0
  9
$DIMTAD
 70
     3
  9
$DIMZIN
 70
     8
  9
$DIMBLK
  1
OPEN30
  9
$DIMASO
 70
     1
  9
$DIMSHO
 70
     1
  9
$DIMPOST
  1

  9
$DIMAPOST
  1
"
  9
$DIMALT
 70
     0
  9
$DIMALTD
 70
     2
  9
$DIMALTF
 40
0.0393701
  9
$DIMLFAC
 40
1.0
  9
$DIMTOFL
 70
     1
  9
$DIMTVP
 40
0.0
  9
$DIMTIX
 70
     0
  9
$DIMSOXD
 70
     0
  9
$DIMSAH
 70
     0
  9
$DIMBLK1
  1

  9
$DIMBLK2
  1

  9
$DIMSTYLE
  2
AM_JIS
  9
$DIMCLRD
 70
   256
  9
$DIMCLRE
 70
   256
  9
$DIMCLRT
 70
     2
  9
$DIMTFAC
 40
0.71
  9
$DIMGAP
 40
1.5
  9
$DIMJUST
 70
     0
  9
$DIMSD1
 70
     0
  9
$DIMSD2
 70
     0
  9
$DIMTOLJ
 70
     0
  9
$DIMTZIN
 70
     0
  9
$DIMALTZ
 70
     0
  9
$DIMALTTZ
 70
     0
  9
$DIMFIT
 70
     3
  9
$DIMUPT
 70
     0
  9
$DIMUNIT
 70
     2
  9
$DIMDEC
 70
     3
  9
$DIMTDEC
 70
     3
  9
$DIMALTU
 70
     2
  9
$DIMALTTD
 70
     2
  9
$DIMTXSTY
  7
ASAMI
  9
$DIMAUNIT
 70
     0
  9
$LUNITS
 70
     2
  9
$LUPREC
 70
     2
  9
$SKETCHINC
 40
1.0
  9
$FILLETRAD
 40
2.5
  9
$AUNITS
 70
     0
  9
$AUPREC
 70
     0
  9
$MENU
  1
.
  9
$ELEVATION
 40
0.0
  9
$PELEVATION
 40
0.0
  9
$THICKNESS
 40
0.0
  9
$LIMCHECK
 70
     0
  9
$BLIPMODE
 70
     0
  9
$CHAMFERA
 40
0.5
  9
$CHAMFERB
 40
0.5
  9
$CHAMFERC
 40
20.0
  9
$CHAMFERD
 40
0.0
  9
$SKPOLY
 70
     0
  9
$TDCREATE
 40
2452836.771637361
  9
$TDUPDATE
 40
2453152.464942233
  9
$TDINDWG
 40
0.0473836343
  9
$TDUSRTIMER
 40
0.0473836343
  9
$USRTIMER
 70
     1
  9
$ANGBASE
 50
0.0
  9
$ANGDIR
 70
     0
  9
$PDMODE
 70
     0
  9
$PDSIZE
 40
0.0
  9
$PLINEWID
 40
0.0
  9
$COORDS
 70
     1
  9
$SPLFRAME
 70
     0
  9
$SPLINETYPE
 70
     6
  9
$SPLINESEGS
 70
     8
  9
$ATTDIA
 70
     1
  9
$ATTREQ
 70
     1
  9
$HANDLING
 70
 12289
  9
$HANDSEED
  5
1AFA
  9
$SURFTAB1
 70
     6
  9
$SURFTAB2
 70
     6
  9
$SURFTYPE
 70
     6
  9
$SURFU
 70
     6
  9
$SURFV
 70
     6
  9
$UCSNAME
  2

  9
$UCSORG
 10
0.0
 20
0.0
 30
0.0
  9
$UCSXDIR
 10
1.0
 20
0.0
 30
0.0
  9
$UCSYDIR
 10
0.0
 20
1.0
 30
0.0
  9
$PUCSNAME
  2

  9
$PUCSORG
 10
0.0
 20
0.0
 30
0.0
  9
$PUCSXDIR
 10
1.0
 20
0.0
 30
0.0
  9
$PUCSYDIR
 10
0.0
 20
1.0
 30
0.0
  9
$USERI1
 70
     0
  9
$USERI2
 70
     0
  9
$USERI3
 70
     0
  9
$USERI4
 70
     0
  9
$USERI5
 70
     0
  9
$USERR1
 40
0.0
  9
$USERR2
 40
0.0
  9
$USERR3
 40
0.0
  9
$USERR4
 40
0.0
  9
$USERR5
 40
0.0
  9
$WORLDVIEW
 70
     1
  9
$SHADEDGE
 70
     3
  9
$SHADEDIF
 70
    70
  9
$TILEMODE
 70
     1
  9
$MAXACTVP
 70
    64
  9
$PINSBASE
 10
0.0
 20
0.0
 30
0.0
  9
$PLIMCHECK
 70
     0
  9
$PEXTMIN
 10
1.000000000000000E+20
 20
1.000000000000000E+20
 30
1.000000000000000E+20
  9
$PEXTMAX
 10
-1.000000000000000E+20
 20
-1.000000000000000E+20
 30
-1.000000000000000E+20
  9
$PLIMMIN
 10
0.0
 20
0.0
  9
$PLIMMAX
 10
841.0
 20
594.0
  9
$UNITMODE
 70
     0
  9
$VISRETAIN
 70
     1
  9
$PLINEGEN
 70
     0
  9
$PSLTSCALE
 70
     0
  9
$TREEDEPTH
 70
  3020
  9
$PICKSTYLE
 70
     0
  9
$CMLSTYLE
  2
STANDARD
  9
$CMLJUST
 70
     0
  9
$CMLSCALE
 40
20.0
  9
$PROXYGRAPHICS
 70
     1
  9
$MEASUREMENT
 70
     1
  0
ENDSEC
  0
SECTION
  2
CLASSES
  0
CLASS
  1
ACDBDICTIONARYWDFLT
  2
AcDbDictionaryWithDefault
  3
AutoCAD 2000
 90
        0
280
     0
281
     0
  0
CLASS
  1
ACDBPLACEHOLDER
  2
AcDbPlaceHolder
  3
AutoCAD 2000
 90
        0
280
     0
281
     0
  0
CLASS
  1
LAYOUT
  2
AcDbLayout
  3
AutoCAD 2000
 90
        0
280
     0
281
     0
  0
CLASS
  1
AMGSETTINGSOBJ
  2
AmgSettingsObj
  3
"AcadM|Product Description: AutoCAD Mechanical 2000|Company: Autodesk"
 90
        0
280
     0
281
     0
  0
CLASS
  1
ACME_DOCUMENT
  2
AcMeDbDoc
  3
AcMeServices
 90
        0
280
     0
281
     0
  0
CLASS
  1
ACMESCOPE
  2
AcMeScope
  3
AcMeServices
 90
        0
280
     0
281
     0
  0
CLASS
  1
ACMECOMMANDHISTORY
  2
AcMeCommandHistory
  3
AcMeServices
 90
        0
280
     0
281
     0
  0
CLASS
  1
DICTIONARYVAR
  2
AcDbDictionaryVar
  3
AutoCAD 2000
 90
        0
280
     0
281
     0
  0
CLASS
  1
ACIMSYSVARMAN
  2
AcImSysVarManager
  3
AcMeServices
 90
        0
280
     0
281
     0
  0
CLASS
  1
ACIMREALSYSVAR
  2
AcImRealSysVar
  3
AcMeServices
 90
        0
280
     0
281
     0
  0
CLASS
  1
ACIMINTSYSVAR
  2
AcImIntSysVar
  3
AcMeServices
 90
        0
280
     0
281
     0
  0
CLASS
  1
ACMEDRAWINGMAN
  2
AcMeDrawingMan
  3
AcMeServices
 90
        0
280
     0
281
     0
  0
CLASS
  1
ACMEVIEW
  2
AcMeView
  3
AcMeServices
 90
        0
280
     0
281
     0
  0
CLASS
  1
ACDBENTITYCACHE
  2
AcMeEntityCache
  3
AcMeServices
 90
        0
280
     0
281
     0
  0
CLASS
  1
GSMANAGER
  2
AcMeGSManager
  3
AcMeServices
 90
        0
280
     0
281
     0
  0
CLASS
  1
AmdtInternalReactor
  2
AmdtInternalReactor
  3
AcMeServices
 90
        0
280
     0
281
     0
  0
CLASS
  1
ACMESTATEMGR
  2
AcMeStateMgr
  3
AcMeServices
 90
        0
280
     0
281
     0
  0
CLASS
  1
ACME_DATABASE
  2
AcMeDbDatabase
  3
AcMeServices
 90
        0
280
     0
281
     0
  0
CLASS
  1
ACRFINSADJUSTERMGR
  2
AcRfInsAdjusterMgr
  3
AcMeServices
 90
        0
280
     0
281
     0
  0
CLASS
  1
ACMDATADICTIONARY
  2
AcmDataDictionary
  3
"AcmSymBB|Product Description: AutoCAD Mechanical 2000|Company: Autodesk"
 90
        0
280
     0
281
     0
  0
CLASS
  1
ACMDATAENTRYBLOCK
  2
AcmDataEntryBlock
  3
"AcmSymBB|Product Description: AutoCAD Mechanical 2000|Company: Autodesk"
 90
        0
280
     0
281
     0
  0
CLASS
  1
AMGOBJPROPCFG
  2
AmgObjPropCfg
  3
"AmgLay|Product Description: AutoCAD Mechanical 2000|Company: Autodesk"
 90
        1
280
     0
281
     0
  0
CLASS
  1
ACAMGFILTERDAT
  2
AcAmgFilterDat
  3
"AcadM|Product Description: AutoCAD Mechanical 2000|Company: Autodesk"
 90
        0
280
     0
281
     0
  0
CLASS
  1
LAYER_INDEX
  2
AcDbLayerIndex
  3
AutoCAD 2000
 90
        0
280
     0
281
     0
  0
CLASS
  1
IDBUFFER
  2
AcDbIdBuffer
  3
AutoCAD 2000
 90
        0
280
     0
281
     0
  0
CLASS
  1
ACIMSTRSYSVAR
  2
AcImStrSysVar
  3
AcMeServices
 90
        0
280
     0
281
     0
  0
CLASS
  1
ACMSTANDARDJIS
  2
AcmStandardJIS
  3
"AcmSymBB|Product Description: AutoCAD Mechanical 2000|Company: Autodesk"
 90
        0
280
     0
281
     0
  0
CLASS
  1
ACMSURFSTANDARDJIS
  2
AcmSurfTextStdJIS
  3
"AcmSymBB|Product Description: AutoCAD Mechanical 2000|Company: Autodesk"
 90
        0
280
     0
281
     0
  0
CLASS
  1
ACMFCFSTANDARDJIS
  2
AcmFCFStdJIS
  3
"AcmSymBB|Product Description: AutoCAD Mechanical 2000|Company: Autodesk"
 90
        0
280
     0
281
     0
  0
CLASS
  1
ACMWELDSTANDARDJIS
  2
AcmWeldingStdJIS
  3
"AcmSymBB|Product Description: AutoCAD Mechanical 2000|Company: Autodesk"
 90
        0
280
     0
281
     0
  0
CLASS
  1
ACMIDSTANDARDJIS
  2
AcmIdStdJIS
  3
"AcmSymBB|Product Description: AutoCAD Mechanical 2000|Company: Autodesk"
 90
        0
280
     0
281
     0
  0
CLASS
  1
ACMDATUMSTANDARDJIS
  2
AcmDatumStdJIS
  3
"AcmSymBB|Product Description: AutoCAD Mechanical 2000|Company: Autodesk"
 90
        0
280
     0
281
     0
  0
CLASS
  1
ACMBOMSTANDARDJIS
  2
AcmBOMStdJIS
  3
"AcmSymBB|Product Description: AutoCAD Mechanical 2000|Company: Autodesk"
 90
        0
280
     0
281
     0
  0
CLASS
  1
ACMSTANDARDANSI
  2
AcmStandardANSI
  3
"AcmSymBB|Product Description: AutoCAD Mechanical 2000|Company: Autodesk"
 90
        0
280
     0
281
     0
  0
CLASS
  1
ACMSURFSTANDARDANSI
  2
AcmSurfTextStdANSI
  3
"AcmSymBB|Product Description: AutoCAD Mechanical 2000|Company: Autodesk"
 90
        0
280
     0
281
     0
  0
CLASS
  1
ACMFCFSTANDARDANSI
  2
AcmFCFStdANSI
  3
"AcmSymBB|Product Description: AutoCAD Mechanical 2000|Company: Autodesk"
 90
        0
280
     0
281
     0
  0
CLASS
  1
ACMWELDSTANDARDANSI
  2
AcmWeldingStdANSI
  3
"AcmSymBB|Product Description: AutoCAD Mechanical 2000|Company: Autodesk"
 90
        0
280
     0
281
     0
  0
CLASS
  1
ACMIDSTANDARDANSI
  2
AcmIdStdANSI
  3
"AcmSymBB|Product Description: AutoCAD Mechanical 2000|Company: Autodesk"
 90
        0
280
     0
281
     0
  0
CLASS
  1
ACMDATUMSTANDARDANSI
  2
AcmDatumStdANSI
  3
"AcmSymBB|Product Description: AutoCAD Mechanical 2000|Company: Autodesk"
 90
        0
280
     0
281
     0
  0
CLASS
  1
ACMBOMSTANDARDANSI
  2
AcmBOMStdANSI
  3
"AcmSymBB|Product Description: AutoCAD Mechanical 2000|Company: Autodesk"
 90
        0
280
     0
281
     0
  0
CLASS
  1
ACMSTANDARDBSI
  2
AcmStandardBSI
  3
"AcmSymBB|Product Description: AutoCAD Mechanical 2000|Company: Autodesk"
 90
        0
280
     0
281
     0
  0
CLASS
  1
ACMSURFSTANDARDBSI
  2
AcmSurfTextStdBSI
  3
"AcmSymBB|Product Description: AutoCAD Mechanical 2000|Company: Autodesk"
 90
        0
280
     0
281
     0
  0
CLASS
  1
ACMFCFSTANDARDBSI
  2
AcmFCFStdBSI
  3
"AcmSymBB|Product Description: AutoCAD Mechanical 2000|Company: Autodesk"
 90
        0
280
     0
281
     0
  0
CLASS
  1
ACMWELDSTANDARDBSI
  2
AcmWeldingStdBSI
  3
"AcmSymBB|Product Description: AutoCAD Mechanical 2000|Company: Autodesk"
 90
        0
280
     0
281
     0
  0
CLASS
  1
ACMIDSTANDARDBSI
  2
AcmIdStdBSI
  3
"AcmSymBB|Product Description: AutoCAD Mechanical 2000|Company: Autodesk"
 90
        0
280
     0
281
     0
  0
CLASS
  1
ACMDATUMSTANDARDBSI
  2
AcmDatumStdBSI
  3
"AcmSymBB|Product Description: AutoCAD Mechanical 2000|Company: Autodesk"
 90
        0
280
     0
281
     0
  0
CLASS
  1
ACMBOMSTANDARDBSI
  2
AcmBOMStdBSI
  3
"AcmSymBB|Product Description: AutoCAD Mechanical 2000|Company: Autodesk"
 90
        0
280
     0
281
     0
  0
CLASS
  1
LONG_TRANSACTION
  2
AcDbLongTransaction
  3
AutoCAD 2000
 90
        0
280
     0
281
     0
  0
CLASS
  1
LWPOLYLINE
  2
AcDbPolyline
  3
AutoCAD 2000
 90
        0
280
     0
281
     1
  0
CLASS
  1
HATCH
  2
AcDbHatch
  3
AutoCAD 2000
 90
        0
280
     0
281
     1
  0
CLASS
  1
XRECORD
  2
AcDbXrecord
  3
AutoCAD 2000
 90
        0
280
     0
281
     0
  0
ENDSEC
  0
SECTION
  2
TABLES
  0
TABLE
  2
VPORT
  5
8
330
0
100
AcDbSymbolTable
 70
     3
  0
VPORT
  5
1ACF
330
8
100
AcDbSymbolTableRecord
100
AcDbViewportTableRecord
  2
*ACTIVE
 70
     0
 10
0.0
 20
0.0
 11
1.0
 21
1.0
 12
-19.35811588900691
 22
8.757169322641587
 13
0.0
 23
0.0
 14
2.5
 24
2.5
 15
10.0
 25
10.0
 16
0.0
 26
0.0
 36
1.0
 17
0.0
 27
0.0
 37
0.0
 40
100.1207912017632
 41
1.56570841889117
 42
50.0
 43
0.0
 44
0.0
 50
0.0
 51
0.0
 71
     0
 72
   100
 73
     1
 74
     3
 75
     0
 76
     0
 77
     0
 78
     0
  0
ENDTAB
  0
TABLE
  2
LTYPE
  5
5
330
0
100
AcDbSymbolTable
 70
    10
  0
LTYPE
  5
14
330
5
100
AcDbSymbolTableRecord
100
AcDbLinetypeTableRecord
  2
BYBLOCK
 70
     0
  3

 72
    65
 73
     0
 40
0.0
  0
LTYPE
  5
15
330
5
100
AcDbSymbolTableRecord
100
AcDbLinetypeTableRecord
  2
BYLAYER
 70
     0
  3

 72
    65
 73
     0
 40
0.0
  0
LTYPE
  5
16
330
5
100
AcDbSymbolTableRecord
100
AcDbLinetypeTableRecord
  2
CONTINUOUS
 70
     0
  3
Solid line
 72
    65
 73
     0
 40
0.0
  0
LTYPE
  5
4B
330
5
100
AcDbSymbolTableRecord
100
AcDbLinetypeTableRecord
  2
AM_ISO02W050
 70
     0
  3
__ __ __ __ __ __ __ __ __ __ __ __ __ __ __
 72
    65
 73
     2
 40
7.5
 49
6.0
 74
     0
 49
-1.5
 74
     0
  0
LTYPE
  5
4C
330
5
100
AcDbSymbolTableRecord
100
AcDbLinetypeTableRecord
  2
AM_ISO08W050
 70
     0
  3
____ . ____ . ____ . ____ . ____ . ____ . ____
 72
    65
 73
     4
 40
18.0
 49
12.0
 74
     0
 49
-1.5
 74
     0
 49
3.0
 74
     0
 49
-1.5
 74
     0
  0
LTYPE
  5
4D
330
5
100
AcDbSymbolTableRecord
100
AcDbLinetypeTableRecord
  2
AM_ISO09W050
 70
     0
  3
_____ . . _____ . . _____ . . ____ .. ____
 72
    65
 73
     6
 40
22.5
 49
12.0
 74
     0
 49
-1.5
 74
     0
 49
3.0
 74
     0
 49
-1.5
 74
     0
 49
3.0
 74
     0
 49
-1.5
 74
     0
  0
LTYPE
  5
4E
330
5
100
AcDbSymbolTableRecord
100
AcDbLinetypeTableRecord
  2
AMCONSTR
 70
     0
  3
_______________________
 72
    65
 73
     2
 40
9999.0
 49
9999.0
 74
     0
 49
0.0
 74
     0
  0
LTYPE
  5
4F
330
5
100
AcDbSymbolTableRecord
100
AcDbLinetypeTableRecord
  2
AM_ISO02W050X2
 70
     0
  3
 _ _ _ _ _ _ _ _ _ _ _ _
 72
    65
 73
     2
 40
3.75
 49
3.0
 74
     0
 49
-0.75
 74
     0
  0
LTYPE
  5
50
330
5
100
AcDbSymbolTableRecord
100
AcDbLinetypeTableRecord
  2
AM_ISO08W050X2
 70
     0
  3
__ . __ . __ . __ . __ . __
 72
    65
 73
     4
 40
9.0
 49
6.0
 74
     0
 49
-0.75
 74
     0
 49
1.5
 74
     0
 49
-0.75
 74
     0
  0
LTYPE
  5
53
330
5
100
AcDbSymbolTableRecord
100
AcDbLinetypeTableRecord
  2
AMZIGZAG
 70
     0
  3
/\/-/\/-/\/-/\/-/\/-/\/
 72
    65
 73
     2
 40
11.00009999999999
 49
0.0001
 74
     4
 75
   135
340
52
 46
0.04
 50
0.0
 44
0.0
 45
0.0
 49
-11.0
 74
     0
  0
LTYPE
  5
166
330
5
100
AcDbSymbolTableRecord
100
AcDbLinetypeTableRecord
  2
ACJISTGL
 70
     0
  3
_ _ _ _ _
 72
    65
 73
     2
 40
3.0
 49
2.0
 74
     0
 49
-1.0
 74
     0
  0
LTYPE
  5
26A
330
5
100
AcDbSymbolTableRecord
100
AcDbLinetypeTableRecord
  2
ACJISTGB
 70
     0
  3
__ . . __ . .
 72
    65
 73
     6
 40
9.0
 49
4.0
 74
     0
 49
-1.0
 74
     0
 49
1.0
 74
     0
 49
-1.0
 74
     0
 49
1.0
 74
     0
 49
-1.0
 74
     0
  0
ENDTAB
  0
TABLE
  2
LAYER
  5
2
330
0
100
AcDbSymbolTable
 70
     7
  0
LAYER
  5
10
330
2
100
AcDbSymbolTableRecord
100
AcDbLayerTableRecord
  2
0
 70
     0
 62
     7
  6
CONTINUOUS
  0
LAYER
  5
3F9
330
2
100
AcDbSymbolTableRecord
100
AcDbLayerTableRecord
  2
AM_0
 70
     0
 62
     7
  6
CONTINUOUS
  0
LAYER
  5
BD4
330
2
100
AcDbSymbolTableRecord
100
AcDbLayerTableRecord
  2
AM_11
 70
     0
 62
     3
  6
AM_ISO09W050
  0
LAYER
  5
BD5
330
2
100
AcDbSymbolTableRecord
100
AcDbLayerTableRecord
  2
AM_7
 70
     0
 62
     4
  6
AM_ISO08W050
  0
LAYER
  5
BD6
330
2
100
AcDbSymbolTableRecord
100
AcDbLayerTableRecord
  2
AM_5
 70
     0
 62
     3
  6
CONTINUOUS
  0
LAYER
  5
BD7
330
2
100
AcDbSymbolTableRecord
100
AcDbLayerTableRecord
  2
DEFPOINTS
 70
     0
 62
     7
  6
CONTINUOUS
  0
LAYER
  5
E59
330
2
100
AcDbSymbolTableRecord
100
AcDbLayerTableRecord
  2
AM_6
 70
     0
 62
     2
  6
CONTINUOUS
  0
ENDTAB
  0
TABLE
  2
STYLE
  5
3
330
0
100
AcDbSymbolTable
 70
     5
  0
STYLE
  5
11
330
3
100
AcDbSymbolTableRecord
100
AcDbTextStyleTableRecord
  2
STANDARD
 70
     0
 40
0.0
 41
1.0
 50
0.0
 71
     0
 42
2.5
  3
simplex.shx
  4
EXTFONT.SHX
  0
STYLE
  5
52
330
3
100
AcDbSymbolTableRecord
100
AcDbTextStyleTableRecord
  2

 70
     1
 40
0.0
 41
1.0
 50
0.0
 71
     0
 42
2.5
  3
ltypeshp.shx
  4

  0
STYLE
  5
6B
330
3
100
AcDbSymbolTableRecord
100
AcDbTextStyleTableRecord
  2
ASAMI
 70
     0
 40
0.0
 41
1.0
 50
0.0
 71
     0
 42
2.5
  3
simplex.shx
  4
EXTFONT.SHX
  0
STYLE
  5
262
330
3
100
AcDbSymbolTableRecord
100
AcDbTextStyleTableRecord
  2
ACJISTS
 70
     0
 40
1.0
 41
1.0
 50
0.0
 71
     0
 42
2.5
  3
simplex.shx
  4
bigfont.shx
  0
STYLE
  5
269
330
3
100
AcDbSymbolTableRecord
100
AcDbTextStyleTableRecord
  2
ACJISGDT
 70
     0
 40
0.0
 41
1.0
 50
0.0
 71
     0
 42
2.5
  3
amgdtans.shx
  4

  0
ENDTAB
  0
TABLE
  2
VIEW
  5
6
330
0
100
AcDbSymbolTable
 70
     0
  0
ENDTAB
  0
TABLE
  2
UCS
  5
7
330
0
100
AcDbSymbolTable
 70
     0
  0
ENDTAB
  0
TABLE
  2
APPID
  5
9
330
0
100
AcDbSymbolTable
 70
    12
  0
APPID
  5
12
330
9
100
AcDbSymbolTableRecord
100
AcDbRegAppTableRecord
  2
ACAD
 70
     0
  0
APPID
  5
30
330
9
100
AcDbSymbolTableRecord
100
AcDbRegAppTableRecord
  2
MCAD_NO_VIS
 70
     0
  0
APPID
  5
31
330
9
100
AcDbSymbolTableRecord
100
AcDbRegAppTableRecord
  2
ACAD_TEMP_GRAPHIC
 70
     0
  0
APPID
  5
2C2
330
9
100
AcDbSymbolTableRecord
100
AcDbRegAppTableRecord
  2
GENIUS_GENDTOL_13
 70
     0
  0
APPID
  5
339
330
9
100
AcDbSymbolTableRecord
100
AcDbRegAppTableRecord
  2
GENIUS_GENODEF_13
 70
     0
  0
APPID
  5
33A
330
9
100
AcDbSymbolTableRecord
100
AcDbRegAppTableRecord
  2
GENIUS_GENOBJ-N-RSBK_13
 70
     0
  0
APPID
  5
33B
330
9
100
AcDbSymbolTableRecord
100
AcDbRegAppTableRecord
  2
GENIUS_GENOBJ-N-LIB_13
 70
     0
  0
APPID
  5
33C
330
9
100
AcDbSymbolTableRecord
100
AcDbRegAppTableRecord
  2
GENIUS_GENSCALE_13
 70
     0
  0
APPID
  5
378
330
9
100
AcDbSymbolTableRecord
100
AcDbRegAppTableRecord
  2
GENIUS_GENDIMSH_14
 70
     0
  0
APPID
  5
BD8
330
9
100
AcDbSymbolTableRecord
100
AcDbRegAppTableRecord
  2
GENIUS_GENOBJ-N-CEN_13
 70
     0
  0
APPID
  5
BD9
330
9
100
AcDbSymbolTableRecord
100
AcDbRegAppTableRecord
  2
GENIUS_GENFIL_13
 70
     0
  0
APPID
  5
BDA
330
9
100
AcDbSymbolTableRecord
100
AcDbRegAppTableRecord
  2
GENIUS_GENOBJ-N-CHA_13
 70
     0
  0
ENDTAB
  0
TABLE
  2
DIMSTYLE
  5
A
330
0
100
AcDbSymbolTable
 70
     8
  0
DIMSTYLE
105
58
102
{ACAD_REACTORS
330
FCE
330
105F
330
10EF
330
1315
102
}
330
A
100
AcDbSymbolTableRecord
100
AcDbDimStyleTableRecord
  2
AM_JIS
 70
     0
  3

  4
"
  5
OPEN30
  6

  7

 40
0.5
 41
2.5
 42
1.0
 43
12.0
 44
1.0
 45
0.0
 46
0.0
 47
0.1
 48
0.1
140
3.2
141
0.0
142
0.0
143
0.0393701
144
1.0
145
0.0
146
0.71
147
1.5
 71
     0
 72
     0
 73
     0
 74
     0
 75
     0
 76
     0
 77
     3
 78
     8
170
     0
171
     2
172
     1
173
     0
174
     0
175
     0
176
   256
177
   256
178
     2
270
     2
271
     3
272
     3
273
     2
274
     2
340
6B
275
     0
280
     0
281
     0
282
     0
283
     0
284
     0
285
     0
286
     0
287
     3
288
     0
  0
DIMSTYLE
105
5F
330
A
100
AcDbSymbolTableRecord
100
AcDbDimStyleTableRecord
  2
AM_JIS$3
 70
     0
  3

  4
"
  5
OPEN30
  6

  7

 40
0.5
 41
2.5
 42
1.0
 43
10.0
 44
1.0
 45
0.0
 46
0.0
 47
0.1
 48
0.1
140
3.2
141
0.0
142
0.0
143
0.0393701
144
1.0
145
0.0
146
0.71
147
1.5
 71
     0
 72
     0
 73
     0
 74
     1
 75
     0
 76
     0
 77
     3
 78
     8
170
     0
171
     2
172
     0
173
     0
174
     0
175
     0
176
   256
177
   256
178
     2
270
     2
271
     2
272
     3
273
     2
274
     2
340
6B
275
     0
280
     0
281
     0
282
     0
283
     0
284
     0
285
     0
286
     0
287
     0
288
     1
  0
DIMSTYLE
105
60
330
A
100
AcDbSymbolTableRecord
100
AcDbDimStyleTableRecord
  2
AM_JIS$4
 70
     0
  3

  4
"
  5
OPEN30
  6

  7

 40
0.5
 41
2.5
 42
1.0
 43
10.0
 44
1.0
 45
0.0
 46
0.0
 47
0.1
 48
0.1
140
3.2
141
0.0
142
0.0
143
0.0393701
144
1.0
145
0.0
146
0.71
147
1.5
 71
     0
 72
     0
 73
     0
 74
     1
 75
     0
 76
     0
 77
     3
 78
     8
170
     0
171
     2
172
     0
173
     0
174
     0
175
     0
176
   256
177
   256
178
     2
270
     2
271
     2
272
     3
273
     2
274
     2
340
6B
275
     0
280
     0
281
     0
282
     0
283
     0
284
     0
285
     0
286
     0
287
     0
288
     1
  0
DIMSTYLE
105
61
330
A
100
AcDbSymbolTableRecord
100
AcDbDimStyleTableRecord
  2
AM_JIS$6
 70
     0
  3

  4
"
  5
OPEN30
  6

  7

 40
0.5
 41
2.5
 42
1.0
 43
10.0
 44
1.0
 45
0.0
 46
0.0
 47
0.1
 48
0.1
140
3.2
141
0.0
142
0.0
143
0.0393701
144
1.0
145
0.0
146
0.71
147
1.5
 71
     0
 72
     0
 73
     0
 74
     0
 75
     0
 76
     0
 77
     0
 78
     8
170
     0
171
     2
172
     1
173
     0
174
     0
175
     0
176
   256
177
   256
178
     2
270
     2
271
     2
272
     2
273
     2
274
     2
340
6B
275
     0
280
     0
281
     0
282
     0
283
     0
284
     0
285
     0
286
     0
287
     3
288
     0
  0
DIMSTYLE
105
62
330
A
100
AcDbSymbolTableRecord
100
AcDbDimStyleTableRecord
  2
AM_JIS$7
 70
     0
  3

  4
"
  5
OPEN30
  6

  7

 40
0.5
 41
2.5
 42
1.0
 43
10.0
 44
1.0
 45
0.0
 46
0.0
 47
0.1
 48
0.1
140
3.2
141
0.0
142
0.0
143
0.0393701
144
1.0
145
0.0
146
0.71
147
1.5
 71
     0
 72
     0
 73
     0
 74
     0
 75
     0
 76
     0
 77
     3
 78
     8
170
     0
171
     2
172
     1
173
     0
174
     0
175
     0
176
   256
177
   256
178
     2
270
     2
271
     2
272
     3
273
     2
274
     2
340
6B
275
     0
280
     0
281
     0
282
     0
283
     0
284
     0
285
     0
286
     0
287
     3
288
     0
  0
DIMSTYLE
105
63
330
A
100
AcDbSymbolTableRecord
100
AcDbDimStyleTableRecord
  2
AM_JIS$SF
 70
     0
  3

  4
"
  5
OPEN30
  6

  7

 40
0.5
 41
2.5
 42
1.0
 43
10.0
 44
1.0
 45
0.0
 46
0.0
 47
0.1
 48
0.1
140
3.2
141
0.0
142
0.0
143
0.0393701
144
1.0
145
0.0
146
0.71
147
1.5
 71
     0
 72
     0
 73
     0
 74
     0
 75
     1
 76
     1
 77
     3
 78
     8
170
     0
171
     2
172
     1
173
     0
174
     0
175
     0
176
   256
177
   256
178
     2
270
     2
271
     2
272
     2
273
     2
274
     2
340
6B
275
     0
280
     0
281
     0
282
     0
283
     0
284
     0
285
     0
286
     0
287
     3
288
     0
  0
DIMSTYLE
105
68
330
A
100
AcDbSymbolTableRecord
100
AcDbDimStyleTableRecord
  2
AM_JIS$SH
 70
     0
  3

  4
"
  5

  6
GENAXEH
  7
OPEN30
 40
0.5
 41
2.5
 42
1.0
 43
10.0
 44
1.0
 45
0.0
 46
0.0
 47
0.1
 48
0.1
140
3.2
141
0.0
142
0.0
143
0.0393701
144
2.0
145
0.0
146
0.71
147
1.5
 71
     0
 72
     0
 73
     0
 74
     0
 75
     1
 76
     1
 77
     3
 78
     8
170
     0
171
     2
172
     1
173
     1
174
     0
175
     0
176
   256
177
   256
178
     2
270
     2
271
     2
272
     2
273
     2
274
     2
340
6B
275
     0
280
     0
281
     0
282
     0
283
     0
284
     0
285
     0
286
     0
287
     3
288
     0
  0
DIMSTYLE
105
B34
330
A
100
AcDbSymbolTableRecord
100
AcDbDimStyleTableRecord
  2
AM_JIS$2
 70
     0
  3

  4
"
  5
OPEN30
  6

  7

 40
0.5
 41
2.5
 42
1.0
 43
12.0
 44
1.0
 45
0.0
 46
0.0
 47
0.1
 48
0.1
140
3.2
141
0.0
142
0.0
143
0.0393701
144
1.0
145
0.0
146
0.71
147
1.5
 71
     0
 72
     0
 73
     0
 74
     0
 75
     0
 76
     0
 77
     3
 78
     8
170
     0
171
     2
172
     1
173
     0
174
     0
175
     0
176
   256
177
   256
178
     2
270
     2
271
     3
272
     3
273
     2
274
     2
340
6B
275
     0
280
     0
281
     0
282
     0
283
     0
284
     0
285
     0
286
     0
287
     3
288
     0
  0
ENDTAB
  0
TABLE
  2
BLOCK_RECORD
  5
1
330
0
100
AcDbSymbolTable
 70
     9
  0
BLOCK_RECORD
  5
1F
102
{ACAD_XDICTIONARY
360
74
102
}
330
1
100
AcDbSymbolTableRecord
100
AcDbBlockTableRecord
  2
*MODEL_SPACE
  0
BLOCK_RECORD
  5
101
102
{ACAD_XDICTIONARY
360
1AF8
102
}
330
1
100
AcDbSymbolTableRecord
100
AcDbBlockTableRecord
  2
*PAPER_SPACE
  0
BLOCK_RECORD
  5
59
330
1
100
AcDbSymbolTableRecord
100
AcDbBlockTableRecord
  2
_OPEN30
  0
BLOCK_RECORD
  5
64
330
1
100
AcDbSymbolTableRecord
100
AcDbBlockTableRecord
  2
GENAXEH
  0
BLOCK_RECORD
  5
FCF
330
1
100
AcDbSymbolTableRecord
100
AcDbBlockTableRecord
  2
*D5
  0
BLOCK_RECORD
  5
1060
330
1
100
AcDbSymbolTableRecord
100
AcDbBlockTableRecord
  2
*D6
  0
BLOCK_RECORD
  5
10F0
330
1
100
AcDbSymbolTableRecord
100
AcDbBlockTableRecord
  2
*D7
  0
BLOCK_RECORD
  5
1316
330
1
100
AcDbSymbolTableRecord
100
AcDbBlockTableRecord
  2
*D8
  0
ENDTAB
  0
ENDSEC
  0
SECTION
  2
BLOCKS
  0
BLOCK
  5
20
330
1F
100
AcDbEntity
  8
0
100
AcDbBlockBegin
  2
*MODEL_SPACE
 70
     0
 10
0.0
 20
0.0
 30
0.0
  3
*MODEL_SPACE
  1

  0
ENDBLK
  5
21
330
1F
100
AcDbEntity
  8
0
100
AcDbBlockEnd
  0
BLOCK
  5
103
330
101
100
AcDbEntity
 67
     1
  8
0
100
AcDbBlockBegin
  2
*PAPER_SPACE
 70
     0
 10
0.0
 20
0.0
 30
0.0
  3
*PAPER_SPACE
  1

  0
ENDBLK
  5
104
330
101
100
AcDbEntity
 67
     1
  8
0
100
AcDbBlockEnd
  0
BLOCK
  5
5D
330
59
100
AcDbEntity
  8
0
100
AcDbBlockBegin
  2
_OPEN30
 70
     0
 10
0.0
 20
0.0
 30
0.0
  3
_OPEN30
  1

  0
LINE
  5
5A
330
59
100
AcDbEntity
  8
0
 62
     0
100
AcDbLine
 10
-1.0
 20
0.26794919
 30
0.0
 11
0.0
 21
0.0
 31
0.0
  0
LINE
  5
5B
330
59
100
AcDbEntity
  8
0
 62
     0
100
AcDbLine
 10
0.0
 20
0.0
 30
0.0
 11
-1.0
 21
-0.26794919
 31
0.0
  0
LINE
  5
5C
330
59
100
AcDbEntity
  8
0
 62
     0
100
AcDbLine
 10
0.0
 20
0.0
 30
0.0
 11
-1.0
 21
0.0
 31
0.0
  0
ENDBLK
  5
5E
330
59
100
AcDbEntity
  8
0
100
AcDbBlockEnd
  0
BLOCK
  5
66
330
64
100
AcDbEntity
  8
0
100
AcDbBlockBegin
  2
GENAXEH
 70
     0
 10
0.0
 20
0.0
 30
0.0
  3
GENAXEH
  1

  0
LINE
  5
65
330
64
100
AcDbEntity
  8
0
100
AcDbLine
 10
-1.0
 20
0.0
 30
0.0
 11
1.0
 21
0.0
 31
0.0
  0
ENDBLK
  5
67
330
64
100
AcDbEntity
  8
0
100
AcDbBlockEnd
  0
BLOCK
  5
FD9
330
FCF
100
AcDbEntity
  8
0
100
AcDbBlockBegin
  2
*D5
 70
     1
 10
0.0
 20
0.0
 30
0.0
  3
*D5
  1

  0
LINE
  5
18DD
330
FCF
100
AcDbEntity
  8
AM_5
100
AcDbLine
 10
-50.0
 20
2.99999999999996
 30
0.0
 11
-59.46900544538311
 21
2.999999999999963
 31
0.0
  0
LINE
  5
18DE
330
FCF
100
AcDbEntity
  8
AM_5
100
AcDbLine
 10
-50.00000000000001
 20
-3.000000000000039
 30
0.0
 11
-59.46900544538311
 21
-3.000000000000036
 31
0.0
  0
LINE
  5
18DF
330
FCF
100
AcDbEntity
  8
AM_5
100
AcDbLine
 10
-58.96900544538311
 20
1.749999999999963
 30
0.0
 11
-58.96900544538311
 21
-1.750000000000036
 31
0.0
  0
INSERT
  5
18E0
330
FCF
100
AcDbEntity
  8
AM_5
100
AcDbBlockReference
  2
_OPEN30
 10
-58.96900544538311
 20
2.999999999999963
 30
0.0
 41
1.25
 42
1.25
 43
1.25
 50
90.0
  0
INSERT
  5
18E1
330
FCF
100
AcDbEntity
  8
AM_5
100
AcDbBlockReference
  2
_OPEN30
 10
-58.96900544538311
 20
-3.000000000000036
 30
0.0
 41
1.25
 42
1.25
 43
1.25
 50
270.0
  0
MTEXT
  5
18E2
330
FCF
100
AcDbEntity
  8
AM_5
 62
     2
100
AcDbMText
 10
-60.51900544538311
 20
-0.0000000000000459
 30
0.0
 40
1.6
 41
0.0
 71
     5
 72
     1
  1
%%c6
  7
ASAMI
 11
0.0000000000000001
 21
1.0
 31
0.0
1001
ACAD
1000
MTEXTBEGIN
1070
    73
1070
     1
1070
    44
1040
1.0
1070
    74
1070
     0
1000
MTEXTEND
  0
POINT
  5
18E3
330
FCF
100
AcDbEntity
  8
DEFPOINTS
 62
     0
100
AcDbPoint
 10
-49.5
 20
2.99999999999996
 30
0.0
  0
POINT
  5
18E4
330
FCF
100
AcDbEntity
  8
DEFPOINTS
 62
     0
100
AcDbPoint
 10
-49.50000000000001
 20
-3.000000000000039
 30
0.0
  0
POINT
  5
18E5
330
FCF
100
AcDbEntity
  8
DEFPOINTS
 62
     0
100
AcDbPoint
 10
-58.96900544538311
 20
-3.000000000000036
 30
0.0
  0
ENDBLK
  5
FDA
330
FCF
100
AcDbEntity
  8
0
100
AcDbBlockEnd
  0
BLOCK
  5
106A
330
1060
100
AcDbEntity
  8
0
100
AcDbBlockBegin
  2
*D6
 70
     1
 10
0.0
 20
0.0
 30
0.0
  3
*D6
  1

  0
LINE
  5
18D4
330
1060
100
AcDbEntity
  8
AM_5
100
AcDbLine
 10
-14.9999800004147
 20
-2.999999999999996
 30
0.0
 11
-14.9999800004147
 21
-10.50000099999999
 31
0.0
  0
LINE
  5
18D5
330
1060
100
AcDbEntity
  8
AM_5
100
AcDbLine
 10
-0.0000000000027364
 20
-3.000000000000011
 30
0.0
 11
-0.0000000000027368
 21
-10.50000099999998
 31
0.0
  0
LINE
  5
18D6
330
1060
100
AcDbEntity
  8
AM_5
100
AcDbLine
 10
-13.7499800004147
 20
-10.00000099999999
 30
0.0
 11
-1.250000000002736
 21
-10.00000099999999
 31
0.0
  0
INSERT
  5
18D7
330
1060
100
AcDbEntity
  8
AM_5
100
AcDbBlockReference
  2
_OPEN30
 10
-14.9999800004147
 20
-10.00000099999999
 30
0.0
 41
1.25
 42
1.25
 43
1.25
 50
180.0
  0
INSERT
  5
18D8
330
1060
100
AcDbEntity
  8
AM_5
100
AcDbBlockReference
  2
_OPEN30
 10
-0.0000000000027368
 20
-10.00000099999999
 30
0.0
 41
1.25
 42
1.25
 43
1.25
  0
MTEXT
  5
18D9
330
1060
100
AcDbEntity
  8
AM_5
 62
     2
100
AcDbMText
 10
-7.49999000020872
 20
-8.450000999999991
 30
0.0
 40
1.6
 41
0.0
 71
     5
 72
     1
  1
15
  7
ASAMI
1001
ACAD
1000
MTEXTBEGIN
1070
    73
1070
     1
1070
    44
1040
1.0
1070
    74
1070
     0
1000
MTEXTEND
  0
POINT
  5
18DA
330
1060
100
AcDbEntity
  8
DEFPOINTS
 62
     0
100
AcDbPoint
 10
-14.9999800004147
 20
-2.499999999999996
 30
0.0
  0
POINT
  5
18DB
330
1060
100
AcDbEntity
  8
DEFPOINTS
 62
     0
100
AcDbPoint
 10
-0.0000000000027364
 20
-2.500000000000011
 30
0.0
  0
POINT
  5
18DC
330
1060
100
AcDbEntity
  8
DEFPOINTS
 62
     0
100
AcDbPoint
 10
-0.0000000000027368
 20
-10.00000099999999
 30
0.0
  0
ENDBLK
  5
106B
330
1060
100
AcDbEntity
  8
0
100
AcDbBlockEnd
  0
BLOCK
  5
10FA
330
10F0
100
AcDbEntity
  8
0
100
AcDbBlockBegin
  2
*D7
 70
     1
 10
0.0
 20
0.0
 30
0.0
  3
*D7
  1

  0
LINE
  5
18CB
330
10F0
100
AcDbEntity
  8
AM_5
100
AcDbLine
 10
-50.00000000000001
 20
-3.000000000000039
 30
0.0
 11
-50.00000000000001
 21
-16.50000099999999
 31
0.0
  0
LINE
  5
18CC
330
10F0
100
AcDbEntity
  8
AM_5
100
AcDbLine
 10
-0.0000000000019583
 20
-3.000000000000011
 30
0.0
 11
-0.0000000000019592
 21
-16.50000099999999
 31
0.0
  0
LINE
  5
18CD
330
10F0
100
AcDbEntity
  8
AM_5
100
AcDbLine
 10
-48.75000000000001
 20
-16.00000099999999
 30
0.0
 11
-1.250000000001959
 21
-16.00000099999999
 31
0.0
  0
INSERT
  5
18CE
330
10F0
100
AcDbEntity
  8
AM_5
100
AcDbBlockReference
  2
_OPEN30
 10
-50.00000000000001
 20
-16.00000099999999
 30
0.0
 41
1.25
 42
1.25
 43
1.25
 50
180.0
  0
INSERT
  5
18CF
330
10F0
100
AcDbEntity
  8
AM_5
100
AcDbBlockReference
  2
_OPEN30
 10
-0.0000000000019591
 20
-16.00000099999999
 30
0.0
 41
1.25
 42
1.25
 43
1.25
  0
MTEXT
  5
18D0
330
10F0
100
AcDbEntity
  8
AM_5
 62
     2
100
AcDbMText
 10
-25.00000000000099
 20
-14.45000099999998
 30
0.0
 40
1.6
 41
0.0
 71
     5
 72
     1
  1
50
  7
ASAMI
1001
ACAD
1000
MTEXTBEGIN
1070
    73
1070
     1
1070
    44
1040
1.0
1070
    74
1070
     0
1000
MTEXTEND
  0
POINT
  5
18D1
330
10F0
100
AcDbEntity
  8
DEFPOINTS
 62
     0
100
AcDbPoint
 10
-50.00000000000001
 20
-2.500000000000039
 30
0.0
  0
POINT
  5
18D2
330
10F0
100
AcDbEntity
  8
DEFPOINTS
 62
     0
100
AcDbPoint
 10
-0.0000000000019583
 20
-2.500000000000011
 30
0.0
  0
POINT
  5
18D3
330
10F0
100
AcDbEntity
  8
DEFPOINTS
 62
     0
100
AcDbPoint
 10
-0.0000000000019591
 20
-16.00000099999999
 30
0.0
  0
ENDBLK
  5
10FB
330
10F0
100
AcDbEntity
  8
0
100
AcDbBlockEnd
  0
BLOCK
  5
1320
330
1316
100
AcDbEntity
  8
0
100
AcDbBlockBegin
  2
*D8
 70
     1
 10
0.0
 20
0.0
 30
0.0
  3
*D8
  1

  0
LINE
  5
1AA3
330
1316
100
AcDbEntity
  8
AM_5
100
AcDbLine
 10
0.4999999999992226
 20
2.5
 30
0.0
 11
7.399228462577697
 21
2.499999999999997
 31
0.0
  0
LINE
  5
1AA4
330
1316
100
AcDbEntity
  8
AM_5
100
AcDbLine
 10
0.5000000000000063
 20
-2.500000000000011
 30
0.0
 11
7.399228462577696
 21
-2.500000000000013
 31
0.0
  0
LINE
  5
1AA5
330
1316
100
AcDbEntity
  8
AM_5
100
AcDbLine
 10
6.899228462577696
 20
1.249999999999998
 30
0.0
 11
6.899228462577696
 21
-1.250000000000013
 31
0.0
  0
INSERT
  5
1AA6
330
1316
100
AcDbEntity
  8
AM_5
100
AcDbBlockReference
  2
_OPEN30
 10
6.899228462577697
 20
2.499999999999998
 30
0.0
 41
1.25
 42
1.25
 43
1.25
 50
90.0
  0
INSERT
  5
1AA7
330
1316
100
AcDbEntity
  8
AM_5
100
AcDbBlockReference
  2
_OPEN30
 10
6.899228462577696
 20
-2.500000000000013
 30
0.0
 41
1.25
 42
1.25
 43
1.25
 50
270.0
  0
MTEXT
  5
1AA8
330
1316
100
AcDbEntity
  8
AM_5
 62
     2
100
AcDbMText
 10
5.349228462577697
 20
-0.0000000000000064
 30
0.0
 40
1.6
 41
0.0
 71
     5
 72
     1
  1
%%c5
  7
ASAMI
 11
0.0000000000000001
 21
1.0
 31
0.0
1001
ACAD
1000
MTEXTBEGIN
1070
    73
1070
     1
1070
    44
1040
1.0
1070
    74
1070
     0
1000
MTEXTEND
  0
POINT
  5
1AA9
330
1316
100
AcDbEntity
  8
DEFPOINTS
 62
     0
100
AcDbPoint
 10
-0.0000000000007775
 20
2.5
 30
0.0
  0
POINT
  5
1AAA
330
1316
100
AcDbEntity
  8
DEFPOINTS
 62
     0
100
AcDbPoint
 10
0.0000000000000063
 20
-2.500000000000011
 30
0.0
  0
POINT
  5
1AAB
330
1316
100
AcDbEntity
  8
DEFPOINTS
 62
     0
100
AcDbPoint
 10
6.899228462577696
 20
-2.500000000000013
 30
0.0
  0
ENDBLK
  5
1321
330
1316
100
AcDbEntity
  8
0
100
AcDbBlockEnd
  0
ENDSEC
  0
SECTION
  2
ENTITIES
  0
TEXT
  5
E5A
330
1F
100
AcDbEntity
  8
AM_6
100
AcDbText
 10
-32.97619047619145
 20
-27.25000099999999
 30
0.0
 40
2.5
  1
JSM2050
 72
     4
 11
-25.00000000000098
 21
-26.00000099999999
 31
0.0
100
AcDbText
  0
DIMENSION
  5
FCE
330
1F
100
AcDbEntity
  8
AM_5
100
AcDbDimension
  2
*D5
 10
-58.96900544538311
 20
-3.000000000000036
 30
0.0
 11
-60.51900544538311
 21
-0.0000000000000459
 31
0.0
 70
    32
  1
%%c<>
  3
AM_JIS
100
AcDbAlignedDimension
 13
-49.5
 23
2.99999999999996
 33
0.0
 14
-49.50000000000001
 24
-3.000000000000039
 34
0.0
 50
270.0000000000001
100
AcDbRotatedDimension
1001
GENIUS_GENDTOL_13
1000

1000
h7
1000

1040
0.0
  0
DIMENSION
  5
105F
330
1F
100
AcDbEntity
  8
AM_5
100
AcDbDimension
  2
*D6
 10
-0.0000000000027368
 20
-10.00000099999999
 30
0.0
 11
-7.49999000020872
 21
-8.450000999999991
 31
0.0
 70
    32
  1
<>
  3
AM_JIS
100
AcDbAlignedDimension
 13
-14.9999800004147
 23
-2.499999999999996
 33
0.0
 14
-0.0000000000027364
 24
-2.500000000000011
 34
0.0
 50
0.0000000000001132
100
AcDbRotatedDimension
1001
GENIUS_GENDTOL_13
1000

1000
h7
1000

1040
0.0
  0
DIMENSION
  5
10EF
330
1F
100
AcDbEntity
  8
AM_5
100
AcDbDimension
  2
*D7
 10
-0.0000000000019591
 20
-16.00000099999999
 30
0.0
 11
-25.00000000000099
 21
-14.45000099999998
 31
0.0
 70
    32
  1
<>
  3
AM_JIS
100
AcDbAlignedDimension
 13
-50.00000000000001
 23
-2.500000000000039
 33
0.0
 14
-0.0000000000019583
 24
-2.500000000000011
 34
0.0
 50
0.0000000000001132
100
AcDbRotatedDimension
1001
GENIUS_GENDTOL_13
1000

1000
h7
1000

1040
0.0
  0
DIMENSION
  5
1315
330
1F
100
AcDbEntity
  8
AM_5
100
AcDbDimension
  2
*D8
 10
6.899228462577696
 20
-2.500000000000013
 30
0.0
 11
5.349228462577697
 21
-0.0000000000000064
 31
0.0
 70
    32
  1
%%c<>
  3
AM_JIS
100
AcDbAlignedDimension
 13
-0.0000000000007775
 23
2.5
 33
0.0
 14
0.0000000000000063
 24
-2.500000000000011
 34
0.0
 50
90.0
100
AcDbRotatedDimension
1001
GENIUS_GENDTOL_13
1000

1000
h7
1000

1040
0.0
  0
SPLINE
  5
1740
330
1F
100
AcDbEntity
  8
AM_0
100
AcDbSpline
210
0.0
220
0.0
230
1.0
 70
     8
 71
     3
 72
     8
 73
     4
 74
     0
 42
0.0000000001
 43
0.0000000001
 40
6.225830728781539
 40
6.225830728781539
 40
6.225830728781539
 40
6.225830728781539
 40
7.218994763998551
 40
7.218994763998551
 40
7.218994763998551
 40
7.218994763998551
 10
-20.93602007703728
 20
0.4010340433665639
 30
0.0
 10
-20.85428445212622
 20
0.308240658854543
 30
0.0
 10
-20.68232705333892
 20
0.197255899319571
 30
0.0
 10
-20.385956002683
 20
-0.0000000000000293
 30
0.0
  0
SPLINE
  5
1741
330
1F
100
AcDbEntity
  8
AM_0
100
AcDbSpline
210
0.0
220
0.0
230
1.0
 70
     8
 71
     3
 72
     8
 73
     4
 74
     0
 42
0.0000000001
 43
0.0000000001
 40
0.0
 40
0.0
 40
0.0
 40
0.0
 40
2.764560748519282
 40
2.764560748519282
 40
2.764560748519282
 40
2.764560748519282
 10
-15.15959587682569
 20
-2.42514183516776
 30
0.0
 10
-14.69883575207248
 20
-2.42514183516776
 30
0.0
 10
-14.24576495588398
 20
-2.380690574255091
 30
0.0
 10
-13.79891125411119
 20
-2.300298894921617
 30
0.0
  0
SPLINE
  5
1742
330
1F
100
AcDbEntity
  8
AM_0
100
AcDbSpline
210
0.0
220
0.0
230
1.0
 70
     8
 71
     3
 72
     8
 73
     4
 74
     0
 42
0.0000000001
 43
0.0000000001
 40
0.0
 40
0.0
 40
0.0
 40
0.0
 40
2.221495395472776
 40
2.221495395472776
 40
2.221495395472776
 40
2.221495395472776
 10
-14.15466192733535
 20
-2.308722251901407
 30
0.0
 10
-13.78441269475655
 20
-2.308722251901407
 30
0.0
 10
-13.41872382873927
 20
-2.281105427783622
 30
0.0
 10
-13.05688996125155
 20
-2.230143371450516
 30
0.0
  0
SPLINE
  5
1743
330
1F
100
AcDbEntity
  8
AM_0
100
AcDbSpline
210
0.0
220
0.0
230
1.0
 70
     8
 71
     3
 72
     8
 73
     4
 74
     0
 42
0.0000000001
 43
0.0000000001
 40
0.0
 40
0.0
 40
0.0
 40
0.0
 40
2.130230809022907
 40
2.130230809022907
 40
2.130230809022907
 40
2.130230809022907
 10
-17.43232026782311
 20
-2.500000000000067
 30
0.0
 10
-15.6772817996525
 20
-2.500000000000067
 30
0.0
 10
-15.32705222422119
 20
-2.472983643910151
 30
0.0
 10
-14.98092456748421
 20
-2.422922711426348
 30
0.0
  0
SPLINE
  5
1744
330
1F
100
AcDbEntity
  8
AM_0
100
AcDbSpline
210
0.0
220
0.0
230
1.0
 70
     8
 71
     3
 72
     8
 73
     4
 74
     2
 42
0.0000000001
 43
0.0000000001
 44
0.0000000001
 12
1.0
 22
0.0000000000000006
 32
0.0
 40
0.0
 40
0.0
 40
0.0
 40
0.0
 40
7.24499827467198
 40
7.24499827467198
 40
7.24499827467198
 40
7.24499827467198
 10
-13.59999999999999
 20
2.500000000000046
 30
0.0
 10
-11.18500057510933
 20
2.500000000000047
 30
0.0
 10
-8.992500287554669
 20
1.25000000000005
 30
0.0
 10
-6.799999999999997
 20
0.0000000000000533
 30
0.0
 11
-13.59999999999999
 21
2.500000000000046
 31
0.0
 11
-6.799999999999997
 21
0.0000000000000533
 31
0.0
  0
SPLINE
  5
1745
330
1F
100
AcDbEntity
  8
AM_0
100
AcDbSpline
210
0.0
220
0.0
230
1.0
 70
     8
 71
     3
 72
     8
 73
     4
 74
     0
 42
0.0000000001
 43
0.0000000001
 40
0.3581103616548037
 40
0.3581103616548037
 40
0.3581103616548037
 40
0.3581103616548037
 40
14.43901837670146
 40
14.43901837670146
 40
14.43901837670146
 40
14.43901837670146
 10
-12.54860429966109
 20
2.422922711426327
 30
0.0
 10
-10.21180691323298
 20
2.364994504026604
 30
0.0
 10
-8.069541261117837
 20
1.182497252013313
 30
0.0
 10
-5.927275609002691
 20
0.0000000000000249
 30
0.0
  0
SPLINE
  5
1746
330
1F
100
AcDbEntity
  8
AM_0
100
AcDbSpline
210
0.0
220
0.0
230
1.0
 70
     8
 71
     3
 72
     8
 73
     4
 74
     2
 42
0.0000000001
 43
0.0000000001
 44
0.0000000001
 12
-0.6417012268563094
 22
-0.7669547153848832
 32
0.0
 13
-0.990099942783104
 23
-0.140364180975397
 33
0.0
 40
0.0
 40
0.0
 40
0.0
 40
0.0
 40
1.293282661808369
 40
1.293282661808369
 40
1.293282661808369
 40
1.293282661808369
 10
-0.0000000000000018
 20
2.037351343341981
 30
0.0
 10
-0.2766336902514765
 20
1.7067215980755
 30
0.0
 10
-0.7514597523580098
 20
1.564736898462176
 30
0.0
 10
-1.178286115510958
 20
1.504226711264038
 30
0.0
 11
-0.0000000000000018
 21
2.037351343341981
 31
0.0
 11
-1.178286115510958
 21
1.504226711264038
 31
0.0
  0
SPLINE
  5
1747
330
1F
100
AcDbEntity
  8
AM_0
100
AcDbSpline
210
0.0
220
0.0
230
1.0
 70
     8
 71
     3
 72
     8
 73
     4
 74
     0
 42
0.0000000001
 43
0.0000000001
 40
0.0
 40
0.0
 40
0.0
 40
0.0
 40
7.57842115059705
 40
7.57842115059705
 40
7.57842115059705
 40
7.57842115059705
 10
-0.0000000000000018
 20
2.5
 30
0.0
 10
-1.263070191766177
 20
2.5
 30
0.0
 10
-2.465277960247933
 20
2.158074947991195
 30
0.0
 10
-3.638454995282076
 20
1.653055255508743
 30
0.0
  0
SPLINE
  5
1748
330
1F
100
AcDbEntity
  8
AM_0
100
AcDbSpline
210
0.0
220
0.0
230
1.0
 70
     8
 71
     3
 72
     8
 73
     4
 74
     0
 42
0.0000000001
 43
0.0000000001
 40
0.7142832446738512
 40
0.7142832446738512
 40
0.7142832446738512
 40
0.7142832446738512
 40
14.36247867694493
 40
14.36247867694493
 40
14.36247867694493
 40
14.36247867694493
 10
-11.36659098623554
 20
2.300298894912138
 30
0.0
 10
-9.109460817678002
 20
2.193903517737759
 30
0.0
 10
-7.01590123859518
 20
1.096951758868893
 30
0.0
 10
-4.922341659512355
 20
0.0000000000000249
 30
0.0
  0
SPLINE
  5
1749
330
1F
100
AcDbEntity
  8
AM_0
100
AcDbSpline
210
0.0
220
0.0
230
1.0
 70
     8
 71
     3
 72
     8
 73
     4
 74
     0
 42
0.0000000001
 43
0.0000000001
 40
0.0
 40
0.0
 40
0.0
 40
0.0
 40
2.238610194515266
 40
2.238610194515266
 40
2.238610194515266
 40
2.238610194515266
 10
-8.197087020328121
 20
-1.91834772944277
 30
0.0
 10
-6.304613802408226
 20
-2.013035818726137
 30
0.0
 10
-4.314878680178097
 20
-1.824294738646788
 30
0.0
 10
-3.605707777204386
 20
-1.665354588566376
 30
0.0
  0
SPLINE
  5
174A
330
1F
100
AcDbEntity
  8
AM_0
100
AcDbSpline
210
0.0
220
0.0
230
1.0
 70
     8
 71
     3
 72
     8
 73
     4
 74
     0
 42
0.0000000001
 43
0.0000000001
 40
5.297458184749251
 40
5.297458184749251
 40
5.297458184749251
 40
5.297458184749251
 40
7.218994763998551
 40
7.218994763998551
 40
7.218994763998551
 40
7.218994763998551
 10
-16.8775989184779
 20
0.7996632683592999
 30
0.0
 10
-16.18135613157278
 20
0.558468702370238
 30
0.0
 10
-15.59009538366339
 20
0.2981286195597938
 30
0.0
 10
-14.99883463575402
 20
0.0377885367493214
 30
0.0
  0
SPLINE
  5
174B
330
1F
100
AcDbEntity
  8
AM_0
100
AcDbSpline
210
0.0
220
0.0
230
1.0
 70
     8
 71
     3
 72
     8
 73
     4
 74
     0
 42
0.0000000001
 43
0.0000000001
 40
0.0
 40
0.0
 40
0.0
 40
0.0
 40
3.000656968708724
 40
3.000656968708724
 40
3.000656968708724
 40
3.000656968708724
 10
-13.59999999999999
 20
2.499999999999989
 30
0.0
 10
-14.10010949478476
 20
2.499999999999989
 30
0.0
 10
-14.59067731790884
 20
2.446394895195158
 30
0.0
 10
-15.08681077744103
 20
2.342704081953616
 30
0.0
  0
SPLINE
  5
174C
330
1F
100
AcDbEntity
  8
AM_0
100
AcDbSpline
210
0.0
220
0.0
230
1.0
 70
     8
 71
     3
 72
     8
 73
     4
 74
     2
 42
0.0000000001
 43
0.0000000001
 44
0.0000000001
 12
-1.0
 22
-0.0000000000000008
 32
0.0
 40
0.0
 40
0.0
 40
0.0
 40
0.0
 40
7.24499827467198
 40
7.24499827467198
 40
7.24499827467198
 40
7.24499827467198
 10
0.0000000000000018
 20
-2.5
 30
0.0
 10
-2.414999424890658
 20
-2.500000000000001
 30
0.0
 10
-4.607499712445327
 20
-1.250000000000002
 30
0.0
 10
-6.799999999999997
 20
-0.0000000000000036
 30
0.0
 11
0.0000000000000018
 21
-2.5
 31
0.0
 11
-6.799999999999997
 21
-0.0000000000000036
 31
0.0
  0
SPLINE
  5
174D
330
1F
100
AcDbEntity
  8
AM_0
100
AcDbSpline
210
0.0
220
0.0
230
1.0
 70
     8
 71
     3
 72
     8
 73
     4
 74
     0
 42
0.0000000001
 43
0.0000000001
 40
1.870660592686466
 40
1.870660592686466
 40
1.870660592686466
 40
1.870660592686466
 40
14.43901837670146
 40
14.43901837670146
 40
14.43901837670146
 40
14.43901837670146
 10
-0.0524999999999931
 20
-2.366720578810884
 30
0.0
 10
-2.10298229561441
 20
-2.110950306050739
 30
0.0
 10
-4.015128952308558
 20
-1.055475153025358
 30
0.0
 10
-5.927275609002691
 20
0.0000000000000249
 30
0.0
  0
SPLINE
  5
174E
330
1F
100
AcDbEntity
  8
AM_0
100
AcDbSpline
210
0.0
220
0.0
230
1.0
 70
     8
 71
     3
 72
     8
 73
     4
 74
     0
 42
0.0000000001
 43
0.0000000001
 40
4.219358800530717
 40
4.219358800530717
 40
4.219358800530717
 40
4.219358800530717
 40
14.36247867694493
 40
14.36247867694493
 40
14.36247867694493
 40
14.36247867694493
 10
-0.1874999999999716
 20
-2.039110092256521
 30
0.0
 10
-1.810541878445079
 20
-1.630473895844403
 30
0.0
 10
-3.366441768978717
 20
-0.815236947922191
 30
0.0
 10
-4.922341659512355
 20
0.0000000000000249
 30
0.0
  0
SPLINE
  5
174F
330
1F
100
AcDbEntity
  8
AM_0
100
AcDbSpline
210
0.0
220
0.0
230
1.0
 70
     8
 71
     3
 72
     8
 73
     4
 74
     2
 42
0.0000000001
 43
0.0000000001
 44
0.0000000001
 12
-1.0
 22
-0.0000000000000008
 32
0.0
 40
0.0
 40
0.0
 40
0.0
 40
0.0
 40
7.077445848048279
 40
7.077445848048279
 40
7.077445848048279
 40
7.077445848048279
 10
-8.1970870191155
 20
-1.91834772936497
 30
0.0
 10
-10.55623563513159
 20
-1.918347729364972
 30
0.0
 10
-12.7775351354428
 20
-0.9402795963077689
 30
0.0
 10
-14.99883463575402
 20
0.0377885367494351
 30
0.0
 11
-8.1970870191155
 21
-1.91834772936497
 31
0.0
 11
-14.99883463575402
 21
0.0377885367494351
 31
0.0
  0
SPLINE
  5
1750
330
1F
100
AcDbEntity
  8
AM_0
100
AcDbSpline
210
0.0
220
0.0
230
1.0
 70
     8
 71
     3
 72
     8
 73
     4
 74
     2
 42
0.0000000001
 43
0.0000000001
 44
0.0000000001
 12
-1.0
 22
-0.0000000000000008
 32
0.0
 40
0.0
 40
0.0
 40
0.0
 40
0.0
 40
6.645240724750824
 40
6.645240724750824
 40
6.645240724750824
 40
6.645240724750824
 10
-14.15466192733535
 20
-2.30872225190135
 30
0.0
 10
-16.36974216891896
 20
-2.308722251901352
 30
0.0
 10
-18.37784908580096
 20
-1.154361125950669
 30
0.0
 10
-20.38595600268297
 20
0.0000000000000142
 30
0.0
 11
-14.15466192733535
 21
-2.30872225190135
 31
0.0
 11
-20.38595600268297
 21
0.0000000000000142
 31
0.0
  0
LINE
  5
1751
330
1F
100
AcDbEntity
  8
AM_11
100
AcDbLine
 10
-14.99998934078948
 20
-2.499999999999996
 30
0.0
 11
-14.99998934078948
 21
2.499999999999989
 31
0.0
  0
LINE
  5
1752
330
1F
100
AcDbEntity
  8
AM_0
100
AcDbLine
 10
-14.99998934078948
 20
-2.253754774810627
 30
0.0
 11
-14.99998934078948
 21
-2.427098752030788
 31
0.0
  0
LINE
  5
1753
330
1F
100
AcDbEntity
  8
AM_0
100
AcDbLine
 10
-8.1970870191155
 20
-1.91834772936497
 30
0.0
 11
-13.05688996125994
 21
-2.23014337145171
 31
0.0
  0
LINE
  5
1754
330
1F
100
AcDbEntity
  8
AM_0
100
AcDbLine
 10
0.0000000000000018
 20
-2.5
 30
0.0
 11
0.0
 21
0.0999999999999943
 31
0.0
  0
LINE
  5
1755
330
1F
100
AcDbEntity
  8
AM_0
100
AcDbLine
 10
-0.0525000000000073
 20
-2.366720578810912
 30
0.0
 11
-0.0525000000000091
 21
0.162567063611192
 31
0.0
  0
LINE
  5
1756
330
1F
100
AcDbEntity
  8
AM_0
100
AcDbLine
 10
-0.0525000000000073
 20
-2.366720578810912
 30
0.0
 11
-0.1875
 21
-2.039110092256635
 31
0.0
  0
ARC
  5
1757
330
1F
100
AcDbEntity
  8
AM_0
100
AcDbCircle
 10
-14.74635603254173
 20
5.735787613984047
 30
0.0
 40
8.171385234030829
100
AcDbArc
 50
220.7574250028089
 51
267.1012255357938
  0
LINE
  5
1758
330
1F
100
AcDbEntity
  8
AM_0
100
AcDbLine
 10
-9.545877283273672
 20
2.010426274461785
 30
0.0
 11
-1.178286115510958
 21
1.504226711264038
 31
0.0
  0
LINE
  5
1759
330
1F
100
AcDbEntity
  8
AM_7
  6
AM_ISO08W050X2
100
AcDbLine
 10
2.278884015427479
 20
0.0000000000000036
 30
0.0
 11
-51.96900444538312
 21
-0.0000000000000391
 31
0.0
1001
GENIUS_GENODEF_13
1002
{
1000
HIER
1070
     0
1002
}
1002
{
1000
MANEDIT
1070
     0
1002
}
1002
{
1000
NOSEL
1070
     0
1002
}
1002
{
1000
BEHIND
1070
     0
1002
}
1002
{
1000
REACTOR
1002
}
1001
GENIUS_GENOBJ-N-CEN_13
1002
{
1000
OWNER
1000
GEN
1002
}
  0
LINE
  5
175A
330
1F
100
AcDbEntity
  8
AM_11
100
AcDbLine
 10
-0.0000000000003855
 20
2.5
 30
0.0
 11
-14.99998934078949
 21
2.499999999999992
 31
0.0
  0
LINE
  5
175B
330
1F
100
AcDbEntity
  8
AM_0
100
AcDbLine
 10
0.0
 20
0.0999999999999943
 30
0.0
 11
-1.178286115510958
 21
1.504226711264038
 31
0.0
  0
LINE
  5
175C
330
1F
100
AcDbEntity
  8
AM_0
100
AcDbLine
 10
-0.0000000000000018
 20
0.5
 30
0.0
 11
-0.0000000000000018
 21
2.5
 31
0.0
  0
ARC
  5
175D
330
1F
100
AcDbEntity
  8
AM_0
100
AcDbCircle
 10
7.103384221191332
 20
0.0105186558541881
 30
0.0
 40
7.566260194955923
100
AcDbArc
 50
175.3635181775062
 51
195.5055110014725
  0
LINE
  5
175E
330
1F
100
AcDbEntity
  8
AM_0
100
AcDbLine
 10
-0.1678199262354685
 20
0.2999999999999829
 30
0.0
 11
-0.0000000000000018
 21
0.5
 31
0.0
  0
LINE
  5
175F
330
1F
100
AcDbEntity
  8
AM_0
100
AcDbLine
 10
-0.1875
 20
-2.039110092256635
 30
0.0
 11
-0.1875
 21
-2.012177715566309
 31
0.0
  0
ARC
  5
1760
330
1F
100
AcDbEntity
  8
AM_0
100
AcDbCircle
 10
-18.00570868863373
 20
-23.81002377588705
 30
0.0
 40
26.31511237716514
100
AcDbArc
 50
64.79692281046474
 51
91.12678543785181
  0
ARC
  5
1761
330
1F
100
AcDbEntity
  8
AM_0
100
AcDbCircle
 10
-2.999236100349609
 20
39.82429278136626
 30
0.0
 40
41.4189650177193
100
AcDbArc
 50
244.3083433105669
 51
250.4230435276602
  0
ARC
  5
1762
330
1F
100
AcDbEntity
  8
AM_0
100
AcDbCircle
 10
-16.68791339635244
 20
-1.142629650424811
 30
0.0
 40
4.519879198607854
100
AcDbArc
 50
135.6210941191753
 51
160.0300262484287
  0
LINE
  5
1764
330
1F
100
AcDbEntity
  8
AM_0
100
AcDbLine
 10
-18.52319137925133
 20
2.499999999999985
 30
0.0
 11
-21.63397459621556
 21
2.49999999999996
 31
0.0
  0
LINE
  5
1765
330
1F
100
AcDbEntity
  8
AM_11
100
AcDbLine
 10
-15.00000000000011
 20
-2.499999999999996
 30
0.0
 11
0.0000000000000018
 21
-2.5
 31
0.0
  0
LINE
  5
1766
330
1F
100
AcDbEntity
  8
AM_0
100
AcDbLine
 10
0.0000000000000018
 20
-2.5
 30
0.0
 11
-0.0525000000000073
 21
-2.366720578810912
 31
0.0
  0
LINE
  5
1767
330
1F
100
AcDbEntity
  8
AM_0
100
AcDbLine
 10
-16.83297913924138
 20
-2.500000000000068
 30
0.0
 11
-21.6339745962157
 21
-2.500000000000071
 31
0.0
  0
LINE
  5
1849
330
1F
100
AcDbEntity
  8
AM_0
100
AcDbLine
 10
-50.0
 20
2.49999999999996
 30
0.0
 11
-50.00000000000001
 21
-2.500000000000039
 31
0.0
  0
LINE
  5
184A
330
1F
100
AcDbEntity
  8
AM_0
100
AcDbLine
 10
-49.50000000000001
 20
-3.000000000000039
 30
0.0
 11
-23.5
 21
-3.000000000000039
 31
0.0
  0
LINE
  5
184B
330
1F
100
AcDbEntity
  8
AM_0
100
AcDbLine
 10
-49.5
 20
2.99999999999996
 30
0.0
 11
-23.49999999999999
 21
2.99999999999996
 31
0.0
  0
LINE
  5
1857
330
1F
100
AcDbEntity
  8
AM_0
100
AcDbLine
 10
-49.5
 20
2.99999999999996
 30
0.0
 11
-50.0
 21
2.49999999999996
 31
0.0
1001
GENIUS_GENFIL_13
1070
     0
1040
0.5
1040
0.5
1040
20.0
1040
0.0
1002
{
1002
}
1001
GENIUS_GENODEF_13
1002
{
1000
HIER
1070
     0
1002
}
1002
{
1000
MANEDIT
1070
     0
1002
}
1002
{
1000
NOSEL
1070
     0
1002
}
1002
{
1000
BEHIND
1070
     0
1002
}
1002
{
1000
REACTOR
1002
}
1001
GENIUS_GENOBJ-N-CHA_13
1002
{
1000
OWNER
1000
GEN
1002
}
  0
LINE
  5
185A
330
1F
100
AcDbEntity
  8
AM_0
100
AcDbLine
 10
-50.00000000000001
 20
-2.500000000000039
 30
0.0
 11
-49.50000000000001
 21
-3.000000000000039
 31
0.0
1001
GENIUS_GENFIL_13
1070
     0
1040
0.5
1040
0.5
1040
20.0
1040
0.0
1002
{
1002
}
1001
GENIUS_GENODEF_13
1002
{
1000
HIER
1070
     0
1002
}
1002
{
1000
MANEDIT
1070
     0
1002
}
1002
{
1000
NOSEL
1070
     0
1002
}
1002
{
1000
BEHIND
1070
     0
1002
}
1002
{
1000
REACTOR
1002
}
1001
GENIUS_GENOBJ-N-CHA_13
1002
{
1000
OWNER
1000
GEN
1002
}
  0
LINE
  5
185B
330
1F
100
AcDbEntity
  8
AM_0
100
AcDbLine
 10
-49.5
 20
2.99999999999996
 30
0.0
 11
-49.50000000000001
 21
-3.000000000000039
 31
0.0
  0
LINE
  5
1863
330
1F
100
AcDbEntity
  8
AM_0
100
AcDbLine
 10
-23.49999999999999
 20
2.99999999999996
 30
0.0
 11
-23.5
 21
-3.000000000000035
 31
0.0
  0
LINE
  5
187A
330
1F
100
AcDbEntity
  8
AM_0
100
AcDbLine
 10
-23.49999999999999
 20
2.99999999999996
 30
0.0
 11
-21.63397459621555
 21
2.49999999999996
 31
0.0
  0
LINE
  5
187B
330
1F
100
AcDbEntity
  8
AM_0
100
AcDbLine
 10
-21.63397459621555
 20
2.49999999999996
 30
0.0
 11
-21.6339745962157
 21
-2.500000000000071
 31
0.0
  0
LINE
  5
187C
330
1F
100
AcDbEntity
  8
AM_0
100
AcDbLine
 10
-21.6339745962157
 20
-2.500000000000071
 30
0.0
 11
-23.50000000000002
 21
-3.000000000000039
 31
0.0
  0
VIEWPORT
  5
110
330
101
100
AcDbEntity
 67
     1
  8
0
100
AcDbViewport
 10
420.5
 20
297.0
 30
0.0
 40
948.9782706766916
 41
628.452
 68
     1
 69
     1
1001
ACAD
1000
MVIEW
1002
{
1070
    16
1010
0.0
1020
0.0
1030
0.0
1010
0.0
1020
0.0
1030
1.0
1040
0.0
1040
628.452
1040
420.5
1040
297.0
1040
50.0
1040
0.0
1040
0.0
1070
     0
1070
   100
1070
     1
1070
     1
1070
     0
1070
     0
1070
     0
1070
     0
1040
0.0
1040
0.0
1040
0.0
1040
10.0
1040
10.0
1040
10.0
1040
10.0
1070
     0
1002
{
1002
}
1002
}
  0
ENDSEC
  0
SECTION
  2
OBJECTS
  0
DICTIONARY
  5
C
330
0
100
AcDbDictionary
  3
ACAD_GROUP
350
D
  3
ACAD_LAYOUT
350
1A
  3
ACAD_MLINESTYLE
350
17
  3
ACAD_PLOTSETTINGS
350
19
  3
ACAD_PLOTSTYLENAME
350
E
  3
ACDBVARIABLEDICTIONARY
350
34
  3
ACMDICTIONARY
350
43
  3
AMG
350
2B
  3
AMGSNAPSETTINGS
350
6E
  3
DWGPROPS
350
1AC4
  3
ACDBHEADERROUNDTRIPXREC
350
1AD0
  0
DICTIONARY
  5
74
330
1F
100
AcDbDictionary
280
     1
  3
ACAD_INDEX
360
1AC6
  3
ACAD_LAYOUTSELFREF
360
1AF3
  0
DICTIONARY
  5
1AF8
330
101
100
AcDbDictionary
280
     1
  3
ACAD_LAYOUTSELFREF
360
1AF9
  0
DICTIONARY
  5
D
102
{ACAD_REACTORS
330
C
102
}
330
C
100
AcDbDictionary
  0
DICTIONARY
  5
1A
102
{ACAD_REACTORS
330
C
102
}
330
C
100
AcDbDictionary
  0
DICTIONARY
  5
17
102
{ACAD_REACTORS
330
C
102
}
330
C
100
AcDbDictionary
  3
STANDARD
350
18
  0
DICTIONARY
  5
19
102
{ACAD_REACTORS
330
C
102
}
330
C
100
AcDbDictionary
  0
ACDBDICTIONARYWDFLT
  5
E
102
{ACAD_REACTORS
330
C
102
}
330
C
100
AcDbDictionary
281
     1
  3
Normal
350
F
100
AcDbDictionaryWithDefault
340
F
  0
DICTIONARY
  5
34
102
{ACAD_REACTORS
330
C
102
}
330
C
100
AcDbDictionary
  3
INDEXCTL
350
35
  3
SORTENTS
350
B5E
  0
DICTIONARY
  5
43
102
{ACAD_REACTORS
330
C
102
}
330
C
100
AcDbDictionary
  3
ACMSTDDICTIONARY
350
260
  0
DICTIONARY
  5
2B
102
{ACAD_REACTORS
330
C
102
}
330
C
100
AcDbDictionary
  3
ACMGSETTINGS
350
2C
  0
DICTIONARY
  5
6E
102
{ACAD_REACTORS
330
C
102
}
330
C
100
AcDbDictionary
  0
XRECORD
  5
1AC4
102
{ACAD_REACTORS
330
C
102
}
330
C
100
AcDbXrecord
  1
DWGPROPS COOKIE
  2

  3

  4

  6

  7

  8

  9

300
AmdtFileType=82
301
=
302
=
303
=
304
=
305
=
306
=
307
=
308
=
309
=
 40
0.0472479976851852
 41
2452836.771637361
 42
2453045.671082013
  1

 90
        1
  0
DICTIONARY
  5
1AD0
102
{ACAD_REACTORS
330
C
102
}
330
C
100
AcDbDictionary
  3
TSTACKALIGN
350
1AD1
  3
TSTACKSIZE
350
1AD2
  3
HYPERLINKBASE
350
1AD3
  3
STYLESHEET
350
1AD4
  3
LAYOUTDICT
350
1AD5
  3
PLOTSETDICT
350
1AD6
  3
PLOTSTYLNAMDICT
350
1AD7
  3
LWETCUNION
350
1AD8
  3
INSUNITS
350
1AD9
  3
CEPSNTYPE
350
1ADA
  3
FINGERPRINTGUID
350
1ADB
  3
VERSIONGUID
350
1ADC
  3
PSVPSCALE
350
1ADD
  3
DIMSTYLEDATA
350
1ADE
  3
PUCSORTHOREF
350
1ADF
  3
PUCSORTHOVIEW
350
1AE0
  3
PUCSBASE
350
1AE1
  3
PUCSORGTOP
350
1AE2
  3
PUCSORGBOTTOM
350
1AE3
  3
PUCSORGLEFT
350
1AE4
  3
PUCSORGRIGHT
350
1AE5
  3
PUCSORGFRONT
350
1AE6
  3
PUCSORGBACK
350
1AE7
  3
UCSORTHOREF
350
1AE8
  3
UCSORTHOVIEW
350
1AE9
  3
UCSBASE
350
1AEA
  3
UCSORGTOP
350
1AEB
  3
UCSORGBOTTOM
350
1AEC
  3
UCSORGLEFT
350
1AED
  3
UCSORGRIGHT
350
1AEE
  3
UCSORGFRONT
350
1AEF
  3
UCSORGBACK
350
1AF0
  0
DICTIONARY
  5
1AC6
102
{ACAD_REACTORS
330
74
102
}
330
74
100
AcDbDictionary
  3
*A1
350
1AC7
  0
XRECORD
  5
1AF3
102
{ACAD_REACTORS
330
74
102
}
330
74
100
AcDbXrecord
340
1F
  0
XRECORD
  5
1AF9
102
{ACAD_REACTORS
330
1AF8
102
}
330
1AF8
100
AcDbXrecord
340
101
  0
MLINESTYLE
  5
18
102
{ACAD_REACTORS
330
17
102
}
330
17
100
AcDbMlineStyle
  2
STANDARD
 70
     0
  3

 62
   256
 51
90.0
 52
90.0
 71
     2
 49
0.5
 62
   256
  6
BYLAYER
 49
-0.5
 62
   256
  6
BYLAYER
  0
ACDBPLACEHOLDER
  5
F
102
{ACAD_REACTORS
330
E
102
}
330
E
100
AcDbPlaceHolder
280
     0
  0
DICTIONARYVAR
  5
35
102
{ACAD_REACTORS
330
34
102
}
330
34
100
DictionaryVariables
280
     0
  1
1
  0
DICTIONARYVAR
  5
B5E
102
{ACAD_REACTORS
330
34
102
}
330
34
100
DictionaryVariables
280
     0
  1
96
  0
DICTIONARY
  5
260
102
{ACAD_REACTORS
330
43
102
}
330
43
100
AcDbDictionary
  0
DICTIONARY
  5
2C
102
{ACAD_REACTORS
330
2B
102
}
330
2B
100
AcDbDictionary
  3
DWGSETTINGS
350
2D
  0
XRECORD
  5
1AD1
102
{ACAD_REACTORS
330
1AD0
102
}
330
1AD0
100
AcDbXrecord
 90
        1
  0
XRECORD
  5
1AD2
102
{ACAD_REACTORS
330
1AD0
102
}
330
1AD0
100
AcDbXrecord
 90
       70
  0
XRECORD
  5
1AD3
102
{ACAD_REACTORS
330
1AD0
102
}
330
1AD0
100
AcDbXrecord
  1

  0
XRECORD
  5
1AD4
102
{ACAD_REACTORS
330
1AD0
102
}
330
1AD0
100
AcDbXrecord
  1
ASAMI.ctb
  0
XRECORD
  5
1AD5
102
{ACAD_REACTORS
330
1AD0
102
}
330
1AD0
100
AcDbXrecord
340
1A
  0
XRECORD
  5
1AD6
102
{ACAD_REACTORS
330
1AD0
102
}
330
1AD0
100
AcDbXrecord
340
19
  0
XRECORD
  5
1AD7
102
{ACAD_REACTORS
330
1AD0
102
}
330
1AD0
100
AcDbXrecord
340
E
  0
XRECORD
  5
1AD8
102
{ACAD_REACTORS
330
1AD0
102
}
330
1AD0
100
AcDbXrecord
 90
    10781
  0
XRECORD
  5
1AD9
102
{ACAD_REACTORS
330
1AD0
102
}
330
1AD0
100
AcDbXrecord
 90
        4
  0
XRECORD
  5
1ADA
102
{ACAD_REACTORS
330
1AD0
102
}
330
1AD0
100
AcDbXrecord
 90
        0
  0
XRECORD
  5
1ADB
102
{ACAD_REACTORS
330
1AD0
102
}
330
1AD0
100
AcDbXrecord
  1
{AFB28963-8C59-40AE-9337-C84526B81ACE}
  0
XRECORD
  5
1ADC
102
{ACAD_REACTORS
330
1AD0
102
}
330
1AD0
100
AcDbXrecord
  1
{F0D16119-43D7-4C4C-B448-5885E3EB1C3F}
  0
XRECORD
  5
1ADD
102
{ACAD_REACTORS
330
1AD0
102
}
330
1AD0
100
AcDbXrecord
 40
0.0
  0
XRECORD
  5
1ADE
102
{ACAD_REACTORS
330
1AD0
102
}
330
1AD0
100
AcDbXrecord
1000
DSTYLE
1002
{
1070
    79
 70
     2
1070
   341
340
59
1070
   342
340
59
1070
   371
 70
    -1
1070
   372
 70
    -1
1002
}
  0
XRECORD
  5
1ADF
102
{ACAD_REACTORS
330
1AD0
102
}
330
1AD0
100
AcDbXrecord
340
0
  0
XRECORD
  5
1AE0
102
{ACAD_REACTORS
330
1AD0
102
}
330
1AD0
100
AcDbXrecord
 70
     0
  0
XRECORD
  5
1AE1
102
{ACAD_REACTORS
330
1AD0
102
}
330
1AD0
100
AcDbXrecord
340
0
  0
XRECORD
  5
1AE2
102
{ACAD_REACTORS
330
1AD0
102
}
330
1AD0
100
AcDbXrecord
 10
0.0
 20
0.0
 30
0.0
  0
XRECORD
  5
1AE3
102
{ACAD_REACTORS
330
1AD0
102
}
330
1AD0
100
AcDbXrecord
 10
0.0
 20
0.0
 30
0.0
  0
XRECORD
  5
1AE4
102
{ACAD_REACTORS
330
1AD0
102
}
330
1AD0
100
AcDbXrecord
 10
0.0
 20
0.0
 30
0.0
  0
XRECORD
  5
1AE5
102
{ACAD_REACTORS
330
1AD0
102
}
330
1AD0
100
AcDbXrecord
 10
0.0
 20
0.0
 30
0.0
  0
XRECORD
  5
1AE6
102
{ACAD_REACTORS
330
1AD0
102
}
330
1AD0
100
AcDbXrecord
 10
0.0
 20
0.0
 30
0.0
  0
XRECORD
  5
1AE7
102
{ACAD_REACTORS
330
1AD0
102
}
330
1AD0
100
AcDbXrecord
 10
0.0
 20
0.0
 30
0.0
  0
XRECORD
  5
1AE8
102
{ACAD_REACTORS
330
1AD0
102
}
330
1AD0
100
AcDbXrecord
340
0
  0
XRECORD
  5
1AE9
102
{ACAD_REACTORS
330
1AD0
102
}
330
1AD0
100
AcDbXrecord
 70
     0
  0
XRECORD
  5
1AEA
102
{ACAD_REACTORS
330
1AD0
102
}
330
1AD0
100
AcDbXrecord
340
0
  0
XRECORD
  5
1AEB
102
{ACAD_REACTORS
330
1AD0
102
}
330
1AD0
100
AcDbXrecord
 10
0.0
 20
0.0
 30
0.0
  0
XRECORD
  5
1AEC
102
{ACAD_REACTORS
330
1AD0
102
}
330
1AD0
100
AcDbXrecord
 10
0.0
 20
0.0
 30
0.0
  0
XRECORD
  5
1AED
102
{ACAD_REACTORS
330
1AD0
102
}
330
1AD0
100
AcDbXrecord
 10
0.0
 20
0.0
 30
0.0
  0
XRECORD
  5
1AEE
102
{ACAD_REACTORS
330
1AD0
102
}
330
1AD0
100
AcDbXrecord
 10
0.0
 20
0.0
 30
0.0
  0
XRECORD
  5
1AEF
102
{ACAD_REACTORS
330
1AD0
102
}
330
1AD0
100
AcDbXrecord
 10
0.0
 20
0.0
 30
0.0
  0
XRECORD
  5
1AF0
102
{ACAD_REACTORS
330
1AD0
102
}
330
1AD0
100
AcDbXrecord
 10
0.0
 20
0.0
 30
0.0
  0
LAYER_INDEX
  5
1AC7
102
{ACAD_REACTORS
330
1AC6
102
}
330
1AC6
100
AcDbIndex
 40
2453152.464942233
100
AcDbLayerIndex
  8
0
360
1AC8
 90
        0
  8
AM_0
360
1AC9
 90
       45
  8
AM_11
360
1ACA
 90
        3
  8
AM_7
360
1ACB
 90
        1
  8
AM_5
360
1ACC
 90
        4
  8
Defpoints
360
1ACD
 90
        0
  8
AM_6
360
1ACE
 90
        1
  0
XRECORD
  5
2D
102
{ACAD_REACTORS
330
2C
102
}
330
2C
100
AcDbXrecord
  1
VERSION
140
15.0
  1
PRODUCT
  2
AutoCAD Mechanical 2000
  0
IDBUFFER
  5
1AC8
330
0
100
AcDbIdBuffer
  0
IDBUFFER
  5
1AC9
330
0
100
AcDbIdBuffer
330
1750
330
1752
330
1753
330
1754
330
1755
330
1756
330
1757
330
1758
330
175B
330
175C
330
175D
330
175E
330
175F
330
1760
330
1761
330
1762
330
1764
330
1766
330
1767
330
1849
330
184A
330
184B
330
1857
330
185A
330
185B
330
1863
330
187A
330
187B
330
187C
330
1740
330
1741
330
1742
330
1743
330
1744
330
1745
330
1746
330
1747
330
1748
330
1749
330
174A
330
174B
330
174C
330
174D
330
174E
330
174F
  0
IDBUFFER
  5
1ACA
330
0
100
AcDbIdBuffer
330
1751
330
175A
330
1765
  0
IDBUFFER
  5
1ACB
330
0
100
AcDbIdBuffer
330
1759
  0
IDBUFFER
  5
1ACC
330
0
100
AcDbIdBuffer
330
FCE
330
105F
330
10EF
330
1315
  0
IDBUFFER
  5
1ACD
330
0
100
AcDbIdBuffer
  0
IDBUFFER
  5
1ACE
330
0
100
AcDbIdBuffer
330
E5A
  0
ENDSEC
  0
EOF
