  0
SECTION
  2
HEADER
  9
$ACADVER
  1
AC1014
  9
$ACADMAINTVER
 70
     9
  9
$DWGCODEPAGE
  3
ANSI_932
  9
$INSBASE
 10
0.0
 20
0.0
 30
0.0
  9
$EXTMIN
 10
-71.31900544538311
 20
-28.25000099999999
 30
-0.00000001
  9
$EXTMAX
 10
9.778885015427469
 20
4.122718964471019
 30
0.00000001
  9
$LIMMIN
 10
-73.936432716794
 20
-33.25396752574914
  9
$LIMMAX
 10
12.77599838813927
 20
8.337717439540142
  9
$ORTHOMODE
 70
     0
  9
$REGENMODE
 70
     1
  9
$FILLMODE
 70
     1
  9
$QTEXTMODE
 70
     0
  9
$MIRRTEXT
 70
     0
  9
$DRAGMODE
 70
     2
  9
$LTSCALE
 40
1.0
  9
$OSMODE
 70
    55
  9
$ATTMODE
 70
     1
  9
$TEXTSIZE
 40
2.5
  9
$TRACEWID
 40
1.0
  9
$TEXTSTYLE
  7
STANDARD
  9
$CLAYER
  8
AM_0
  9
$CELTYPE
  6
BYLAYER
  9
$CECOLOR
 62
   256
  9
$CELTSCALE
 40
1.0
  9
$DELOBJ
 70
     1
  9
$DISPSILH
 70
     0
  9
$DIMSCALE
 40
0.5
  9
$DIMASZ
 40
2.5
  9
$DIMEXO
 40
1.0
  9
$DIMDLI
 40
12.0
  9
$DIMRND
 40
0.0
  9
$DIMDLE
 40
0.0
  9
$DIMEXE
 40
1.0
  9
$DIMTP
 40
0.1
  9
$DIMTM
 40
0.1
  9
$DIMTXT
 40
3.2
  9
$DIMCEN
 40
0.0
  9
$DIMTSZ
 40
0.0
  9
$DIMTOL
 70
     0
  9
$DIMLIM
 70
     0
  9
$DIMTIH
 70
     0
  9
$DIMTOH
 70
     0
  9
$DIMSE1
 70
     0
  9
$DIMSE2
 70
     0
  9
$DIMTAD
 70
     3
  9
$DIMZIN
 70
     8
  9
$DIMBLK
  1
OPEN30
  9
$DIMASO
 70
     1
  9
$DIMSHO
 70
     1
  9
$DIMPOST
  1

  9
$DIMAPOST
  1
"
  9
$DIMALT
 70
     0
  9
$DIMALTD
 70
     2
  9
$DIMALTF
 40
0.0393701
  9
$DIMLFAC
 40
1.0
  9
$DIMTOFL
 70
     1
  9
$DIMTVP
 40
0.0
  9
$DIMTIX
 70
     0
  9
$DIMSOXD
 70
     0
  9
$DIMSAH
 70
     0
  9
$DIMBLK1
  1

  9
$DIMBLK2
  1

  9
$DIMSTYLE
  2
AM_JIS
  9
$DIMCLRD
 70
   256
  9
$DIMCLRE
 70
   256
  9
$DIMCLRT
 70
     2
  9
$DIMTFAC
 40
0.71
  9
$DIMGAP
 40
1.5
  9
$DIMJUST
 70
     0
  9
$DIMSD1
 70
     0
  9
$DIMSD2
 70
     0
  9
$DIMTOLJ
 70
     0
  9
$DIMTZIN
 70
     0
  9
$DIMALTZ
 70
     0
  9
$DIMALTTZ
 70
     0
  9
$DIMFIT
 70
     3
  9
$DIMUPT
 70
     0
  9
$DIMUNIT
 70
     2
  9
$DIMDEC
 70
     3
  9
$DIMTDEC
 70
     3
  9
$DIMALTU
 70
     2
  9
$DIMALTTD
 70
     2
  9
$DIMTXSTY
  7
ASAMI
  9
$DIMAUNIT
 70
     0
  9
$LUNITS
 70
     2
  9
$LUPREC
 70
     2
  9
$SKETCHINC
 40
1.0
  9
$FILLETRAD
 40
2.5
  9
$AUNITS
 70
     0
  9
$AUPREC
 70
     0
  9
$MENU
  1
.
  9
$ELEVATION
 40
0.0
  9
$PELEVATION
 40
0.0
  9
$THICKNESS
 40
0.0
  9
$LIMCHECK
 70
     0
  9
$BLIPMODE
 70
     0
  9
$CHAMFERA
 40
0.5
  9
$CHAMFERB
 40
0.5
  9
$CHAMFERC
 40
20.0
  9
$CHAMFERD
 40
0.0
  9
$SKPOLY
 70
     0
  9
$TDCREATE
 40
2452836.771637361
  9
$TDUPDATE
 40
2453152.462106875
  9
$TDINDWG
 40
0.0645070255
  9
$TDUSRTIMER
 40
0.0645070255
  9
$USRTIMER
 70
     1
  9
$ANGBASE
 50
0.0
  9
$ANGDIR
 70
     0
  9
$PDMODE
 70
     0
  9
$PDSIZE
 40
0.0
  9
$PLINEWID
 40
0.0
  9
$COORDS
 70
     1
  9
$SPLFRAME
 70
     0
  9
$SPLINETYPE
 70
     6
  9
$SPLINESEGS
 70
     8
  9
$ATTDIA
 70
     1
  9
$ATTREQ
 70
     1
  9
$HANDLING
 70
 12289
  9
$HANDSEED
  5
1C63
  9
$SURFTAB1
 70
     6
  9
$SURFTAB2
 70
     6
  9
$SURFTYPE
 70
     6
  9
$SURFU
 70
     6
  9
$SURFV
 70
     6
  9
$UCSNAME
  2

  9
$UCSORG
 10
0.0
 20
0.0
 30
0.0
  9
$UCSXDIR
 10
1.0
 20
0.0
 30
0.0
  9
$UCSYDIR
 10
0.0
 20
1.0
 30
0.0
  9
$PUCSNAME
  2

  9
$PUCSORG
 10
0.0
 20
0.0
 30
0.0
  9
$PUCSXDIR
 10
1.0
 20
0.0
 30
0.0
  9
$PUCSYDIR
 10
0.0
 20
1.0
 30
0.0
  9
$USERI1
 70
     0
  9
$USERI2
 70
     0
  9
$USERI3
 70
     0
  9
$USERI4
 70
     0
  9
$USERI5
 70
     0
  9
$USERR1
 40
0.0
  9
$USERR2
 40
0.0
  9
$USERR3
 40
0.0
  9
$USERR4
 40
0.0
  9
$USERR5
 40
0.0
  9
$WORLDVIEW
 70
     1
  9
$SHADEDGE
 70
     3
  9
$SHADEDIF
 70
    70
  9
$TILEMODE
 70
     1
  9
$MAXACTVP
 70
    64
  9
$PINSBASE
 10
0.0
 20
0.0
 30
0.0
  9
$PLIMCHECK
 70
     0
  9
$PEXTMIN
 10
1.000000000000000E+20
 20
1.000000000000000E+20
 30
1.000000000000000E+20
  9
$PEXTMAX
 10
-1.000000000000000E+20
 20
-1.000000000000000E+20
 30
-1.000000000000000E+20
  9
$PLIMMIN
 10
0.0
 20
0.0
  9
$PLIMMAX
 10
841.0
 20
594.0
  9
$UNITMODE
 70
     0
  9
$VISRETAIN
 70
     1
  9
$PLINEGEN
 70
     0
  9
$PSLTSCALE
 70
     0
  9
$TREEDEPTH
 70
  3020
  9
$PICKSTYLE
 70
     0
  9
$CMLSTYLE
  2
STANDARD
  9
$CMLJUST
 70
     0
  9
$CMLSCALE
 40
20.0
  9
$PROXYGRAPHICS
 70
     1
  9
$MEASUREMENT
 70
     1
  0
ENDSEC
  0
SECTION
  2
CLASSES
  0
CLASS
  1
ACDBDICTIONARYWDFLT
  2
AcDbDictionaryWithDefault
  3
AutoCAD 2000
 90
        0
280
     0
281
     0
  0
CLASS
  1
ACDBPLACEHOLDER
  2
AcDbPlaceHolder
  3
AutoCAD 2000
 90
        0
280
     0
281
     0
  0
CLASS
  1
LAYOUT
  2
AcDbLayout
  3
AutoCAD 2000
 90
        0
280
     0
281
     0
  0
CLASS
  1
AMGSETTINGSOBJ
  2
AmgSettingsObj
  3
"AcadM|Product Description: AutoCAD Mechanical 2000|Company: Autodesk"
 90
        0
280
     0
281
     0
  0
CLASS
  1
ACME_DOCUMENT
  2
AcMeDbDoc
  3
AcMeServices
 90
        0
280
     0
281
     0
  0
CLASS
  1
ACMESCOPE
  2
AcMeScope
  3
AcMeServices
 90
        0
280
     0
281
     0
  0
CLASS
  1
ACMECOMMANDHISTORY
  2
AcMeCommandHistory
  3
AcMeServices
 90
        0
280
     0
281
     0
  0
CLASS
  1
DICTIONARYVAR
  2
AcDbDictionaryVar
  3
AutoCAD 2000
 90
        0
280
     0
281
     0
  0
CLASS
  1
ACIMSYSVARMAN
  2
AcImSysVarManager
  3
AcMeServices
 90
        0
280
     0
281
     0
  0
CLASS
  1
ACIMREALSYSVAR
  2
AcImRealSysVar
  3
AcMeServices
 90
        0
280
     0
281
     0
  0
CLASS
  1
ACIMINTSYSVAR
  2
AcImIntSysVar
  3
AcMeServices
 90
        0
280
     0
281
     0
  0
CLASS
  1
ACMEDRAWINGMAN
  2
AcMeDrawingMan
  3
AcMeServices
 90
        0
280
     0
281
     0
  0
CLASS
  1
ACMEVIEW
  2
AcMeView
  3
AcMeServices
 90
        0
280
     0
281
     0
  0
CLASS
  1
ACDBENTITYCACHE
  2
AcMeEntityCache
  3
AcMeServices
 90
        0
280
     0
281
     0
  0
CLASS
  1
GSMANAGER
  2
AcMeGSManager
  3
AcMeServices
 90
        0
280
     0
281
     0
  0
CLASS
  1
AmdtInternalReactor
  2
AmdtInternalReactor
  3
AcMeServices
 90
        0
280
     0
281
     0
  0
CLASS
  1
ACMESTATEMGR
  2
AcMeStateMgr
  3
AcMeServices
 90
        0
280
     0
281
     0
  0
CLASS
  1
ACME_DATABASE
  2
AcMeDbDatabase
  3
AcMeServices
 90
        0
280
     0
281
     0
  0
CLASS
  1
ACRFINSADJUSTERMGR
  2
AcRfInsAdjusterMgr
  3
AcMeServices
 90
        0
280
     0
281
     0
  0
CLASS
  1
ACMDATADICTIONARY
  2
AcmDataDictionary
  3
"AcmSymBB|Product Description: AutoCAD Mechanical 2000|Company: Autodesk"
 90
        0
280
     0
281
     0
  0
CLASS
  1
ACMDATAENTRYBLOCK
  2
AcmDataEntryBlock
  3
"AcmSymBB|Product Description: AutoCAD Mechanical 2000|Company: Autodesk"
 90
        0
280
     0
281
     0
  0
CLASS
  1
AMGOBJPROPCFG
  2
AmgObjPropCfg
  3
"AmgLay|Product Description: AutoCAD Mechanical 2000|Company: Autodesk"
 90
        1
280
     0
281
     0
  0
CLASS
  1
ACAMGFILTERDAT
  2
AcAmgFilterDat
  3
"AcadM|Product Description: AutoCAD Mechanical 2000|Company: Autodesk"
 90
        0
280
     0
281
     0
  0
CLASS
  1
LAYER_INDEX
  2
AcDbLayerIndex
  3
AutoCAD 2000
 90
        0
280
     0
281
     0
  0
CLASS
  1
IDBUFFER
  2
AcDbIdBuffer
  3
AutoCAD 2000
 90
        0
280
     0
281
     0
  0
CLASS
  1
ACIMSTRSYSVAR
  2
AcImStrSysVar
  3
AcMeServices
 90
        0
280
     0
281
     0
  0
CLASS
  1
ACMSTANDARDJIS
  2
AcmStandardJIS
  3
"AcmSymBB|Product Description: AutoCAD Mechanical 2000|Company: Autodesk"
 90
        0
280
     0
281
     0
  0
CLASS
  1
ACMSURFSTANDARDJIS
  2
AcmSurfTextStdJIS
  3
"AcmSymBB|Product Description: AutoCAD Mechanical 2000|Company: Autodesk"
 90
        0
280
     0
281
     0
  0
CLASS
  1
ACMFCFSTANDARDJIS
  2
AcmFCFStdJIS
  3
"AcmSymBB|Product Description: AutoCAD Mechanical 2000|Company: Autodesk"
 90
        0
280
     0
281
     0
  0
CLASS
  1
ACMWELDSTANDARDJIS
  2
AcmWeldingStdJIS
  3
"AcmSymBB|Product Description: AutoCAD Mechanical 2000|Company: Autodesk"
 90
        0
280
     0
281
     0
  0
CLASS
  1
ACMIDSTANDARDJIS
  2
AcmIdStdJIS
  3
"AcmSymBB|Product Description: AutoCAD Mechanical 2000|Company: Autodesk"
 90
        0
280
     0
281
     0
  0
CLASS
  1
ACMDATUMSTANDARDJIS
  2
AcmDatumStdJIS
  3
"AcmSymBB|Product Description: AutoCAD Mechanical 2000|Company: Autodesk"
 90
        0
280
     0
281
     0
  0
CLASS
  1
ACMBOMSTANDARDJIS
  2
AcmBOMStdJIS
  3
"AcmSymBB|Product Description: AutoCAD Mechanical 2000|Company: Autodesk"
 90
        0
280
     0
281
     0
  0
CLASS
  1
ACMSTANDARDANSI
  2
AcmStandardANSI
  3
"AcmSymBB|Product Description: AutoCAD Mechanical 2000|Company: Autodesk"
 90
        0
280
     0
281
     0
  0
CLASS
  1
ACMSURFSTANDARDANSI
  2
AcmSurfTextStdANSI
  3
"AcmSymBB|Product Description: AutoCAD Mechanical 2000|Company: Autodesk"
 90
        0
280
     0
281
     0
  0
CLASS
  1
ACMFCFSTANDARDANSI
  2
AcmFCFStdANSI
  3
"AcmSymBB|Product Description: AutoCAD Mechanical 2000|Company: Autodesk"
 90
        0
280
     0
281
     0
  0
CLASS
  1
ACMWELDSTANDARDANSI
  2
AcmWeldingStdANSI
  3
"AcmSymBB|Product Description: AutoCAD Mechanical 2000|Company: Autodesk"
 90
        0
280
     0
281
     0
  0
CLASS
  1
ACMIDSTANDARDANSI
  2
AcmIdStdANSI
  3
"AcmSymBB|Product Description: AutoCAD Mechanical 2000|Company: Autodesk"
 90
        0
280
     0
281
     0
  0
CLASS
  1
ACMDATUMSTANDARDANSI
  2
AcmDatumStdANSI
  3
"AcmSymBB|Product Description: AutoCAD Mechanical 2000|Company: Autodesk"
 90
        0
280
     0
281
     0
  0
CLASS
  1
ACMBOMSTANDARDANSI
  2
AcmBOMStdANSI
  3
"AcmSymBB|Product Description: AutoCAD Mechanical 2000|Company: Autodesk"
 90
        0
280
     0
281
     0
  0
CLASS
  1
ACMSTANDARDBSI
  2
AcmStandardBSI
  3
"AcmSymBB|Product Description: AutoCAD Mechanical 2000|Company: Autodesk"
 90
        0
280
     0
281
     0
  0
CLASS
  1
ACMSURFSTANDARDBSI
  2
AcmSurfTextStdBSI
  3
"AcmSymBB|Product Description: AutoCAD Mechanical 2000|Company: Autodesk"
 90
        0
280
     0
281
     0
  0
CLASS
  1
ACMFCFSTANDARDBSI
  2
AcmFCFStdBSI
  3
"AcmSymBB|Product Description: AutoCAD Mechanical 2000|Company: Autodesk"
 90
        0
280
     0
281
     0
  0
CLASS
  1
ACMWELDSTANDARDBSI
  2
AcmWeldingStdBSI
  3
"AcmSymBB|Product Description: AutoCAD Mechanical 2000|Company: Autodesk"
 90
        0
280
     0
281
     0
  0
CLASS
  1
ACMIDSTANDARDBSI
  2
AcmIdStdBSI
  3
"AcmSymBB|Product Description: AutoCAD Mechanical 2000|Company: Autodesk"
 90
        0
280
     0
281
     0
  0
CLASS
  1
ACMDATUMSTANDARDBSI
  2
AcmDatumStdBSI
  3
"AcmSymBB|Product Description: AutoCAD Mechanical 2000|Company: Autodesk"
 90
        0
280
     0
281
     0
  0
CLASS
  1
ACMBOMSTANDARDBSI
  2
AcmBOMStdBSI
  3
"AcmSymBB|Product Description: AutoCAD Mechanical 2000|Company: Autodesk"
 90
        0
280
     0
281
     0
  0
CLASS
  1
LONG_TRANSACTION
  2
AcDbLongTransaction
  3
AutoCAD 2000
 90
        0
280
     0
281
     0
  0
CLASS
  1
LWPOLYLINE
  2
AcDbPolyline
  3
AutoCAD 2000
 90
        0
280
     0
281
     1
  0
CLASS
  1
HATCH
  2
AcDbHatch
  3
AutoCAD 2000
 90
        0
280
     0
281
     1
  0
CLASS
  1
XRECORD
  2
AcDbXrecord
  3
AutoCAD 2000
 90
        0
280
     0
281
     0
  0
ENDSEC
  0
SECTION
  2
TABLES
  0
TABLE
  2
VPORT
  5
8
330
0
100
AcDbSymbolTable
 70
     3
  0
VPORT
  5
1C38
330
8
100
AcDbSymbolTableRecord
100
AcDbViewportTableRecord
  2
*ACTIVE
 70
     0
 10
0.0
 20
0.0
 11
1.0
 21
1.0
 12
-32.22643140039636
 22
-11.27390364261069
 13
0.0
 23
0.0
 14
2.5
 24
2.5
 15
10.0
 25
10.0
 16
0.0
 26
0.0
 36
1.0
 17
0.0
 27
0.0
 37
0.0
 40
70.46614255840845
 41
1.56570841889117
 42
50.0
 43
0.0
 44
0.0
 50
0.0
 51
0.0
 71
     0
 72
   100
 73
     1
 74
     3
 75
     0
 76
     0
 77
     0
 78
     0
  0
ENDTAB
  0
TABLE
  2
LTYPE
  5
5
330
0
100
AcDbSymbolTable
 70
    10
  0
LTYPE
  5
14
330
5
100
AcDbSymbolTableRecord
100
AcDbLinetypeTableRecord
  2
BYBLOCK
 70
     0
  3

 72
    65
 73
     0
 40
0.0
  0
LTYPE
  5
15
330
5
100
AcDbSymbolTableRecord
100
AcDbLinetypeTableRecord
  2
BYLAYER
 70
     0
  3

 72
    65
 73
     0
 40
0.0
  0
LTYPE
  5
16
330
5
100
AcDbSymbolTableRecord
100
AcDbLinetypeTableRecord
  2
CONTINUOUS
 70
     0
  3
Solid line
 72
    65
 73
     0
 40
0.0
  0
LTYPE
  5
4B
330
5
100
AcDbSymbolTableRecord
100
AcDbLinetypeTableRecord
  2
AM_ISO02W050
 70
     0
  3
__ __ __ __ __ __ __ __ __ __ __ __ __ __ __
 72
    65
 73
     2
 40
7.5
 49
6.0
 74
     0
 49
-1.5
 74
     0
  0
LTYPE
  5
4C
330
5
100
AcDbSymbolTableRecord
100
AcDbLinetypeTableRecord
  2
AM_ISO08W050
 70
     0
  3
____ . ____ . ____ . ____ . ____ . ____ . ____
 72
    65
 73
     4
 40
18.0
 49
12.0
 74
     0
 49
-1.5
 74
     0
 49
3.0
 74
     0
 49
-1.5
 74
     0
  0
LTYPE
  5
4D
330
5
100
AcDbSymbolTableRecord
100
AcDbLinetypeTableRecord
  2
AM_ISO09W050
 70
     0
  3
_____ . . _____ . . _____ . . ____ .. ____
 72
    65
 73
     6
 40
22.5
 49
12.0
 74
     0
 49
-1.5
 74
     0
 49
3.0
 74
     0
 49
-1.5
 74
     0
 49
3.0
 74
     0
 49
-1.5
 74
     0
  0
LTYPE
  5
4E
330
5
100
AcDbSymbolTableRecord
100
AcDbLinetypeTableRecord
  2
AMCONSTR
 70
     0
  3
_______________________
 72
    65
 73
     2
 40
9999.0
 49
9999.0
 74
     0
 49
0.0
 74
     0
  0
LTYPE
  5
4F
330
5
100
AcDbSymbolTableRecord
100
AcDbLinetypeTableRecord
  2
AM_ISO02W050X2
 70
     0
  3
 _ _ _ _ _ _ _ _ _ _ _ _
 72
    65
 73
     2
 40
3.75
 49
3.0
 74
     0
 49
-0.75
 74
     0
  0
LTYPE
  5
50
330
5
100
AcDbSymbolTableRecord
100
AcDbLinetypeTableRecord
  2
AM_ISO08W050X2
 70
     0
  3
__ . __ . __ . __ . __ . __
 72
    65
 73
     4
 40
9.0
 49
6.0
 74
     0
 49
-0.75
 74
     0
 49
1.5
 74
     0
 49
-0.75
 74
     0
  0
LTYPE
  5
53
330
5
100
AcDbSymbolTableRecord
100
AcDbLinetypeTableRecord
  2
AMZIGZAG
 70
     0
  3
/\/-/\/-/\/-/\/-/\/-/\/
 72
    65
 73
     2
 40
11.00009999999999
 49
0.0001
 74
     4
 75
   135
340
52
 46
0.04
 50
0.0
 44
0.0
 45
0.0
 49
-11.0
 74
     0
  0
LTYPE
  5
166
330
5
100
AcDbSymbolTableRecord
100
AcDbLinetypeTableRecord
  2
ACJISTGL
 70
     0
  3
_ _ _ _ _
 72
    65
 73
     2
 40
3.0
 49
2.0
 74
     0
 49
-1.0
 74
     0
  0
LTYPE
  5
26A
330
5
100
AcDbSymbolTableRecord
100
AcDbLinetypeTableRecord
  2
ACJISTGB
 70
     0
  3
__ . . __ . .
 72
    65
 73
     6
 40
9.0
 49
4.0
 74
     0
 49
-1.0
 74
     0
 49
1.0
 74
     0
 49
-1.0
 74
     0
 49
1.0
 74
     0
 49
-1.0
 74
     0
  0
ENDTAB
  0
TABLE
  2
LAYER
  5
2
330
0
100
AcDbSymbolTable
 70
     7
  0
LAYER
  5
10
330
2
100
AcDbSymbolTableRecord
100
AcDbLayerTableRecord
  2
0
 70
     0
 62
     7
  6
CONTINUOUS
  0
LAYER
  5
3F9
330
2
100
AcDbSymbolTableRecord
100
AcDbLayerTableRecord
  2
AM_0
 70
     0
 62
     7
  6
CONTINUOUS
  0
LAYER
  5
BD4
330
2
100
AcDbSymbolTableRecord
100
AcDbLayerTableRecord
  2
AM_11
 70
     0
 62
     3
  6
AM_ISO09W050
  0
LAYER
  5
BD5
330
2
100
AcDbSymbolTableRecord
100
AcDbLayerTableRecord
  2
AM_7
 70
     0
 62
     4
  6
AM_ISO08W050
  0
LAYER
  5
BD6
330
2
100
AcDbSymbolTableRecord
100
AcDbLayerTableRecord
  2
AM_5
 70
     0
 62
     3
  6
CONTINUOUS
  0
LAYER
  5
BD7
330
2
100
AcDbSymbolTableRecord
100
AcDbLayerTableRecord
  2
DEFPOINTS
 70
     0
 62
     7
  6
CONTINUOUS
  0
LAYER
  5
E59
330
2
100
AcDbSymbolTableRecord
100
AcDbLayerTableRecord
  2
AM_6
 70
     0
 62
     2
  6
CONTINUOUS
  0
ENDTAB
  0
TABLE
  2
STYLE
  5
3
330
0
100
AcDbSymbolTable
 70
     5
  0
STYLE
  5
11
330
3
100
AcDbSymbolTableRecord
100
AcDbTextStyleTableRecord
  2
STANDARD
 70
     0
 40
0.0
 41
1.0
 50
0.0
 71
     0
 42
2.5
  3
simplex.shx
  4
EXTFONT.SHX
  0
STYLE
  5
52
330
3
100
AcDbSymbolTableRecord
100
AcDbTextStyleTableRecord
  2

 70
     1
 40
0.0
 41
1.0
 50
0.0
 71
     0
 42
2.5
  3
ltypeshp.shx
  4

  0
STYLE
  5
6B
330
3
100
AcDbSymbolTableRecord
100
AcDbTextStyleTableRecord
  2
ASAMI
 70
     0
 40
0.0
 41
1.0
 50
0.0
 71
     0
 42
2.5
  3
simplex.shx
  4
EXTFONT.SHX
  0
STYLE
  5
262
330
3
100
AcDbSymbolTableRecord
100
AcDbTextStyleTableRecord
  2
ACJISTS
 70
     0
 40
1.0
 41
1.0
 50
0.0
 71
     0
 42
2.5
  3
simplex.shx
  4
bigfont.shx
  0
STYLE
  5
269
330
3
100
AcDbSymbolTableRecord
100
AcDbTextStyleTableRecord
  2
ACJISGDT
 70
     0
 40
0.0
 41
1.0
 50
0.0
 71
     0
 42
2.5
  3
amgdtans.shx
  4

  0
ENDTAB
  0
TABLE
  2
VIEW
  5
6
330
0
100
AcDbSymbolTable
 70
     0
  0
ENDTAB
  0
TABLE
  2
UCS
  5
7
330
0
100
AcDbSymbolTable
 70
     0
  0
ENDTAB
  0
TABLE
  2
APPID
  5
9
330
0
100
AcDbSymbolTable
 70
    12
  0
APPID
  5
12
330
9
100
AcDbSymbolTableRecord
100
AcDbRegAppTableRecord
  2
ACAD
 70
     0
  0
APPID
  5
30
330
9
100
AcDbSymbolTableRecord
100
AcDbRegAppTableRecord
  2
MCAD_NO_VIS
 70
     0
  0
APPID
  5
31
330
9
100
AcDbSymbolTableRecord
100
AcDbRegAppTableRecord
  2
ACAD_TEMP_GRAPHIC
 70
     0
  0
APPID
  5
2C2
330
9
100
AcDbSymbolTableRecord
100
AcDbRegAppTableRecord
  2
GENIUS_GENDTOL_13
 70
     0
  0
APPID
  5
339
330
9
100
AcDbSymbolTableRecord
100
AcDbRegAppTableRecord
  2
GENIUS_GENODEF_13
 70
     0
  0
APPID
  5
33A
330
9
100
AcDbSymbolTableRecord
100
AcDbRegAppTableRecord
  2
GENIUS_GENOBJ-N-RSBK_13
 70
     0
  0
APPID
  5
33B
330
9
100
AcDbSymbolTableRecord
100
AcDbRegAppTableRecord
  2
GENIUS_GENOBJ-N-LIB_13
 70
     0
  0
APPID
  5
33C
330
9
100
AcDbSymbolTableRecord
100
AcDbRegAppTableRecord
  2
GENIUS_GENSCALE_13
 70
     0
  0
APPID
  5
378
330
9
100
AcDbSymbolTableRecord
100
AcDbRegAppTableRecord
  2
GENIUS_GENDIMSH_14
 70
     0
  0
APPID
  5
BD8
330
9
100
AcDbSymbolTableRecord
100
AcDbRegAppTableRecord
  2
GENIUS_GENOBJ-N-CEN_13
 70
     0
  0
APPID
  5
BD9
330
9
100
AcDbSymbolTableRecord
100
AcDbRegAppTableRecord
  2
GENIUS_GENFIL_13
 70
     0
  0
APPID
  5
BDA
330
9
100
AcDbSymbolTableRecord
100
AcDbRegAppTableRecord
  2
GENIUS_GENOBJ-N-CHA_13
 70
     0
  0
ENDTAB
  0
TABLE
  2
DIMSTYLE
  5
A
330
0
100
AcDbSymbolTable
 70
     8
  0
DIMSTYLE
105
58
102
{ACAD_REACTORS
330
105F
330
10EF
330
19E0
330
1A6C
102
}
330
A
100
AcDbSymbolTableRecord
100
AcDbDimStyleTableRecord
  2
AM_JIS
 70
     0
  3

  4
"
  5
OPEN30
  6

  7

 40
0.5
 41
2.5
 42
1.0
 43
12.0
 44
1.0
 45
0.0
 46
0.0
 47
0.1
 48
0.1
140
3.2
141
0.0
142
0.0
143
0.0393701
144
1.0
145
0.0
146
0.71
147
1.5
 71
     0
 72
     0
 73
     0
 74
     0
 75
     0
 76
     0
 77
     3
 78
     8
170
     0
171
     2
172
     1
173
     0
174
     0
175
     0
176
   256
177
   256
178
     2
270
     2
271
     3
272
     3
273
     2
274
     2
340
6B
275
     0
280
     0
281
     0
282
     0
283
     0
284
     0
285
     0
286
     0
287
     3
288
     0
  0
DIMSTYLE
105
5F
330
A
100
AcDbSymbolTableRecord
100
AcDbDimStyleTableRecord
  2
AM_JIS$3
 70
     0
  3

  4
"
  5
OPEN30
  6

  7

 40
0.5
 41
2.5
 42
1.0
 43
10.0
 44
1.0
 45
0.0
 46
0.0
 47
0.1
 48
0.1
140
3.2
141
0.0
142
0.0
143
0.0393701
144
1.0
145
0.0
146
0.71
147
1.5
 71
     0
 72
     0
 73
     0
 74
     1
 75
     0
 76
     0
 77
     3
 78
     8
170
     0
171
     2
172
     0
173
     0
174
     0
175
     0
176
   256
177
   256
178
     2
270
     2
271
     2
272
     3
273
     2
274
     2
340
6B
275
     0
280
     0
281
     0
282
     0
283
     0
284
     0
285
     0
286
     0
287
     0
288
     1
  0
DIMSTYLE
105
60
330
A
100
AcDbSymbolTableRecord
100
AcDbDimStyleTableRecord
  2
AM_JIS$4
 70
     0
  3

  4
"
  5
OPEN30
  6

  7

 40
0.5
 41
2.5
 42
1.0
 43
10.0
 44
1.0
 45
0.0
 46
0.0
 47
0.1
 48
0.1
140
3.2
141
0.0
142
0.0
143
0.0393701
144
1.0
145
0.0
146
0.71
147
1.5
 71
     0
 72
     0
 73
     0
 74
     1
 75
     0
 76
     0
 77
     3
 78
     8
170
     0
171
     2
172
     0
173
     0
174
     0
175
     0
176
   256
177
   256
178
     2
270
     2
271
     2
272
     3
273
     2
274
     2
340
6B
275
     0
280
     0
281
     0
282
     0
283
     0
284
     0
285
     0
286
     0
287
     0
288
     1
  0
DIMSTYLE
105
61
330
A
100
AcDbSymbolTableRecord
100
AcDbDimStyleTableRecord
  2
AM_JIS$6
 70
     0
  3

  4
"
  5
OPEN30
  6

  7

 40
0.5
 41
2.5
 42
1.0
 43
10.0
 44
1.0
 45
0.0
 46
0.0
 47
0.1
 48
0.1
140
3.2
141
0.0
142
0.0
143
0.0393701
144
1.0
145
0.0
146
0.71
147
1.5
 71
     0
 72
     0
 73
     0
 74
     0
 75
     0
 76
     0
 77
     0
 78
     8
170
     0
171
     2
172
     1
173
     0
174
     0
175
     0
176
   256
177
   256
178
     2
270
     2
271
     2
272
     2
273
     2
274
     2
340
6B
275
     0
280
     0
281
     0
282
     0
283
     0
284
     0
285
     0
286
     0
287
     3
288
     0
  0
DIMSTYLE
105
62
330
A
100
AcDbSymbolTableRecord
100
AcDbDimStyleTableRecord
  2
AM_JIS$7
 70
     0
  3

  4
"
  5
OPEN30
  6

  7

 40
0.5
 41
2.5
 42
1.0
 43
10.0
 44
1.0
 45
0.0
 46
0.0
 47
0.1
 48
0.1
140
3.2
141
0.0
142
0.0
143
0.0393701
144
1.0
145
0.0
146
0.71
147
1.5
 71
     0
 72
     0
 73
     0
 74
     0
 75
     0
 76
     0
 77
     3
 78
     8
170
     0
171
     2
172
     1
173
     0
174
     0
175
     0
176
   256
177
   256
178
     2
270
     2
271
     2
272
     3
273
     2
274
     2
340
6B
275
     0
280
     0
281
     0
282
     0
283
     0
284
     0
285
     0
286
     0
287
     3
288
     0
  0
DIMSTYLE
105
63
330
A
100
AcDbSymbolTableRecord
100
AcDbDimStyleTableRecord
  2
AM_JIS$SF
 70
     0
  3

  4
"
  5
OPEN30
  6

  7

 40
0.5
 41
2.5
 42
1.0
 43
10.0
 44
1.0
 45
0.0
 46
0.0
 47
0.1
 48
0.1
140
3.2
141
0.0
142
0.0
143
0.0393701
144
1.0
145
0.0
146
0.71
147
1.5
 71
     0
 72
     0
 73
     0
 74
     0
 75
     1
 76
     1
 77
     3
 78
     8
170
     0
171
     2
172
     1
173
     0
174
     0
175
     0
176
   256
177
   256
178
     2
270
     2
271
     2
272
     2
273
     2
274
     2
340
6B
275
     0
280
     0
281
     0
282
     0
283
     0
284
     0
285
     0
286
     0
287
     3
288
     0
  0
DIMSTYLE
105
68
330
A
100
AcDbSymbolTableRecord
100
AcDbDimStyleTableRecord
  2
AM_JIS$SH
 70
     0
  3

  4
"
  5

  6
GENAXEH
  7
OPEN30
 40
0.5
 41
2.5
 42
1.0
 43
10.0
 44
1.0
 45
0.0
 46
0.0
 47
0.1
 48
0.1
140
3.2
141
0.0
142
0.0
143
0.0393701
144
2.0
145
0.0
146
0.71
147
1.5
 71
     0
 72
     0
 73
     0
 74
     0
 75
     1
 76
     1
 77
     3
 78
     8
170
     0
171
     2
172
     1
173
     1
174
     0
175
     0
176
   256
177
   256
178
     2
270
     2
271
     2
272
     2
273
     2
274
     2
340
6B
275
     0
280
     0
281
     0
282
     0
283
     0
284
     0
285
     0
286
     0
287
     3
288
     0
  0
DIMSTYLE
105
B34
330
A
100
AcDbSymbolTableRecord
100
AcDbDimStyleTableRecord
  2
AM_JIS$2
 70
     0
  3

  4
"
  5
OPEN30
  6

  7

 40
0.5
 41
2.5
 42
1.0
 43
12.0
 44
1.0
 45
0.0
 46
0.0
 47
0.1
 48
0.1
140
3.2
141
0.0
142
0.0
143
0.0393701
144
1.0
145
0.0
146
0.71
147
1.5
 71
     0
 72
     0
 73
     0
 74
     0
 75
     0
 76
     0
 77
     3
 78
     8
170
     0
171
     2
172
     1
173
     0
174
     0
175
     0
176
   256
177
   256
178
     2
270
     2
271
     3
272
     3
273
     2
274
     2
340
6B
275
     0
280
     0
281
     0
282
     0
283
     0
284
     0
285
     0
286
     0
287
     3
288
     0
  0
ENDTAB
  0
TABLE
  2
BLOCK_RECORD
  5
1
330
0
100
AcDbSymbolTable
 70
     9
  0
BLOCK_RECORD
  5
1F
102
{ACAD_XDICTIONARY
360
74
102
}
330
1
100
AcDbSymbolTableRecord
100
AcDbBlockTableRecord
  2
*MODEL_SPACE
  0
BLOCK_RECORD
  5
101
102
{ACAD_XDICTIONARY
360
1C61
102
}
330
1
100
AcDbSymbolTableRecord
100
AcDbBlockTableRecord
  2
*PAPER_SPACE
  0
BLOCK_RECORD
  5
59
330
1
100
AcDbSymbolTableRecord
100
AcDbBlockTableRecord
  2
_OPEN30
  0
BLOCK_RECORD
  5
64
330
1
100
AcDbSymbolTableRecord
100
AcDbBlockTableRecord
  2
GENAXEH
  0
BLOCK_RECORD
  5
1060
330
1
100
AcDbSymbolTableRecord
100
AcDbBlockTableRecord
  2
*D5
  0
BLOCK_RECORD
  5
10F0
330
1
100
AcDbSymbolTableRecord
100
AcDbBlockTableRecord
  2
*D6
  0
BLOCK_RECORD
  5
19E1
330
1
100
AcDbSymbolTableRecord
100
AcDbBlockTableRecord
  2
*D7
  0
BLOCK_RECORD
  5
1A6D
330
1
100
AcDbSymbolTableRecord
100
AcDbBlockTableRecord
  2
*D8
  0
ENDTAB
  0
ENDSEC
  0
SECTION
  2
BLOCKS
  0
BLOCK
  5
20
330
1F
100
AcDbEntity
  8
0
100
AcDbBlockBegin
  2
*MODEL_SPACE
 70
     0
 10
0.0
 20
0.0
 30
0.0
  3
*MODEL_SPACE
  1

  0
ENDBLK
  5
21
330
1F
100
AcDbEntity
  8
0
100
AcDbBlockEnd
  0
BLOCK
  5
103
330
101
100
AcDbEntity
 67
     1
  8
0
100
AcDbBlockBegin
  2
*PAPER_SPACE
 70
     0
 10
0.0
 20
0.0
 30
0.0
  3
*PAPER_SPACE
  1

  0
ENDBLK
  5
104
330
101
100
AcDbEntity
 67
     1
  8
0
100
AcDbBlockEnd
  0
BLOCK
  5
5D
330
59
100
AcDbEntity
  8
0
100
AcDbBlockBegin
  2
_OPEN30
 70
     0
 10
0.0
 20
0.0
 30
0.0
  3
_OPEN30
  1

  0
LINE
  5
5A
330
59
100
AcDbEntity
  8
0
 62
     0
100
AcDbLine
 10
-1.0
 20
0.26794919
 30
0.0
 11
0.0
 21
0.0
 31
0.0
  0
LINE
  5
5B
330
59
100
AcDbEntity
  8
0
 62
     0
100
AcDbLine
 10
0.0
 20
0.0
 30
0.0
 11
-1.0
 21
-0.26794919
 31
0.0
  0
LINE
  5
5C
330
59
100
AcDbEntity
  8
0
 62
     0
100
AcDbLine
 10
0.0
 20
0.0
 30
0.0
 11
-1.0
 21
0.0
 31
0.0
  0
ENDBLK
  5
5E
330
59
100
AcDbEntity
  8
0
100
AcDbBlockEnd
  0
BLOCK
  5
66
330
64
100
AcDbEntity
  8
0
100
AcDbBlockBegin
  2
GENAXEH
 70
     0
 10
0.0
 20
0.0
 30
0.0
  3
GENAXEH
  1

  0
LINE
  5
65
330
64
100
AcDbEntity
  8
0
100
AcDbLine
 10
-1.0
 20
0.0
 30
0.0
 11
1.0
 21
0.0
 31
0.0
  0
ENDBLK
  5
67
330
64
100
AcDbEntity
  8
0
100
AcDbBlockEnd
  0
BLOCK
  5
106A
330
1060
100
AcDbEntity
  8
0
100
AcDbBlockBegin
  2
*D5
 70
     1
 10
0.0
 20
0.0
 30
0.0
  3
*D5
  1

  0
LINE
  5
1AD5
330
1060
100
AcDbEntity
  8
AM_5
100
AcDbLine
 10
-17.99997599970057
 20
-3.749999999999995
 30
0.0
 11
-17.99997599970057
 21
-11.50000099999999
 31
0.0
  0
LINE
  5
1AD6
330
1060
100
AcDbEntity
  8
AM_5
100
AcDbLine
 10
-0.0000000000035145
 20
-3.749999999992468
 30
0.0
 11
-0.000000000003515
 21
-11.50000099999999
 31
0.0
  0
LINE
  5
1AD7
330
1060
100
AcDbEntity
  8
AM_5
100
AcDbLine
 10
-16.74997599970057
 20
-11.00000099999999
 30
0.0
 11
-1.250000000003514
 21
-11.00000099999999
 31
0.0
  0
INSERT
  5
1AD8
330
1060
100
AcDbEntity
  8
AM_5
100
AcDbBlockReference
  2
_OPEN30
 10
-17.99997599970057
 20
-11.00000099999999
 30
0.0
 41
1.25
 42
1.25
 43
1.25
 50
180.0
  0
INSERT
  5
1AD9
330
1060
100
AcDbEntity
  8
AM_5
100
AcDbBlockReference
  2
_OPEN30
 10
-0.0000000000035149
 20
-11.00000099999999
 30
0.0
 41
1.25
 42
1.25
 43
1.25
  0
MTEXT
  5
1ADA
330
1060
100
AcDbEntity
  8
AM_5
 62
     2
100
AcDbMText
 10
-8.999987999852042
 20
-9.450000999999989
 30
0.0
 40
1.6
 41
0.0
 71
     5
 72
     1
  1
18
  7
ASAMI
1001
ACAD
1000
MTEXTBEGIN
1070
    73
1070
     1
1070
    44
1040
1.0
1070
    74
1070
     0
1000
MTEXTEND
  0
POINT
  5
1ADB
330
1060
100
AcDbEntity
  8
DEFPOINTS
 62
     0
100
AcDbPoint
 10
-17.99997599970057
 20
-3.249999999999995
 30
0.0
  0
POINT
  5
1ADC
330
1060
100
AcDbEntity
  8
DEFPOINTS
 62
     0
100
AcDbPoint
 10
-0.0000000000035144
 20
-3.249999999992468
 30
0.0
  0
POINT
  5
1ADD
330
1060
100
AcDbEntity
  8
DEFPOINTS
 62
     0
100
AcDbPoint
 10
-0.0000000000035149
 20
-11.00000099999999
 30
0.0
  0
ENDBLK
  5
106B
330
1060
100
AcDbEntity
  8
0
100
AcDbBlockEnd
  0
BLOCK
  5
10FA
330
10F0
100
AcDbEntity
  8
0
100
AcDbBlockBegin
  2
*D6
 70
     1
 10
0.0
 20
0.0
 30
0.0
  3
*D6
  1

  0
LINE
  5
1ACC
330
10F0
100
AcDbEntity
  8
AM_5
100
AcDbLine
 10
-60.00000000000001
 20
-4.000000000000043
 30
0.0
 11
-60.00000000000001
 21
-17.50000099999999
 31
0.0
  0
LINE
  5
1ACD
330
10F0
100
AcDbEntity
  8
AM_5
100
AcDbLine
 10
-0.0000000000027364
 20
-3.749999999992468
 30
0.0
 11
-0.0000000000027373
 21
-17.50000099999999
 31
0.0
  0
LINE
  5
1ACE
330
10F0
100
AcDbEntity
  8
AM_5
100
AcDbLine
 10
-58.75000000000001
 20
-17.00000099999999
 30
0.0
 11
-1.250000000002737
 21
-17.00000099999999
 31
0.0
  0
INSERT
  5
1ACF
330
10F0
100
AcDbEntity
  8
AM_5
100
AcDbBlockReference
  2
_OPEN30
 10
-60.00000000000001
 20
-17.00000099999999
 30
0.0
 41
1.25
 42
1.25
 43
1.25
 50
180.0
  0
INSERT
  5
1AD0
330
10F0
100
AcDbEntity
  8
AM_5
100
AcDbBlockReference
  2
_OPEN30
 10
-0.0000000000027372
 20
-17.00000099999999
 30
0.0
 41
1.25
 42
1.25
 43
1.25
  0
MTEXT
  5
1AD1
330
10F0
100
AcDbEntity
  8
AM_5
 62
     2
100
AcDbMText
 10
-30.00000000000137
 20
-15.45000099999999
 30
0.0
 40
1.6
 41
0.0
 71
     5
 72
     1
  1
60
  7
ASAMI
1001
ACAD
1000
MTEXTBEGIN
1070
    73
1070
     1
1070
    44
1040
1.0
1070
    74
1070
     0
1000
MTEXTEND
  0
POINT
  5
1AD2
330
10F0
100
AcDbEntity
  8
DEFPOINTS
 62
     0
100
AcDbPoint
 10
-60.00000000000001
 20
-3.500000000000043
 30
0.0
  0
POINT
  5
1AD3
330
10F0
100
AcDbEntity
  8
DEFPOINTS
 62
     0
100
AcDbPoint
 10
-0.0000000000027364
 20
-3.249999999992468
 30
0.0
  0
POINT
  5
1AD4
330
10F0
100
AcDbEntity
  8
DEFPOINTS
 62
     0
100
AcDbPoint
 10
-0.0000000000027372
 20
-17.00000099999999
 30
0.0
  0
ENDBLK
  5
10FB
330
10F0
100
AcDbEntity
  8
0
100
AcDbBlockEnd
  0
BLOCK
  5
19EB
330
19E1
100
AcDbEntity
  8
0
100
AcDbBlockBegin
  2
*D7
 70
     1
 10
0.0
 20
0.0
 30
0.0
  3
*D7
  1

  0
LINE
  5
1A0F
330
19E1
100
AcDbEntity
  8
AM_5
100
AcDbLine
 10
-60.0
 20
3.99999999999995
 30
0.0
 11
-69.46900544538312
 21
3.999999999999952
 31
0.0
  0
LINE
  5
1A10
330
19E1
100
AcDbEntity
  8
AM_5
100
AcDbLine
 10
-60.00000000000001
 20
-4.000000000000049
 30
0.0
 11
-69.46900544538312
 21
-4.000000000000047
 31
0.0
  0
LINE
  5
1A11
330
19E1
100
AcDbEntity
  8
AM_5
100
AcDbLine
 10
-68.96900544538311
 20
2.749999999999952
 30
0.0
 11
-68.96900544538311
 21
-2.750000000000047
 31
0.0
  0
INSERT
  5
1A12
330
19E1
100
AcDbEntity
  8
AM_5
100
AcDbBlockReference
  2
_OPEN30
 10
-68.96900544538311
 20
3.999999999999952
 30
0.0
 41
1.25
 42
1.25
 43
1.25
 50
90.0
  0
INSERT
  5
1A13
330
19E1
100
AcDbEntity
  8
AM_5
100
AcDbBlockReference
  2
_OPEN30
 10
-68.96900544538311
 20
-4.000000000000047
 30
0.0
 41
1.25
 42
1.25
 43
1.25
 50
270.0
  0
MTEXT
  5
1A14
330
19E1
100
AcDbEntity
  8
AM_5
 62
     2
100
AcDbMText
 10
-70.51900544538312
 20
-0.000000000000058
 30
0.0
 40
1.6
 41
0.0
 71
     5
 72
     1
  1
%%c8
  7
ASAMI
 11
0.0000000000000001
 21
1.0
 31
0.0
1001
ACAD
1000
MTEXTBEGIN
1070
    73
1070
     1
1070
    44
1040
1.0
1070
    74
1070
     0
1000
MTEXTEND
  0
POINT
  5
1A15
330
19E1
100
AcDbEntity
  8
DEFPOINTS
 62
     0
100
AcDbPoint
 10
-59.5
 20
3.99999999999995
 30
0.0
  0
POINT
  5
1A16
330
19E1
100
AcDbEntity
  8
DEFPOINTS
 62
     0
100
AcDbPoint
 10
-59.50000000000001
 20
-4.000000000000049
 30
0.0
  0
POINT
  5
1A17
330
19E1
100
AcDbEntity
  8
DEFPOINTS
 62
     0
100
AcDbPoint
 10
-68.96900544538311
 20
-4.000000000000047
 30
0.0
  0
ENDBLK
  5
19EC
330
19E1
100
AcDbEntity
  8
0
100
AcDbBlockEnd
  0
BLOCK
  5
1A77
330
1A6D
100
AcDbEntity
  8
0
100
AcDbBlockBegin
  2
*D8
 70
     1
 10
0.0
 20
0.0
 30
0.0
  3
*D8
  1

  0
LINE
  5
1ADE
330
1A6D
100
AcDbEntity
  8
AM_5
100
AcDbLine
 10
0.4999999999990671
 20
3.25
 30
0.0
 11
9.778885015427469
 21
3.249999999999997
 31
0.0
  0
LINE
  5
1ADF
330
1A6D
100
AcDbEntity
  8
AM_5
100
AcDbLine
 10
0.5000000000000076
 20
-3.250000000000015
 30
0.0
 11
9.778885015427469
 21
-3.250000000000017
 31
0.0
  0
LINE
  5
1AE0
330
1A6D
100
AcDbEntity
  8
AM_5
100
AcDbLine
 10
9.278885015427469
 20
1.999999999999997
 30
0.0
 11
9.278885015427469
 21
-2.000000000000017
 31
0.0
  0
INSERT
  5
1AE1
330
1A6D
100
AcDbEntity
  8
AM_5
100
AcDbBlockReference
  2
_OPEN30
 10
9.278885015427469
 20
3.249999999999997
 30
0.0
 41
1.25
 42
1.25
 43
1.25
 50
90.0
  0
INSERT
  5
1AE2
330
1A6D
100
AcDbEntity
  8
AM_5
100
AcDbBlockReference
  2
_OPEN30
 10
9.278885015427469
 20
-3.250000000000017
 30
0.0
 41
1.25
 42
1.25
 43
1.25
 50
270.0
  0
MTEXT
  5
1AE3
330
1A6D
100
AcDbEntity
  8
AM_5
 62
     2
100
AcDbMText
 10
7.728885015427469
 20
-0.0000000000000084
 30
0.0
 40
1.6
 41
0.0
 71
     5
 72
     1
  1
%%c6.5
  7
ASAMI
 11
0.0000000000000001
 21
1.0
 31
0.0
1001
ACAD
1000
MTEXTBEGIN
1070
    73
1070
     1
1070
    44
1040
1.0
1070
    74
1070
     0
1000
MTEXTEND
  0
POINT
  5
1AE4
330
1A6D
100
AcDbEntity
  8
DEFPOINTS
 62
     0
100
AcDbPoint
 10
-0.0000000000009329
 20
3.25
 30
0.0
  0
POINT
  5
1AE5
330
1A6D
100
AcDbEntity
  8
DEFPOINTS
 62
     0
100
AcDbPoint
 10
0.0000000000000076
 20
-3.250000000000015
 30
0.0
  0
POINT
  5
1AE6
330
1A6D
100
AcDbEntity
  8
DEFPOINTS
 62
     0
100
AcDbPoint
 10
9.278885015427469
 20
-3.250000000000017
 30
0.0
  0
ENDBLK
  5
1A78
330
1A6D
100
AcDbEntity
  8
0
100
AcDbBlockEnd
  0
ENDSEC
  0
SECTION
  2
ENTITIES
  0
TEXT
  5
E5A
330
1F
100
AcDbEntity
  8
AM_6
100
AcDbText
 10
-40.35714285714422
 20
-28.25000099999999
 30
0.0
 40
2.5
  1
JSM2065ZX
 72
     4
 11
-30.00000000000136
 21
-27.00000099999999
 31
0.0
100
AcDbText
  0
DIMENSION
  5
105F
330
1F
100
AcDbEntity
  8
AM_5
100
AcDbDimension
  2
*D5
 10
-0.0000000000035149
 20
-11.00000099999999
 30
0.0
 11
-8.999987999852042
 21
-9.450000999999989
 31
0.0
 70
    32
  1
<>
  3
AM_JIS
100
AcDbAlignedDimension
 13
-17.99997599970057
 23
-3.249999999999995
 33
0.0
 14
-0.0000000000035144
 24
-3.249999999992468
 34
0.0
 50
0.0000000000001132
100
AcDbRotatedDimension
1001
GENIUS_GENDTOL_13
1000

1000
h7
1000

1040
0.0
  0
DIMENSION
  5
10EF
330
1F
100
AcDbEntity
  8
AM_5
100
AcDbDimension
  2
*D6
 10
-0.0000000000027372
 20
-17.00000099999999
 30
0.0
 11
-30.00000000000137
 21
-15.45000099999999
 31
0.0
 70
    32
  1
<>
  3
AM_JIS
100
AcDbAlignedDimension
 13
-60.00000000000001
 23
-3.500000000000043
 33
0.0
 14
-0.0000000000027364
 24
-3.249999999992468
 34
0.0
 50
0.0000000000001132
100
AcDbRotatedDimension
1001
GENIUS_GENDTOL_13
1000

1000
h7
1000

1040
0.0
  0
LINE
  5
1759
330
1F
100
AcDbEntity
  8
AM_7
  6
AM_ISO08W050X2
100
AcDbLine
 10
2.278884015427479
 20
0.0000000000000036
 30
0.0
 11
-61.96900444538312
 21
-0.0000000000000497
 31
0.0
1001
GENIUS_GENODEF_13
1002
{
1000
HIER
1070
     0
1002
}
1002
{
1000
MANEDIT
1070
     0
1002
}
1002
{
1000
NOSEL
1070
     0
1002
}
1002
{
1000
BEHIND
1070
     0
1002
}
1002
{
1000
REACTOR
1002
}
1001
GENIUS_GENOBJ-N-CEN_13
1002
{
1000
OWNER
1000
GEN
1002
}
  0
LINE
  5
1767
330
1F
100
AcDbEntity
  8
AM_0
100
AcDbLine
 10
-21.02631432742376
 20
-3.249999999999996
 30
0.0
 11
-22.9393919354091
 21
-3.249999999999997
 31
0.0
  0
LINE
  5
19DA
330
1F
100
AcDbEntity
  8
AM_0
100
AcDbLine
 10
-59.50000000000001
 20
-4.00000000000005
 30
0.0
 11
-25.0
 21
-4.000000000000039
 31
0.0
  0
LINE
  5
19DB
330
1F
100
AcDbEntity
  8
AM_0
100
AcDbLine
 10
-59.50000000000001
 20
3.999999999999949
 30
0.0
 11
-25.0
 21
3.999999999999959
 31
0.0
  0
LINE
  5
19DD
330
1F
100
AcDbEntity
  8
AM_0
100
AcDbLine
 10
-60.0
 20
3.499999999999949
 30
0.0
 11
-60.0
 21
-3.50000000000005
 31
0.0
  0
LINE
  5
19DF
330
1F
100
AcDbEntity
  8
AM_0
100
AcDbLine
 10
-59.5
 20
3.99999999999995
 30
0.0
 11
-59.50000000000001
 21
-4.000000000000049
 31
0.0
  0
DIMENSION
  5
19E0
330
1F
100
AcDbEntity
  8
AM_5
100
AcDbDimension
  2
*D7
 10
-68.96900544538311
 20
-4.000000000000047
 30
0.0
 11
-70.51900544538312
 21
-0.000000000000058
 31
0.0
 70
    32
  1
%%c<>
  3
AM_JIS
100
AcDbAlignedDimension
 13
-59.5
 23
3.99999999999995
 33
0.0
 14
-59.50000000000001
 24
-4.000000000000049
 34
0.0
 50
270.0
100
AcDbRotatedDimension
1001
GENIUS_GENDTOL_13
1000

1000
h7
1000

1040
0.0
  0
LINE
  5
19F8
330
1F
100
AcDbEntity
  8
AM_0
100
AcDbLine
 10
-59.50000000000001
 20
3.999999999999949
 30
0.0
 11
-60.0
 21
3.499999999999949
 31
0.0
1001
GENIUS_GENFIL_13
1070
     0
1040
0.5
1040
0.5
1040
20.0
1040
0.0
1002
{
1002
}
1001
GENIUS_GENODEF_13
1002
{
1000
HIER
1070
     0
1002
}
1002
{
1000
MANEDIT
1070
     0
1002
}
1002
{
1000
NOSEL
1070
     0
1002
}
1002
{
1000
BEHIND
1070
     0
1002
}
1002
{
1000
REACTOR
1002
}
1001
GENIUS_GENOBJ-N-CHA_13
1002
{
1000
OWNER
1000
GEN
1002
}
  0
LINE
  5
19FB
330
1F
100
AcDbEntity
  8
AM_0
100
AcDbLine
 10
-60.0
 20
-3.50000000000005
 30
0.0
 11
-59.50000000000001
 21
-4.00000000000005
 31
0.0
1001
GENIUS_GENFIL_13
1070
     0
1040
0.5
1040
0.5
1040
20.0
1040
0.0
1002
{
1002
}
1001
GENIUS_GENODEF_13
1002
{
1000
HIER
1070
     0
1002
}
1002
{
1000
MANEDIT
1070
     0
1002
}
1002
{
1000
NOSEL
1070
     0
1002
}
1002
{
1000
BEHIND
1070
     0
1002
}
1002
{
1000
REACTOR
1002
}
1001
GENIUS_GENOBJ-N-CHA_13
1002
{
1000
OWNER
1000
GEN
1002
}
  0
LINE
  5
1A1F
330
1F
100
AcDbEntity
  8
AM_0
100
AcDbLine
 10
-25.0
 20
3.99999999999996
 30
0.0
 11
-25.0
 21
-4.000000000000039
 31
0.0
  0
DIMENSION
  5
1A6C
330
1F
100
AcDbEntity
  8
AM_5
100
AcDbDimension
  2
*D8
 10
9.278885015427469
 20
-3.250000000000017
 30
0.0
 11
7.728885015427469
 21
-0.0000000000000084
 31
0.0
 70
    32
  1
%%c<>
  3
AM_JIS
100
AcDbAlignedDimension
 13
-0.0000000000009329
 23
3.25
 33
0.0
 14
0.0000000000000076
 24
-3.250000000000015
 34
0.0
 50
90.0
100
AcDbRotatedDimension
1001
GENIUS_GENDTOL_13
1000

1000
h7
1000

1040
0.0
  0
LINE
  5
1A79
330
1F
100
AcDbEntity
  8
AM_0
100
AcDbLine
 10
-0.2013839114825622
 20
0.3899999999999779
 30
0.0
 11
-0.0000000000000021
 21
0.65
 31
0.0
  0
LINE
  5
1A7A
330
1F
100
AcDbEntity
  8
AM_0
100
AcDbLine
 10
-0.0630000000000088
 20
-3.076736752454186
 30
0.0
 11
-0.225
 21
-2.650843119933625
 31
0.0
  0
LINE
  5
1A7B
330
1F
100
AcDbEntity
  8
AM_0
100
AcDbLine
 10
-0.225
 20
-2.650843119933625
 30
0.0
 11
-0.225
 21
-2.615831030236202
 31
0.0
  0
LINE
  5
1A7C
330
1F
100
AcDbEntity
  8
AM_0
100
AcDbLine
 10
0.0000000000000021
 20
-3.25
 30
0.0
 11
-0.0630000000000088
 21
-3.076736752454186
 31
0.0
  0
LINE
  5
1A7D
330
1F
100
AcDbEntity
  8
AM_0
100
AcDbLine
 10
0.0000000000000021
 20
-3.25
 30
0.0
 11
0.0
 21
0.1299999999999926
 31
0.0
  0
LINE
  5
1A7E
330
1F
100
AcDbEntity
  8
AM_0
100
AcDbLine
 10
-0.0630000000000088
 20
-3.076736752454186
 30
0.0
 11
-0.0630000000000109
 21
0.2113371826945496
 31
0.0
  0
LINE
  5
1A7F
330
1F
100
AcDbEntity
  8
AM_0
100
AcDbLine
 10
0.0
 20
0.1299999999999926
 30
0.0
 11
-1.41394333861315
 21
1.95549472464325
 31
0.0
  0
LINE
  5
1A80
330
1F
100
AcDbEntity
  8
AM_0
100
AcDbLine
 10
-0.0000000000000021
 20
0.65
 30
0.0
 11
-0.0000000000000021
 21
3.25
 31
0.0
  0
ELLIPSE
  5
1A81
330
1F
100
AcDbEntity
  8
AM_0
100
AcDbEllipse
 10
8.524061065429597
 20
0.0136742526104445
 30
0.0
 11
0.0000000000000218
 21
9.836138253442713
 31
0.0
210
0.0
220
0.0
230
1.0
 40
0.9230769230769213
 41
1.489874453283515
 42
1.841418545974797
  0
LINE
  5
1A83
330
1F
100
AcDbEntity
  8
AM_0
100
AcDbLine
 10
-17.99998720894737
 20
-2.874940175120719
 30
0.0
 11
-17.99998720894737
 21
-3.147655824009123
 31
0.0
  0
LINE
  5
1A84
330
1F
100
AcDbEntity
  8
AM_11
100
AcDbLine
 10
-17.99998720894737
 20
-3.249999999999995
 30
0.0
 11
-17.99998720894738
 21
3.249999999999986
 31
0.0
  0
ELLIPSE
  5
1A85
330
1F
100
AcDbEntity
  8
AM_0
100
AcDbEllipse
 10
-1.363222938984232
 20
51.77158061577615
 30
0.0
 11
-0.0000000000026049
 21
53.8446545230352
 31
0.0
210
0.0
220
0.0
230
1.0
 40
0.9230769230769283
 41
2.693188654067111
 42
2.799910305627799
  0
ELLIPSE
  5
1A86
330
1F
100
AcDbEntity
  8
AM_0
100
AcDbEllipse
 10
-18.43576573837325
 20
-2.324245516033311
 30
0.0
 11
-3.735913921839867
 21
3.735913921839867
 31
0.0
210
0.0
220
0.0
230
1.0
 40
0.9999999999999992
 41
-0.2812603888995682
 42
0.2166322467489861
  0
ELLIPSE
  5
1A87
330
1F
100
AcDbEntity
  8
AM_0
100
AcDbEllipse
 10
-21.60685042636047
 20
-30.95303090865316
 30
0.0
 11
0.0000000000000134
 21
34.20964609031468
 31
0.0
210
0.0
220
0.0
230
1.0
 40
0.9230769230769235
 41
-0.4398766785916686
 42
0.0196661158540401
  0
ELLIPSE
  5
1A88
330
1F
100
AcDbEntity
  8
AM_0
100
AcDbEllipse
 10
-17.36825451963768
 20
7.456523898179262
 30
0.0
 11
0.6912569244751709
 21
10.60069087033588
 31
0.0
210
0.0
220
0.0
230
1.0
 40
0.6535088702739456
 41
2.325751187964829
 42
3.169758173932789
  0
LINE
  5
1A89
330
1F
100
AcDbEntity
  8
AM_0
100
AcDbLine
 10
-7.600644041503301
 20
-2.493852048174462
 30
0.0
 11
-15.99763098151635
 21
-2.975252634492647
 31
0.0
  0
LINE
  5
1A8A
330
1F
100
AcDbEntity
  8
AM_0
100
AcDbLine
 10
-11.4550527399284
 20
2.613554156800321
 30
0.0
 11
-1.41394333861315
 21
1.95549472464325
 31
0.0
  0
LINE
  5
1A8B
330
1F
100
AcDbEntity
  8
AM_11
100
AcDbLine
 10
-0.0000000000004626
 20
3.25
 30
0.0
 11
-17.99998720894739
 21
3.24999999999999
 31
0.0
  0
LINE
  5
1A8C
330
1F
100
AcDbEntity
  8
AM_11
100
AcDbLine
 10
-18.00000000000013
 20
-3.249999999999995
 30
0.0
 11
0.0000000000000021
 21
-3.25
 31
0.0
  0
SPLINE
  5
1A8D
330
1F
100
AcDbEntity
  8
AM_0
100
AcDbSpline
210
0.0
220
0.0
230
1.0
 70
     8
 71
     3
 72
     8
 73
     4
 74
     0
 42
0.0000000001
 43
0.0000000001
 40
6.225830728781539
 40
6.225830728781539
 40
6.225830728781539
 40
6.225830728781539
 40
7.218994763998551
 40
7.218994763998551
 40
7.218994763998551
 40
7.218994763998551
 10
-22.8873637110094
 20
0.5213442563764418
 30
0.0
 10
-22.78928096111613
 20
0.4007128565108147
 30
0.0
 10
-22.58293208257137
 20
0.135832742358815
 30
0.0
 10
-22.26153417870855
 20
-0.19305636506013
 30
0.0
  0
SPLINE
  5
1A8E
330
1F
100
AcDbEntity
  8
AM_0
100
AcDbSpline
210
0.0
220
0.0
230
1.0
 70
     8
 71
     3
 72
     8
 73
     4
 74
     0
 42
0.0000000001
 43
0.0000000001
 40
0.0
 40
0.0
 40
0.0
 40
0.0
 40
2.764560748519282
 40
2.764560748519282
 40
2.764560748519282
 40
2.764560748519282
 10
-17.86414233277843
 20
-3.152684385718088
 30
0.0
 10
-17.31123018307458
 20
-3.152684385718088
 30
0.0
 10
-16.76754522764839
 20
-3.094897746531618
 30
0.0
 10
-16.23132078552103
 20
-2.990388563398102
 30
0.0
  0
SPLINE
  5
1A8F
330
1F
100
AcDbEntity
  8
AM_0
100
AcDbSpline
210
0.0
220
0.0
230
1.0
 70
     8
 71
     3
 72
     8
 73
     4
 74
     0
 42
0.0000000001
 43
0.0000000001
 40
0.0
 40
0.0
 40
0.0
 40
0.0
 40
1.107611476504672
 40
1.107611476504672
 40
1.107611476504672
 40
1.107611476504672
 10
-16.65822159339003
 20
-3.00133892747183
 30
0.0
 10
-16.43669929808909
 20
-3.001338927471829
 30
0.0
 10
-16.21653739788472
 20
-2.99241407295125
 30
0.0
 10
-15.99763098127415
 20
-2.975252634473659
 30
0.0
  0
SPLINE
  5
1A90
330
1F
100
AcDbEntity
  8
AM_0
100
AcDbSpline
210
0.0
220
0.0
230
1.0
 70
     8
 71
     3
 72
     8
 73
     4
 74
     0
 42
0.0000000001
 43
0.0000000001
 40
0.0
 40
0.0
 40
0.0
 40
0.0
 40
2.130230809022907
 40
2.130230809022907
 40
2.130230809022907
 40
2.130230809022907
 10
-21.02631432742963
 20
-3.250000000000087
 30
0.0
 10
-18.9202681656249
 20
-3.250000000000087
 30
0.0
 10
-18.49999267510733
 20
-3.214878737083196
 30
0.0
 10
-18.08412325867232
 20
-3.142494860945668
 30
0.0
  0
SPLINE
  5
1A91
330
1F
100
AcDbEntity
  8
AM_0
100
AcDbSpline
210
0.0
220
0.0
230
1.0
 70
     8
 71
     3
 72
     8
 73
     4
 74
     0
 42
0.0000000001
 43
0.0000000001
 40
0.0
 40
0.0
 40
0.0
 40
0.0
 40
7.24499827467198
 40
7.24499827467198
 40
7.24499827467198
 40
7.24499827467198
 10
-16.31999999999999
 20
3.250000000000059
 30
0.0
 10
-13.4220006901312
 20
3.250000000000061
 30
0.0
 10
-10.7910003450656
 20
1.625000000000065
 30
0.0
 10
-8.159999999999996
 20
0.0000000000000693
 30
0.0
  0
SPLINE
  5
1A92
330
1F
100
AcDbEntity
  8
AM_0
100
AcDbSpline
210
0.0
220
0.0
230
1.0
 70
     8
 71
     3
 72
     8
 73
     4
 74
     0
 42
0.0000000001
 43
0.0000000001
 40
0.3581103616548037
 40
0.3581103616548037
 40
0.3581103616548037
 40
0.3581103616548037
 40
14.43901837670146
 40
14.43901837670146
 40
14.43901837670146
 40
14.43901837670146
 10
-15.05832515959331
 20
3.149799524854225
 30
0.0
 10
-12.25416829587957
 20
3.074492855234586
 30
0.0
 10
-9.683449513341404
 20
1.537246427617307
 30
0.0
 10
-7.112730730803229
 20
0.0000000000000323
 30
0.0
  0
SPLINE
  5
1A93
330
1F
100
AcDbEntity
  8
AM_0
100
AcDbSpline
210
0.0
220
0.0
230
1.0
 70
     8
 71
     3
 72
     8
 73
     4
 74
     0
 42
0.0000000001
 43
0.0000000001
 40
0.0
 40
0.0
 40
0.0
 40
0.0
 40
1.293282661808369
 40
1.293282661808369
 40
1.293282661808369
 40
1.293282661808369
 10
-0.0000000000000021
 20
2.648556746344576
 30
0.0
 10
-0.3319604283017719
 20
2.218738077498151
 30
0.0
 10
-0.9017517028296117
 20
2.034157968000829
 30
0.0
 10
-1.41394333861315
 20
1.95549472464325
 30
0.0
  0
SPLINE
  5
1A94
330
1F
100
AcDbEntity
  8
AM_0
100
AcDbSpline
210
0.0
220
0.0
230
1.0
 70
     8
 71
     3
 72
     8
 73
     4
 74
     0
 42
0.0000000001
 43
0.0000000001
 40
0.0
 40
0.0
 40
0.0
 40
0.0
 40
7.57842115059705
 40
7.57842115059705
 40
7.57842115059705
 40
7.57842115059705
 10
-0.0000000000000021
 20
3.25
 30
0.0
 10
-1.515684230119412
 20
3.25
 30
0.0
 10
-2.958333552297519
 20
2.805497432388554
 30
0.0
 10
-4.366145994338491
 20
2.148971832161366
 30
0.0
  0
SPLINE
  5
1A95
330
1F
100
AcDbEntity
  8
AM_0
100
AcDbSpline
210
0.0
220
0.0
230
1.0
 70
     8
 71
     3
 72
     8
 73
     4
 74
     0
 42
0.0000000001
 43
0.0000000001
 40
0.7142832446738512
 40
0.7142832446738512
 40
0.7142832446738512
 40
0.7142832446738512
 40
14.36247867694493
 40
14.36247867694493
 40
14.36247867694493
 40
14.36247867694493
 10
-13.63990918348264
 20
2.99038856338578
 30
0.0
 10
-10.9313529812136
 20
2.852074573059086
 30
0.0
 10
-8.419081486314215
 20
1.426037286529561
 30
0.0
 10
-5.906809991414825
 20
0.0000000000000323
 30
0.0
  0
SPLINE
  5
1A96
330
1F
100
AcDbEntity
  8
AM_0
100
AcDbSpline
210
0.0
220
0.0
230
1.0
 70
     8
 71
     3
 72
     8
 73
     4
 74
     0
 42
0.0000000001
 43
0.0000000001
 40
0.0
 40
0.0
 40
0.0
 40
0.0
 40
2.238610194515266
 40
2.238610194515266
 40
2.238610194515266
 40
2.238610194515266
 10
-7.600644041503301
 20
-2.493852048174462
 30
0.0
 10
-6.039833750637893
 20
-2.493852048174462
 30
0.0
 10
-5.177854416213716
 20
-2.371583160240824
 30
0.0
 10
-4.326849332645264
 20
-2.164960965136289
 30
0.0
  0
SPLINE
  5
1A97
330
1F
100
AcDbEntity
  8
AM_0
100
AcDbSpline
210
0.0
220
0.0
230
1.0
 70
     8
 71
     3
 72
     8
 73
     4
 74
     0
 42
0.0000000001
 43
0.0000000001
 40
5.297458184749251
 40
5.297458184749251
 40
5.297458184749251
 40
5.297458184749251
 40
7.218994763998551
 40
7.218994763998551
 40
7.218994763998551
 40
7.218994763998551
 10
-18.01725832073818
 20
1.039562248867089
 30
0.0
 10
-17.18176697645204
 20
0.7260093130813094
 30
0.0
 10
-16.47225407896077
 20
0.387567205427732
 30
0.0
 10
-15.76274118146952
 20
0.0491250977741178
 30
0.0
  0
SPLINE
  5
1A98
330
1F
100
AcDbEntity
  8
AM_0
100
AcDbSpline
210
0.0
220
0.0
230
1.0
 70
     8
 71
     3
 72
     8
 73
     4
 74
     0
 42
0.0000000001
 43
0.0000000001
 40
0.0
 40
0.0
 40
0.0
 40
0.0
 40
3.000656968708724
 40
3.000656968708724
 40
3.000656968708724
 40
3.000656968708724
 10
-16.31999999999999
 20
3.249999999999986
 30
0.0
 10
-16.92013139374171
 20
3.249999999999986
 30
0.0
 10
-17.50881278149061
 20
3.180313363753706
 30
0.0
 10
-18.10417293292924
 20
3.045515306539701
 30
0.0
  0
SPLINE
  5
1A99
330
1F
100
AcDbEntity
  8
AM_0
100
AcDbSpline
210
0.0
220
0.0
230
1.0
 70
     8
 71
     3
 72
     8
 73
     4
 74
     0
 42
0.0000000001
 43
0.0000000001
 40
0.0
 40
0.0
 40
0.0
 40
0.0
 40
7.24499827467198
 40
7.24499827467198
 40
7.24499827467198
 40
7.24499827467198
 10
0.0000000000000021
 20
-3.25
 30
0.0
 10
-2.897999309868789
 20
-3.250000000000002
 30
0.0
 10
-5.528999654934392
 20
-1.625000000000003
 30
0.0
 10
-8.159999999999996
 20
-0.0000000000000046
 30
0.0
  0
SPLINE
  5
1A9A
330
1F
100
AcDbEntity
  8
AM_0
100
AcDbSpline
210
0.0
220
0.0
230
1.0
 70
     8
 71
     3
 72
     8
 73
     4
 74
     0
 42
0.0000000001
 43
0.0000000001
 40
1.870660592686466
 40
1.870660592686466
 40
1.870660592686466
 40
1.870660592686466
 40
14.43901837670146
 40
14.43901837670146
 40
14.43901837670146
 40
14.43901837670146
 10
-0.0629999999999917
 20
-3.07673675245415
 30
0.0
 10
-2.523578754737292
 20
-2.744235397865961
 30
0.0
 10
-4.818154742770269
 20
-1.372117698932966
 30
0.0
 10
-7.112730730803229
 20
0.0000000000000323
 30
0.0
  0
SPLINE
  5
1A9B
330
1F
100
AcDbEntity
  8
AM_0
100
AcDbSpline
210
0.0
220
0.0
230
1.0
 70
     8
 71
     3
 72
     8
 73
     4
 74
     0
 42
0.0000000001
 43
0.0000000001
 40
4.219358800530717
 40
4.219358800530717
 40
4.219358800530717
 40
4.219358800530717
 40
14.36247867694493
 40
14.36247867694493
 40
14.36247867694493
 40
14.36247867694493
 10
-0.2249999999999659
 20
-2.650843119933477
 30
0.0
 10
-2.172650254134094
 20
-2.119616064597724
 30
0.0
 10
-4.03973012277446
 20
-1.059808032298848
 30
0.0
 10
-5.906809991414825
 20
0.0000000000000323
 30
0.0
  0
SPLINE
  5
1A9C
330
1F
100
AcDbEntity
  8
AM_0
100
AcDbSpline
210
0.0
220
0.0
230
1.0
 70
     8
 71
     3
 72
     8
 73
     4
 74
     0
 42
0.0000000001
 43
0.0000000001
 40
0.0
 40
0.0
 40
0.0
 40
0.0
 40
7.077445848048279
 40
7.077445848048279
 40
7.077445848048279
 40
7.077445848048279
 10
-7.600644041503301
 20
-2.493852048174462
 30
0.0
 10
-10.43162238072261
 20
-2.493852048174464
 30
0.0
 10
-13.09718178109607
 20
-1.222363475200099
 30
0.0
 10
-15.76274118146952
 20
0.0491250977742656
 30
0.0
  0
SPLINE
  5
1A9D
330
1F
100
AcDbEntity
  8
AM_0
100
AcDbSpline
210
0.0
220
0.0
230
1.0
 70
     8
 71
     3
 72
     8
 73
     4
 74
     0
 42
0.0000000001
 43
0.0000000001
 40
0.0
 40
0.0
 40
0.0
 40
0.0
 40
6.645240724750824
 40
6.645240724750824
 40
6.645240724750824
 40
6.645240724750824
 10
-16.65822159339003
 20
-3.001338927471756
 30
0.0
 10
-19.31631788329036
 20
-3.001338927471758
 30
0.0
 10
-20.59376651442744
 20
-1.696272617099765
 30
0.0
 10
-22.26153417870855
 20
-0.19305636506013
 30
0.0
  0
LINE
  5
1AA8
330
1F
100
AcDbEntity
  8
AM_0
100
AcDbLine
 10
-22.22782965510107
 20
3.249999999999987
 30
0.0
 11
-22.93939193540911
 21
3.249999999999987
 31
0.0
  0
LINE
  5
1AA9
330
1F
100
AcDbEntity
  8
AM_0
100
AcDbLine
 10
-25.0
 20
3.99999999999996
 30
0.0
 11
-22.93939193540911
 21
3.249999999999987
 31
0.0
  0
LINE
  5
1AAA
330
1F
100
AcDbEntity
  8
AM_0
100
AcDbLine
 10
-22.93939193540911
 20
3.249999999999987
 30
0.0
 11
-22.9393919354091
 21
-3.250000000000064
 31
0.0
  0
LINE
  5
1AAB
330
1F
100
AcDbEntity
  8
AM_0
100
AcDbLine
 10
-22.9393919354091
 20
-3.250000000000064
 30
0.0
 11
-25.0
 21
-4.000000000000039
 31
0.0
  0
VIEWPORT
  5
110
330
101
100
AcDbEntity
 67
     1
  8
0
100
AcDbViewport
 10
420.5
 20
297.0
 30
0.0
 40
948.9782706766916
 41
628.452
 68
     1
 69
     1
1001
ACAD
1000
MVIEW
1002
{
1070
    16
1010
0.0
1020
0.0
1030
0.0
1010
0.0
1020
0.0
1030
1.0
1040
0.0
1040
628.452
1040
420.5
1040
297.0
1040
50.0
1040
0.0
1040
0.0
1070
     0
1070
   100
1070
     1
1070
     1
1070
     0
1070
     0
1070
     0
1070
     0
1040
0.0
1040
0.0
1040
0.0
1040
10.0
1040
10.0
1040
10.0
1040
10.0
1070
     0
1002
{
1002
}
1002
}
  0
ENDSEC
  0
SECTION
  2
OBJECTS
  0
DICTIONARY
  5
C
330
0
100
AcDbDictionary
  3
ACAD_GROUP
350
D
  3
ACAD_LAYOUT
350
1A
  3
ACAD_MLINESTYLE
350
17
  3
ACAD_PLOTSETTINGS
350
19
  3
ACAD_PLOTSTYLENAME
350
E
  3
ACDBVARIABLEDICTIONARY
350
34
  3
ACMDICTIONARY
350
43
  3
AMG
350
2B
  3
AMGSNAPSETTINGS
350
6E
  3
DWGPROPS
350
1C2D
  3
ACDBHEADERROUNDTRIPXREC
350
1C39
  0
DICTIONARY
  5
74
330
1F
100
AcDbDictionary
280
     1
  3
ACAD_INDEX
360
1C2F
  3
ACAD_LAYOUTSELFREF
360
1C5C
  0
DICTIONARY
  5
1C61
330
101
100
AcDbDictionary
280
     1
  3
ACAD_LAYOUTSELFREF
360
1C62
  0
DICTIONARY
  5
D
102
{ACAD_REACTORS
330
C
102
}
330
C
100
AcDbDictionary
  0
DICTIONARY
  5
1A
102
{ACAD_REACTORS
330
C
102
}
330
C
100
AcDbDictionary
  0
DICTIONARY
  5
17
102
{ACAD_REACTORS
330
C
102
}
330
C
100
AcDbDictionary
  3
STANDARD
350
18
  0
DICTIONARY
  5
19
102
{ACAD_REACTORS
330
C
102
}
330
C
100
AcDbDictionary
  0
ACDBDICTIONARYWDFLT
  5
E
102
{ACAD_REACTORS
330
C
102
}
330
C
100
AcDbDictionary
281
     1
  3
Normal
350
F
100
AcDbDictionaryWithDefault
340
F
  0
DICTIONARY
  5
34
102
{ACAD_REACTORS
330
C
102
}
330
C
100
AcDbDictionary
  3
INDEXCTL
350
35
  3
SORTENTS
350
B5E
  0
DICTIONARY
  5
43
102
{ACAD_REACTORS
330
C
102
}
330
C
100
AcDbDictionary
  3
ACMSTDDICTIONARY
350
260
  0
DICTIONARY
  5
2B
102
{ACAD_REACTORS
330
C
102
}
330
C
100
AcDbDictionary
  3
ACMGSETTINGS
350
2C
  0
DICTIONARY
  5
6E
102
{ACAD_REACTORS
330
C
102
}
330
C
100
AcDbDictionary
  0
XRECORD
  5
1C2D
102
{ACAD_REACTORS
330
C
102
}
330
C
100
AcDbXrecord
  1
DWGPROPS COOKIE
  2

  3

  4

  6

  7

  8

  9

300
AmdtFileType=82
301
=
302
=
303
=
304
=
305
=
306
=
307
=
308
=
309
=
 40
0.0643740972222222
 41
2452836.771637361
 42
2453045.49737066
  1

 90
        1
  0
DICTIONARY
  5
1C39
102
{ACAD_REACTORS
330
C
102
}
330
C
100
AcDbDictionary
  3
TSTACKALIGN
350
1C3A
  3
TSTACKSIZE
350
1C3B
  3
HYPERLINKBASE
350
1C3C
  3
STYLESHEET
350
1C3D
  3
LAYOUTDICT
350
1C3E
  3
PLOTSETDICT
350
1C3F
  3
PLOTSTYLNAMDICT
350
1C40
  3
LWETCUNION
350
1C41
  3
INSUNITS
350
1C42
  3
CEPSNTYPE
350
1C43
  3
FINGERPRINTGUID
350
1C44
  3
VERSIONGUID
350
1C45
  3
PSVPSCALE
350
1C46
  3
DIMSTYLEDATA
350
1C47
  3
PUCSORTHOREF
350
1C48
  3
PUCSORTHOVIEW
350
1C49
  3
PUCSBASE
350
1C4A
  3
PUCSORGTOP
350
1C4B
  3
PUCSORGBOTTOM
350
1C4C
  3
PUCSORGLEFT
350
1C4D
  3
PUCSORGRIGHT
350
1C4E
  3
PUCSORGFRONT
350
1C4F
  3
PUCSORGBACK
350
1C50
  3
UCSORTHOREF
350
1C51
  3
UCSORTHOVIEW
350
1C52
  3
UCSBASE
350
1C53
  3
UCSORGTOP
350
1C54
  3
UCSORGBOTTOM
350
1C55
  3
UCSORGLEFT
350
1C56
  3
UCSORGRIGHT
350
1C57
  3
UCSORGFRONT
350
1C58
  3
UCSORGBACK
350
1C59
  0
DICTIONARY
  5
1C2F
102
{ACAD_REACTORS
330
74
102
}
330
74
100
AcDbDictionary
  3
*A1
350
1C30
  0
XRECORD
  5
1C5C
102
{ACAD_REACTORS
330
74
102
}
330
74
100
AcDbXrecord
340
1F
  0
XRECORD
  5
1C62
102
{ACAD_REACTORS
330
1C61
102
}
330
1C61
100
AcDbXrecord
340
101
  0
MLINESTYLE
  5
18
102
{ACAD_REACTORS
330
17
102
}
330
17
100
AcDbMlineStyle
  2
STANDARD
 70
     0
  3

 62
   256
 51
90.0
 52
90.0
 71
     2
 49
0.5
 62
   256
  6
BYLAYER
 49
-0.5
 62
   256
  6
BYLAYER
  0
ACDBPLACEHOLDER
  5
F
102
{ACAD_REACTORS
330
E
102
}
330
E
100
AcDbPlaceHolder
280
     0
  0
DICTIONARYVAR
  5
35
102
{ACAD_REACTORS
330
34
102
}
330
34
100
DictionaryVariables
280
     0
  1
1
  0
DICTIONARYVAR
  5
B5E
102
{ACAD_REACTORS
330
34
102
}
330
34
100
DictionaryVariables
280
     0
  1
96
  0
DICTIONARY
  5
260
102
{ACAD_REACTORS
330
43
102
}
330
43
100
AcDbDictionary
  0
DICTIONARY
  5
2C
102
{ACAD_REACTORS
330
2B
102
}
330
2B
100
AcDbDictionary
  3
DWGSETTINGS
350
2D
  0
XRECORD
  5
1C3A
102
{ACAD_REACTORS
330
1C39
102
}
330
1C39
100
AcDbXrecord
 90
        1
  0
XRECORD
  5
1C3B
102
{ACAD_REACTORS
330
1C39
102
}
330
1C39
100
AcDbXrecord
 90
       70
  0
XRECORD
  5
1C3C
102
{ACAD_REACTORS
330
1C39
102
}
330
1C39
100
AcDbXrecord
  1

  0
XRECORD
  5
1C3D
102
{ACAD_REACTORS
330
1C39
102
}
330
1C39
100
AcDbXrecord
  1
ASAMI.ctb
  0
XRECORD
  5
1C3E
102
{ACAD_REACTORS
330
1C39
102
}
330
1C39
100
AcDbXrecord
340
1A
  0
XRECORD
  5
1C3F
102
{ACAD_REACTORS
330
1C39
102
}
330
1C39
100
AcDbXrecord
340
19
  0
XRECORD
  5
1C40
102
{ACAD_REACTORS
330
1C39
102
}
330
1C39
100
AcDbXrecord
340
E
  0
XRECORD
  5
1C41
102
{ACAD_REACTORS
330
1C39
102
}
330
1C39
100
AcDbXrecord
 90
    10781
  0
XRECORD
  5
1C42
102
{ACAD_REACTORS
330
1C39
102
}
330
1C39
100
AcDbXrecord
 90
        4
  0
XRECORD
  5
1C43
102
{ACAD_REACTORS
330
1C39
102
}
330
1C39
100
AcDbXrecord
 90
        0
  0
XRECORD
  5
1C44
102
{ACAD_REACTORS
330
1C39
102
}
330
1C39
100
AcDbXrecord
  1
{AFB28963-8C59-40AE-9337-C84526B81ACE}
  0
XRECORD
  5
1C45
102
{ACAD_REACTORS
330
1C39
102
}
330
1C39
100
AcDbXrecord
  1
{30B14D4E-FE9A-4F38-9F20-1038CDD98CC0}
  0
XRECORD
  5
1C46
102
{ACAD_REACTORS
330
1C39
102
}
330
1C39
100
AcDbXrecord
 40
0.0
  0
XRECORD
  5
1C47
102
{ACAD_REACTORS
330
1C39
102
}
330
1C39
100
AcDbXrecord
1000
DSTYLE
1002
{
1070
    79
 70
     2
1070
   341
340
59
1070
   342
340
59
1070
   371
 70
    -1
1070
   372
 70
    -1
1002
}
  0
XRECORD
  5
1C48
102
{ACAD_REACTORS
330
1C39
102
}
330
1C39
100
AcDbXrecord
340
0
  0
XRECORD
  5
1C49
102
{ACAD_REACTORS
330
1C39
102
}
330
1C39
100
AcDbXrecord
 70
     0
  0
XRECORD
  5
1C4A
102
{ACAD_REACTORS
330
1C39
102
}
330
1C39
100
AcDbXrecord
340
0
  0
XRECORD
  5
1C4B
102
{ACAD_REACTORS
330
1C39
102
}
330
1C39
100
AcDbXrecord
 10
0.0
 20
0.0
 30
0.0
  0
XRECORD
  5
1C4C
102
{ACAD_REACTORS
330
1C39
102
}
330
1C39
100
AcDbXrecord
 10
0.0
 20
0.0
 30
0.0
  0
XRECORD
  5
1C4D
102
{ACAD_REACTORS
330
1C39
102
}
330
1C39
100
AcDbXrecord
 10
0.0
 20
0.0
 30
0.0
  0
XRECORD
  5
1C4E
102
{ACAD_REACTORS
330
1C39
102
}
330
1C39
100
AcDbXrecord
 10
0.0
 20
0.0
 30
0.0
  0
XRECORD
  5
1C4F
102
{ACAD_REACTORS
330
1C39
102
}
330
1C39
100
AcDbXrecord
 10
0.0
 20
0.0
 30
0.0
  0
XRECORD
  5
1C50
102
{ACAD_REACTORS
330
1C39
102
}
330
1C39
100
AcDbXrecord
 10
0.0
 20
0.0
 30
0.0
  0
XRECORD
  5
1C51
102
{ACAD_REACTORS
330
1C39
102
}
330
1C39
100
AcDbXrecord
340
0
  0
XRECORD
  5
1C52
102
{ACAD_REACTORS
330
1C39
102
}
330
1C39
100
AcDbXrecord
 70
     0
  0
XRECORD
  5
1C53
102
{ACAD_REACTORS
330
1C39
102
}
330
1C39
100
AcDbXrecord
340
0
  0
XRECORD
  5
1C54
102
{ACAD_REACTORS
330
1C39
102
}
330
1C39
100
AcDbXrecord
 10
0.0
 20
0.0
 30
0.0
  0
XRECORD
  5
1C55
102
{ACAD_REACTORS
330
1C39
102
}
330
1C39
100
AcDbXrecord
 10
0.0
 20
0.0
 30
0.0
  0
XRECORD
  5
1C56
102
{ACAD_REACTORS
330
1C39
102
}
330
1C39
100
AcDbXrecord
 10
0.0
 20
0.0
 30
0.0
  0
XRECORD
  5
1C57
102
{ACAD_REACTORS
330
1C39
102
}
330
1C39
100
AcDbXrecord
 10
0.0
 20
0.0
 30
0.0
  0
XRECORD
  5
1C58
102
{ACAD_REACTORS
330
1C39
102
}
330
1C39
100
AcDbXrecord
 10
0.0
 20
0.0
 30
0.0
  0
XRECORD
  5
1C59
102
{ACAD_REACTORS
330
1C39
102
}
330
1C39
100
AcDbXrecord
 10
0.0
 20
0.0
 30
0.0
  0
LAYER_INDEX
  5
1C30
102
{ACAD_REACTORS
330
1C2F
102
}
330
1C2F
100
AcDbIndex
 40
2453152.462106875
100
AcDbLayerIndex
  8
0
360
1C31
 90
        0
  8
AM_0
360
1C32
 90
       45
  8
AM_11
360
1C33
 90
        3
  8
AM_7
360
1C34
 90
        1
  8
AM_5
360
1C35
 90
        4
  8
Defpoints
360
1C36
 90
        0
  8
AM_6
360
1C37
 90
        1
  0
XRECORD
  5
2D
102
{ACAD_REACTORS
330
2C
102
}
330
2C
100
AcDbXrecord
  1
VERSION
140
15.0
  1
PRODUCT
  2
AutoCAD Mechanical 2000
  0
IDBUFFER
  5
1C31
330
0
100
AcDbIdBuffer
  0
IDBUFFER
  5
1C32
330
0
100
AcDbIdBuffer
330
1A81
330
1A83
330
1A85
330
1A86
330
1A87
330
1A88
330
1A89
330
1A8A
330
1A8D
330
1A8E
330
1A8F
330
1A90
330
1A91
330
1A92
330
1A93
330
1A94
330
1A95
330
1A96
330
1A97
330
1A98
330
1A99
330
1A9A
330
1A9B
330
1A9C
330
1A9D
330
1AA8
330
1AA9
330
1AAA
330
1AAB
330
1767
330
19DA
330
19DB
330
19DD
330
19DF
330
19F8
330
19FB
330
1A1F
330
1A79
330
1A7A
330
1A7B
330
1A7C
330
1A7D
330
1A7E
330
1A7F
330
1A80
  0
IDBUFFER
  5
1C33
330
0
100
AcDbIdBuffer
330
1A84
330
1A8B
330
1A8C
  0
IDBUFFER
  5
1C34
330
0
100
AcDbIdBuffer
330
1759
  0
IDBUFFER
  5
1C35
330
0
100
AcDbIdBuffer
330
105F
330
10EF
330
19E0
330
1A6C
  0
IDBUFFER
  5
1C36
330
0
100
AcDbIdBuffer
  0
IDBUFFER
  5
1C37
330
0
100
AcDbIdBuffer
330
E5A
  0
ENDSEC
  0
EOF
