  0
SECTION
  2
HEADER
  9
$ACADVER
  1
AC1014
  9
$ACADMAINTVER
 70
     9
  9
$DWGCODEPAGE
  3
ANSI_932
  9
$INSBASE
 10
0.0
 20
0.0
 30
0.0
  9
$EXTMIN
 10
-72.13823125971979
 20
-28.2500009999989
 30
-0.00000001
  9
$EXTMAX
 10
12.05776903085495
 20
4.545437306846762
 30
0.00000001
  9
$LIMMIN
 10
-74.73550943785733
 20
-33.67560242596081
  9
$LIMMAX
 10
14.28258824945504
 20
14.08448824525757
  9
$ORTHOMODE
 70
     0
  9
$REGENMODE
 70
     1
  9
$FILLMODE
 70
     1
  9
$QTEXTMODE
 70
     0
  9
$MIRRTEXT
 70
     0
  9
$DRAGMODE
 70
     2
  9
$LTSCALE
 40
1.0
  9
$OSMODE
 70
    55
  9
$ATTMODE
 70
     1
  9
$TEXTSIZE
 40
2.5
  9
$TRACEWID
 40
1.0
  9
$TEXTSTYLE
  7
STANDARD
  9
$CLAYER
  8
AM_0
  9
$CELTYPE
  6
BYLAYER
  9
$CECOLOR
 62
   256
  9
$CELTSCALE
 40
1.0
  9
$DELOBJ
 70
     1
  9
$DISPSILH
 70
     0
  9
$DIMSCALE
 40
0.5
  9
$DIMASZ
 40
2.5
  9
$DIMEXO
 40
1.0
  9
$DIMDLI
 40
12.0
  9
$DIMRND
 40
0.0
  9
$DIMDLE
 40
0.0
  9
$DIMEXE
 40
1.0
  9
$DIMTP
 40
0.1
  9
$DIMTM
 40
0.1
  9
$DIMTXT
 40
3.2
  9
$DIMCEN
 40
0.0
  9
$DIMTSZ
 40
0.0
  9
$DIMTOL
 70
     0
  9
$DIMLIM
 70
     0
  9
$DIMTIH
 70
     0
  9
$DIMTOH
 70
     0
  9
$DIMSE1
 70
     0
  9
$DIMSE2
 70
     0
  9
$DIMTAD
 70
     3
  9
$DIMZIN
 70
     8
  9
$DIMBLK
  1
OPEN30
  9
$DIMASO
 70
     1
  9
$DIMSHO
 70
     1
  9
$DIMPOST
  1

  9
$DIMAPOST
  1
"
  9
$DIMALT
 70
     0
  9
$DIMALTD
 70
     2
  9
$DIMALTF
 40
0.0393701
  9
$DIMLFAC
 40
1.0
  9
$DIMTOFL
 70
     1
  9
$DIMTVP
 40
0.0
  9
$DIMTIX
 70
     0
  9
$DIMSOXD
 70
     0
  9
$DIMSAH
 70
     0
  9
$DIMBLK1
  1

  9
$DIMBLK2
  1

  9
$DIMSTYLE
  2
AM_JIS
  9
$DIMCLRD
 70
   256
  9
$DIMCLRE
 70
   256
  9
$DIMCLRT
 70
     2
  9
$DIMTFAC
 40
0.71
  9
$DIMGAP
 40
1.5
  9
$DIMJUST
 70
     0
  9
$DIMSD1
 70
     0
  9
$DIMSD2
 70
     0
  9
$DIMTOLJ
 70
     0
  9
$DIMTZIN
 70
     0
  9
$DIMALTZ
 70
     0
  9
$DIMALTTZ
 70
     0
  9
$DIMFIT
 70
     3
  9
$DIMUPT
 70
     0
  9
$DIMUNIT
 70
     2
  9
$DIMDEC
 70
     3
  9
$DIMTDEC
 70
     3
  9
$DIMALTU
 70
     2
  9
$DIMALTTD
 70
     2
  9
$DIMTXSTY
  7
ASAMI
  9
$DIMAUNIT
 70
     0
  9
$LUNITS
 70
     2
  9
$LUPREC
 70
     2
  9
$SKETCHINC
 40
1.0
  9
$FILLETRAD
 40
2.5
  9
$AUNITS
 70
     0
  9
$AUPREC
 70
     0
  9
$MENU
  1
.
  9
$ELEVATION
 40
0.0
  9
$PELEVATION
 40
0.0
  9
$THICKNESS
 40
0.0
  9
$LIMCHECK
 70
     0
  9
$BLIPMODE
 70
     0
  9
$CHAMFERA
 40
0.75
  9
$CHAMFERB
 40
0.75
  9
$CHAMFERC
 40
20.0
  9
$CHAMFERD
 40
0.0
  9
$SKPOLY
 70
     0
  9
$TDCREATE
 40
2452836.771637361
  9
$TDUPDATE
 40
2453152.462440185
  9
$TDINDWG
 40
0.0621301736
  9
$TDUSRTIMER
 40
0.0621301736
  9
$USRTIMER
 70
     1
  9
$ANGBASE
 50
0.0
  9
$ANGDIR
 70
     0
  9
$PDMODE
 70
     0
  9
$PDSIZE
 40
0.0
  9
$PLINEWID
 40
0.0
  9
$COORDS
 70
     1
  9
$SPLFRAME
 70
     0
  9
$SPLINETYPE
 70
     6
  9
$SPLINESEGS
 70
     8
  9
$ATTDIA
 70
     1
  9
$ATTREQ
 70
     1
  9
$HANDLING
 70
 12289
  9
$HANDSEED
  5
1B89
  9
$SURFTAB1
 70
     6
  9
$SURFTAB2
 70
     6
  9
$SURFTYPE
 70
     6
  9
$SURFU
 70
     6
  9
$SURFV
 70
     6
  9
$UCSNAME
  2

  9
$UCSORG
 10
0.0
 20
0.0
 30
0.0
  9
$UCSXDIR
 10
1.0
 20
0.0
 30
0.0
  9
$UCSYDIR
 10
0.0
 20
1.0
 30
0.0
  9
$PUCSNAME
  2

  9
$PUCSORG
 10
0.0
 20
0.0
 30
0.0
  9
$PUCSXDIR
 10
1.0
 20
0.0
 30
0.0
  9
$PUCSYDIR
 10
0.0
 20
1.0
 30
0.0
  9
$USERI1
 70
     0
  9
$USERI2
 70
     0
  9
$USERI3
 70
     0
  9
$USERI4
 70
     0
  9
$USERI5
 70
     0
  9
$USERR1
 40
0.0
  9
$USERR2
 40
0.0
  9
$USERR3
 40
0.0
  9
$USERR4
 40
0.0
  9
$USERR5
 40
0.0
  9
$WORLDVIEW
 70
     1
  9
$SHADEDGE
 70
     3
  9
$SHADEDIF
 70
    70
  9
$TILEMODE
 70
     1
  9
$MAXACTVP
 70
    64
  9
$PINSBASE
 10
0.0
 20
0.0
 30
0.0
  9
$PLIMCHECK
 70
     0
  9
$PEXTMIN
 10
1.000000000000000E+20
 20
1.000000000000000E+20
 30
1.000000000000000E+20
  9
$PEXTMAX
 10
-1.000000000000000E+20
 20
-1.000000000000000E+20
 30
-1.000000000000000E+20
  9
$PLIMMIN
 10
0.0
 20
0.0
  9
$PLIMMAX
 10
841.0
 20
594.0
  9
$UNITMODE
 70
     0
  9
$VISRETAIN
 70
     1
  9
$PLINEGEN
 70
     0
  9
$PSLTSCALE
 70
     0
  9
$TREEDEPTH
 70
  3020
  9
$PICKSTYLE
 70
     0
  9
$CMLSTYLE
  2
STANDARD
  9
$CMLJUST
 70
     0
  9
$CMLSCALE
 40
20.0
  9
$PROXYGRAPHICS
 70
     1
  9
$MEASUREMENT
 70
     1
  0
ENDSEC
  0
SECTION
  2
CLASSES
  0
CLASS
  1
ACDBDICTIONARYWDFLT
  2
AcDbDictionaryWithDefault
  3
AutoCAD 2000
 90
        0
280
     0
281
     0
  0
CLASS
  1
ACDBPLACEHOLDER
  2
AcDbPlaceHolder
  3
AutoCAD 2000
 90
        0
280
     0
281
     0
  0
CLASS
  1
LAYOUT
  2
AcDbLayout
  3
AutoCAD 2000
 90
        0
280
     0
281
     0
  0
CLASS
  1
AMGSETTINGSOBJ
  2
AmgSettingsObj
  3
"AcadM|Product Description: AutoCAD Mechanical 2000|Company: Autodesk"
 90
        0
280
     0
281
     0
  0
CLASS
  1
ACME_DOCUMENT
  2
AcMeDbDoc
  3
AcMeServices
 90
        0
280
     0
281
     0
  0
CLASS
  1
ACMESCOPE
  2
AcMeScope
  3
AcMeServices
 90
        0
280
     0
281
     0
  0
CLASS
  1
ACMECOMMANDHISTORY
  2
AcMeCommandHistory
  3
AcMeServices
 90
        0
280
     0
281
     0
  0
CLASS
  1
DICTIONARYVAR
  2
AcDbDictionaryVar
  3
AutoCAD 2000
 90
        0
280
     0
281
     0
  0
CLASS
  1
ACIMSYSVARMAN
  2
AcImSysVarManager
  3
AcMeServices
 90
        0
280
     0
281
     0
  0
CLASS
  1
ACIMREALSYSVAR
  2
AcImRealSysVar
  3
AcMeServices
 90
        0
280
     0
281
     0
  0
CLASS
  1
ACIMINTSYSVAR
  2
AcImIntSysVar
  3
AcMeServices
 90
        0
280
     0
281
     0
  0
CLASS
  1
ACMEDRAWINGMAN
  2
AcMeDrawingMan
  3
AcMeServices
 90
        0
280
     0
281
     0
  0
CLASS
  1
ACMEVIEW
  2
AcMeView
  3
AcMeServices
 90
        0
280
     0
281
     0
  0
CLASS
  1
ACDBENTITYCACHE
  2
AcMeEntityCache
  3
AcMeServices
 90
        0
280
     0
281
     0
  0
CLASS
  1
GSMANAGER
  2
AcMeGSManager
  3
AcMeServices
 90
        0
280
     0
281
     0
  0
CLASS
  1
AmdtInternalReactor
  2
AmdtInternalReactor
  3
AcMeServices
 90
        0
280
     0
281
     0
  0
CLASS
  1
ACMESTATEMGR
  2
AcMeStateMgr
  3
AcMeServices
 90
        0
280
     0
281
     0
  0
CLASS
  1
ACME_DATABASE
  2
AcMeDbDatabase
  3
AcMeServices
 90
        0
280
     0
281
     0
  0
CLASS
  1
ACRFINSADJUSTERMGR
  2
AcRfInsAdjusterMgr
  3
AcMeServices
 90
        0
280
     0
281
     0
  0
CLASS
  1
ACMDATADICTIONARY
  2
AcmDataDictionary
  3
"AcmSymBB|Product Description: AutoCAD Mechanical 2000|Company: Autodesk"
 90
        0
280
     0
281
     0
  0
CLASS
  1
ACMDATAENTRYBLOCK
  2
AcmDataEntryBlock
  3
"AcmSymBB|Product Description: AutoCAD Mechanical 2000|Company: Autodesk"
 90
        0
280
     0
281
     0
  0
CLASS
  1
AMGOBJPROPCFG
  2
AmgObjPropCfg
  3
"AmgLay|Product Description: AutoCAD Mechanical 2000|Company: Autodesk"
 90
        1
280
     0
281
     0
  0
CLASS
  1
ACAMGFILTERDAT
  2
AcAmgFilterDat
  3
"AcadM|Product Description: AutoCAD Mechanical 2000|Company: Autodesk"
 90
        0
280
     0
281
     0
  0
CLASS
  1
LAYER_INDEX
  2
AcDbLayerIndex
  3
AutoCAD 2000
 90
        0
280
     0
281
     0
  0
CLASS
  1
IDBUFFER
  2
AcDbIdBuffer
  3
AutoCAD 2000
 90
        0
280
     0
281
     0
  0
CLASS
  1
ACIMSTRSYSVAR
  2
AcImStrSysVar
  3
AcMeServices
 90
        0
280
     0
281
     0
  0
CLASS
  1
ACMSTANDARDJIS
  2
AcmStandardJIS
  3
"AcmSymBB|Product Description: AutoCAD Mechanical 2000|Company: Autodesk"
 90
        0
280
     0
281
     0
  0
CLASS
  1
ACMSURFSTANDARDJIS
  2
AcmSurfTextStdJIS
  3
"AcmSymBB|Product Description: AutoCAD Mechanical 2000|Company: Autodesk"
 90
        0
280
     0
281
     0
  0
CLASS
  1
ACMFCFSTANDARDJIS
  2
AcmFCFStdJIS
  3
"AcmSymBB|Product Description: AutoCAD Mechanical 2000|Company: Autodesk"
 90
        0
280
     0
281
     0
  0
CLASS
  1
ACMWELDSTANDARDJIS
  2
AcmWeldingStdJIS
  3
"AcmSymBB|Product Description: AutoCAD Mechanical 2000|Company: Autodesk"
 90
        0
280
     0
281
     0
  0
CLASS
  1
ACMIDSTANDARDJIS
  2
AcmIdStdJIS
  3
"AcmSymBB|Product Description: AutoCAD Mechanical 2000|Company: Autodesk"
 90
        0
280
     0
281
     0
  0
CLASS
  1
ACMDATUMSTANDARDJIS
  2
AcmDatumStdJIS
  3
"AcmSymBB|Product Description: AutoCAD Mechanical 2000|Company: Autodesk"
 90
        0
280
     0
281
     0
  0
CLASS
  1
ACMBOMSTANDARDJIS
  2
AcmBOMStdJIS
  3
"AcmSymBB|Product Description: AutoCAD Mechanical 2000|Company: Autodesk"
 90
        0
280
     0
281
     0
  0
CLASS
  1
ACMSTANDARDANSI
  2
AcmStandardANSI
  3
"AcmSymBB|Product Description: AutoCAD Mechanical 2000|Company: Autodesk"
 90
        0
280
     0
281
     0
  0
CLASS
  1
ACMSURFSTANDARDANSI
  2
AcmSurfTextStdANSI
  3
"AcmSymBB|Product Description: AutoCAD Mechanical 2000|Company: Autodesk"
 90
        0
280
     0
281
     0
  0
CLASS
  1
ACMFCFSTANDARDANSI
  2
AcmFCFStdANSI
  3
"AcmSymBB|Product Description: AutoCAD Mechanical 2000|Company: Autodesk"
 90
        0
280
     0
281
     0
  0
CLASS
  1
ACMWELDSTANDARDANSI
  2
AcmWeldingStdANSI
  3
"AcmSymBB|Product Description: AutoCAD Mechanical 2000|Company: Autodesk"
 90
        0
280
     0
281
     0
  0
CLASS
  1
ACMIDSTANDARDANSI
  2
AcmIdStdANSI
  3
"AcmSymBB|Product Description: AutoCAD Mechanical 2000|Company: Autodesk"
 90
        0
280
     0
281
     0
  0
CLASS
  1
ACMDATUMSTANDARDANSI
  2
AcmDatumStdANSI
  3
"AcmSymBB|Product Description: AutoCAD Mechanical 2000|Company: Autodesk"
 90
        0
280
     0
281
     0
  0
CLASS
  1
ACMBOMSTANDARDANSI
  2
AcmBOMStdANSI
  3
"AcmSymBB|Product Description: AutoCAD Mechanical 2000|Company: Autodesk"
 90
        0
280
     0
281
     0
  0
CLASS
  1
ACMSTANDARDBSI
  2
AcmStandardBSI
  3
"AcmSymBB|Product Description: AutoCAD Mechanical 2000|Company: Autodesk"
 90
        0
280
     0
281
     0
  0
CLASS
  1
ACMSURFSTANDARDBSI
  2
AcmSurfTextStdBSI
  3
"AcmSymBB|Product Description: AutoCAD Mechanical 2000|Company: Autodesk"
 90
        0
280
     0
281
     0
  0
CLASS
  1
ACMFCFSTANDARDBSI
  2
AcmFCFStdBSI
  3
"AcmSymBB|Product Description: AutoCAD Mechanical 2000|Company: Autodesk"
 90
        0
280
     0
281
     0
  0
CLASS
  1
ACMWELDSTANDARDBSI
  2
AcmWeldingStdBSI
  3
"AcmSymBB|Product Description: AutoCAD Mechanical 2000|Company: Autodesk"
 90
        0
280
     0
281
     0
  0
CLASS
  1
ACMIDSTANDARDBSI
  2
AcmIdStdBSI
  3
"AcmSymBB|Product Description: AutoCAD Mechanical 2000|Company: Autodesk"
 90
        0
280
     0
281
     0
  0
CLASS
  1
ACMDATUMSTANDARDBSI
  2
AcmDatumStdBSI
  3
"AcmSymBB|Product Description: AutoCAD Mechanical 2000|Company: Autodesk"
 90
        0
280
     0
281
     0
  0
CLASS
  1
ACMBOMSTANDARDBSI
  2
AcmBOMStdBSI
  3
"AcmSymBB|Product Description: AutoCAD Mechanical 2000|Company: Autodesk"
 90
        0
280
     0
281
     0
  0
CLASS
  1
LONG_TRANSACTION
  2
AcDbLongTransaction
  3
AutoCAD 2000
 90
        0
280
     0
281
     0
  0
CLASS
  1
LWPOLYLINE
  2
AcDbPolyline
  3
AutoCAD 2000
 90
        0
280
     0
281
     1
  0
CLASS
  1
HATCH
  2
AcDbHatch
  3
AutoCAD 2000
 90
        0
280
     0
281
     1
  0
CLASS
  1
XRECORD
  2
AcDbXrecord
  3
AutoCAD 2000
 90
        0
280
     0
281
     0
  0
ENDSEC
  0
SECTION
  2
TABLES
  0
TABLE
  2
VPORT
  5
8
330
0
100
AcDbSymbolTable
 70
     3
  0
VPORT
  5
1B5E
330
8
100
AcDbSymbolTableRecord
100
AcDbViewportTableRecord
  2
*ACTIVE
 70
     0
 10
0.0
 20
0.0
 11
1.0
 21
1.0
 12
-22.60403948667715
 22
-4.761154546030844
 13
0.0
 23
0.0
 14
2.5
 24
2.5
 15
10.0
 25
10.0
 16
0.0
 26
0.0
 36
1.0
 17
0.0
 27
0.0
 37
0.0
 40
74.01531352179657
 41
1.56570841889117
 42
50.0
 43
0.0
 44
0.0
 50
0.0
 51
0.0
 71
     0
 72
   100
 73
     1
 74
     3
 75
     0
 76
     0
 77
     0
 78
     0
  0
ENDTAB
  0
TABLE
  2
LTYPE
  5
5
330
0
100
AcDbSymbolTable
 70
    10
  0
LTYPE
  5
14
330
5
100
AcDbSymbolTableRecord
100
AcDbLinetypeTableRecord
  2
BYBLOCK
 70
     0
  3

 72
    65
 73
     0
 40
0.0
  0
LTYPE
  5
15
330
5
100
AcDbSymbolTableRecord
100
AcDbLinetypeTableRecord
  2
BYLAYER
 70
     0
  3

 72
    65
 73
     0
 40
0.0
  0
LTYPE
  5
16
330
5
100
AcDbSymbolTableRecord
100
AcDbLinetypeTableRecord
  2
CONTINUOUS
 70
     0
  3
Solid line
 72
    65
 73
     0
 40
0.0
  0
LTYPE
  5
4B
330
5
100
AcDbSymbolTableRecord
100
AcDbLinetypeTableRecord
  2
AM_ISO02W050
 70
     0
  3
__ __ __ __ __ __ __ __ __ __ __ __ __ __ __
 72
    65
 73
     2
 40
7.5
 49
6.0
 74
     0
 49
-1.5
 74
     0
  0
LTYPE
  5
4C
330
5
100
AcDbSymbolTableRecord
100
AcDbLinetypeTableRecord
  2
AM_ISO08W050
 70
     0
  3
____ . ____ . ____ . ____ . ____ . ____ . ____
 72
    65
 73
     4
 40
18.0
 49
12.0
 74
     0
 49
-1.5
 74
     0
 49
3.0
 74
     0
 49
-1.5
 74
     0
  0
LTYPE
  5
4D
330
5
100
AcDbSymbolTableRecord
100
AcDbLinetypeTableRecord
  2
AM_ISO09W050
 70
     0
  3
_____ . . _____ . . _____ . . ____ .. ____
 72
    65
 73
     6
 40
22.5
 49
12.0
 74
     0
 49
-1.5
 74
     0
 49
3.0
 74
     0
 49
-1.5
 74
     0
 49
3.0
 74
     0
 49
-1.5
 74
     0
  0
LTYPE
  5
4E
330
5
100
AcDbSymbolTableRecord
100
AcDbLinetypeTableRecord
  2
AMCONSTR
 70
     0
  3
_______________________
 72
    65
 73
     2
 40
9999.0
 49
9999.0
 74
     0
 49
0.0
 74
     0
  0
LTYPE
  5
4F
330
5
100
AcDbSymbolTableRecord
100
AcDbLinetypeTableRecord
  2
AM_ISO02W050X2
 70
     0
  3
 _ _ _ _ _ _ _ _ _ _ _ _
 72
    65
 73
     2
 40
3.75
 49
3.0
 74
     0
 49
-0.75
 74
     0
  0
LTYPE
  5
50
330
5
100
AcDbSymbolTableRecord
100
AcDbLinetypeTableRecord
  2
AM_ISO08W050X2
 70
     0
  3
__ . __ . __ . __ . __ . __
 72
    65
 73
     4
 40
9.0
 49
6.0
 74
     0
 49
-0.75
 74
     0
 49
1.5
 74
     0
 49
-0.75
 74
     0
  0
LTYPE
  5
53
330
5
100
AcDbSymbolTableRecord
100
AcDbLinetypeTableRecord
  2
AMZIGZAG
 70
     0
  3
/\/-/\/-/\/-/\/-/\/-/\/
 72
    65
 73
     2
 40
11.00009999999999
 49
0.0001
 74
     4
 75
   135
340
52
 46
0.04
 50
0.0
 44
0.0
 45
0.0
 49
-11.0
 74
     0
  0
LTYPE
  5
166
330
5
100
AcDbSymbolTableRecord
100
AcDbLinetypeTableRecord
  2
ACJISTGL
 70
     0
  3
_ _ _ _ _
 72
    65
 73
     2
 40
3.0
 49
2.0
 74
     0
 49
-1.0
 74
     0
  0
LTYPE
  5
26A
330
5
100
AcDbSymbolTableRecord
100
AcDbLinetypeTableRecord
  2
ACJISTGB
 70
     0
  3
__ . . __ . .
 72
    65
 73
     6
 40
9.0
 49
4.0
 74
     0
 49
-1.0
 74
     0
 49
1.0
 74
     0
 49
-1.0
 74
     0
 49
1.0
 74
     0
 49
-1.0
 74
     0
  0
ENDTAB
  0
TABLE
  2
LAYER
  5
2
330
0
100
AcDbSymbolTable
 70
     7
  0
LAYER
  5
10
330
2
100
AcDbSymbolTableRecord
100
AcDbLayerTableRecord
  2
0
 70
     0
 62
     7
  6
CONTINUOUS
  0
LAYER
  5
3F9
330
2
100
AcDbSymbolTableRecord
100
AcDbLayerTableRecord
  2
AM_0
 70
     0
 62
     7
  6
CONTINUOUS
  0
LAYER
  5
BD4
330
2
100
AcDbSymbolTableRecord
100
AcDbLayerTableRecord
  2
AM_11
 70
     0
 62
     3
  6
AM_ISO09W050
  0
LAYER
  5
BD5
330
2
100
AcDbSymbolTableRecord
100
AcDbLayerTableRecord
  2
AM_7
 70
     0
 62
     4
  6
AM_ISO08W050
  0
LAYER
  5
BD6
330
2
100
AcDbSymbolTableRecord
100
AcDbLayerTableRecord
  2
AM_5
 70
     0
 62
     3
  6
CONTINUOUS
  0
LAYER
  5
BD7
330
2
100
AcDbSymbolTableRecord
100
AcDbLayerTableRecord
  2
DEFPOINTS
 70
     0
 62
     7
  6
CONTINUOUS
  0
LAYER
  5
E59
330
2
100
AcDbSymbolTableRecord
100
AcDbLayerTableRecord
  2
AM_6
 70
     0
 62
     2
  6
CONTINUOUS
  0
ENDTAB
  0
TABLE
  2
STYLE
  5
3
330
0
100
AcDbSymbolTable
 70
     5
  0
STYLE
  5
11
330
3
100
AcDbSymbolTableRecord
100
AcDbTextStyleTableRecord
  2
STANDARD
 70
     0
 40
0.0
 41
1.0
 50
0.0
 71
     0
 42
2.5
  3
simplex.shx
  4
EXTFONT.SHX
  0
STYLE
  5
52
330
3
100
AcDbSymbolTableRecord
100
AcDbTextStyleTableRecord
  2

 70
     1
 40
0.0
 41
1.0
 50
0.0
 71
     0
 42
2.5
  3
ltypeshp.shx
  4

  0
STYLE
  5
6B
330
3
100
AcDbSymbolTableRecord
100
AcDbTextStyleTableRecord
  2
ASAMI
 70
     0
 40
0.0
 41
1.0
 50
0.0
 71
     0
 42
2.5
  3
simplex.shx
  4
EXTFONT.SHX
  0
STYLE
  5
262
330
3
100
AcDbSymbolTableRecord
100
AcDbTextStyleTableRecord
  2
ACJISTS
 70
     0
 40
1.0
 41
1.0
 50
0.0
 71
     0
 42
2.5
  3
simplex.shx
  4
bigfont.shx
  0
STYLE
  5
269
330
3
100
AcDbSymbolTableRecord
100
AcDbTextStyleTableRecord
  2
ACJISGDT
 70
     0
 40
0.0
 41
1.0
 50
0.0
 71
     0
 42
2.5
  3
amgdtans.shx
  4

  0
ENDTAB
  0
TABLE
  2
VIEW
  5
6
330
0
100
AcDbSymbolTable
 70
     0
  0
ENDTAB
  0
TABLE
  2
UCS
  5
7
330
0
100
AcDbSymbolTable
 70
     0
  0
ENDTAB
  0
TABLE
  2
APPID
  5
9
330
0
100
AcDbSymbolTable
 70
    12
  0
APPID
  5
12
330
9
100
AcDbSymbolTableRecord
100
AcDbRegAppTableRecord
  2
ACAD
 70
     0
  0
APPID
  5
30
330
9
100
AcDbSymbolTableRecord
100
AcDbRegAppTableRecord
  2
MCAD_NO_VIS
 70
     0
  0
APPID
  5
31
330
9
100
AcDbSymbolTableRecord
100
AcDbRegAppTableRecord
  2
ACAD_TEMP_GRAPHIC
 70
     0
  0
APPID
  5
2C2
330
9
100
AcDbSymbolTableRecord
100
AcDbRegAppTableRecord
  2
GENIUS_GENDTOL_13
 70
     0
  0
APPID
  5
339
330
9
100
AcDbSymbolTableRecord
100
AcDbRegAppTableRecord
  2
GENIUS_GENODEF_13
 70
     0
  0
APPID
  5
33A
330
9
100
AcDbSymbolTableRecord
100
AcDbRegAppTableRecord
  2
GENIUS_GENOBJ-N-RSBK_13
 70
     0
  0
APPID
  5
33B
330
9
100
AcDbSymbolTableRecord
100
AcDbRegAppTableRecord
  2
GENIUS_GENOBJ-N-LIB_13
 70
     0
  0
APPID
  5
33C
330
9
100
AcDbSymbolTableRecord
100
AcDbRegAppTableRecord
  2
GENIUS_GENSCALE_13
 70
     0
  0
APPID
  5
378
330
9
100
AcDbSymbolTableRecord
100
AcDbRegAppTableRecord
  2
GENIUS_GENDIMSH_14
 70
     0
  0
APPID
  5
BD8
330
9
100
AcDbSymbolTableRecord
100
AcDbRegAppTableRecord
  2
GENIUS_GENOBJ-N-CEN_13
 70
     0
  0
APPID
  5
BD9
330
9
100
AcDbSymbolTableRecord
100
AcDbRegAppTableRecord
  2
GENIUS_GENFIL_13
 70
     0
  0
APPID
  5
BDA
330
9
100
AcDbSymbolTableRecord
100
AcDbRegAppTableRecord
  2
GENIUS_GENOBJ-N-CHA_13
 70
     0
  0
ENDTAB
  0
TABLE
  2
DIMSTYLE
  5
A
330
0
100
AcDbSymbolTable
 70
     8
  0
DIMSTYLE
105
58
102
{ACAD_REACTORS
330
105F
330
10EF
330
17DE
330
1315
102
}
330
A
100
AcDbSymbolTableRecord
100
AcDbDimStyleTableRecord
  2
AM_JIS
 70
     0
  3

  4
"
  5
OPEN30
  6

  7

 40
0.5
 41
2.5
 42
1.0
 43
12.0
 44
1.0
 45
0.0
 46
0.0
 47
0.1
 48
0.1
140
3.2
141
0.0
142
0.0
143
0.0393701
144
1.0
145
0.0
146
0.71
147
1.5
 71
     0
 72
     0
 73
     0
 74
     0
 75
     0
 76
     0
 77
     3
 78
     8
170
     0
171
     2
172
     1
173
     0
174
     0
175
     0
176
   256
177
   256
178
     2
270
     2
271
     3
272
     3
273
     2
274
     2
340
6B
275
     0
280
     0
281
     0
282
     0
283
     0
284
     0
285
     0
286
     0
287
     3
288
     0
  0
DIMSTYLE
105
5F
330
A
100
AcDbSymbolTableRecord
100
AcDbDimStyleTableRecord
  2
AM_JIS$3
 70
     0
  3

  4
"
  5
OPEN30
  6

  7

 40
0.5
 41
2.5
 42
1.0
 43
10.0
 44
1.0
 45
0.0
 46
0.0
 47
0.1
 48
0.1
140
3.2
141
0.0
142
0.0
143
0.0393701
144
1.0
145
0.0
146
0.71
147
1.5
 71
     0
 72
     0
 73
     0
 74
     1
 75
     0
 76
     0
 77
     3
 78
     8
170
     0
171
     2
172
     0
173
     0
174
     0
175
     0
176
   256
177
   256
178
     2
270
     2
271
     2
272
     3
273
     2
274
     2
340
6B
275
     0
280
     0
281
     0
282
     0
283
     0
284
     0
285
     0
286
     0
287
     0
288
     1
  0
DIMSTYLE
105
60
330
A
100
AcDbSymbolTableRecord
100
AcDbDimStyleTableRecord
  2
AM_JIS$4
 70
     0
  3

  4
"
  5
OPEN30
  6

  7

 40
0.5
 41
2.5
 42
1.0
 43
10.0
 44
1.0
 45
0.0
 46
0.0
 47
0.1
 48
0.1
140
3.2
141
0.0
142
0.0
143
0.0393701
144
1.0
145
0.0
146
0.71
147
1.5
 71
     0
 72
     0
 73
     0
 74
     1
 75
     0
 76
     0
 77
     3
 78
     8
170
     0
171
     2
172
     0
173
     0
174
     0
175
     0
176
   256
177
   256
178
     2
270
     2
271
     2
272
     3
273
     2
274
     2
340
6B
275
     0
280
     0
281
     0
282
     0
283
     0
284
     0
285
     0
286
     0
287
     0
288
     1
  0
DIMSTYLE
105
61
330
A
100
AcDbSymbolTableRecord
100
AcDbDimStyleTableRecord
  2
AM_JIS$6
 70
     0
  3

  4
"
  5
OPEN30
  6

  7

 40
0.5
 41
2.5
 42
1.0
 43
10.0
 44
1.0
 45
0.0
 46
0.0
 47
0.1
 48
0.1
140
3.2
141
0.0
142
0.0
143
0.0393701
144
1.0
145
0.0
146
0.71
147
1.5
 71
     0
 72
     0
 73
     0
 74
     0
 75
     0
 76
     0
 77
     0
 78
     8
170
     0
171
     2
172
     1
173
     0
174
     0
175
     0
176
   256
177
   256
178
     2
270
     2
271
     2
272
     2
273
     2
274
     2
340
6B
275
     0
280
     0
281
     0
282
     0
283
     0
284
     0
285
     0
286
     0
287
     3
288
     0
  0
DIMSTYLE
105
62
330
A
100
AcDbSymbolTableRecord
100
AcDbDimStyleTableRecord
  2
AM_JIS$7
 70
     0
  3

  4
"
  5
OPEN30
  6

  7

 40
0.5
 41
2.5
 42
1.0
 43
10.0
 44
1.0
 45
0.0
 46
0.0
 47
0.1
 48
0.1
140
3.2
141
0.0
142
0.0
143
0.0393701
144
1.0
145
0.0
146
0.71
147
1.5
 71
     0
 72
     0
 73
     0
 74
     0
 75
     0
 76
     0
 77
     3
 78
     8
170
     0
171
     2
172
     1
173
     0
174
     0
175
     0
176
   256
177
   256
178
     2
270
     2
271
     2
272
     3
273
     2
274
     2
340
6B
275
     0
280
     0
281
     0
282
     0
283
     0
284
     0
285
     0
286
     0
287
     3
288
     0
  0
DIMSTYLE
105
63
330
A
100
AcDbSymbolTableRecord
100
AcDbDimStyleTableRecord
  2
AM_JIS$SF
 70
     0
  3

  4
"
  5
OPEN30
  6

  7

 40
0.5
 41
2.5
 42
1.0
 43
10.0
 44
1.0
 45
0.0
 46
0.0
 47
0.1
 48
0.1
140
3.2
141
0.0
142
0.0
143
0.0393701
144
1.0
145
0.0
146
0.71
147
1.5
 71
     0
 72
     0
 73
     0
 74
     0
 75
     1
 76
     1
 77
     3
 78
     8
170
     0
171
     2
172
     1
173
     0
174
     0
175
     0
176
   256
177
   256
178
     2
270
     2
271
     2
272
     2
273
     2
274
     2
340
6B
275
     0
280
     0
281
     0
282
     0
283
     0
284
     0
285
     0
286
     0
287
     3
288
     0
  0
DIMSTYLE
105
68
330
A
100
AcDbSymbolTableRecord
100
AcDbDimStyleTableRecord
  2
AM_JIS$SH
 70
     0
  3

  4
"
  5

  6
GENAXEH
  7
OPEN30
 40
0.5
 41
2.5
 42
1.0
 43
10.0
 44
1.0
 45
0.0
 46
0.0
 47
0.1
 48
0.1
140
3.2
141
0.0
142
0.0
143
0.0393701
144
2.0
145
0.0
146
0.71
147
1.5
 71
     0
 72
     0
 73
     0
 74
     0
 75
     1
 76
     1
 77
     3
 78
     8
170
     0
171
     2
172
     1
173
     1
174
     0
175
     0
176
   256
177
   256
178
     2
270
     2
271
     2
272
     2
273
     2
274
     2
340
6B
275
     0
280
     0
281
     0
282
     0
283
     0
284
     0
285
     0
286
     0
287
     3
288
     0
  0
DIMSTYLE
105
B34
330
A
100
AcDbSymbolTableRecord
100
AcDbDimStyleTableRecord
  2
AM_JIS$2
 70
     0
  3

  4
"
  5
OPEN30
  6

  7

 40
0.5
 41
2.5
 42
1.0
 43
12.0
 44
1.0
 45
0.0
 46
0.0
 47
0.1
 48
0.1
140
3.2
141
0.0
142
0.0
143
0.0393701
144
1.0
145
0.0
146
0.71
147
1.5
 71
     0
 72
     0
 73
     0
 74
     0
 75
     0
 76
     0
 77
     3
 78
     8
170
     0
171
     2
172
     1
173
     0
174
     0
175
     0
176
   256
177
   256
178
     2
270
     2
271
     3
272
     3
273
     2
274
     2
340
6B
275
     0
280
     0
281
     0
282
     0
283
     0
284
     0
285
     0
286
     0
287
     3
288
     0
  0
ENDTAB
  0
TABLE
  2
BLOCK_RECORD
  5
1
330
0
100
AcDbSymbolTable
 70
     9
  0
BLOCK_RECORD
  5
1F
102
{ACAD_XDICTIONARY
360
74
102
}
330
1
100
AcDbSymbolTableRecord
100
AcDbBlockTableRecord
  2
*MODEL_SPACE
  0
BLOCK_RECORD
  5
101
102
{ACAD_XDICTIONARY
360
1B87
102
}
330
1
100
AcDbSymbolTableRecord
100
AcDbBlockTableRecord
  2
*PAPER_SPACE
  0
BLOCK_RECORD
  5
59
330
1
100
AcDbSymbolTableRecord
100
AcDbBlockTableRecord
  2
_OPEN30
  0
BLOCK_RECORD
  5
64
330
1
100
AcDbSymbolTableRecord
100
AcDbBlockTableRecord
  2
GENAXEH
  0
BLOCK_RECORD
  5
1060
330
1
100
AcDbSymbolTableRecord
100
AcDbBlockTableRecord
  2
*D5
  0
BLOCK_RECORD
  5
10F0
330
1
100
AcDbSymbolTableRecord
100
AcDbBlockTableRecord
  2
*D6
  0
BLOCK_RECORD
  5
1316
330
1
100
AcDbSymbolTableRecord
100
AcDbBlockTableRecord
  2
*D7
  0
BLOCK_RECORD
  5
17DF
330
1
100
AcDbSymbolTableRecord
100
AcDbBlockTableRecord
  2
*D8
  0
ENDTAB
  0
ENDSEC
  0
SECTION
  2
BLOCKS
  0
BLOCK
  5
20
330
1F
100
AcDbEntity
  8
0
100
AcDbBlockBegin
  2
*MODEL_SPACE
 70
     0
 10
0.0
 20
0.0
 30
0.0
  3
*MODEL_SPACE
  1

  0
ENDBLK
  5
21
330
1F
100
AcDbEntity
  8
0
100
AcDbBlockEnd
  0
BLOCK
  5
103
330
101
100
AcDbEntity
 67
     1
  8
0
100
AcDbBlockBegin
  2
*PAPER_SPACE
 70
     0
 10
0.0
 20
0.0
 30
0.0
  3
*PAPER_SPACE
  1

  0
ENDBLK
  5
104
330
101
100
AcDbEntity
 67
     1
  8
0
100
AcDbBlockEnd
  0
BLOCK
  5
5D
330
59
100
AcDbEntity
  8
0
100
AcDbBlockBegin
  2
_OPEN30
 70
     0
 10
0.0
 20
0.0
 30
0.0
  3
_OPEN30
  1

  0
LINE
  5
5A
330
59
100
AcDbEntity
  8
0
 62
     0
100
AcDbLine
 10
-1.0
 20
0.26794919
 30
0.0
 11
0.0
 21
0.0
 31
0.0
  0
LINE
  5
5B
330
59
100
AcDbEntity
  8
0
 62
     0
100
AcDbLine
 10
0.0
 20
0.0
 30
0.0
 11
-1.0
 21
-0.26794919
 31
0.0
  0
LINE
  5
5C
330
59
100
AcDbEntity
  8
0
 62
     0
100
AcDbLine
 10
0.0
 20
0.0
 30
0.0
 11
-1.0
 21
0.0
 31
0.0
  0
ENDBLK
  5
5E
330
59
100
AcDbEntity
  8
0
100
AcDbBlockEnd
  0
BLOCK
  5
66
330
64
100
AcDbEntity
  8
0
100
AcDbBlockBegin
  2
GENAXEH
 70
     0
 10
0.0
 20
0.0
 30
0.0
  3
GENAXEH
  1

  0
LINE
  5
65
330
64
100
AcDbEntity
  8
0
100
AcDbLine
 10
-1.0
 20
0.0
 30
0.0
 11
1.0
 21
0.0
 31
0.0
  0
ENDBLK
  5
67
330
64
100
AcDbEntity
  8
0
100
AcDbBlockEnd
  0
BLOCK
  5
106A
330
1060
100
AcDbEntity
  8
0
100
AcDbBlockBegin
  2
*D5
 70
     1
 10
0.0
 20
0.0
 30
0.0
  3
*D5
  1

  0
LINE
  5
193F
330
1060
100
AcDbEntity
  8
AM_5
100
AcDbLine
 10
-18.0
 20
-4.249999999999951
 30
0.0
 11
-18.0
 21
-11.5000009999989
 31
0.0
  0
LINE
  5
1940
330
1060
100
AcDbEntity
  8
AM_5
100
AcDbLine
 10
0.0
 20
-4.249999999999996
 30
0.0
 11
-0.0000000000000005
 21
-11.5000009999989
 31
0.0
  0
LINE
  5
1941
330
1060
100
AcDbEntity
  8
AM_5
100
AcDbLine
 10
-16.75
 20
-11.0000009999989
 30
0.0
 11
-1.25
 21
-11.0000009999989
 31
0.0
  0
INSERT
  5
1942
330
1060
100
AcDbEntity
  8
AM_5
100
AcDbBlockReference
  2
_OPEN30
 10
-18.0
 20
-11.0000009999989
 30
0.0
 41
1.25
 42
1.25
 43
1.25
 50
180.0
  0
INSERT
  5
1943
330
1060
100
AcDbEntity
  8
AM_5
100
AcDbBlockReference
  2
_OPEN30
 10
-0.0000000000000004
 20
-11.0000009999989
 30
0.0
 41
1.25
 42
1.25
 43
1.25
  0
MTEXT
  5
1944
330
1060
100
AcDbEntity
  8
AM_5
 62
     2
100
AcDbMText
 10
-9.000000000000001
 20
-9.450000999998902
 30
0.0
 40
1.6
 41
0.0
 71
     5
 72
     1
  1
18
  7
ASAMI
1001
ACAD
1000
MTEXTBEGIN
1070
    73
1070
     1
1070
    44
1040
1.0
1070
    74
1070
     0
1000
MTEXTEND
  0
POINT
  5
1945
330
1060
100
AcDbEntity
  8
DEFPOINTS
 62
     0
100
AcDbPoint
 10
-18.0
 20
-3.749999999999951
 30
0.0
  0
POINT
  5
1946
330
1060
100
AcDbEntity
  8
DEFPOINTS
 62
     0
100
AcDbPoint
 10
0.0
 20
-3.749999999999996
 30
0.0
  0
POINT
  5
1947
330
1060
100
AcDbEntity
  8
DEFPOINTS
 62
     0
100
AcDbPoint
 10
-0.0000000000000004
 20
-11.0000009999989
 30
0.0
  0
ENDBLK
  5
106B
330
1060
100
AcDbEntity
  8
0
100
AcDbBlockEnd
  0
BLOCK
  5
10FA
330
10F0
100
AcDbEntity
  8
0
100
AcDbBlockBegin
  2
*D6
 70
     1
 10
0.0
 20
0.0
 30
0.0
  3
*D6
  1

  0
LINE
  5
1936
330
10F0
100
AcDbEntity
  8
AM_5
100
AcDbLine
 10
-60.00000000000001
 20
-3.899999999999021
 30
0.0
 11
-60.00000000000001
 21
-17.5000009999989
 31
0.0
  0
LINE
  5
1937
330
10F0
100
AcDbEntity
  8
AM_5
100
AcDbLine
 10
0.000000000000778
 20
-4.249999999999996
 30
0.0
 11
0.0000000000007772
 21
-17.5000009999989
 31
0.0
  0
LINE
  5
1938
330
10F0
100
AcDbEntity
  8
AM_5
100
AcDbLine
 10
-58.75000000000001
 20
-17.0000009999989
 30
0.0
 11
-1.249999999999222
 21
-17.0000009999989
 31
0.0
  0
INSERT
  5
1939
330
10F0
100
AcDbEntity
  8
AM_5
100
AcDbBlockReference
  2
_OPEN30
 10
-60.00000000000001
 20
-17.0000009999989
 30
0.0
 41
1.25
 42
1.25
 43
1.25
 50
180.0
  0
INSERT
  5
193A
330
10F0
100
AcDbEntity
  8
AM_5
100
AcDbBlockReference
  2
_OPEN30
 10
0.0000000000007772
 20
-17.0000009999989
 30
0.0
 41
1.25
 42
1.25
 43
1.25
  0
MTEXT
  5
193B
330
10F0
100
AcDbEntity
  8
AM_5
 62
     2
100
AcDbMText
 10
-29.99999999999962
 20
-15.4500009999989
 30
0.0
 40
1.6
 41
0.0
 71
     5
 72
     1
  1
60
  7
ASAMI
1001
ACAD
1000
MTEXTBEGIN
1070
    73
1070
     1
1070
    44
1040
1.0
1070
    74
1070
     0
1000
MTEXTEND
  0
POINT
  5
193C
330
10F0
100
AcDbEntity
  8
DEFPOINTS
 62
     0
100
AcDbPoint
 10
-60.00000000000001
 20
-3.399999999999021
 30
0.0
  0
POINT
  5
193D
330
10F0
100
AcDbEntity
  8
DEFPOINTS
 62
     0
100
AcDbPoint
 10
0.000000000000778
 20
-3.749999999999996
 30
0.0
  0
POINT
  5
193E
330
10F0
100
AcDbEntity
  8
DEFPOINTS
 62
     0
100
AcDbPoint
 10
0.0000000000007772
 20
-17.0000009999989
 30
0.0
  0
ENDBLK
  5
10FB
330
10F0
100
AcDbEntity
  8
0
100
AcDbBlockEnd
  0
BLOCK
  5
1320
330
1316
100
AcDbEntity
  8
0
100
AcDbBlockBegin
  2
*D7
 70
     1
 10
0.0
 20
0.0
 30
0.0
  3
*D7
  1

  0
LINE
  5
1948
330
1316
100
AcDbEntity
  8
AM_5
100
AcDbLine
 10
0.499999999998529
 20
3.75
 30
0.0
 11
12.05776903085495
 21
3.749999999999996
 31
0.0
  0
LINE
  5
1949
330
1316
100
AcDbEntity
  8
AM_5
100
AcDbLine
 10
0.5000000000000064
 20
-3.750000000000012
 30
0.0
 11
12.05776903085495
 21
-3.750000000000015
 31
0.0
  0
LINE
  5
194A
330
1316
100
AcDbEntity
  8
AM_5
100
AcDbLine
 10
11.55776903085494
 20
2.499999999999996
 30
0.0
 11
11.55776903085494
 21
-2.500000000000015
 31
0.0
  0
INSERT
  5
194B
330
1316
100
AcDbEntity
  8
AM_5
100
AcDbBlockReference
  2
_OPEN30
 10
11.55776903085494
 20
3.749999999999996
 30
0.0
 41
1.25
 42
1.25
 43
1.25
 50
90.0
  0
INSERT
  5
194C
330
1316
100
AcDbEntity
  8
AM_5
100
AcDbBlockReference
  2
_OPEN30
 10
11.55776903085494
 20
-3.750000000000015
 30
0.0
 41
1.25
 42
1.25
 43
1.25
 50
270.0
  0
MTEXT
  5
194D
330
1316
100
AcDbEntity
  8
AM_5
 62
     2
100
AcDbMText
 10
10.00776903085494
 20
-0.0000000000000076
 30
0.0
 40
1.6
 41
0.0
 71
     5
 72
     1
  1
%%c7.5
  7
ASAMI
 11
0.0000000000000001
 21
1.0
 31
0.0
1001
ACAD
1000
MTEXTBEGIN
1070
    73
1070
     1
1070
    44
1040
1.0
1070
    74
1070
     0
1000
MTEXTEND
  0
POINT
  5
194E
330
1316
100
AcDbEntity
  8
DEFPOINTS
 62
     0
100
AcDbPoint
 10
-0.000000000001471
 20
3.75
 30
0.0
  0
POINT
  5
194F
330
1316
100
AcDbEntity
  8
DEFPOINTS
 62
     0
100
AcDbPoint
 10
0.0000000000000065
 20
-3.750000000000012
 30
0.0
  0
POINT
  5
1950
330
1316
100
AcDbEntity
  8
DEFPOINTS
 62
     0
100
AcDbPoint
 10
11.55776903085494
 20
-3.750000000000015
 30
0.0
  0
ENDBLK
  5
1321
330
1316
100
AcDbEntity
  8
0
100
AcDbBlockEnd
  0
BLOCK
  5
17E9
330
17DF
100
AcDbEntity
  8
0
100
AcDbBlockBegin
  2
*D8
 70
     1
 10
0.0
 20
0.0
 30
0.0
  3
*D8
  1

  0
LINE
  5
182D
330
17DF
100
AcDbEntity
  8
AM_5
100
AcDbLine
 10
-59.75
 20
3.999999999999968
 30
0.0
 11
-70.28823125971979
 21
3.999999999999971
 31
0.0
  0
LINE
  5
182E
330
17DF
100
AcDbEntity
  8
AM_5
100
AcDbLine
 10
-59.75
 20
-3.999999999999021
 30
0.0
 11
-70.28823125971979
 21
-3.999999999999018
 31
0.0
  0
LINE
  5
182F
330
17DF
100
AcDbEntity
  8
AM_5
100
AcDbLine
 10
-69.78823125971979
 20
2.74999999999997
 30
0.0
 11
-69.78823125971979
 21
-2.749999999999018
 31
0.0
  0
INSERT
  5
1830
330
17DF
100
AcDbEntity
  8
AM_5
100
AcDbBlockReference
  2
_OPEN30
 10
-69.78823125971979
 20
3.99999999999997
 30
0.0
 41
1.25
 42
1.25
 43
1.25
 50
90.0
  0
INSERT
  5
1831
330
17DF
100
AcDbEntity
  8
AM_5
100
AcDbBlockReference
  2
_OPEN30
 10
-69.78823125971979
 20
-3.999999999999018
 30
0.0
 41
1.25
 42
1.25
 43
1.25
 50
270.0
  0
MTEXT
  5
1832
330
17DF
100
AcDbEntity
  8
AM_5
 62
     2
100
AcDbMText
 10
-71.33823125971979
 20
0.000000000000465
 30
0.0
 40
1.6
 41
0.0
 71
     5
 72
     1
  1
%%c8
  7
ASAMI
 11
0.0000000000000001
 21
1.0
 31
0.0
1001
ACAD
1000
MTEXTBEGIN
1070
    73
1070
     1
1070
    44
1040
1.0
1070
    74
1070
     0
1000
MTEXTEND
  0
POINT
  5
1833
330
17DF
100
AcDbEntity
  8
DEFPOINTS
 62
     0
100
AcDbPoint
 10
-59.25
 20
3.999999999999968
 30
0.0
  0
POINT
  5
1834
330
17DF
100
AcDbEntity
  8
DEFPOINTS
 62
     0
100
AcDbPoint
 10
-59.25
 20
-3.999999999999021
 30
0.0
  0
POINT
  5
1835
330
17DF
100
AcDbEntity
  8
DEFPOINTS
 62
     0
100
AcDbPoint
 10
-69.78823125971979
 20
-3.999999999999018
 30
0.0
  0
ENDBLK
  5
17EA
330
17DF
100
AcDbEntity
  8
0
100
AcDbBlockEnd
  0
ENDSEC
  0
SECTION
  2
ENTITIES
  0
TEXT
  5
E5A
330
1F
100
AcDbEntity
  8
AM_6
100
AcDbText
 10
-40.35714285714246
 20
-28.2500009999989
 30
0.0
 40
2.5
  1
JSM2075ZX
 72
     4
 11
-29.9999999999996
 21
-27.0000009999989
 31
0.0
100
AcDbText
  0
LINE
  5
F47
330
1F
100
AcDbEntity
  8
AM_7
  6
AM_ISO08W050X2
100
AcDbLine
 10
4.557768030854958
 20
0.0
 30
0.0
 11
-62.7882302597198
 21
0.0000000000000111
 31
0.0
1001
GENIUS_GENODEF_13
1002
{
1000
HIER
1070
     0
1002
}
1002
{
1000
MANEDIT
1070
     0
1002
}
1002
{
1000
NOSEL
1070
     0
1002
}
1002
{
1000
BEHIND
1070
     0
1002
}
1002
{
1000
REACTOR
1002
}
1001
GENIUS_GENOBJ-N-CEN_13
1002
{
1000
OWNER
1000
GEN
1002
}
  0
DIMENSION
  5
105F
330
1F
100
AcDbEntity
  8
AM_5
100
AcDbDimension
  2
*D5
 10
-0.0000000000000004
 20
-11.0000009999989
 30
0.0
 11
-9.000000000000001
 21
-9.450000999998902
 31
0.0
 70
    32
  1
<>
  3
AM_JIS
100
AcDbAlignedDimension
 13
-18.0
 23
-3.749999999999951
 33
0.0
 14
0.0
 24
-3.749999999999996
 34
0.0
 50
0.0000000000001132
100
AcDbRotatedDimension
1001
GENIUS_GENDTOL_13
1000

1000
h7
1000

1040
0.0
  0
DIMENSION
  5
10EF
330
1F
100
AcDbEntity
  8
AM_5
100
AcDbDimension
  2
*D6
 10
0.0000000000007772
 20
-17.0000009999989
 30
0.0
 11
-29.99999999999962
 21
-15.4500009999989
 31
0.0
 70
    32
  1
<>
  3
AM_JIS
100
AcDbAlignedDimension
 13
-60.00000000000001
 23
-3.399999999999021
 33
0.0
 14
0.000000000000778
 24
-3.749999999999996
 34
0.0
 50
0.0000000000001132
100
AcDbRotatedDimension
1001
GENIUS_GENDTOL_13
1000

1000
h7
1000

1040
0.0
  0
DIMENSION
  5
1315
330
1F
100
AcDbEntity
  8
AM_5
100
AcDbDimension
  2
*D7
 10
11.55776903085494
 20
-3.750000000000015
 30
0.0
 11
10.00776903085494
 21
-0.0000000000000076
 31
0.0
 70
    32
  1
%%c<>
  3
AM_JIS
100
AcDbAlignedDimension
 13
-0.000000000001471
 23
3.75
 33
0.0
 14
0.0000000000000065
 24
-3.750000000000012
 34
0.0
 50
90.0
100
AcDbRotatedDimension
1001
GENIUS_GENDTOL_13
1000

1000
h7
1000

1040
0.0
  0
LINE
  5
17A3
330
1F
100
AcDbEntity
  8
AM_0
100
AcDbLine
 10
-0.2574510232021376
 20
0.4499999999999737
 30
0.0
 11
0.0
 21
0.7500000000000007
 31
0.0
  0
LINE
  5
17A4
330
1F
100
AcDbEntity
  8
AM_0
100
AcDbLine
 10
-0.287642045454547
 20
-3.058665138384949
 30
0.0
 11
-0.287642045454547
 21
-3.018266573349461
 31
0.0
  0
ELLIPSE
  5
17A5
330
1F
100
AcDbEntity
  8
AM_0
100
AcDbEllipse
 10
10.89723715750943
 20
0.0157779837812755
 30
0.0
 11
11.60733098089829
 21
0.0000000000000136
 31
0.0
210
0.0
220
0.0
230
1.0
 40
0.9777777777777748
 41
3.060670780078407
 42
3.412214872769691
  0
LINE
  5
17A6
330
1F
100
AcDbEntity
  8
AM_0
100
AcDbLine
 10
0.0
 20
0.7500000000000007
 30
0.0
 11
0.0
 21
3.75
 31
0.0
  0
LINE
  5
17A7
330
1F
100
AcDbEntity
  8
AM_0
100
AcDbLine
 10
0.0
 20
0.1499999999999901
 30
0.0
 11
-1.807598018113399
 21
2.256340066896057
 31
0.0
  0
LINE
  5
17A8
330
1F
100
AcDbEntity
  8
AM_0
100
AcDbLine
 10
0.0
 20
-3.749999999999996
 30
0.0
 11
-0.0805397727272861
 21
-3.550080868216368
 31
0.0
  0
LINE
  5
17A9
330
1F
100
AcDbEntity
  8
AM_0
100
AcDbLine
 10
0.0
 20
-3.749999999999996
 30
0.0
 11
0.0
 21
0.1499999999999901
 31
0.0
  0
LINE
  5
17AA
330
1F
100
AcDbEntity
  8
AM_0
100
AcDbLine
 10
-0.0805397727272861
 20
-3.550080868216368
 30
0.0
 11
-0.0805397727272861
 21
0.243850595416788
 31
0.0
  0
LINE
  5
17AB
330
1F
100
AcDbEntity
  8
AM_0
100
AcDbLine
 10
-0.0805397727272861
 20
-3.550080868216368
 30
0.0
 11
-0.287642045454547
 21
-3.058665138384949
 31
0.0
  0
SPLINE
  5
17AC
330
1F
100
AcDbEntity
  8
AM_0
100
AcDbSpline
210
0.0
220
0.0
230
1.0
 70
     8
 71
     3
 72
     8
 73
     4
 74
     0
 42
0.0000000001
 43
0.0000000001
 40
0.0
 40
0.0
 40
0.0
 40
0.0
 40
2.586565323616739
 40
2.586565323616739
 40
2.586565323616739
 40
2.586565323616739
 10
0.0
 20
3.056027015012973
 30
0.0
 10
-0.4243812293630612
 20
2.56008239711325
 30
0.0
 10
-1.152807574640126
 20
2.347105347693263
 30
0.0
 10
-1.807598018113399
 20
2.256340066896057
 30
0.0
  0
LINE
  5
17AE
330
1F
100
AcDbEntity
  8
AM_0
100
AcDbLine
 10
-8.843676266187351
 20
-2.877521594047449
 30
0.0
 11
-18.0
 21
-3.345215057177554
 31
0.0
  0
ELLIPSE
  5
17AF
330
1F
100
AcDbEntity
  8
AM_0
100
AcDbEllipse
 10
-18.11945009736592
 20
0.1703988210633622
 30
0.0
 11
-4.01070244155619
 21
0.0000000000000376
 31
0.0
210
0.0
220
0.0
230
1.0
 40
0.9777777777777785
 41
1.546296373347991
 42
2.081272703674443
  0
ELLIPSE
  5
17B1
330
1F
100
AcDbEntity
  8
AM_0
100
AcDbEllipse
 10
11.56223538254586
 20
60.36912406323121
 30
0.0
 11
31.01166427422513
 21
60.1834778411581
 31
0.0
210
0.0
220
0.0
230
0.9999999999999998
 40
0.5717831569386475
 41
3.00912276872907
 42
3.152255386537631
  0
ELLIPSE
  5
17B2
330
1F
100
AcDbEntity
  8
AM_0
100
AcDbEllipse
 10
-11.24804415017647
 20
-9.541678540344122
 30
0.0
 11
-11.09462088313689
 21
9.020199251569271
 31
0.0
210
0.0
220
0.0
230
1.0
 40
0.7114520598443458
 41
-0.2093752806988547
 42
0.156099791615715
  0
ELLIPSE
  5
17B3
330
1F
100
AcDbEntity
  8
AM_0
100
AcDbEllipse
 10
-17.513253534475
 20
5.258106954252848
 30
0.0
 11
9.239729830055569
 21
0.0000000000003247
 31
0.0
210
0.0
220
0.0
230
1.0
 40
0.9777777777777791
 41
4.048660333193797
 42
4.636073652744022
  0
ELLIPSE
  5
17B4
330
1F
100
AcDbEntity
  8
AM_0
100
AcDbEllipse
 10
-17.93821176503029
 20
6.03902195927704
 30
0.0
 11
4.175692154400376
 21
8.537733496257683
 31
0.0
210
0.0
220
0.0
230
1.0
 40
0.9379457608423255
 41
2.999554364294059
 42
3.615406714463165
  0
SPLINE
  5
17B5
330
1F
100
AcDbEntity
  8
AM_0
100
AcDbSpline
210
0.0
220
0.0
230
1.0
 70
     8
 71
     3
 72
     8
 73
     4
 74
     0
 42
0.0000000001
 43
0.0000000001
 40
0.0
 40
0.0
 40
0.0
 40
0.0
 40
14.48999654934396
 40
14.48999654934396
 40
14.48999654934396
 40
14.48999654934396
 10
-20.8566475826463
 20
3.750000000000003
 30
0.0
 10
-17.15880770045182
 20
3.750000000000089
 30
0.0
 10
-13.79531294113499
 20
1.875000000000086
 30
0.0
 10
-10.43181818181817
 20
0.0000000000000866
 30
0.0
  0
SPLINE
  5
17B6
330
1F
100
AcDbEntity
  8
AM_0
100
AcDbSpline
210
0.0
220
0.0
230
1.0
 70
     8
 71
     3
 72
     8
 73
     4
 74
     0
 42
0.0000000001
 43
0.0000000001
 40
0.8193285956365375
 40
0.8193285956365375
 40
0.8193285956365375
 40
0.8193285956365375
 40
14.43901837670146
 40
14.43901837670146
 40
14.43901837670146
 40
14.43901837670146
 10
-18.95336959804478
 20
3.589307537987191
 30
0.0
 10
-15.45054699519773
 20
3.431294144278159
 30
0.0
 10
-12.27176331132251
 20
1.715647072139101
 30
0.0
 10
-9.092979627447309
 20
0.0000000000000466
 30
0.0
  0
SPLINE
  5
17B7
330
1F
100
AcDbEntity
  8
AM_0
100
AcDbSpline
210
0.0
220
0.0
230
1.0
 70
     8
 71
     3
 72
     8
 73
     4
 74
     0
 42
0.0000000001
 43
0.0000000001
 40
0.7142832446738512
 40
0.7142832446738512
 40
0.7142832446738512
 40
0.7142832446738512
 40
14.36247867694493
 40
14.36247867694493
 40
14.36247867694493
 40
14.36247867694493
 10
-17.59227022894925
 20
3.45044834236822
 30
0.0
 10
-13.97474102711965
 20
3.290855276606651
 30
0.0
 10
-10.7630303092085
 20
1.645427638303347
 30
0.0
 10
-7.551319591297357
 20
0.0000000000000466
 30
0.0
  0
SPLINE
  5
17B8
330
1F
100
AcDbEntity
  8
AM_0
100
AcDbSpline
210
0.0
220
0.0
230
1.0
 70
     8
 71
     3
 72
     8
 73
     4
 74
     0
 42
0.0000000001
 43
0.0000000001
 40
0.0
 40
0.0
 40
0.0
 40
0.0
 40
5.192508374738713
 40
5.192508374738713
 40
5.192508374738713
 40
5.192508374738713
 10
-20.8566475826463
 20
3.750000000000003
 30
0.0
 10
-21.69126634581382
 20
3.750000000000003
 30
0.0
 10
-22.97506372367379
 20
3.509220715656584
 30
0.0
 10
-23.72294560113252
 20
3.055017480025443
 30
0.0
  0
SPLINE
  5
17B9
330
1F
100
AcDbEntity
  8
AM_0
100
AcDbSpline
210
0.0
220
0.0
230
1.0
 70
     8
 71
     3
 72
     8
 73
     4
 74
     0
 42
0.0000000001
 43
0.0000000001
 40
0.0
 40
0.0
 40
0.0
 40
0.0
 40
2.238610194515266
 40
2.238610194515266
 40
2.238610194515266
 40
2.238610194515266
 10
-8.843676266187351
 20
-2.877521594047449
 30
0.0
 10
-7.721378374395034
 20
-2.877521594047449
 30
0.0
 10
-6.619416157091394
 20
-2.736442107970175
 30
0.0
 10
-5.531483521847634
 20
-2.498031882849558
 30
0.0
  0
SPLINE
  5
17BA
330
1F
100
AcDbEntity
  8
AM_0
100
AcDbSpline
210
0.0
220
0.0
230
1.0
 70
     8
 71
     3
 72
     8
 73
     4
 74
     0
 42
0.0000000001
 43
0.0000000001
 40
0.0
 40
0.0
 40
0.0
 40
0.0
 40
13.97258598406841
 40
13.97258598406841
 40
13.97258598406841
 40
13.97258598406841
 10
-8.843676266187351
 20
-2.877521594047449
 30
0.0
 10
-12.41621245529578
 20
-2.877521594047449
 30
0.0
 10
-16.0613501512975
 20
-1.608852468555919
 30
0.0
 10
-19.08074805427935
 20
0.0000000000000464
 30
0.0
  0
SPLINE
  5
17BB
330
1F
100
AcDbEntity
  8
AM_0
100
AcDbSpline
210
0.0
220
0.0
230
1.0
 70
     8
 71
     3
 72
     8
 73
     4
 74
     0
 42
0.0000000001
 43
0.0000000001
 40
0.0
 40
0.0
 40
0.0
 40
0.0
 40
7.57842115059705
 40
7.57842115059705
 40
7.57842115059705
 40
7.57842115059705
 10
0.0
 20
3.75
 30
0.0
 10
-1.937664498732202
 20
3.75
 30
0.0
 10
-3.78196050719853
 20
3.237112421986792
 30
0.0
 10
-5.581720731398637
 20
2.479582883263119
 30
0.0
  0
SPLINE
  5
17BC
330
1F
100
AcDbEntity
  8
AM_0
100
AcDbSpline
210
0.0
220
0.0
230
1.0
 70
     8
 71
     3
 72
     8
 73
     4
 74
     0
 42
0.0000000001
 43
0.0000000001
 40
0.0
 40
0.0
 40
0.0
 40
0.0
 40
14.48999654934395
 40
14.48999654934395
 40
14.48999654934395
 40
14.48999654934395
 10
0.0
 20
-3.749999999999996
 30
0.0
 10
-3.704828663184533
 20
-3.749999999999996
 30
0.0
 10
-7.068323422501351
 20
-1.874999999999996
 30
0.0
 10
-10.43181818181817
 20
0.0000000000000033
 30
0.0
  0
SPLINE
  5
17BD
330
1F
100
AcDbEntity
  8
AM_0
100
AcDbSpline
210
0.0
220
0.0
230
1.0
 70
     8
 71
     3
 72
     8
 73
     4
 74
     0
 42
0.0000000001
 43
0.0000000001
 40
1.870660592686466
 40
1.870660592686466
 40
1.870660592686466
 40
1.870660592686466
 40
14.43901837670146
 40
14.43901837670146
 40
14.43901837670146
 40
14.43901837670146
 10
-0.0805397727272661
 20
-3.550080868216325
 30
0.0
 10
-3.226166021681197
 20
-3.166425459076107
 30
0.0
 10
-6.15957282456426
 20
-1.58321272953803
 30
0.0
 10
-9.092979627447309
 20
0.0000000000000466
 30
0.0
  0
SPLINE
  5
17BE
330
1F
100
AcDbEntity
  8
AM_0
100
AcDbSpline
210
0.0
220
0.0
230
1.0
 70
     8
 71
     3
 72
     8
 73
     4
 74
     0
 42
0.0000000001
 43
0.0000000001
 40
4.219358800530717
 40
4.219358800530717
 40
4.219358800530717
 40
4.219358800530717
 40
14.36247867694493
 40
14.36247867694493
 40
14.36247867694493
 40
14.36247867694493
 10
-0.2876420454545003
 20
-3.058665138384779
 30
0.0
 10
-2.77753583625097
 20
-2.445710843766603
 30
0.0
 10
-5.164427713774165
 20
-1.222855421883279
 30
0.0
 10
-7.551319591297357
 20
0.0000000000000466
 30
0.0
  0
LINE
  5
17BF
330
1F
100
AcDbEntity
  8
AM_11
100
AcDbLine
 10
-18.0
 20
-3.749999999999951
 30
0.0
 11
0.0
 21
-3.749999999999996
 31
0.0
  0
LINE
  5
17C0
330
1F
100
AcDbEntity
  8
AM_11
100
AcDbLine
 10
-0.0000000000005895
 20
3.75
 30
0.0
 11
-17.99999999999999
 21
3.750000000000003
 31
0.0
  0
LINE
  5
17C1
330
1F
100
AcDbEntity
  8
AM_0
100
AcDbLine
 10
-14.70355580667852
 20
3.01563941169269
 30
0.0
 11
-1.807598018113399
 21
2.256340066896057
 31
0.0
  0
LINE
  5
17D8
330
1F
100
AcDbEntity
  8
AM_0
100
AcDbLine
 10
-24.00000000000002
 20
-3.999999999994031
 30
0.0
 11
-59.25000000000001
 21
-3.999999999999021
 31
0.0
  0
LINE
  5
17D9
330
1F
100
AcDbEntity
  8
AM_0
100
AcDbLine
 10
-24.0
 20
4.000000000000005
 30
0.0
 11
-59.25
 21
3.999999999999968
 31
0.0
  0
LINE
  5
17DA
330
1F
100
AcDbEntity
  8
AM_0
100
AcDbLine
 10
-59.25
 20
3.999999999999968
 30
0.0
 11
-60.0
 21
3.399999999999967
 31
0.0
1001
GENIUS_GENFIL_13
1070
     0
1040
0.75
1040
0.75
1040
20.0
1040
0.0
1002
{
1002
}
1001
GENIUS_GENODEF_13
1002
{
1000
HIER
1070
     0
1002
}
1002
{
1000
MANEDIT
1070
     0
1002
}
1002
{
1000
NOSEL
1070
     0
1002
}
1002
{
1000
BEHIND
1070
     0
1002
}
1002
{
1000
REACTOR
1002
}
1001
GENIUS_GENOBJ-N-CHA_13
1002
{
1000
OWNER
1000
GEN
1002
}
  0
LINE
  5
17DB
330
1F
100
AcDbEntity
  8
AM_0
100
AcDbLine
 10
-60.00000000000001
 20
-3.399999999999021
 30
0.0
 11
-59.25000000000001
 21
-3.999999999999021
 31
0.0
1001
GENIUS_GENFIL_13
1070
     0
1040
0.75
1040
0.75
1040
20.0
1040
0.0
1002
{
1002
}
1001
GENIUS_GENODEF_13
1002
{
1000
HIER
1070
     0
1002
}
1002
{
1000
MANEDIT
1070
     0
1002
}
1002
{
1000
NOSEL
1070
     0
1002
}
1002
{
1000
BEHIND
1070
     0
1002
}
1002
{
1000
REACTOR
1002
}
1001
GENIUS_GENOBJ-N-CHA_13
1002
{
1000
OWNER
1000
GEN
1002
}
  0
LINE
  5
17DC
330
1F
100
AcDbEntity
  8
AM_0
100
AcDbLine
 10
-60.0
 20
3.399999999999967
 30
0.0
 11
-60.00000000000001
 21
-3.399999999999021
 31
0.0
  0
LINE
  5
17DD
330
1F
100
AcDbEntity
  8
AM_0
100
AcDbLine
 10
-59.25
 20
3.999999999999968
 30
0.0
 11
-59.25000000000001
 21
-3.999999999999021
 31
0.0
  0
DIMENSION
  5
17DE
330
1F
100
AcDbEntity
  8
AM_5
100
AcDbDimension
  2
*D8
 10
-69.78823125971979
 20
-3.999999999999018
 30
0.0
 11
-71.33823125971979
 21
0.000000000000465
 31
0.0
 70
    32
  1
%%c<>
  3
AM_JIS
100
AcDbAlignedDimension
 13
-59.25
 23
3.999999999999968
 33
0.0
 14
-59.25
 24
-3.999999999999021
 34
0.0
 50
270.0
100
AcDbRotatedDimension
1001
GENIUS_GENDTOL_13
1000

1000
h7
1000

1040
0.0
  0
LINE
  5
18CC
330
1F
100
AcDbEntity
  8
AM_11
100
AcDbLine
 10
-18.0
 20
-3.74999999999906
 30
0.0
 11
-17.99999999999999
 21
3.750000000000003
 31
0.0
  0
LINE
  5
18D6
330
1F
100
AcDbEntity
  8
AM_0
100
AcDbLine
 10
-23.99999999999999
 20
4.000000000000005
 30
0.0
 11
-24.00000000000002
 21
-3.999999999994031
 31
0.0
  0
LINE
  5
1902
330
1F
100
AcDbEntity
  8
AM_0
100
AcDbLine
 10
-23.99999999999999
 20
4.000000000000006
 30
0.0
 11
-23.31313064513633
 21
3.750000000000003
 31
0.0
  0
LINE
  5
1903
330
1F
100
AcDbEntity
  8
AM_0
100
AcDbLine
 10
-23.31313064513633
 20
3.750000000000003
 30
0.0
 11
-23.31313064513739
 21
3.262407977456462
 31
0.0
  0
LINE
  5
1904
330
1F
100
AcDbEntity
  8
AM_0
100
AcDbLine
 10
-23.31313064515263
 20
-3.749999999999953
 30
0.0
 11
-24.00000000000002
 21
-3.99999999999403
 31
0.0
  0
LINE
  5
1905
330
1F
100
AcDbEntity
  8
AM_0
100
AcDbLine
 10
-23.31313064515263
 20
-3.749999999999954
 30
0.0
 11
-18.21770229050929
 21
-3.749999999995318
 31
0.0
  0
LINE
  5
1906
330
1F
100
AcDbEntity
  8
AM_0
100
AcDbLine
 10
-23.31313064513633
 20
3.750000000000003
 30
0.0
 11
-20.85664758265128
 21
3.750000000000002
 31
0.0
  0
LINE
  5
190F
330
1F
100
AcDbEntity
  8
AM_0
100
AcDbLine
 10
-23.31313064513858
 20
2.714500628470091
 30
0.0
 11
-23.31313064515263
 21
-3.749999999999953
 31
0.0
  0
LINE
  5
1B3C
330
1F
100
AcDbEntity
  8
AM_0
100
AcDbLine
 10
-18.0
 20
-3.307665496065141
 30
0.0
 11
-18.0
 21
-3.749437260792628
 31
0.0
  0
VIEWPORT
  5
110
330
101
100
AcDbEntity
 67
     1
  8
0
100
AcDbViewport
 10
420.5
 20
297.0
 30
0.0
 40
948.9782706766916
 41
628.452
 68
     1
 69
     1
1001
ACAD
1000
MVIEW
1002
{
1070
    16
1010
0.0
1020
0.0
1030
0.0
1010
0.0
1020
0.0
1030
1.0
1040
0.0
1040
628.452
1040
420.5
1040
297.0
1040
50.0
1040
0.0
1040
0.0
1070
     0
1070
   100
1070
     1
1070
     1
1070
     0
1070
     0
1070
     0
1070
     0
1040
0.0
1040
0.0
1040
0.0
1040
10.0
1040
10.0
1040
10.0
1040
10.0
1070
     0
1002
{
1002
}
1002
}
  0
ENDSEC
  0
SECTION
  2
OBJECTS
  0
DICTIONARY
  5
C
330
0
100
AcDbDictionary
  3
ACAD_GROUP
350
D
  3
ACAD_LAYOUT
350
1A
  3
ACAD_MLINESTYLE
350
17
  3
ACAD_PLOTSETTINGS
350
19
  3
ACAD_PLOTSTYLENAME
350
E
  3
ACDBVARIABLEDICTIONARY
350
34
  3
ACMDICTIONARY
350
43
  3
AMG
350
2B
  3
AMGSNAPSETTINGS
350
6E
  3
DWGPROPS
350
1B53
  3
ACDBHEADERROUNDTRIPXREC
350
1B5F
  0
DICTIONARY
  5
74
330
1F
100
AcDbDictionary
280
     1
  3
ACAD_INDEX
360
1B55
  3
ACAD_LAYOUTSELFREF
360
1B82
  0
DICTIONARY
  5
1B87
330
101
100
AcDbDictionary
280
     1
  3
ACAD_LAYOUTSELFREF
360
1B88
  0
DICTIONARY
  5
D
102
{ACAD_REACTORS
330
C
102
}
330
C
100
AcDbDictionary
  0
DICTIONARY
  5
1A
102
{ACAD_REACTORS
330
C
102
}
330
C
100
AcDbDictionary
  0
DICTIONARY
  5
17
102
{ACAD_REACTORS
330
C
102
}
330
C
100
AcDbDictionary
  3
STANDARD
350
18
  0
DICTIONARY
  5
19
102
{ACAD_REACTORS
330
C
102
}
330
C
100
AcDbDictionary
  0
ACDBDICTIONARYWDFLT
  5
E
102
{ACAD_REACTORS
330
C
102
}
330
C
100
AcDbDictionary
281
     1
  3
Normal
350
F
100
AcDbDictionaryWithDefault
340
F
  0
DICTIONARY
  5
34
102
{ACAD_REACTORS
330
C
102
}
330
C
100
AcDbDictionary
  3
INDEXCTL
350
35
  3
SORTENTS
350
B5E
  0
DICTIONARY
  5
43
102
{ACAD_REACTORS
330
C
102
}
330
C
100
AcDbDictionary
  3
ACMSTDDICTIONARY
350
260
  0
DICTIONARY
  5
2B
102
{ACAD_REACTORS
330
C
102
}
330
C
100
AcDbDictionary
  3
ACMGSETTINGS
350
2C
  0
DICTIONARY
  5
6E
102
{ACAD_REACTORS
330
C
102
}
330
C
100
AcDbDictionary
  0
XRECORD
  5
1B53
102
{ACAD_REACTORS
330
C
102
}
330
C
100
AcDbXrecord
  1
DWGPROPS COOKIE
  2

  3

  4

  6

  7

  8

  9

300
AmdtFileType=82
301
=
302
=
303
=
304
=
305
=
306
=
307
=
308
=
309
=
 40
0.0619959837962963
 41
2452836.771637361
 42
2453045.497404618
  1

 90
        1
  0
DICTIONARY
  5
1B5F
102
{ACAD_REACTORS
330
C
102
}
330
C
100
AcDbDictionary
  3
TSTACKALIGN
350
1B60
  3
TSTACKSIZE
350
1B61
  3
HYPERLINKBASE
350
1B62
  3
STYLESHEET
350
1B63
  3
LAYOUTDICT
350
1B64
  3
PLOTSETDICT
350
1B65
  3
PLOTSTYLNAMDICT
350
1B66
  3
LWETCUNION
350
1B67
  3
INSUNITS
350
1B68
  3
CEPSNTYPE
350
1B69
  3
FINGERPRINTGUID
350
1B6A
  3
VERSIONGUID
350
1B6B
  3
PSVPSCALE
350
1B6C
  3
DIMSTYLEDATA
350
1B6D
  3
PUCSORTHOREF
350
1B6E
  3
PUCSORTHOVIEW
350
1B6F
  3
PUCSBASE
350
1B70
  3
PUCSORGTOP
350
1B71
  3
PUCSORGBOTTOM
350
1B72
  3
PUCSORGLEFT
350
1B73
  3
PUCSORGRIGHT
350
1B74
  3
PUCSORGFRONT
350
1B75
  3
PUCSORGBACK
350
1B76
  3
UCSORTHOREF
350
1B77
  3
UCSORTHOVIEW
350
1B78
  3
UCSBASE
350
1B79
  3
UCSORGTOP
350
1B7A
  3
UCSORGBOTTOM
350
1B7B
  3
UCSORGLEFT
350
1B7C
  3
UCSORGRIGHT
350
1B7D
  3
UCSORGFRONT
350
1B7E
  3
UCSORGBACK
350
1B7F
  0
DICTIONARY
  5
1B55
102
{ACAD_REACTORS
330
74
102
}
330
74
100
AcDbDictionary
  3
*A1
350
1B56
  0
XRECORD
  5
1B82
102
{ACAD_REACTORS
330
74
102
}
330
74
100
AcDbXrecord
340
1F
  0
XRECORD
  5
1B88
102
{ACAD_REACTORS
330
1B87
102
}
330
1B87
100
AcDbXrecord
340
101
  0
MLINESTYLE
  5
18
102
{ACAD_REACTORS
330
17
102
}
330
17
100
AcDbMlineStyle
  2
STANDARD
 70
     0
  3

 62
   256
 51
90.0
 52
90.0
 71
     2
 49
0.5
 62
   256
  6
BYLAYER
 49
-0.5
 62
   256
  6
BYLAYER
  0
ACDBPLACEHOLDER
  5
F
102
{ACAD_REACTORS
330
E
102
}
330
E
100
AcDbPlaceHolder
280
     0
  0
DICTIONARYVAR
  5
35
102
{ACAD_REACTORS
330
34
102
}
330
34
100
DictionaryVariables
280
     0
  1
1
  0
DICTIONARYVAR
  5
B5E
102
{ACAD_REACTORS
330
34
102
}
330
34
100
DictionaryVariables
280
     0
  1
96
  0
DICTIONARY
  5
260
102
{ACAD_REACTORS
330
43
102
}
330
43
100
AcDbDictionary
  0
DICTIONARY
  5
2C
102
{ACAD_REACTORS
330
2B
102
}
330
2B
100
AcDbDictionary
  3
DWGSETTINGS
350
2D
  0
XRECORD
  5
1B60
102
{ACAD_REACTORS
330
1B5F
102
}
330
1B5F
100
AcDbXrecord
 90
        1
  0
XRECORD
  5
1B61
102
{ACAD_REACTORS
330
1B5F
102
}
330
1B5F
100
AcDbXrecord
 90
       70
  0
XRECORD
  5
1B62
102
{ACAD_REACTORS
330
1B5F
102
}
330
1B5F
100
AcDbXrecord
  1

  0
XRECORD
  5
1B63
102
{ACAD_REACTORS
330
1B5F
102
}
330
1B5F
100
AcDbXrecord
  1
ASAMI.ctb
  0
XRECORD
  5
1B64
102
{ACAD_REACTORS
330
1B5F
102
}
330
1B5F
100
AcDbXrecord
340
1A
  0
XRECORD
  5
1B65
102
{ACAD_REACTORS
330
1B5F
102
}
330
1B5F
100
AcDbXrecord
340
19
  0
XRECORD
  5
1B66
102
{ACAD_REACTORS
330
1B5F
102
}
330
1B5F
100
AcDbXrecord
340
E
  0
XRECORD
  5
1B67
102
{ACAD_REACTORS
330
1B5F
102
}
330
1B5F
100
AcDbXrecord
 90
    10781
  0
XRECORD
  5
1B68
102
{ACAD_REACTORS
330
1B5F
102
}
330
1B5F
100
AcDbXrecord
 90
        4
  0
XRECORD
  5
1B69
102
{ACAD_REACTORS
330
1B5F
102
}
330
1B5F
100
AcDbXrecord
 90
        0
  0
XRECORD
  5
1B6A
102
{ACAD_REACTORS
330
1B5F
102
}
330
1B5F
100
AcDbXrecord
  1
{AFB28963-8C59-40AE-9337-C84526B81ACE}
  0
XRECORD
  5
1B6B
102
{ACAD_REACTORS
330
1B5F
102
}
330
1B5F
100
AcDbXrecord
  1
{67AED34A-87CC-4C14-836B-3A1AB563C759}
  0
XRECORD
  5
1B6C
102
{ACAD_REACTORS
330
1B5F
102
}
330
1B5F
100
AcDbXrecord
 40
0.0
  0
XRECORD
  5
1B6D
102
{ACAD_REACTORS
330
1B5F
102
}
330
1B5F
100
AcDbXrecord
1000
DSTYLE
1002
{
1070
    79
 70
     2
1070
   341
340
59
1070
   342
340
59
1070
   371
 70
    -1
1070
   372
 70
    -1
1002
}
  0
XRECORD
  5
1B6E
102
{ACAD_REACTORS
330
1B5F
102
}
330
1B5F
100
AcDbXrecord
340
0
  0
XRECORD
  5
1B6F
102
{ACAD_REACTORS
330
1B5F
102
}
330
1B5F
100
AcDbXrecord
 70
     0
  0
XRECORD
  5
1B70
102
{ACAD_REACTORS
330
1B5F
102
}
330
1B5F
100
AcDbXrecord
340
0
  0
XRECORD
  5
1B71
102
{ACAD_REACTORS
330
1B5F
102
}
330
1B5F
100
AcDbXrecord
 10
0.0
 20
0.0
 30
0.0
  0
XRECORD
  5
1B72
102
{ACAD_REACTORS
330
1B5F
102
}
330
1B5F
100
AcDbXrecord
 10
0.0
 20
0.0
 30
0.0
  0
XRECORD
  5
1B73
102
{ACAD_REACTORS
330
1B5F
102
}
330
1B5F
100
AcDbXrecord
 10
0.0
 20
0.0
 30
0.0
  0
XRECORD
  5
1B74
102
{ACAD_REACTORS
330
1B5F
102
}
330
1B5F
100
AcDbXrecord
 10
0.0
 20
0.0
 30
0.0
  0
XRECORD
  5
1B75
102
{ACAD_REACTORS
330
1B5F
102
}
330
1B5F
100
AcDbXrecord
 10
0.0
 20
0.0
 30
0.0
  0
XRECORD
  5
1B76
102
{ACAD_REACTORS
330
1B5F
102
}
330
1B5F
100
AcDbXrecord
 10
0.0
 20
0.0
 30
0.0
  0
XRECORD
  5
1B77
102
{ACAD_REACTORS
330
1B5F
102
}
330
1B5F
100
AcDbXrecord
340
0
  0
XRECORD
  5
1B78
102
{ACAD_REACTORS
330
1B5F
102
}
330
1B5F
100
AcDbXrecord
 70
     0
  0
XRECORD
  5
1B79
102
{ACAD_REACTORS
330
1B5F
102
}
330
1B5F
100
AcDbXrecord
340
0
  0
XRECORD
  5
1B7A
102
{ACAD_REACTORS
330
1B5F
102
}
330
1B5F
100
AcDbXrecord
 10
0.0
 20
0.0
 30
0.0
  0
XRECORD
  5
1B7B
102
{ACAD_REACTORS
330
1B5F
102
}
330
1B5F
100
AcDbXrecord
 10
0.0
 20
0.0
 30
0.0
  0
XRECORD
  5
1B7C
102
{ACAD_REACTORS
330
1B5F
102
}
330
1B5F
100
AcDbXrecord
 10
0.0
 20
0.0
 30
0.0
  0
XRECORD
  5
1B7D
102
{ACAD_REACTORS
330
1B5F
102
}
330
1B5F
100
AcDbXrecord
 10
0.0
 20
0.0
 30
0.0
  0
XRECORD
  5
1B7E
102
{ACAD_REACTORS
330
1B5F
102
}
330
1B5F
100
AcDbXrecord
 10
0.0
 20
0.0
 30
0.0
  0
XRECORD
  5
1B7F
102
{ACAD_REACTORS
330
1B5F
102
}
330
1B5F
100
AcDbXrecord
 10
0.0
 20
0.0
 30
0.0
  0
LAYER_INDEX
  5
1B56
102
{ACAD_REACTORS
330
1B55
102
}
330
1B55
100
AcDbIndex
 40
2453152.462440185
100
AcDbLayerIndex
  8
0
360
1B57
 90
        0
  8
AM_0
360
1B58
 90
       41
  8
AM_11
360
1B59
 90
        3
  8
AM_7
360
1B5A
 90
        1
  8
AM_5
360
1B5B
 90
        4
  8
Defpoints
360
1B5C
 90
        0
  8
AM_6
360
1B5D
 90
        1
  0
XRECORD
  5
2D
102
{ACAD_REACTORS
330
2C
102
}
330
2C
100
AcDbXrecord
  1
VERSION
140
15.0
  1
PRODUCT
  2
AutoCAD Mechanical 2000
  0
IDBUFFER
  5
1B57
330
0
100
AcDbIdBuffer
  0
IDBUFFER
  5
1B58
330
0
100
AcDbIdBuffer
330
17B5
330
17B6
330
17B7
330
17B8
330
17B9
330
17BA
330
17BB
330
17BC
330
17BD
330
17BE
330
17C1
330
17D8
330
17D9
330
17DA
330
17DB
330
17DC
330
17DD
330
18D6
330
1902
330
1903
330
1904
330
1905
330
1906
330
190F
330
1B3C
330
17A3
330
17A4
330
17A5
330
17A6
330
17A7
330
17A8
330
17A9
330
17AA
330
17AB
330
17AC
330
17AE
330
17AF
330
17B1
330
17B2
330
17B3
330
17B4
  0
IDBUFFER
  5
1B59
330
0
100
AcDbIdBuffer
330
17BF
330
17C0
330
18CC
  0
IDBUFFER
  5
1B5A
330
0
100
AcDbIdBuffer
330
F47
  0
IDBUFFER
  5
1B5B
330
0
100
AcDbIdBuffer
330
105F
330
10EF
330
1315
330
17DE
  0
IDBUFFER
  5
1B5C
330
0
100
AcDbIdBuffer
  0
IDBUFFER
  5
1B5D
330
0
100
AcDbIdBuffer
330
E5A
  0
ENDSEC
  0
EOF
