  0
SECTION
  2
HEADER
  9
$ACADVER
  1
AC1014
  9
$ACADMAINTVER
 70
     9
  9
$DWGCODEPAGE
  3
ANSI_932
  9
$INSBASE
 10
0.0
 20
0.0
 30
0.0
  9
$EXTMIN
 10
-83.97360824596914
 20
-30.25188404931096
 30
-0.00000001
  9
$EXTMAX
 10
8.792714690986034
 20
7.252002717429814
 30
0.00000001
  9
$LIMMIN
 10
-89.89477416000426
 20
-33.17741193670588
  9
$LIMMAX
 10
14.30388397572937
 20
11.27335770998075
  9
$ORTHOMODE
 70
     0
  9
$REGENMODE
 70
     1
  9
$FILLMODE
 70
     1
  9
$QTEXTMODE
 70
     0
  9
$MIRRTEXT
 70
     0
  9
$DRAGMODE
 70
     2
  9
$LTSCALE
 40
1.0
  9
$OSMODE
 70
    55
  9
$ATTMODE
 70
     1
  9
$TEXTSIZE
 40
2.5
  9
$TRACEWID
 40
1.0
  9
$TEXTSTYLE
  7
STANDARD
  9
$CLAYER
  8
AM_0
  9
$CELTYPE
  6
BYLAYER
  9
$CECOLOR
 62
   256
  9
$CELTSCALE
 40
1.0
  9
$DELOBJ
 70
     1
  9
$DISPSILH
 70
     0
  9
$DIMSCALE
 40
1.0
  9
$DIMASZ
 40
2.5
  9
$DIMEXO
 40
1.0
  9
$DIMDLI
 40
12.0
  9
$DIMRND
 40
0.0
  9
$DIMDLE
 40
0.0
  9
$DIMEXE
 40
1.0
  9
$DIMTP
 40
0.1
  9
$DIMTM
 40
0.1
  9
$DIMTXT
 40
3.2
  9
$DIMCEN
 40
0.0
  9
$DIMTSZ
 40
0.0
  9
$DIMTOL
 70
     0
  9
$DIMLIM
 70
     0
  9
$DIMTIH
 70
     0
  9
$DIMTOH
 70
     0
  9
$DIMSE1
 70
     0
  9
$DIMSE2
 70
     0
  9
$DIMTAD
 70
     3
  9
$DIMZIN
 70
     8
  9
$DIMBLK
  1
OPEN30
  9
$DIMASO
 70
     1
  9
$DIMSHO
 70
     1
  9
$DIMPOST
  1

  9
$DIMAPOST
  1
"
  9
$DIMALT
 70
     0
  9
$DIMALTD
 70
     2
  9
$DIMALTF
 40
0.0393701
  9
$DIMLFAC
 40
1.0
  9
$DIMTOFL
 70
     1
  9
$DIMTVP
 40
0.0
  9
$DIMTIX
 70
     0
  9
$DIMSOXD
 70
     0
  9
$DIMSAH
 70
     0
  9
$DIMBLK1
  1

  9
$DIMBLK2
  1

  9
$DIMSTYLE
  2
AM_JIS
  9
$DIMCLRD
 70
   256
  9
$DIMCLRE
 70
   256
  9
$DIMCLRT
 70
     2
  9
$DIMTFAC
 40
0.71
  9
$DIMGAP
 40
1.5
  9
$DIMJUST
 70
     0
  9
$DIMSD1
 70
     0
  9
$DIMSD2
 70
     0
  9
$DIMTOLJ
 70
     0
  9
$DIMTZIN
 70
     0
  9
$DIMALTZ
 70
     0
  9
$DIMALTTZ
 70
     0
  9
$DIMFIT
 70
     3
  9
$DIMUPT
 70
     0
  9
$DIMUNIT
 70
     2
  9
$DIMDEC
 70
     3
  9
$DIMTDEC
 70
     3
  9
$DIMALTU
 70
     2
  9
$DIMALTTD
 70
     2
  9
$DIMTXSTY
  7
ASAMI
  9
$DIMAUNIT
 70
     0
  9
$LUNITS
 70
     2
  9
$LUPREC
 70
     2
  9
$SKETCHINC
 40
1.0
  9
$FILLETRAD
 40
2.5
  9
$AUNITS
 70
     0
  9
$AUPREC
 70
     0
  9
$MENU
  1
.
  9
$ELEVATION
 40
0.0
  9
$PELEVATION
 40
0.0
  9
$THICKNESS
 40
0.0
  9
$LIMCHECK
 70
     0
  9
$BLIPMODE
 70
     0
  9
$CHAMFERA
 40
1.0
  9
$CHAMFERB
 40
1.0
  9
$CHAMFERC
 40
20.0
  9
$CHAMFERD
 40
0.0
  9
$SKPOLY
 70
     0
  9
$TDCREATE
 40
2452836.771637361
  9
$TDUPDATE
 40
2453152.463607025
  9
$TDINDWG
 40
0.0759590278
  9
$TDUSRTIMER
 40
0.0759590278
  9
$USRTIMER
 70
     1
  9
$ANGBASE
 50
0.0
  9
$ANGDIR
 70
     0
  9
$PDMODE
 70
     0
  9
$PDSIZE
 40
0.0
  9
$PLINEWID
 40
0.0
  9
$COORDS
 70
     1
  9
$SPLFRAME
 70
     0
  9
$SPLINETYPE
 70
     6
  9
$SPLINESEGS
 70
     8
  9
$ATTDIA
 70
     1
  9
$ATTREQ
 70
     1
  9
$HANDLING
 70
 12289
  9
$HANDSEED
  5
2819
  9
$SURFTAB1
 70
     6
  9
$SURFTAB2
 70
     6
  9
$SURFTYPE
 70
     6
  9
$SURFU
 70
     6
  9
$SURFV
 70
     6
  9
$UCSNAME
  2

  9
$UCSORG
 10
0.0
 20
0.0
 30
0.0
  9
$UCSXDIR
 10
1.0
 20
0.0
 30
0.0
  9
$UCSYDIR
 10
0.0
 20
1.0
 30
0.0
  9
$PUCSNAME
  2

  9
$PUCSORG
 10
0.0
 20
0.0
 30
0.0
  9
$PUCSXDIR
 10
1.0
 20
0.0
 30
0.0
  9
$PUCSYDIR
 10
0.0
 20
1.0
 30
0.0
  9
$USERI1
 70
     0
  9
$USERI2
 70
     0
  9
$USERI3
 70
     0
  9
$USERI4
 70
     0
  9
$USERI5
 70
     0
  9
$USERR1
 40
0.0
  9
$USERR2
 40
0.0
  9
$USERR3
 40
0.0
  9
$USERR4
 40
0.0
  9
$USERR5
 40
0.0
  9
$WORLDVIEW
 70
     1
  9
$SHADEDGE
 70
     3
  9
$SHADEDIF
 70
    70
  9
$TILEMODE
 70
     1
  9
$MAXACTVP
 70
    64
  9
$PINSBASE
 10
0.0
 20
0.0
 30
0.0
  9
$PLIMCHECK
 70
     0
  9
$PEXTMIN
 10
1.000000000000000E+20
 20
1.000000000000000E+20
 30
1.000000000000000E+20
  9
$PEXTMAX
 10
-1.000000000000000E+20
 20
-1.000000000000000E+20
 30
-1.000000000000000E+20
  9
$PLIMMIN
 10
0.0
 20
0.0
  9
$PLIMMAX
 10
841.0
 20
594.0
  9
$UNITMODE
 70
     0
  9
$VISRETAIN
 70
     1
  9
$PLINEGEN
 70
     0
  9
$PSLTSCALE
 70
     0
  9
$TREEDEPTH
 70
  3020
  9
$PICKSTYLE
 70
     0
  9
$CMLSTYLE
  2
STANDARD
  9
$CMLJUST
 70
     0
  9
$CMLSCALE
 40
20.0
  9
$PROXYGRAPHICS
 70
     1
  9
$MEASUREMENT
 70
     1
  0
ENDSEC
  0
SECTION
  2
CLASSES
  0
CLASS
  1
ACDBDICTIONARYWDFLT
  2
AcDbDictionaryWithDefault
  3
AutoCAD 2000
 90
        0
280
     0
281
     0
  0
CLASS
  1
ACDBPLACEHOLDER
  2
AcDbPlaceHolder
  3
AutoCAD 2000
 90
        0
280
     0
281
     0
  0
CLASS
  1
LAYOUT
  2
AcDbLayout
  3
AutoCAD 2000
 90
        0
280
     0
281
     0
  0
CLASS
  1
AMGSETTINGSOBJ
  2
AmgSettingsObj
  3
"AcadM|Product Description: AutoCAD Mechanical 2000|Company: Autodesk"
 90
        0
280
     0
281
     0
  0
CLASS
  1
ACME_DOCUMENT
  2
AcMeDbDoc
  3
AcMeServices
 90
        0
280
     0
281
     0
  0
CLASS
  1
ACMESCOPE
  2
AcMeScope
  3
AcMeServices
 90
        0
280
     0
281
     0
  0
CLASS
  1
ACMECOMMANDHISTORY
  2
AcMeCommandHistory
  3
AcMeServices
 90
        0
280
     0
281
     0
  0
CLASS
  1
DICTIONARYVAR
  2
AcDbDictionaryVar
  3
AutoCAD 2000
 90
        0
280
     0
281
     0
  0
CLASS
  1
ACIMSYSVARMAN
  2
AcImSysVarManager
  3
AcMeServices
 90
        0
280
     0
281
     0
  0
CLASS
  1
ACIMREALSYSVAR
  2
AcImRealSysVar
  3
AcMeServices
 90
        0
280
     0
281
     0
  0
CLASS
  1
ACIMINTSYSVAR
  2
AcImIntSysVar
  3
AcMeServices
 90
        0
280
     0
281
     0
  0
CLASS
  1
ACMEDRAWINGMAN
  2
AcMeDrawingMan
  3
AcMeServices
 90
        0
280
     0
281
     0
  0
CLASS
  1
ACMEVIEW
  2
AcMeView
  3
AcMeServices
 90
        0
280
     0
281
     0
  0
CLASS
  1
ACDBENTITYCACHE
  2
AcMeEntityCache
  3
AcMeServices
 90
        0
280
     0
281
     0
  0
CLASS
  1
GSMANAGER
  2
AcMeGSManager
  3
AcMeServices
 90
        0
280
     0
281
     0
  0
CLASS
  1
AmdtInternalReactor
  2
AmdtInternalReactor
  3
AcMeServices
 90
        0
280
     0
281
     0
  0
CLASS
  1
ACMESTATEMGR
  2
AcMeStateMgr
  3
AcMeServices
 90
        0
280
     0
281
     0
  0
CLASS
  1
ACME_DATABASE
  2
AcMeDbDatabase
  3
AcMeServices
 90
        0
280
     0
281
     0
  0
CLASS
  1
ACRFINSADJUSTERMGR
  2
AcRfInsAdjusterMgr
  3
AcMeServices
 90
        0
280
     0
281
     0
  0
CLASS
  1
ACMDATADICTIONARY
  2
AcmDataDictionary
  3
"AcmSymBB|Product Description: AutoCAD Mechanical 2000|Company: Autodesk"
 90
        0
280
     0
281
     0
  0
CLASS
  1
ACMDATAENTRYBLOCK
  2
AcmDataEntryBlock
  3
"AcmSymBB|Product Description: AutoCAD Mechanical 2000|Company: Autodesk"
 90
        0
280
     0
281
     0
  0
CLASS
  1
AMGOBJPROPCFG
  2
AmgObjPropCfg
  3
"AmgLay|Product Description: AutoCAD Mechanical 2000|Company: Autodesk"
 90
        1
280
     0
281
     0
  0
CLASS
  1
ACAMGFILTERDAT
  2
AcAmgFilterDat
  3
"AcadM|Product Description: AutoCAD Mechanical 2000|Company: Autodesk"
 90
        0
280
     0
281
     0
  0
CLASS
  1
LAYER_INDEX
  2
AcDbLayerIndex
  3
AutoCAD 2000
 90
        0
280
     0
281
     0
  0
CLASS
  1
IDBUFFER
  2
AcDbIdBuffer
  3
AutoCAD 2000
 90
        0
280
     0
281
     0
  0
CLASS
  1
ACIMSTRSYSVAR
  2
AcImStrSysVar
  3
AcMeServices
 90
        0
280
     0
281
     0
  0
CLASS
  1
ACMSTANDARDJIS
  2
AcmStandardJIS
  3
"AcmSymBB|Product Description: AutoCAD Mechanical 2000|Company: Autodesk"
 90
        0
280
     0
281
     0
  0
CLASS
  1
ACMSURFSTANDARDJIS
  2
AcmSurfTextStdJIS
  3
"AcmSymBB|Product Description: AutoCAD Mechanical 2000|Company: Autodesk"
 90
        0
280
     0
281
     0
  0
CLASS
  1
ACMFCFSTANDARDJIS
  2
AcmFCFStdJIS
  3
"AcmSymBB|Product Description: AutoCAD Mechanical 2000|Company: Autodesk"
 90
        0
280
     0
281
     0
  0
CLASS
  1
ACMWELDSTANDARDJIS
  2
AcmWeldingStdJIS
  3
"AcmSymBB|Product Description: AutoCAD Mechanical 2000|Company: Autodesk"
 90
        0
280
     0
281
     0
  0
CLASS
  1
ACMIDSTANDARDJIS
  2
AcmIdStdJIS
  3
"AcmSymBB|Product Description: AutoCAD Mechanical 2000|Company: Autodesk"
 90
        0
280
     0
281
     0
  0
CLASS
  1
ACMDATUMSTANDARDJIS
  2
AcmDatumStdJIS
  3
"AcmSymBB|Product Description: AutoCAD Mechanical 2000|Company: Autodesk"
 90
        0
280
     0
281
     0
  0
CLASS
  1
ACMBOMSTANDARDJIS
  2
AcmBOMStdJIS
  3
"AcmSymBB|Product Description: AutoCAD Mechanical 2000|Company: Autodesk"
 90
        0
280
     0
281
     0
  0
CLASS
  1
ACMSTANDARDANSI
  2
AcmStandardANSI
  3
"AcmSymBB|Product Description: AutoCAD Mechanical 2000|Company: Autodesk"
 90
        0
280
     0
281
     0
  0
CLASS
  1
ACMSURFSTANDARDANSI
  2
AcmSurfTextStdANSI
  3
"AcmSymBB|Product Description: AutoCAD Mechanical 2000|Company: Autodesk"
 90
        0
280
     0
281
     0
  0
CLASS
  1
ACMFCFSTANDARDANSI
  2
AcmFCFStdANSI
  3
"AcmSymBB|Product Description: AutoCAD Mechanical 2000|Company: Autodesk"
 90
        0
280
     0
281
     0
  0
CLASS
  1
ACMWELDSTANDARDANSI
  2
AcmWeldingStdANSI
  3
"AcmSymBB|Product Description: AutoCAD Mechanical 2000|Company: Autodesk"
 90
        0
280
     0
281
     0
  0
CLASS
  1
ACMIDSTANDARDANSI
  2
AcmIdStdANSI
  3
"AcmSymBB|Product Description: AutoCAD Mechanical 2000|Company: Autodesk"
 90
        0
280
     0
281
     0
  0
CLASS
  1
ACMDATUMSTANDARDANSI
  2
AcmDatumStdANSI
  3
"AcmSymBB|Product Description: AutoCAD Mechanical 2000|Company: Autodesk"
 90
        0
280
     0
281
     0
  0
CLASS
  1
ACMBOMSTANDARDANSI
  2
AcmBOMStdANSI
  3
"AcmSymBB|Product Description: AutoCAD Mechanical 2000|Company: Autodesk"
 90
        0
280
     0
281
     0
  0
CLASS
  1
ACMSTANDARDBSI
  2
AcmStandardBSI
  3
"AcmSymBB|Product Description: AutoCAD Mechanical 2000|Company: Autodesk"
 90
        0
280
     0
281
     0
  0
CLASS
  1
ACMSURFSTANDARDBSI
  2
AcmSurfTextStdBSI
  3
"AcmSymBB|Product Description: AutoCAD Mechanical 2000|Company: Autodesk"
 90
        0
280
     0
281
     0
  0
CLASS
  1
ACMFCFSTANDARDBSI
  2
AcmFCFStdBSI
  3
"AcmSymBB|Product Description: AutoCAD Mechanical 2000|Company: Autodesk"
 90
        0
280
     0
281
     0
  0
CLASS
  1
ACMWELDSTANDARDBSI
  2
AcmWeldingStdBSI
  3
"AcmSymBB|Product Description: AutoCAD Mechanical 2000|Company: Autodesk"
 90
        0
280
     0
281
     0
  0
CLASS
  1
ACMIDSTANDARDBSI
  2
AcmIdStdBSI
  3
"AcmSymBB|Product Description: AutoCAD Mechanical 2000|Company: Autodesk"
 90
        0
280
     0
281
     0
  0
CLASS
  1
ACMDATUMSTANDARDBSI
  2
AcmDatumStdBSI
  3
"AcmSymBB|Product Description: AutoCAD Mechanical 2000|Company: Autodesk"
 90
        0
280
     0
281
     0
  0
CLASS
  1
ACMBOMSTANDARDBSI
  2
AcmBOMStdBSI
  3
"AcmSymBB|Product Description: AutoCAD Mechanical 2000|Company: Autodesk"
 90
        0
280
     0
281
     0
  0
CLASS
  1
LONG_TRANSACTION
  2
AcDbLongTransaction
  3
AutoCAD 2000
 90
        0
280
     0
281
     0
  0
CLASS
  1
LWPOLYLINE
  2
AcDbPolyline
  3
AutoCAD 2000
 90
        0
280
     0
281
     1
  0
CLASS
  1
HATCH
  2
AcDbHatch
  3
AutoCAD 2000
 90
        0
280
     0
281
     1
  0
CLASS
  1
XRECORD
  2
AcDbXrecord
  3
AutoCAD 2000
 90
        0
280
     0
281
     0
  0
ENDSEC
  0
SECTION
  2
TABLES
  0
TABLE
  2
VPORT
  5
8
330
0
100
AcDbSymbolTable
 70
     3
  0
VPORT
  5
27EE
330
8
100
AcDbSymbolTableRecord
100
AcDbViewportTableRecord
  2
*ACTIVE
 70
     0
 10
0.0
 20
0.0
 11
1.0
 21
1.0
 12
-28.41469794533777
 22
-1.566160073927825
 13
0.0
 23
0.0
 14
2.5
 24
2.5
 15
10.0
 25
10.0
 16
0.0
 26
0.0
 36
1.0
 17
0.0
 27
0.0
 37
0.0
 40
102.1150139784109
 41
1.56570841889117
 42
50.0
 43
0.0
 44
0.0
 50
0.0
 51
0.0
 71
     0
 72
   100
 73
     1
 74
     3
 75
     0
 76
     0
 77
     0
 78
     0
  0
ENDTAB
  0
TABLE
  2
LTYPE
  5
5
330
0
100
AcDbSymbolTable
 70
    10
  0
LTYPE
  5
14
330
5
100
AcDbSymbolTableRecord
100
AcDbLinetypeTableRecord
  2
BYBLOCK
 70
     0
  3

 72
    65
 73
     0
 40
0.0
  0
LTYPE
  5
15
330
5
100
AcDbSymbolTableRecord
100
AcDbLinetypeTableRecord
  2
BYLAYER
 70
     0
  3

 72
    65
 73
     0
 40
0.0
  0
LTYPE
  5
16
330
5
100
AcDbSymbolTableRecord
100
AcDbLinetypeTableRecord
  2
CONTINUOUS
 70
     0
  3
Solid line
 72
    65
 73
     0
 40
0.0
  0
LTYPE
  5
4B
330
5
100
AcDbSymbolTableRecord
100
AcDbLinetypeTableRecord
  2
AM_ISO02W050
 70
     0
  3
__ __ __ __ __ __ __ __ __ __ __ __ __ __ __
 72
    65
 73
     2
 40
7.5
 49
6.0
 74
     0
 49
-1.5
 74
     0
  0
LTYPE
  5
4C
330
5
100
AcDbSymbolTableRecord
100
AcDbLinetypeTableRecord
  2
AM_ISO08W050
 70
     0
  3
____ . ____ . ____ . ____ . ____ . ____ . ____
 72
    65
 73
     4
 40
18.0
 49
12.0
 74
     0
 49
-1.5
 74
     0
 49
3.0
 74
     0
 49
-1.5
 74
     0
  0
LTYPE
  5
4D
330
5
100
AcDbSymbolTableRecord
100
AcDbLinetypeTableRecord
  2
AM_ISO09W050
 70
     0
  3
_____ . . _____ . . _____ . . ____ .. ____
 72
    65
 73
     6
 40
22.5
 49
12.0
 74
     0
 49
-1.5
 74
     0
 49
3.0
 74
     0
 49
-1.5
 74
     0
 49
3.0
 74
     0
 49
-1.5
 74
     0
  0
LTYPE
  5
4E
330
5
100
AcDbSymbolTableRecord
100
AcDbLinetypeTableRecord
  2
AMCONSTR
 70
     0
  3
_______________________
 72
    65
 73
     2
 40
9999.0
 49
9999.0
 74
     0
 49
0.0
 74
     0
  0
LTYPE
  5
4F
330
5
100
AcDbSymbolTableRecord
100
AcDbLinetypeTableRecord
  2
AM_ISO02W050X2
 70
     0
  3
 _ _ _ _ _ _ _ _ _ _ _ _
 72
    65
 73
     2
 40
3.75
 49
3.0
 74
     0
 49
-0.75
 74
     0
  0
LTYPE
  5
50
330
5
100
AcDbSymbolTableRecord
100
AcDbLinetypeTableRecord
  2
AM_ISO08W050X2
 70
     0
  3
__ . __ . __ . __ . __ . __
 72
    65
 73
     4
 40
9.0
 49
6.0
 74
     0
 49
-0.75
 74
     0
 49
1.5
 74
     0
 49
-0.75
 74
     0
  0
LTYPE
  5
53
330
5
100
AcDbSymbolTableRecord
100
AcDbLinetypeTableRecord
  2
AMZIGZAG
 70
     0
  3
/\/-/\/-/\/-/\/-/\/-/\/
 72
    65
 73
     2
 40
11.00009999999999
 49
0.0001
 74
     4
 75
   135
340
52
 46
0.04
 50
0.0
 44
0.0
 45
0.0
 49
-11.0
 74
     0
  0
LTYPE
  5
166
330
5
100
AcDbSymbolTableRecord
100
AcDbLinetypeTableRecord
  2
ACJISTGL
 70
     0
  3
_ _ _ _ _
 72
    65
 73
     2
 40
3.0
 49
2.0
 74
     0
 49
-1.0
 74
     0
  0
LTYPE
  5
26A
330
5
100
AcDbSymbolTableRecord
100
AcDbLinetypeTableRecord
  2
ACJISTGB
 70
     0
  3
__ . . __ . .
 72
    65
 73
     6
 40
9.0
 49
4.0
 74
     0
 49
-1.0
 74
     0
 49
1.0
 74
     0
 49
-1.0
 74
     0
 49
1.0
 74
     0
 49
-1.0
 74
     0
  0
ENDTAB
  0
TABLE
  2
LAYER
  5
2
330
0
100
AcDbSymbolTable
 70
     7
  0
LAYER
  5
10
330
2
100
AcDbSymbolTableRecord
100
AcDbLayerTableRecord
  2
0
 70
     0
 62
     7
  6
CONTINUOUS
  0
LAYER
  5
3F9
330
2
100
AcDbSymbolTableRecord
100
AcDbLayerTableRecord
  2
AM_0
 70
     0
 62
     7
  6
CONTINUOUS
  0
LAYER
  5
BD4
330
2
100
AcDbSymbolTableRecord
100
AcDbLayerTableRecord
  2
AM_11
 70
     0
 62
     3
  6
AM_ISO09W050
  0
LAYER
  5
BD5
330
2
100
AcDbSymbolTableRecord
100
AcDbLayerTableRecord
  2
AM_7
 70
     0
 62
     4
  6
AM_ISO08W050
  0
LAYER
  5
BD6
330
2
100
AcDbSymbolTableRecord
100
AcDbLayerTableRecord
  2
AM_5
 70
     0
 62
     3
  6
CONTINUOUS
  0
LAYER
  5
BD7
330
2
100
AcDbSymbolTableRecord
100
AcDbLayerTableRecord
  2
DEFPOINTS
 70
     0
 62
     7
  6
CONTINUOUS
  0
LAYER
  5
E59
330
2
100
AcDbSymbolTableRecord
100
AcDbLayerTableRecord
  2
AM_6
 70
     0
 62
     2
  6
CONTINUOUS
  0
ENDTAB
  0
TABLE
  2
STYLE
  5
3
330
0
100
AcDbSymbolTable
 70
     5
  0
STYLE
  5
11
330
3
100
AcDbSymbolTableRecord
100
AcDbTextStyleTableRecord
  2
STANDARD
 70
     0
 40
0.0
 41
1.0
 50
0.0
 71
     0
 42
2.5
  3
simplex.shx
  4
EXTFONT.SHX
  0
STYLE
  5
52
330
3
100
AcDbSymbolTableRecord
100
AcDbTextStyleTableRecord
  2

 70
     1
 40
0.0
 41
1.0
 50
0.0
 71
     0
 42
2.5
  3
ltypeshp.shx
  4

  0
STYLE
  5
6B
330
3
100
AcDbSymbolTableRecord
100
AcDbTextStyleTableRecord
  2
ASAMI
 70
     0
 40
0.0
 41
1.0
 50
0.0
 71
     0
 42
2.5
  3
simplex.shx
  4
EXTFONT.SHX
  0
STYLE
  5
262
330
3
100
AcDbSymbolTableRecord
100
AcDbTextStyleTableRecord
  2
ACJISTS
 70
     0
 40
1.0
 41
1.0
 50
0.0
 71
     0
 42
2.5
  3
simplex.shx
  4
bigfont.shx
  0
STYLE
  5
269
330
3
100
AcDbSymbolTableRecord
100
AcDbTextStyleTableRecord
  2
ACJISGDT
 70
     0
 40
0.0
 41
1.0
 50
0.0
 71
     0
 42
2.5
  3
amgdtans.shx
  4

  0
ENDTAB
  0
TABLE
  2
VIEW
  5
6
330
0
100
AcDbSymbolTable
 70
     0
  0
ENDTAB
  0
TABLE
  2
UCS
  5
7
330
0
100
AcDbSymbolTable
 70
     0
  0
ENDTAB
  0
TABLE
  2
APPID
  5
9
330
0
100
AcDbSymbolTable
 70
    12
  0
APPID
  5
12
330
9
100
AcDbSymbolTableRecord
100
AcDbRegAppTableRecord
  2
ACAD
 70
     0
  0
APPID
  5
30
330
9
100
AcDbSymbolTableRecord
100
AcDbRegAppTableRecord
  2
MCAD_NO_VIS
 70
     0
  0
APPID
  5
31
330
9
100
AcDbSymbolTableRecord
100
AcDbRegAppTableRecord
  2
ACAD_TEMP_GRAPHIC
 70
     0
  0
APPID
  5
2C2
330
9
100
AcDbSymbolTableRecord
100
AcDbRegAppTableRecord
  2
GENIUS_GENDTOL_13
 70
     0
  0
APPID
  5
339
330
9
100
AcDbSymbolTableRecord
100
AcDbRegAppTableRecord
  2
GENIUS_GENODEF_13
 70
     0
  0
APPID
  5
33A
330
9
100
AcDbSymbolTableRecord
100
AcDbRegAppTableRecord
  2
GENIUS_GENOBJ-N-RSBK_13
 70
     0
  0
APPID
  5
33B
330
9
100
AcDbSymbolTableRecord
100
AcDbRegAppTableRecord
  2
GENIUS_GENOBJ-N-LIB_13
 70
     0
  0
APPID
  5
33C
330
9
100
AcDbSymbolTableRecord
100
AcDbRegAppTableRecord
  2
GENIUS_GENSCALE_13
 70
     0
  0
APPID
  5
378
330
9
100
AcDbSymbolTableRecord
100
AcDbRegAppTableRecord
  2
GENIUS_GENDIMSH_14
 70
     0
  0
APPID
  5
BD8
330
9
100
AcDbSymbolTableRecord
100
AcDbRegAppTableRecord
  2
GENIUS_GENOBJ-N-CEN_13
 70
     0
  0
APPID
  5
BD9
330
9
100
AcDbSymbolTableRecord
100
AcDbRegAppTableRecord
  2
GENIUS_GENFIL_13
 70
     0
  0
APPID
  5
BDA
330
9
100
AcDbSymbolTableRecord
100
AcDbRegAppTableRecord
  2
GENIUS_GENOBJ-N-CHA_13
 70
     0
  0
ENDTAB
  0
TABLE
  2
DIMSTYLE
  5
A
330
0
100
AcDbSymbolTable
 70
     8
  0
DIMSTYLE
105
58
102
{ACAD_REACTORS
330
1EE3
330
1F73
330
2008
330
2667
102
}
330
A
100
AcDbSymbolTableRecord
100
AcDbDimStyleTableRecord
  2
AM_JIS
 70
     0
  3

  4
"
  5
OPEN30
  6

  7

 40
0.5
 41
2.5
 42
1.0
 43
12.0
 44
1.0
 45
0.0
 46
0.0
 47
0.1
 48
0.1
140
3.2
141
0.0
142
0.0
143
0.0393701
144
1.0
145
0.0
146
0.71
147
1.5
 71
     0
 72
     0
 73
     0
 74
     0
 75
     0
 76
     0
 77
     3
 78
     8
170
     0
171
     2
172
     1
173
     0
174
     0
175
     0
176
   256
177
   256
178
     2
270
     2
271
     3
272
     3
273
     2
274
     2
340
6B
275
     0
280
     0
281
     0
282
     0
283
     0
284
     0
285
     0
286
     0
287
     3
288
     0
  0
DIMSTYLE
105
5F
330
A
100
AcDbSymbolTableRecord
100
AcDbDimStyleTableRecord
  2
AM_JIS$3
 70
     0
  3

  4
"
  5
OPEN30
  6

  7

 40
0.5
 41
2.5
 42
1.0
 43
10.0
 44
1.0
 45
0.0
 46
0.0
 47
0.1
 48
0.1
140
3.2
141
0.0
142
0.0
143
0.0393701
144
1.0
145
0.0
146
0.71
147
1.5
 71
     0
 72
     0
 73
     0
 74
     1
 75
     0
 76
     0
 77
     3
 78
     8
170
     0
171
     2
172
     0
173
     0
174
     0
175
     0
176
   256
177
   256
178
     2
270
     2
271
     2
272
     3
273
     2
274
     2
340
6B
275
     0
280
     0
281
     0
282
     0
283
     0
284
     0
285
     0
286
     0
287
     0
288
     1
  0
DIMSTYLE
105
60
330
A
100
AcDbSymbolTableRecord
100
AcDbDimStyleTableRecord
  2
AM_JIS$4
 70
     0
  3

  4
"
  5
OPEN30
  6

  7

 40
0.5
 41
2.5
 42
1.0
 43
10.0
 44
1.0
 45
0.0
 46
0.0
 47
0.1
 48
0.1
140
3.2
141
0.0
142
0.0
143
0.0393701
144
1.0
145
0.0
146
0.71
147
1.5
 71
     0
 72
     0
 73
     0
 74
     1
 75
     0
 76
     0
 77
     3
 78
     8
170
     0
171
     2
172
     0
173
     0
174
     0
175
     0
176
   256
177
   256
178
     2
270
     2
271
     2
272
     3
273
     2
274
     2
340
6B
275
     0
280
     0
281
     0
282
     0
283
     0
284
     0
285
     0
286
     0
287
     0
288
     1
  0
DIMSTYLE
105
61
330
A
100
AcDbSymbolTableRecord
100
AcDbDimStyleTableRecord
  2
AM_JIS$6
 70
     0
  3

  4
"
  5
OPEN30
  6

  7

 40
0.5
 41
2.5
 42
1.0
 43
10.0
 44
1.0
 45
0.0
 46
0.0
 47
0.1
 48
0.1
140
3.2
141
0.0
142
0.0
143
0.0393701
144
1.0
145
0.0
146
0.71
147
1.5
 71
     0
 72
     0
 73
     0
 74
     0
 75
     0
 76
     0
 77
     0
 78
     8
170
     0
171
     2
172
     1
173
     0
174
     0
175
     0
176
   256
177
   256
178
     2
270
     2
271
     2
272
     2
273
     2
274
     2
340
6B
275
     0
280
     0
281
     0
282
     0
283
     0
284
     0
285
     0
286
     0
287
     3
288
     0
  0
DIMSTYLE
105
62
330
A
100
AcDbSymbolTableRecord
100
AcDbDimStyleTableRecord
  2
AM_JIS$7
 70
     0
  3

  4
"
  5
OPEN30
  6

  7

 40
0.5
 41
2.5
 42
1.0
 43
10.0
 44
1.0
 45
0.0
 46
0.0
 47
0.1
 48
0.1
140
3.2
141
0.0
142
0.0
143
0.0393701
144
1.0
145
0.0
146
0.71
147
1.5
 71
     0
 72
     0
 73
     0
 74
     0
 75
     0
 76
     0
 77
     3
 78
     8
170
     0
171
     2
172
     1
173
     0
174
     0
175
     0
176
   256
177
   256
178
     2
270
     2
271
     2
272
     3
273
     2
274
     2
340
6B
275
     0
280
     0
281
     0
282
     0
283
     0
284
     0
285
     0
286
     0
287
     3
288
     0
  0
DIMSTYLE
105
63
330
A
100
AcDbSymbolTableRecord
100
AcDbDimStyleTableRecord
  2
AM_JIS$SF
 70
     0
  3

  4
"
  5
OPEN30
  6

  7

 40
0.5
 41
2.5
 42
1.0
 43
10.0
 44
1.0
 45
0.0
 46
0.0
 47
0.1
 48
0.1
140
3.2
141
0.0
142
0.0
143
0.0393701
144
1.0
145
0.0
146
0.71
147
1.5
 71
     0
 72
     0
 73
     0
 74
     0
 75
     1
 76
     1
 77
     3
 78
     8
170
     0
171
     2
172
     1
173
     0
174
     0
175
     0
176
   256
177
   256
178
     2
270
     2
271
     2
272
     2
273
     2
274
     2
340
6B
275
     0
280
     0
281
     0
282
     0
283
     0
284
     0
285
     0
286
     0
287
     3
288
     0
  0
DIMSTYLE
105
68
330
A
100
AcDbSymbolTableRecord
100
AcDbDimStyleTableRecord
  2
AM_JIS$SH
 70
     0
  3

  4
"
  5

  6
GENAXEH
  7
OPEN30
 40
0.5
 41
2.5
 42
1.0
 43
10.0
 44
1.0
 45
0.0
 46
0.0
 47
0.1
 48
0.1
140
3.2
141
0.0
142
0.0
143
0.0393701
144
2.0
145
0.0
146
0.71
147
1.5
 71
     0
 72
     0
 73
     0
 74
     0
 75
     1
 76
     1
 77
     3
 78
     8
170
     0
171
     2
172
     1
173
     1
174
     0
175
     0
176
   256
177
   256
178
     2
270
     2
271
     2
272
     2
273
     2
274
     2
340
6B
275
     0
280
     0
281
     0
282
     0
283
     0
284
     0
285
     0
286
     0
287
     3
288
     0
  0
DIMSTYLE
105
B34
330
A
100
AcDbSymbolTableRecord
100
AcDbDimStyleTableRecord
  2
AM_JIS$2
 70
     0
  3

  4
"
  5
OPEN30
  6

  7

 40
0.5
 41
2.5
 42
1.0
 43
12.0
 44
1.0
 45
0.0
 46
0.0
 47
0.1
 48
0.1
140
3.2
141
0.0
142
0.0
143
0.0393701
144
1.0
145
0.0
146
0.71
147
1.5
 71
     0
 72
     0
 73
     0
 74
     0
 75
     0
 76
     0
 77
     3
 78
     8
170
     0
171
     2
172
     1
173
     0
174
     0
175
     0
176
   256
177
   256
178
     2
270
     2
271
     3
272
     3
273
     2
274
     2
340
6B
275
     0
280
     0
281
     0
282
     0
283
     0
284
     0
285
     0
286
     0
287
     3
288
     0
  0
ENDTAB
  0
TABLE
  2
BLOCK_RECORD
  5
1
330
0
100
AcDbSymbolTable
 70
     9
  0
BLOCK_RECORD
  5
1F
102
{ACAD_XDICTIONARY
360
74
102
}
330
1
100
AcDbSymbolTableRecord
100
AcDbBlockTableRecord
  2
*MODEL_SPACE
  0
BLOCK_RECORD
  5
101
102
{ACAD_XDICTIONARY
360
2817
102
}
330
1
100
AcDbSymbolTableRecord
100
AcDbBlockTableRecord
  2
*PAPER_SPACE
  0
BLOCK_RECORD
  5
59
330
1
100
AcDbSymbolTableRecord
100
AcDbBlockTableRecord
  2
_OPEN30
  0
BLOCK_RECORD
  5
64
330
1
100
AcDbSymbolTableRecord
100
AcDbBlockTableRecord
  2
GENAXEH
  0
BLOCK_RECORD
  5
1EE4
330
1
100
AcDbSymbolTableRecord
100
AcDbBlockTableRecord
  2
*D5
  0
BLOCK_RECORD
  5
1F74
330
1
100
AcDbSymbolTableRecord
100
AcDbBlockTableRecord
  2
*D6
  0
BLOCK_RECORD
  5
2009
330
1
100
AcDbSymbolTableRecord
100
AcDbBlockTableRecord
  2
*D7
  0
BLOCK_RECORD
  5
2668
330
1
100
AcDbSymbolTableRecord
100
AcDbBlockTableRecord
  2
*D8
  0
ENDTAB
  0
ENDSEC
  0
SECTION
  2
BLOCKS
  0
BLOCK
  5
20
330
1F
100
AcDbEntity
  8
0
100
AcDbBlockBegin
  2
*MODEL_SPACE
 70
     0
 10
0.0
 20
0.0
 30
0.0
  3
*MODEL_SPACE
  1

  0
ENDBLK
  5
21
330
1F
100
AcDbEntity
  8
0
100
AcDbBlockEnd
  0
BLOCK
  5
103
330
101
100
AcDbEntity
 67
     1
  8
0
100
AcDbBlockBegin
  2
*PAPER_SPACE
 70
     0
 10
0.0
 20
0.0
 30
0.0
  3
*PAPER_SPACE
  1

  0
ENDBLK
  5
104
330
101
100
AcDbEntity
 67
     1
  8
0
100
AcDbBlockEnd
  0
BLOCK
  5
5D
330
59
100
AcDbEntity
  8
0
100
AcDbBlockBegin
  2
_OPEN30
 70
     0
 10
0.0
 20
0.0
 30
0.0
  3
_OPEN30
  1

  0
LINE
  5
5A
330
59
100
AcDbEntity
  8
0
 62
     0
100
AcDbLine
 10
-1.0
 20
0.26794919
 30
0.0
 11
0.0
 21
0.0
 31
0.0
  0
LINE
  5
5B
330
59
100
AcDbEntity
  8
0
 62
     0
100
AcDbLine
 10
0.0
 20
0.0
 30
0.0
 11
-1.0
 21
-0.26794919
 31
0.0
  0
LINE
  5
5C
330
59
100
AcDbEntity
  8
0
 62
     0
100
AcDbLine
 10
0.0
 20
0.0
 30
0.0
 11
-1.0
 21
0.0
 31
0.0
  0
ENDBLK
  5
5E
330
59
100
AcDbEntity
  8
0
100
AcDbBlockEnd
  0
BLOCK
  5
66
330
64
100
AcDbEntity
  8
0
100
AcDbBlockBegin
  2
GENAXEH
 70
     0
 10
0.0
 20
0.0
 30
0.0
  3
GENAXEH
  1

  0
LINE
  5
65
330
64
100
AcDbEntity
  8
0
100
AcDbLine
 10
-1.0
 20
0.0
 30
0.0
 11
1.0
 21
0.0
 31
0.0
  0
ENDBLK
  5
67
330
64
100
AcDbEntity
  8
0
100
AcDbBlockEnd
  0
BLOCK
  5
1EEE
330
1EE4
100
AcDbEntity
  8
0
100
AcDbBlockBegin
  2
*D5
 70
     1
 10
0.0
 20
0.0
 30
0.0
  3
*D5
  1

  0
LINE
  5
272D
330
1EE4
100
AcDbEntity
  8
AM_5
100
AcDbLine
 10
-25.00000000000024
 20
-6.499999999999952
 30
0.0
 11
-25.00000000000024
 21
-13.50188404931243
 31
0.0
  0
LINE
  5
272E
330
1EE4
100
AcDbEntity
  8
AM_5
100
AcDbLine
 10
0.0000000000000142
 20
-6.5
 30
0.0
 11
0.0000000000000138
 21
-13.50188404931243
 31
0.0
  0
LINE
  5
272F
330
1EE4
100
AcDbEntity
  8
AM_5
100
AcDbLine
 10
-23.75000000000024
 20
-13.00188404931243
 30
0.0
 11
-1.249999999999986
 21
-13.00188404931243
 31
0.0
  0
INSERT
  5
2730
330
1EE4
100
AcDbEntity
  8
AM_5
100
AcDbBlockReference
  2
_OPEN30
 10
-25.00000000000024
 20
-13.00188404931243
 30
0.0
 41
1.25
 42
1.25
 43
1.25
 50
180.0
  0
INSERT
  5
2731
330
1EE4
100
AcDbEntity
  8
AM_5
100
AcDbBlockReference
  2
_OPEN30
 10
0.0000000000000138
 20
-13.00188404931243
 30
0.0
 41
1.25
 42
1.25
 43
1.25
  0
MTEXT
  5
2732
330
1EE4
100
AcDbEntity
  8
AM_5
 62
     2
100
AcDbMText
 10
-12.50000000000011
 20
-11.45188404931243
 30
0.0
 40
1.6
 41
0.0
 71
     5
 72
     1
  1
25
  7
ASAMI
1001
ACAD
1000
MTEXTBEGIN
1070
    73
1070
     1
1070
    44
1040
1.0
1070
    74
1070
     0
1000
MTEXTEND
  0
POINT
  5
2733
330
1EE4
100
AcDbEntity
  8
DEFPOINTS
 62
     0
100
AcDbPoint
 10
-25.00000000000024
 20
-5.999999999999952
 30
0.0
  0
POINT
  5
2734
330
1EE4
100
AcDbEntity
  8
DEFPOINTS
 62
     0
100
AcDbPoint
 10
0.0000000000000142
 20
-6.0
 30
0.0
  0
POINT
  5
2735
330
1EE4
100
AcDbEntity
  8
DEFPOINTS
 62
     0
100
AcDbPoint
 10
0.0000000000000138
 20
-13.00188404931243
 30
0.0
  0
ENDBLK
  5
1EEF
330
1EE4
100
AcDbEntity
  8
0
100
AcDbBlockEnd
  0
BLOCK
  5
1F7E
330
1F74
100
AcDbEntity
  8
0
100
AcDbBlockBegin
  2
*D6
 70
     1
 10
0.0
 20
0.0
 30
0.0
  3
*D6
  1

  0
LINE
  5
2724
330
1F74
100
AcDbEntity
  8
AM_5
100
AcDbLine
 10
-75.00024095285318
 20
-5.50000000000004
 30
0.0
 11
-75.00024095285318
 21
-19.50188404931095
 31
0.0
  0
LINE
  5
2725
330
1F74
100
AcDbEntity
  8
AM_5
100
AcDbLine
 10
0.0000000000000142
 20
-6.5
 30
0.0
 11
0.0000000000000134
 21
-19.50188404931095
 31
0.0
  0
LINE
  5
2726
330
1F74
100
AcDbEntity
  8
AM_5
100
AcDbLine
 10
-73.75024095285318
 20
-19.00188404931095
 30
0.0
 11
-1.249999999999986
 21
-19.00188404931095
 31
0.0
  0
INSERT
  5
2727
330
1F74
100
AcDbEntity
  8
AM_5
100
AcDbBlockReference
  2
_OPEN30
 10
-75.00024095285318
 20
-19.00188404931095
 30
0.0
 41
1.25
 42
1.25
 43
1.25
 50
180.0
  0
INSERT
  5
2728
330
1F74
100
AcDbEntity
  8
AM_5
100
AcDbBlockReference
  2
_OPEN30
 10
0.0000000000000134
 20
-19.00188404931095
 30
0.0
 41
1.25
 42
1.25
 43
1.25
  0
MTEXT
  5
2729
330
1F74
100
AcDbEntity
  8
AM_5
 62
     2
100
AcDbMText
 10
-37.50012047642659
 20
-17.45188404931095
 30
0.0
 40
1.6
 41
0.0
 71
     5
 72
     1
  1
75
  7
ASAMI
1001
ACAD
1000
MTEXTBEGIN
1070
    73
1070
     1
1070
    44
1040
1.0
1070
    74
1070
     0
1000
MTEXTEND
  0
POINT
  5
272A
330
1F74
100
AcDbEntity
  8
DEFPOINTS
 62
     0
100
AcDbPoint
 10
-75.00024095285318
 20
-5.00000000000004
 30
0.0
  0
POINT
  5
272B
330
1F74
100
AcDbEntity
  8
DEFPOINTS
 62
     0
100
AcDbPoint
 10
0.0000000000000142
 20
-6.0
 30
0.0
  0
POINT
  5
272C
330
1F74
100
AcDbEntity
  8
DEFPOINTS
 62
     0
100
AcDbPoint
 10
0.0000000000000134
 20
-19.00188404931095
 30
0.0
  0
ENDBLK
  5
1F7F
330
1F74
100
AcDbEntity
  8
0
100
AcDbBlockEnd
  0
BLOCK
  5
2013
330
2009
100
AcDbEntity
  8
0
100
AcDbBlockBegin
  2
*D7
 70
     1
 10
0.0
 20
0.0
 30
0.0
  3
*D7
  1

  0
LINE
  5
27CB
330
2009
100
AcDbEntity
  8
AM_5
100
AcDbLine
 10
0.5
 20
6.0
 30
0.0
 11
8.792714690986034
 21
5.999999999999997
 31
0.0
  0
LINE
  5
27CC
330
2009
100
AcDbEntity
  8
AM_5
100
AcDbLine
 10
0.5000000000000142
 20
-6.0
 30
0.0
 11
8.792714690986031
 21
-6.000000000000002
 31
0.0
  0
LINE
  5
27CD
330
2009
100
AcDbEntity
  8
AM_5
100
AcDbLine
 10
8.292714690986034
 20
4.749999999999997
 30
0.0
 11
8.292714690986031
 21
-4.750000000000002
 31
0.0
  0
INSERT
  5
27CE
330
2009
100
AcDbEntity
  8
AM_5
100
AcDbBlockReference
  2
_OPEN30
 10
8.292714690986034
 20
5.999999999999997
 30
0.0
 41
1.25
 42
1.25
 43
1.25
 50
90.0
  0
INSERT
  5
27CF
330
2009
100
AcDbEntity
  8
AM_5
100
AcDbBlockReference
  2
_OPEN30
 10
8.292714690986031
 20
-6.000000000000002
 30
0.0
 41
1.25
 42
1.25
 43
1.25
 50
270.0
  0
MTEXT
  5
27D0
330
2009
100
AcDbEntity
  8
AM_5
 62
     2
100
AcDbMText
 10
6.742714690986032
 20
-0.0000000000000012
 30
0.0
 40
1.6
 41
0.0
 71
     5
 72
     1
  1
%%c12
  7
ASAMI
 11
0.0000000000000001
 21
1.0
 31
0.0
1001
ACAD
1000
MTEXTBEGIN
1070
    73
1070
     1
1070
    44
1040
1.0
1070
    74
1070
     0
1000
MTEXTEND
  0
POINT
  5
27D1
330
2009
100
AcDbEntity
  8
DEFPOINTS
 62
     0
100
AcDbPoint
 10
0.0
 20
6.0
 30
0.0
  0
POINT
  5
27D2
330
2009
100
AcDbEntity
  8
DEFPOINTS
 62
     0
100
AcDbPoint
 10
0.0000000000000142
 20
-6.0
 30
0.0
  0
POINT
  5
27D3
330
2009
100
AcDbEntity
  8
DEFPOINTS
 62
     0
100
AcDbPoint
 10
8.292714690986031
 20
-6.000000000000002
 30
0.0
  0
ENDBLK
  5
2014
330
2009
100
AcDbEntity
  8
0
100
AcDbBlockEnd
  0
BLOCK
  5
2672
330
2668
100
AcDbEntity
  8
0
100
AcDbBlockBegin
  2
*D8
 70
     1
 10
0.0
 20
0.0
 30
0.0
  3
*D8
  1

  0
LINE
  5
27C2
330
2668
100
AcDbEntity
  8
AM_5
100
AcDbLine
 10
-74.50024095285319
 20
5.999999999999957
 30
0.0
 11
-82.12360824596913
 21
5.99999999999996
 31
0.0
  0
LINE
  5
27C3
330
2668
100
AcDbEntity
  8
AM_5
100
AcDbLine
 10
-74.50024095285319
 20
-6.00000000000004
 30
0.0
 11
-82.12360824596913
 21
-6.000000000000038
 31
0.0
  0
LINE
  5
27C4
330
2668
100
AcDbEntity
  8
AM_5
100
AcDbLine
 10
-81.62360824596914
 20
4.749999999999959
 30
0.0
 11
-81.62360824596914
 21
-4.750000000000039
 31
0.0
  0
INSERT
  5
27C5
330
2668
100
AcDbEntity
  8
AM_5
100
AcDbBlockReference
  2
_OPEN30
 10
-81.62360824596914
 20
5.999999999999959
 30
0.0
 41
1.25
 42
1.25
 43
1.25
 50
90.0
  0
INSERT
  5
27C6
330
2668
100
AcDbEntity
  8
AM_5
100
AcDbBlockReference
  2
_OPEN30
 10
-81.62360824596914
 20
-6.000000000000039
 30
0.0
 41
1.25
 42
1.25
 43
1.25
 50
270.0
  0
MTEXT
  5
27C7
330
2668
100
AcDbEntity
  8
AM_5
 62
     2
100
AcDbMText
 10
-83.17360824596914
 20
-0.0000000000000525
 30
0.0
 40
1.6
 41
0.0
 71
     5
 72
     1
  1
%%c12
  7
ASAMI
 11
0.0000000000000001
 21
1.0
 31
0.0
1001
ACAD
1000
MTEXTBEGIN
1070
    73
1070
     1
1070
    44
1040
1.0
1070
    74
1070
     0
1000
MTEXTEND
  0
POINT
  5
27C8
330
2668
100
AcDbEntity
  8
DEFPOINTS
 62
     0
100
AcDbPoint
 10
-74.00024095285319
 20
5.999999999999957
 30
0.0
  0
POINT
  5
27C9
330
2668
100
AcDbEntity
  8
DEFPOINTS
 62
     0
100
AcDbPoint
 10
-74.00024095285319
 20
-6.00000000000004
 30
0.0
  0
POINT
  5
27CA
330
2668
100
AcDbEntity
  8
DEFPOINTS
 62
     0
100
AcDbPoint
 10
-81.62360824596914
 20
-6.000000000000039
 30
0.0
  0
ENDBLK
  5
2673
330
2668
100
AcDbEntity
  8
0
100
AcDbBlockEnd
  0
ENDSEC
  0
SECTION
  2
ENTITIES
  0
TEXT
  5
E5A
330
1F
100
AcDbEntity
  8
AM_6
100
AcDbText
 10
-47.61916809547419
 20
-30.25188404931096
 30
0.0
 40
2.5
  1
JSM2120ZX
 72
     4
 11
-37.50012047642657
 21
-29.00188404931096
 31
0.0
100
AcDbText
  0
LINE
  5
1D5C
330
1F
100
AcDbEntity
  8
AM_7
  6
AM_ISO08W050X2
100
AcDbLine
 10
4.2067207775628
 20
0.0000000000000036
 30
0.0
 11
-77.7973749376076
 21
-0.0000000000000711
 31
0.0
1001
GENIUS_GENODEF_13
1002
{
1000
HIER
1070
     0
1002
}
1002
{
1000
MANEDIT
1070
     0
1002
}
1002
{
1000
NOSEL
1070
     0
1002
}
1002
{
1000
BEHIND
1070
     0
1002
}
1002
{
1000
REACTOR
1002
}
1001
GENIUS_GENOBJ-N-CEN_13
1002
{
1000
OWNER
1000
GEN
1002
}
  0
DIMENSION
  5
1EE3
330
1F
100
AcDbEntity
  8
AM_5
100
AcDbDimension
  2
*D5
 10
0.0000000000000138
 20
-13.00188404931243
 30
0.0
 11
-12.50000000000011
 21
-11.45188404931243
 31
0.0
 70
    32
  1
<>
  3
AM_JIS
100
AcDbAlignedDimension
 13
-25.00000000000024
 23
-5.999999999999952
 33
0.0
 14
0.0000000000000142
 24
-6.0
 34
0.0
 50
359.9999999999967
100
AcDbRotatedDimension
1001
GENIUS_GENDTOL_13
1000

1000
h7
1000

1040
0.0
  0
DIMENSION
  5
1F73
330
1F
100
AcDbEntity
  8
AM_5
100
AcDbDimension
  2
*D6
 10
0.0000000000000134
 20
-19.00188404931095
 30
0.0
 11
-37.50012047642659
 21
-17.45188404931095
 31
0.0
 70
    32
  1
<>
  3
AM_JIS
100
AcDbAlignedDimension
 13
-75.00024095285318
 23
-5.00000000000004
 33
0.0
 14
0.0000000000000142
 24
-6.0
 34
0.0
 50
0.0000000000001132
100
AcDbRotatedDimension
1001
GENIUS_GENDTOL_13
1000

1000
h7
1000

1040
0.0
  0
DIMENSION
  5
2008
330
1F
100
AcDbEntity
  8
AM_5
100
AcDbDimension
  2
*D7
 10
8.292714690986031
 20
-6.000000000000002
 30
0.0
 11
6.742714690986032
 21
-0.0000000000000012
 31
0.0
 70
    32
  1
%%c<>
  3
AM_JIS
100
AcDbAlignedDimension
 13
0.0
 23
6.0
 33
0.0
 14
0.0000000000000142
 24
-6.0
 34
0.0
 50
90.00000000000005
100
AcDbRotatedDimension
1001
GENIUS_GENDTOL_13
1000

1000
h7
1000

1040
0.0
  0
LINE
  5
262D
330
1F
100
AcDbEntity
  8
AM_0
100
AcDbLine
 10
-0.3814089232624269
 20
0.7199999999999563
 30
0.0
 11
0.0
 21
1.200000000000002
 31
0.0
  0
LINE
  5
262E
330
1F
100
AcDbEntity
  8
AM_0
100
AcDbLine
 10
0.0
 20
1.200000000000002
 30
0.0
 11
0.0
 21
6.0
 31
0.0
  0
LINE
  5
262F
330
1F
100
AcDbEntity
  8
AM_0
100
AcDbLine
 10
0.0
 20
0.2399999999999878
 30
0.0
 11
-2.677922989797636
 21
3.61014410703369
 31
0.0
  0
LINE
  5
2630
330
1F
100
AcDbEntity
  8
AM_0
100
AcDbLine
 10
-0.4261363636363598
 20
-4.893864221415924
 30
0.0
 11
-0.4261363636363598
 21
-4.829226517359142
 31
0.0
  0
LINE
  5
2631
330
1F
100
AcDbEntity
  8
AM_0
100
AcDbLine
 10
0.0000000000000142
 20
-6.0
 30
0.0
 11
-0.1193181818182012
 21
-5.680129389146191
 31
0.0
  0
LINE
  5
2632
330
1F
100
AcDbEntity
  8
AM_0
100
AcDbLine
 10
-0.1193181818182012
 20
-5.680129389146191
 30
0.0
 11
-0.4261363636363598
 21
-4.893864221415924
 31
0.0
  0
ELLIPSE
  5
2633
330
1F
100
AcDbEntity
  8
AM_0
100
AcDbEllipse
 10
16.14405504816212
 20
0.0252447740500514
 30
0.0
 11
-0.0000000000002616
 21
18.15902446789426
 31
0.0
210
0.0
220
0.0
230
1.0
 40
0.946969696969694
 41
1.489874453283498
 42
1.841418545974778
  0
LINE
  5
2634
330
1F
100
AcDbEntity
  8
AM_0
100
AcDbLine
 10
0.0000000000000142
 20
-6.0
 30
0.0
 11
0.0
 21
0.2399999999999878
 31
0.0
  0
LINE
  5
2635
330
1F
100
AcDbEntity
  8
AM_0
100
AcDbLine
 10
-0.1193181818182012
 20
-5.680129389146191
 30
0.0
 11
-0.1193181818182012
 21
0.3901609526668608
 31
0.0
  0
ELLIPSE
  5
2636
330
1F
100
AcDbEntity
  8
AM_0
100
AcDbEllipse
 10
-25.75547656785156
 20
0.2726381137013476
 30
0.0
 11
-0.0000000000001881
 21
6.274521153012356
 31
0.0
210
0.0
220
0.0
230
1.0
 40
0.9469696969696929
 41
3.117092700142847
 42
3.646445005145119
  0
ELLIPSE
  5
2637
330
1F
100
AcDbEntity
  8
AM_0
100
AcDbEllipse
 10
16.38849686303083
 20
96.59059850116992
 30
0.0
 11
0.0000000000258269
 21
107.5325165066668
 31
0.0
210
0.0
220
0.0
230
1.0
 40
0.9469696969696848
 41
2.592099274283441
 42
2.686557308636241
  0
ELLIPSE
  5
2639
330
1F
100
AcDbEntity
  8
AM_0
100
AcDbEllipse
 10
-25.48697533476174
 20
9.662435134843228
 30
0.0
 11
1.705251267591059
 21
14.94888299848124
 31
0.0
210
0.0
220
0.0
230
1.0
 40
0.9342294270039515
 41
2.675174087126952
 42
3.297713407311817
  0
LINE
  5
263A
330
1F
100
AcDbEntity
  8
AM_11
100
AcDbLine
 10
-25.00000000000024
 20
-5.999999999998514
 30
0.0
 11
-25.00000000000025
 21
5.999999999999985
 31
0.0
  0
LINE
  5
263B
330
1F
100
AcDbEntity
  8
AM_0
100
AcDbLine
 10
-13.10174261657389
 20
-4.60403455047593
 30
0.0
 11
-25.00000000000007
 21
-5.352344091484128
 31
0.0
  0
ELLIPSE
  5
263C
330
1F
100
AcDbEntity
  8
AM_0
100
AcDbEllipse
 10
-29.41889640852018
 20
-2.606594847791296
 30
0.0
 11
2.32376000293665
 21
4.85491963498175
 31
0.0
210
0.0
220
0.0
230
1.0
 40
0.6672575518033359
 41
0.9944993109101357
 42
1.951943193187324
  0
ELLIPSE
  5
263D
330
1F
100
AcDbEntity
  8
AM_0
100
AcDbEllipse
 10
-24.85740758579094
 20
8.412971126804528
 30
0.0
 11
0.0000000000000903
 21
14.45504400079807
 31
0.0
210
0.0
220
0.0
230
1.0
 40
0.9469696969696954
 41
2.477864006398945
 42
3.065277325949167
  0
LINE
  5
263E
330
1F
100
AcDbEntity
  8
AM_11
100
AcDbLine
 10
-25.00000000000023
 20
-5.999999999999944
 30
0.0
 11
0.0000000000000142
 21
-6.0
 31
0.0
  0
LINE
  5
263F
330
1F
100
AcDbEntity
  8
AM_11
100
AcDbLine
 10
-0.0000000000008669
 20
6.0
 30
0.0
 11
-25.00000000000025
 21
5.99999999999996
 31
0.0
  0
LINE
  5
2640
330
1F
100
AcDbEntity
  8
AM_0
100
AcDbLine
 10
-21.69517564380379
 20
4.825023058708282
 30
0.0
 11
-2.677922989797636
 21
3.61014410703369
 31
0.0
  0
SPLINE
  5
2641
330
1F
100
AcDbEntity
  8
AM_0
100
AcDbSpline
210
0.0
220
0.0
230
1.0
 70
     8
 71
     3
 72
     8
 73
     4
 74
     0
 42
0.0000000001
 43
0.0000000001
 40
0.0
 40
0.0
 40
0.0
 40
0.0
 40
14.48999654934395
 40
14.48999654934395
 40
14.48999654934395
 40
14.48999654934395
 10
-30.9090909090909
 20
6.000000000000113
 30
0.0
 10
-25.42045585252121
 20
6.000000000000113
 30
0.0
 10
-20.43750065353333
 20
3.00000000000012
 30
0.0
 10
-15.45454545454545
 20
0.0000000000001279
 30
0.0
  0
SPLINE
  5
2642
330
1F
100
AcDbEntity
  8
AM_0
100
AcDbSpline
210
0.0
220
0.0
230
1.0
 70
     8
 71
     3
 72
     8
 73
     4
 74
     0
 42
0.0000000001
 43
0.0000000001
 40
0.3581103616548037
 40
0.3581103616548037
 40
0.3581103616548037
 40
0.3581103616548037
 40
14.43901837670146
 40
14.43901837670146
 40
14.43901837670146
 40
14.43901837670146
 10
-28.51955522650249
 20
5.815014507423185
 30
0.0
 10
-23.20865207552949
 20
5.675986809663854
 30
0.0
 10
-18.33986650254053
 20
2.837993404831948
 30
0.0
 10
-13.47108092955157
 20
0.0000000000000568
 30
0.0
  0
SPLINE
  5
2643
330
1F
100
AcDbEntity
  8
AM_0
100
AcDbSpline
210
0.0
220
0.0
230
1.0
 70
     8
 71
     3
 72
     8
 73
     4
 74
     0
 42
0.0000000001
 43
0.0000000001
 40
0.0
 40
0.0
 40
0.0
 40
0.0
 40
2.586565323616739
 40
2.586565323616739
 40
2.586565323616739
 40
2.586565323616739
 10
0.0
 20
4.889643224020758
 30
0.0
 10
-0.6287129323897034
 20
4.0961318353812
 30
0.0
 10
-1.707863073540934
 20
3.755368556309221
 30
0.0
 10
-2.677922989797636
 20
3.61014410703369
 30
0.0
  0
SPLINE
  5
2644
330
1F
100
AcDbEntity
  8
AM_0
100
AcDbSpline
210
0.0
220
0.0
230
1.0
 70
     8
 71
     3
 72
     8
 73
     4
 74
     0
 42
0.0000000001
 43
0.0000000001
 40
0.0
 40
0.0
 40
0.0
 40
0.0
 40
7.57842115059705
 40
7.57842115059705
 40
7.57842115059705
 40
7.57842115059705
 10
0.0
 20
6.0
 30
0.0
 10
-2.870614072195849
 20
6.0
 30
0.0
 10
-5.602904455108941
 20
5.179379875178867
 30
0.0
 10
-8.269215898368358
 20
3.967332613220982
 30
0.0
  0
SPLINE
  5
2645
330
1F
100
AcDbEntity
  8
AM_0
100
AcDbSpline
210
0.0
220
0.0
230
1.0
 70
     8
 71
     3
 72
     8
 73
     4
 74
     0
 42
0.0000000001
 43
0.0000000001
 40
0.7142832446738512
 40
0.7142832446738512
 40
0.7142832446738512
 40
0.7142832446738512
 40
14.36247867694493
 40
14.36247867694493
 40
14.36247867694493
 40
14.36247867694493
 10
-25.83316133235349
 20
5.52071734778913
 30
0.0
 10
-20.70332004017727
 20
5.265368442570618
 30
0.0
 10
-15.94523008771631
 20
2.632684221285344
 30
0.0
 10
-11.18714013525534
 20
0.0000000000000568
 30
0.0
  0
SPLINE
  5
2646
330
1F
100
AcDbEntity
  8
AM_0
100
AcDbSpline
210
0.0
220
0.0
230
1.0
 70
     8
 71
     3
 72
     8
 73
     4
 74
     0
 42
0.0000000001
 43
0.0000000001
 40
0.0
 40
0.0
 40
0.0
 40
0.0
 40
5.192508374738713
 40
5.192508374738713
 40
5.192508374738713
 40
5.192508374738713
 10
-30.9090909090909
 20
5.999999999999971
 30
0.0
 10
-32.87595014194641
 20
5.999999999999971
 30
0.0
 10
-34.77787218322044
 20
5.614753145050507
 30
0.0
 10
-36.79277383961329
 20
4.888027968040681
 30
0.0
  0
SPLINE
  5
2647
330
1F
100
AcDbEntity
  8
AM_0
100
AcDbSpline
210
0.0
220
0.0
230
1.0
 70
     8
 71
     3
 72
     8
 73
     4
 74
     0
 42
0.0000000001
 43
0.0000000001
 40
0.0
 40
0.0
 40
0.0
 40
0.0
 40
14.48999654934397
 40
14.48999654934397
 40
14.48999654934397
 40
14.48999654934397
 10
0.0000000000000142
 20
-6.0
 30
0.0
 10
-5.488635056569663
 20
-6.000000000000003
 30
0.0
 10
-10.47159025555755
 20
-3.000000000000003
 30
0.0
 10
-15.45454545454545
 20
-0.0000000000000071
 30
0.0
  0
SPLINE
  5
2648
330
1F
100
AcDbEntity
  8
AM_0
100
AcDbSpline
210
0.0
220
0.0
230
1.0
 70
     8
 71
     3
 72
     8
 73
     4
 74
     0
 42
0.0000000001
 43
0.0000000001
 40
1.870660592686466
 40
1.870660592686466
 40
1.870660592686466
 40
1.870660592686466
 40
14.43901837670146
 40
14.43901837670146
 40
14.43901837670146
 40
14.43901837670146
 10
-0.1193181818181728
 20
-5.680129389146124
 30
0.0
 10
-4.779505217305484
 20
-5.066280734521775
 30
0.0
 10
-9.125293073428537
 20
-2.533140367260863
 30
0.0
 10
-13.47108092955157
 20
0.0000000000000568
 30
0.0
  0
SPLINE
  5
2649
330
1F
100
AcDbEntity
  8
AM_0
100
AcDbSpline
210
0.0
220
0.0
230
1.0
 70
     8
 71
     3
 72
     8
 73
     4
 74
     0
 42
0.0000000001
 43
0.0000000001
 40
4.219358800530717
 40
4.219358800530717
 40
4.219358800530717
 40
4.219358800530717
 40
14.36247867694493
 40
14.36247867694493
 40
14.36247867694493
 40
14.36247867694493
 10
-0.426136363636303
 20
-4.89386422141565
 30
0.0
 10
-4.114867905556991
 20
-3.913137350026566
 30
0.0
 10
-7.651004020406176
 20
-1.956568675013258
 30
0.0
 10
-11.18714013525534
 20
0.0000000000000568
 30
0.0
  0
SPLINE
  5
264A
330
1F
100
AcDbEntity
  8
AM_0
100
AcDbSpline
210
0.0
220
0.0
230
1.0
 70
     8
 71
     3
 72
     8
 73
     4
 74
     0
 42
0.0000000001
 43
0.0000000001
 40
0.0
 40
0.0
 40
0.0
 40
0.0
 40
2.238610194515266
 40
2.238610194515266
 40
2.238610194515266
 40
2.238610194515266
 10
-13.10174261657385
 20
-4.60403455047593
 30
0.0
 10
-11.43907907317782
 20
-4.60403455047593
 30
0.0
 10
-9.806542454950218
 20
-4.378307372752292
 30
0.0
 10
-8.19479040273724
 20
-3.996851012559304
 30
0.0
  0
SPLINE
  5
264B
330
1F
100
AcDbEntity
  8
AM_0
100
AcDbSpline
210
0.0
220
0.0
230
1.0
 70
     8
 71
     3
 72
     8
 73
     4
 74
     0
 42
0.0000000001
 43
0.0000000001
 40
0.0
 40
0.0
 40
0.0
 40
0.0
 40
13.97258598406841
 40
13.97258598406841
 40
13.97258598406841
 40
13.97258598406841
 10
-13.10174261657385
 20
-4.60403455047593
 30
0.0
 10
-18.3943888226604
 20
-4.604034550475937
 30
0.0
 10
-23.381759643402
 20
-2.316746658433675
 30
0.0
 10
-28.36519871760085
 20
0.0000000000000426
 30
0.0
  0
LINE
  5
2661
330
1F
100
AcDbEntity
  8
AM_0
100
AcDbLine
 10
-74.00024095285319
 20
-6.00000000000004
 30
0.0
 11
-25.7513564570231
 21
-5.999999999999953
 31
0.0
  0
LINE
  5
2662
330
1F
100
AcDbEntity
  8
AM_0
100
AcDbLine
 10
-74.00024095285319
 20
5.999999999999957
 30
0.0
 11
-30.90909090909162
 21
5.99999999999996
 31
0.0
  0
LINE
  5
2664
330
1F
100
AcDbEntity
  8
AM_0
100
AcDbLine
 10
-75.00024095285318
 20
-5.00000000000004
 30
0.0
 11
-75.00024095285318
 21
4.999999999999957
 31
0.0
  0
LINE
  5
2666
330
1F
100
AcDbEntity
  8
AM_0
100
AcDbLine
 10
-74.00024095285319
 20
5.999999999999957
 30
0.0
 11
-74.00024095285319
 21
-6.00000000000004
 31
0.0
  0
DIMENSION
  5
2667
330
1F
100
AcDbEntity
  8
AM_5
100
AcDbDimension
  2
*D8
 10
-81.62360824596914
 20
-6.000000000000039
 30
0.0
 11
-83.17360824596914
 21
-0.0000000000000525
 31
0.0
 70
    32
  1
%%c<>
  3
AM_JIS
100
AcDbAlignedDimension
 13
-74.00024095285319
 23
5.999999999999957
 33
0.0
 14
-74.00024095285319
 24
-6.00000000000004
 34
0.0
 50
270.0
100
AcDbRotatedDimension
1001
GENIUS_GENDTOL_13
1000

1000
h7
1000

1040
0.0
  0
LINE
  5
267F
330
1F
100
AcDbEntity
  8
AM_0
100
AcDbLine
 10
-74.00024095285319
 20
5.999999999999957
 30
0.0
 11
-75.00024095285318
 21
4.999999999999957
 31
0.0
1001
GENIUS_GENFIL_13
1070
     0
1040
1.0
1040
1.0
1040
20.0
1040
0.0
1002
{
1002
}
1001
GENIUS_GENODEF_13
1002
{
1000
HIER
1070
     0
1002
}
1002
{
1000
MANEDIT
1070
     0
1002
}
1002
{
1000
NOSEL
1070
     0
1002
}
1002
{
1000
BEHIND
1070
     0
1002
}
1002
{
1000
REACTOR
1002
}
1001
GENIUS_GENOBJ-N-CHA_13
1002
{
1000
OWNER
1000
GEN
1002
}
  0
LINE
  5
2682
330
1F
100
AcDbEntity
  8
AM_0
100
AcDbLine
 10
-75.00024095285318
 20
-5.00000000000004
 30
0.0
 11
-74.00024095285319
 21
-6.00000000000004
 31
0.0
1001
GENIUS_GENFIL_13
1070
     0
1040
1.0
1040
1.0
1040
20.0
1040
0.0
1002
{
1002
}
1001
GENIUS_GENODEF_13
1002
{
1000
HIER
1070
     0
1002
}
1002
{
1000
MANEDIT
1070
     0
1002
}
1002
{
1000
NOSEL
1070
     0
1002
}
1002
{
1000
BEHIND
1070
     0
1002
}
1002
{
1000
REACTOR
1002
}
1001
GENIUS_GENOBJ-N-CHA_13
1002
{
1000
OWNER
1000
GEN
1002
}
  0
LINE
  5
27B9
330
1F
100
AcDbEntity
  8
AM_0
100
AcDbLine
 10
-25.00000000000024
 20
-5.352344091484138
 30
0.0
 11
-25.00000000000024
 21
-5.950958722261152
 31
0.0
  0
VIEWPORT
  5
110
330
101
100
AcDbEntity
 67
     1
  8
0
100
AcDbViewport
 10
420.5
 20
297.0
 30
0.0
 40
948.9782706766916
 41
628.452
 68
     1
 69
     1
1001
ACAD
1000
MVIEW
1002
{
1070
    16
1010
0.0
1020
0.0
1030
0.0
1010
0.0
1020
0.0
1030
1.0
1040
0.0
1040
628.452
1040
420.5
1040
297.0
1040
50.0
1040
0.0
1040
0.0
1070
     0
1070
   100
1070
     1
1070
     1
1070
     0
1070
     0
1070
     0
1070
     0
1040
0.0
1040
0.0
1040
0.0
1040
10.0
1040
10.0
1040
10.0
1040
10.0
1070
     0
1002
{
1002
}
1002
}
  0
ENDSEC
  0
SECTION
  2
OBJECTS
  0
DICTIONARY
  5
C
330
0
100
AcDbDictionary
  3
ACAD_GROUP
350
D
  3
ACAD_LAYOUT
350
1A
  3
ACAD_MLINESTYLE
350
17
  3
ACAD_PLOTSETTINGS
350
19
  3
ACAD_PLOTSTYLENAME
350
E
  3
ACDBVARIABLEDICTIONARY
350
34
  3
ACMDICTIONARY
350
43
  3
AMG
350
2B
  3
AMGSNAPSETTINGS
350
6E
  3
DWGPROPS
350
27E3
  3
ACDBHEADERROUNDTRIPXREC
350
27EF
  0
DICTIONARY
  5
74
330
1F
100
AcDbDictionary
280
     1
  3
ACAD_INDEX
360
27E5
  3
ACAD_LAYOUTSELFREF
360
2812
  0
DICTIONARY
  5
2817
330
101
100
AcDbDictionary
280
     1
  3
ACAD_LAYOUTSELFREF
360
2818
  0
DICTIONARY
  5
D
102
{ACAD_REACTORS
330
C
102
}
330
C
100
AcDbDictionary
  0
DICTIONARY
  5
1A
102
{ACAD_REACTORS
330
C
102
}
330
C
100
AcDbDictionary
  0
DICTIONARY
  5
17
102
{ACAD_REACTORS
330
C
102
}
330
C
100
AcDbDictionary
  3
STANDARD
350
18
  0
DICTIONARY
  5
19
102
{ACAD_REACTORS
330
C
102
}
330
C
100
AcDbDictionary
  0
ACDBDICTIONARYWDFLT
  5
E
102
{ACAD_REACTORS
330
C
102
}
330
C
100
AcDbDictionary
281
     1
  3
Normal
350
F
100
AcDbDictionaryWithDefault
340
F
  0
DICTIONARY
  5
34
102
{ACAD_REACTORS
330
C
102
}
330
C
100
AcDbDictionary
  3
INDEXCTL
350
35
  3
SORTENTS
350
B5E
  0
DICTIONARY
  5
43
102
{ACAD_REACTORS
330
C
102
}
330
C
100
AcDbDictionary
  3
ACMSTDDICTIONARY
350
260
  0
DICTIONARY
  5
2B
102
{ACAD_REACTORS
330
C
102
}
330
C
100
AcDbDictionary
  3
ACMGSETTINGS
350
2C
  0
DICTIONARY
  5
6E
102
{ACAD_REACTORS
330
C
102
}
330
C
100
AcDbDictionary
  0
XRECORD
  5
27E3
102
{ACAD_REACTORS
330
C
102
}
330
C
100
AcDbXrecord
  1
DWGPROPS COOKIE
  2

  3

  4

  6

  7

  8

  9

300
AmdtFileType=82
301
=
302
=
303
=
304
=
305
=
306
=
307
=
308
=
309
=
 40
0.0758250115740741
 41
2452836.771637361
 42
2453045.497523541
  1

 90
        1
  0
DICTIONARY
  5
27EF
102
{ACAD_REACTORS
330
C
102
}
330
C
100
AcDbDictionary
  3
TSTACKALIGN
350
27F0
  3
TSTACKSIZE
350
27F1
  3
HYPERLINKBASE
350
27F2
  3
STYLESHEET
350
27F3
  3
LAYOUTDICT
350
27F4
  3
PLOTSETDICT
350
27F5
  3
PLOTSTYLNAMDICT
350
27F6
  3
LWETCUNION
350
27F7
  3
INSUNITS
350
27F8
  3
CEPSNTYPE
350
27F9
  3
FINGERPRINTGUID
350
27FA
  3
VERSIONGUID
350
27FB
  3
PSVPSCALE
350
27FC
  3
DIMSTYLEDATA
350
27FD
  3
PUCSORTHOREF
350
27FE
  3
PUCSORTHOVIEW
350
27FF
  3
PUCSBASE
350
2800
  3
PUCSORGTOP
350
2801
  3
PUCSORGBOTTOM
350
2802
  3
PUCSORGLEFT
350
2803
  3
PUCSORGRIGHT
350
2804
  3
PUCSORGFRONT
350
2805
  3
PUCSORGBACK
350
2806
  3
UCSORTHOREF
350
2807
  3
UCSORTHOVIEW
350
2808
  3
UCSBASE
350
2809
  3
UCSORGTOP
350
280A
  3
UCSORGBOTTOM
350
280B
  3
UCSORGLEFT
350
280C
  3
UCSORGRIGHT
350
280D
  3
UCSORGFRONT
350
280E
  3
UCSORGBACK
350
280F
  0
DICTIONARY
  5
27E5
102
{ACAD_REACTORS
330
74
102
}
330
74
100
AcDbDictionary
  3
*A1
350
27E6
  0
XRECORD
  5
2812
102
{ACAD_REACTORS
330
74
102
}
330
74
100
AcDbXrecord
340
1F
  0
XRECORD
  5
2818
102
{ACAD_REACTORS
330
2817
102
}
330
2817
100
AcDbXrecord
340
101
  0
MLINESTYLE
  5
18
102
{ACAD_REACTORS
330
17
102
}
330
17
100
AcDbMlineStyle
  2
STANDARD
 70
     0
  3

 62
   256
 51
90.0
 52
90.0
 71
     2
 49
0.5
 62
   256
  6
BYLAYER
 49
-0.5
 62
   256
  6
BYLAYER
  0
ACDBPLACEHOLDER
  5
F
102
{ACAD_REACTORS
330
E
102
}
330
E
100
AcDbPlaceHolder
280
     0
  0
DICTIONARYVAR
  5
35
102
{ACAD_REACTORS
330
34
102
}
330
34
100
DictionaryVariables
280
     0
  1
1
  0
DICTIONARYVAR
  5
B5E
102
{ACAD_REACTORS
330
34
102
}
330
34
100
DictionaryVariables
280
     0
  1
96
  0
DICTIONARY
  5
260
102
{ACAD_REACTORS
330
43
102
}
330
43
100
AcDbDictionary
  0
DICTIONARY
  5
2C
102
{ACAD_REACTORS
330
2B
102
}
330
2B
100
AcDbDictionary
  3
DWGSETTINGS
350
2D
  0
XRECORD
  5
27F0
102
{ACAD_REACTORS
330
27EF
102
}
330
27EF
100
AcDbXrecord
 90
        1
  0
XRECORD
  5
27F1
102
{ACAD_REACTORS
330
27EF
102
}
330
27EF
100
AcDbXrecord
 90
       70
  0
XRECORD
  5
27F2
102
{ACAD_REACTORS
330
27EF
102
}
330
27EF
100
AcDbXrecord
  1

  0
XRECORD
  5
27F3
102
{ACAD_REACTORS
330
27EF
102
}
330
27EF
100
AcDbXrecord
  1
ASAMI.ctb
  0
XRECORD
  5
27F4
102
{ACAD_REACTORS
330
27EF
102
}
330
27EF
100
AcDbXrecord
340
1A
  0
XRECORD
  5
27F5
102
{ACAD_REACTORS
330
27EF
102
}
330
27EF
100
AcDbXrecord
340
19
  0
XRECORD
  5
27F6
102
{ACAD_REACTORS
330
27EF
102
}
330
27EF
100
AcDbXrecord
340
E
  0
XRECORD
  5
27F7
102
{ACAD_REACTORS
330
27EF
102
}
330
27EF
100
AcDbXrecord
 90
    10781
  0
XRECORD
  5
27F8
102
{ACAD_REACTORS
330
27EF
102
}
330
27EF
100
AcDbXrecord
 90
        4
  0
XRECORD
  5
27F9
102
{ACAD_REACTORS
330
27EF
102
}
330
27EF
100
AcDbXrecord
 90
        0
  0
XRECORD
  5
27FA
102
{ACAD_REACTORS
330
27EF
102
}
330
27EF
100
AcDbXrecord
  1
{AFB28963-8C59-40AE-9337-C84526B81ACE}
  0
XRECORD
  5
27FB
102
{ACAD_REACTORS
330
27EF
102
}
330
27EF
100
AcDbXrecord
  1
{DBCAFC12-EFA5-4A04-9253-EBC686D3EC83}
  0
XRECORD
  5
27FC
102
{ACAD_REACTORS
330
27EF
102
}
330
27EF
100
AcDbXrecord
 40
0.0
  0
XRECORD
  5
27FD
102
{ACAD_REACTORS
330
27EF
102
}
330
27EF
100
AcDbXrecord
1000
DSTYLE
1002
{
1070
    79
 70
     2
1070
   341
340
59
1070
   342
340
59
1070
   371
 70
    -1
1070
   372
 70
    -1
1002
}
  0
XRECORD
  5
27FE
102
{ACAD_REACTORS
330
27EF
102
}
330
27EF
100
AcDbXrecord
340
0
  0
XRECORD
  5
27FF
102
{ACAD_REACTORS
330
27EF
102
}
330
27EF
100
AcDbXrecord
 70
     0
  0
XRECORD
  5
2800
102
{ACAD_REACTORS
330
27EF
102
}
330
27EF
100
AcDbXrecord
340
0
  0
XRECORD
  5
2801
102
{ACAD_REACTORS
330
27EF
102
}
330
27EF
100
AcDbXrecord
 10
0.0
 20
0.0
 30
0.0
  0
XRECORD
  5
2802
102
{ACAD_REACTORS
330
27EF
102
}
330
27EF
100
AcDbXrecord
 10
0.0
 20
0.0
 30
0.0
  0
XRECORD
  5
2803
102
{ACAD_REACTORS
330
27EF
102
}
330
27EF
100
AcDbXrecord
 10
0.0
 20
0.0
 30
0.0
  0
XRECORD
  5
2804
102
{ACAD_REACTORS
330
27EF
102
}
330
27EF
100
AcDbXrecord
 10
0.0
 20
0.0
 30
0.0
  0
XRECORD
  5
2805
102
{ACAD_REACTORS
330
27EF
102
}
330
27EF
100
AcDbXrecord
 10
0.0
 20
0.0
 30
0.0
  0
XRECORD
  5
2806
102
{ACAD_REACTORS
330
27EF
102
}
330
27EF
100
AcDbXrecord
 10
0.0
 20
0.0
 30
0.0
  0
XRECORD
  5
2807
102
{ACAD_REACTORS
330
27EF
102
}
330
27EF
100
AcDbXrecord
340
0
  0
XRECORD
  5
2808
102
{ACAD_REACTORS
330
27EF
102
}
330
27EF
100
AcDbXrecord
 70
     0
  0
XRECORD
  5
2809
102
{ACAD_REACTORS
330
27EF
102
}
330
27EF
100
AcDbXrecord
340
0
  0
XRECORD
  5
280A
102
{ACAD_REACTORS
330
27EF
102
}
330
27EF
100
AcDbXrecord
 10
0.0
 20
0.0
 30
0.0
  0
XRECORD
  5
280B
102
{ACAD_REACTORS
330
27EF
102
}
330
27EF
100
AcDbXrecord
 10
0.0
 20
0.0
 30
0.0
  0
XRECORD
  5
280C
102
{ACAD_REACTORS
330
27EF
102
}
330
27EF
100
AcDbXrecord
 10
0.0
 20
0.0
 30
0.0
  0
XRECORD
  5
280D
102
{ACAD_REACTORS
330
27EF
102
}
330
27EF
100
AcDbXrecord
 10
0.0
 20
0.0
 30
0.0
  0
XRECORD
  5
280E
102
{ACAD_REACTORS
330
27EF
102
}
330
27EF
100
AcDbXrecord
 10
0.0
 20
0.0
 30
0.0
  0
XRECORD
  5
280F
102
{ACAD_REACTORS
330
27EF
102
}
330
27EF
100
AcDbXrecord
 10
0.0
 20
0.0
 30
0.0
  0
LAYER_INDEX
  5
27E6
102
{ACAD_REACTORS
330
27E5
102
}
330
27E5
100
AcDbIndex
 40
2453152.463607025
100
AcDbLayerIndex
  8
0
360
27E7
 90
        0
  8
AM_0
360
27E8
 90
       34
  8
AM_11
360
27E9
 90
        3
  8
AM_7
360
27EA
 90
        1
  8
AM_5
360
27EB
 90
        4
  8
Defpoints
360
27EC
 90
        0
  8
AM_6
360
27ED
 90
        1
  0
XRECORD
  5
2D
102
{ACAD_REACTORS
330
2C
102
}
330
2C
100
AcDbXrecord
  1
VERSION
140
15.0
  1
PRODUCT
  2
AutoCAD Mechanical 2000
  0
IDBUFFER
  5
27E7
330
0
100
AcDbIdBuffer
  0
IDBUFFER
  5
27E8
330
0
100
AcDbIdBuffer
330
2641
330
2642
330
2643
330
2644
330
2645
330
2646
330
2647
330
2648
330
2649
330
264A
330
264B
330
2661
330
2662
330
2664
330
2666
330
267F
330
2682
330
27B9
330
262D
330
262E
330
262F
330
2630
330
2631
330
2632
330
2633
330
2634
330
2635
330
2636
330
2637
330
2639
330
263B
330
263C
330
263D
330
2640
  0
IDBUFFER
  5
27E9
330
0
100
AcDbIdBuffer
330
263A
330
263E
330
263F
  0
IDBUFFER
  5
27EA
330
0
100
AcDbIdBuffer
330
1D5C
  0
IDBUFFER
  5
27EB
330
0
100
AcDbIdBuffer
330
1EE3
330
1F73
330
2008
330
2667
  0
IDBUFFER
  5
27EC
330
0
100
AcDbIdBuffer
  0
IDBUFFER
  5
27ED
330
0
100
AcDbIdBuffer
330
E5A
  0
ENDSEC
  0
EOF
