  0
SECTION
  2
HEADER
  9
$ACADVER
  1
AC1014
  9
$ACADMAINTVER
 70
     9
  9
$DWGCODEPAGE
  3
ANSI_932
  9
$INSBASE
 10
0.0
 20
0.0
 30
0.0
  9
$EXTMIN
 10
-55.56831628338794
 20
-27.2500009999999
 30
-0.00000001
  9
$EXTMAX
 10
9.778885015427377
 20
4.249999999999999
 30
0.00000001
  9
$LIMMIN
 10
-58.52445464598639
 20
-33.31002694299596
  9
$LIMMAX
 10
13.94326308567656
 20
11.05692071610948
  9
$ORTHOMODE
 70
     0
  9
$REGENMODE
 70
     1
  9
$FILLMODE
 70
     1
  9
$QTEXTMODE
 70
     0
  9
$MIRRTEXT
 70
     0
  9
$DRAGMODE
 70
     2
  9
$LTSCALE
 40
1.0
  9
$OSMODE
 70
    55
  9
$ATTMODE
 70
     1
  9
$TEXTSIZE
 40
2.5
  9
$TRACEWID
 40
1.0
  9
$TEXTSTYLE
  7
STANDARD
  9
$CLAYER
  8
AM_0
  9
$CELTYPE
  6
BYLAYER
  9
$CECOLOR
 62
   256
  9
$CELTSCALE
 40
1.0
  9
$DELOBJ
 70
     1
  9
$DISPSILH
 70
     0
  9
$DIMSCALE
 40
0.5
  9
$DIMASZ
 40
2.5
  9
$DIMEXO
 40
1.0
  9
$DIMDLI
 40
12.0
  9
$DIMRND
 40
0.0
  9
$DIMDLE
 40
0.0
  9
$DIMEXE
 40
1.0
  9
$DIMTP
 40
0.1
  9
$DIMTM
 40
0.1
  9
$DIMTXT
 40
3.2
  9
$DIMCEN
 40
0.0
  9
$DIMTSZ
 40
0.0
  9
$DIMTOL
 70
     0
  9
$DIMLIM
 70
     0
  9
$DIMTIH
 70
     0
  9
$DIMTOH
 70
     0
  9
$DIMSE1
 70
     0
  9
$DIMSE2
 70
     0
  9
$DIMTAD
 70
     3
  9
$DIMZIN
 70
     8
  9
$DIMBLK
  1
OPEN30
  9
$DIMASO
 70
     1
  9
$DIMSHO
 70
     1
  9
$DIMPOST
  1

  9
$DIMAPOST
  1
"
  9
$DIMALT
 70
     0
  9
$DIMALTD
 70
     2
  9
$DIMALTF
 40
0.0393701
  9
$DIMLFAC
 40
1.0
  9
$DIMTOFL
 70
     1
  9
$DIMTVP
 40
0.0
  9
$DIMTIX
 70
     0
  9
$DIMSOXD
 70
     0
  9
$DIMSAH
 70
     0
  9
$DIMBLK1
  1

  9
$DIMBLK2
  1

  9
$DIMSTYLE
  2
AM_JIS
  9
$DIMCLRD
 70
   256
  9
$DIMCLRE
 70
   256
  9
$DIMCLRT
 70
     2
  9
$DIMTFAC
 40
0.71
  9
$DIMGAP
 40
1.5
  9
$DIMJUST
 70
     0
  9
$DIMSD1
 70
     0
  9
$DIMSD2
 70
     0
  9
$DIMTOLJ
 70
     0
  9
$DIMTZIN
 70
     0
  9
$DIMALTZ
 70
     0
  9
$DIMALTTZ
 70
     0
  9
$DIMFIT
 70
     3
  9
$DIMUPT
 70
     0
  9
$DIMUNIT
 70
     2
  9
$DIMDEC
 70
     3
  9
$DIMTDEC
 70
     3
  9
$DIMALTU
 70
     2
  9
$DIMALTTD
 70
     2
  9
$DIMTXSTY
  7
ASAMI
  9
$DIMAUNIT
 70
     0
  9
$LUNITS
 70
     2
  9
$LUPREC
 70
     2
  9
$SKETCHINC
 40
1.0
  9
$FILLETRAD
 40
2.5
  9
$AUNITS
 70
     0
  9
$AUPREC
 70
     0
  9
$MENU
  1
.
  9
$ELEVATION
 40
0.0
  9
$PELEVATION
 40
0.0
  9
$THICKNESS
 40
0.0
  9
$LIMCHECK
 70
     0
  9
$BLIPMODE
 70
     0
  9
$CHAMFERA
 40
0.5
  9
$CHAMFERB
 40
0.5
  9
$CHAMFERC
 40
20.0
  9
$CHAMFERD
 40
0.0
  9
$SKPOLY
 70
     0
  9
$TDCREATE
 40
2452836.771637361
  9
$TDUPDATE
 40
2453152.457655439
  9
$TDINDWG
 40
0.0395893866
  9
$TDUSRTIMER
 40
0.0395893866
  9
$USRTIMER
 70
     1
  9
$ANGBASE
 50
0.0
  9
$ANGDIR
 70
     0
  9
$PDMODE
 70
     0
  9
$PDSIZE
 40
0.0
  9
$PLINEWID
 40
0.0
  9
$COORDS
 70
     1
  9
$SPLFRAME
 70
     0
  9
$SPLINETYPE
 70
     6
  9
$SPLINESEGS
 70
     8
  9
$ATTDIA
 70
     1
  9
$ATTREQ
 70
     1
  9
$HANDLING
 70
 12289
  9
$HANDSEED
  5
2015
  9
$SURFTAB1
 70
     6
  9
$SURFTAB2
 70
     6
  9
$SURFTYPE
 70
     6
  9
$SURFU
 70
     6
  9
$SURFV
 70
     6
  9
$UCSNAME
  2

  9
$UCSORG
 10
0.0
 20
0.0
 30
0.0
  9
$UCSXDIR
 10
1.0
 20
0.0
 30
0.0
  9
$UCSYDIR
 10
0.0
 20
1.0
 30
0.0
  9
$PUCSNAME
  2

  9
$PUCSORG
 10
0.0
 20
0.0
 30
0.0
  9
$PUCSXDIR
 10
1.0
 20
0.0
 30
0.0
  9
$PUCSYDIR
 10
0.0
 20
1.0
 30
0.0
  9
$USERI1
 70
     0
  9
$USERI2
 70
     0
  9
$USERI3
 70
     0
  9
$USERI4
 70
     0
  9
$USERI5
 70
     0
  9
$USERR1
 40
0.0
  9
$USERR2
 40
0.0
  9
$USERR3
 40
0.0
  9
$USERR4
 40
0.0
  9
$USERR5
 40
0.0
  9
$WORLDVIEW
 70
     1
  9
$SHADEDGE
 70
     3
  9
$SHADEDIF
 70
    70
  9
$TILEMODE
 70
     1
  9
$MAXACTVP
 70
    64
  9
$PINSBASE
 10
0.0
 20
0.0
 30
0.0
  9
$PLIMCHECK
 70
     0
  9
$PEXTMIN
 10
1.000000000000000E+20
 20
1.000000000000000E+20
 30
1.000000000000000E+20
  9
$PEXTMAX
 10
-1.000000000000000E+20
 20
-1.000000000000000E+20
 30
-1.000000000000000E+20
  9
$PLIMMIN
 10
0.0
 20
0.0
  9
$PLIMMAX
 10
841.0
 20
594.0
  9
$UNITMODE
 70
     0
  9
$VISRETAIN
 70
     1
  9
$PLINEGEN
 70
     0
  9
$PSLTSCALE
 70
     0
  9
$TREEDEPTH
 70
  3020
  9
$PICKSTYLE
 70
     0
  9
$CMLSTYLE
  2
STANDARD
  9
$CMLJUST
 70
     0
  9
$CMLSCALE
 40
20.0
  9
$PROXYGRAPHICS
 70
     1
  9
$MEASUREMENT
 70
     1
  0
ENDSEC
  0
SECTION
  2
CLASSES
  0
CLASS
  1
ACDBDICTIONARYWDFLT
  2
AcDbDictionaryWithDefault
  3
AutoCAD 2000
 90
        0
280
     0
281
     0
  0
CLASS
  1
ACDBPLACEHOLDER
  2
AcDbPlaceHolder
  3
AutoCAD 2000
 90
        0
280
     0
281
     0
  0
CLASS
  1
LAYOUT
  2
AcDbLayout
  3
AutoCAD 2000
 90
        0
280
     0
281
     0
  0
CLASS
  1
AMGSETTINGSOBJ
  2
AmgSettingsObj
  3
"AcadM|Product Description: AutoCAD Mechanical 2000|Company: Autodesk"
 90
        0
280
     0
281
     0
  0
CLASS
  1
ACME_DOCUMENT
  2
AcMeDbDoc
  3
AcMeServices
 90
        0
280
     0
281
     0
  0
CLASS
  1
ACMESCOPE
  2
AcMeScope
  3
AcMeServices
 90
        0
280
     0
281
     0
  0
CLASS
  1
ACMECOMMANDHISTORY
  2
AcMeCommandHistory
  3
AcMeServices
 90
        0
280
     0
281
     0
  0
CLASS
  1
DICTIONARYVAR
  2
AcDbDictionaryVar
  3
AutoCAD 2000
 90
        0
280
     0
281
     0
  0
CLASS
  1
ACIMSYSVARMAN
  2
AcImSysVarManager
  3
AcMeServices
 90
        0
280
     0
281
     0
  0
CLASS
  1
ACIMREALSYSVAR
  2
AcImRealSysVar
  3
AcMeServices
 90
        0
280
     0
281
     0
  0
CLASS
  1
ACIMINTSYSVAR
  2
AcImIntSysVar
  3
AcMeServices
 90
        0
280
     0
281
     0
  0
CLASS
  1
ACMEDRAWINGMAN
  2
AcMeDrawingMan
  3
AcMeServices
 90
        0
280
     0
281
     0
  0
CLASS
  1
ACMEVIEW
  2
AcMeView
  3
AcMeServices
 90
        0
280
     0
281
     0
  0
CLASS
  1
ACDBENTITYCACHE
  2
AcMeEntityCache
  3
AcMeServices
 90
        0
280
     0
281
     0
  0
CLASS
  1
GSMANAGER
  2
AcMeGSManager
  3
AcMeServices
 90
        0
280
     0
281
     0
  0
CLASS
  1
AmdtInternalReactor
  2
AmdtInternalReactor
  3
AcMeServices
 90
        0
280
     0
281
     0
  0
CLASS
  1
ACMESTATEMGR
  2
AcMeStateMgr
  3
AcMeServices
 90
        0
280
     0
281
     0
  0
CLASS
  1
ACME_DATABASE
  2
AcMeDbDatabase
  3
AcMeServices
 90
        0
280
     0
281
     0
  0
CLASS
  1
ACRFINSADJUSTERMGR
  2
AcRfInsAdjusterMgr
  3
AcMeServices
 90
        0
280
     0
281
     0
  0
CLASS
  1
ACMDATADICTIONARY
  2
AcmDataDictionary
  3
"AcmSymBB|Product Description: AutoCAD Mechanical 2000|Company: Autodesk"
 90
        0
280
     0
281
     0
  0
CLASS
  1
ACMDATAENTRYBLOCK
  2
AcmDataEntryBlock
  3
"AcmSymBB|Product Description: AutoCAD Mechanical 2000|Company: Autodesk"
 90
        0
280
     0
281
     0
  0
CLASS
  1
AMGOBJPROPCFG
  2
AmgObjPropCfg
  3
"AmgLay|Product Description: AutoCAD Mechanical 2000|Company: Autodesk"
 90
        1
280
     0
281
     0
  0
CLASS
  1
ACAMGFILTERDAT
  2
AcAmgFilterDat
  3
"AcadM|Product Description: AutoCAD Mechanical 2000|Company: Autodesk"
 90
        0
280
     0
281
     0
  0
CLASS
  1
LAYER_INDEX
  2
AcDbLayerIndex
  3
AutoCAD 2000
 90
        0
280
     0
281
     0
  0
CLASS
  1
IDBUFFER
  2
AcDbIdBuffer
  3
AutoCAD 2000
 90
        0
280
     0
281
     0
  0
CLASS
  1
ACIMSTRSYSVAR
  2
AcImStrSysVar
  3
AcMeServices
 90
        0
280
     0
281
     0
  0
CLASS
  1
ACMSTANDARDJIS
  2
AcmStandardJIS
  3
"AcmSymBB|Product Description: AutoCAD Mechanical 2000|Company: Autodesk"
 90
        0
280
     0
281
     0
  0
CLASS
  1
ACMSURFSTANDARDJIS
  2
AcmSurfTextStdJIS
  3
"AcmSymBB|Product Description: AutoCAD Mechanical 2000|Company: Autodesk"
 90
        0
280
     0
281
     0
  0
CLASS
  1
ACMFCFSTANDARDJIS
  2
AcmFCFStdJIS
  3
"AcmSymBB|Product Description: AutoCAD Mechanical 2000|Company: Autodesk"
 90
        0
280
     0
281
     0
  0
CLASS
  1
ACMWELDSTANDARDJIS
  2
AcmWeldingStdJIS
  3
"AcmSymBB|Product Description: AutoCAD Mechanical 2000|Company: Autodesk"
 90
        0
280
     0
281
     0
  0
CLASS
  1
ACMIDSTANDARDJIS
  2
AcmIdStdJIS
  3
"AcmSymBB|Product Description: AutoCAD Mechanical 2000|Company: Autodesk"
 90
        0
280
     0
281
     0
  0
CLASS
  1
ACMDATUMSTANDARDJIS
  2
AcmDatumStdJIS
  3
"AcmSymBB|Product Description: AutoCAD Mechanical 2000|Company: Autodesk"
 90
        0
280
     0
281
     0
  0
CLASS
  1
ACMBOMSTANDARDJIS
  2
AcmBOMStdJIS
  3
"AcmSymBB|Product Description: AutoCAD Mechanical 2000|Company: Autodesk"
 90
        0
280
     0
281
     0
  0
CLASS
  1
ACMSTANDARDANSI
  2
AcmStandardANSI
  3
"AcmSymBB|Product Description: AutoCAD Mechanical 2000|Company: Autodesk"
 90
        0
280
     0
281
     0
  0
CLASS
  1
ACMSURFSTANDARDANSI
  2
AcmSurfTextStdANSI
  3
"AcmSymBB|Product Description: AutoCAD Mechanical 2000|Company: Autodesk"
 90
        0
280
     0
281
     0
  0
CLASS
  1
ACMFCFSTANDARDANSI
  2
AcmFCFStdANSI
  3
"AcmSymBB|Product Description: AutoCAD Mechanical 2000|Company: Autodesk"
 90
        0
280
     0
281
     0
  0
CLASS
  1
ACMWELDSTANDARDANSI
  2
AcmWeldingStdANSI
  3
"AcmSymBB|Product Description: AutoCAD Mechanical 2000|Company: Autodesk"
 90
        0
280
     0
281
     0
  0
CLASS
  1
ACMIDSTANDARDANSI
  2
AcmIdStdANSI
  3
"AcmSymBB|Product Description: AutoCAD Mechanical 2000|Company: Autodesk"
 90
        0
280
     0
281
     0
  0
CLASS
  1
ACMDATUMSTANDARDANSI
  2
AcmDatumStdANSI
  3
"AcmSymBB|Product Description: AutoCAD Mechanical 2000|Company: Autodesk"
 90
        0
280
     0
281
     0
  0
CLASS
  1
ACMBOMSTANDARDANSI
  2
AcmBOMStdANSI
  3
"AcmSymBB|Product Description: AutoCAD Mechanical 2000|Company: Autodesk"
 90
        0
280
     0
281
     0
  0
CLASS
  1
ACMSTANDARDBSI
  2
AcmStandardBSI
  3
"AcmSymBB|Product Description: AutoCAD Mechanical 2000|Company: Autodesk"
 90
        0
280
     0
281
     0
  0
CLASS
  1
ACMSURFSTANDARDBSI
  2
AcmSurfTextStdBSI
  3
"AcmSymBB|Product Description: AutoCAD Mechanical 2000|Company: Autodesk"
 90
        0
280
     0
281
     0
  0
CLASS
  1
ACMFCFSTANDARDBSI
  2
AcmFCFStdBSI
  3
"AcmSymBB|Product Description: AutoCAD Mechanical 2000|Company: Autodesk"
 90
        0
280
     0
281
     0
  0
CLASS
  1
ACMWELDSTANDARDBSI
  2
AcmWeldingStdBSI
  3
"AcmSymBB|Product Description: AutoCAD Mechanical 2000|Company: Autodesk"
 90
        0
280
     0
281
     0
  0
CLASS
  1
ACMIDSTANDARDBSI
  2
AcmIdStdBSI
  3
"AcmSymBB|Product Description: AutoCAD Mechanical 2000|Company: Autodesk"
 90
        0
280
     0
281
     0
  0
CLASS
  1
ACMDATUMSTANDARDBSI
  2
AcmDatumStdBSI
  3
"AcmSymBB|Product Description: AutoCAD Mechanical 2000|Company: Autodesk"
 90
        0
280
     0
281
     0
  0
CLASS
  1
ACMBOMSTANDARDBSI
  2
AcmBOMStdBSI
  3
"AcmSymBB|Product Description: AutoCAD Mechanical 2000|Company: Autodesk"
 90
        0
280
     0
281
     0
  0
CLASS
  1
LONG_TRANSACTION
  2
AcDbLongTransaction
  3
AutoCAD 2000
 90
        0
280
     0
281
     0
  0
CLASS
  1
LWPOLYLINE
  2
AcDbPolyline
  3
AutoCAD 2000
 90
        0
280
     0
281
     1
  0
CLASS
  1
HATCH
  2
AcDbHatch
  3
AutoCAD 2000
 90
        0
280
     0
281
     1
  0
CLASS
  1
XRECORD
  2
AcDbXrecord
  3
AutoCAD 2000
 90
        0
280
     0
281
     0
  0
ENDSEC
  0
SECTION
  2
TABLES
  0
TABLE
  2
VPORT
  5
8
330
0
100
AcDbSymbolTable
 70
     3
  0
VPORT
  5
1FEA
330
8
100
AcDbSymbolTableRecord
100
AcDbViewportTableRecord
  2
*ACTIVE
 70
     0
 10
0.0
 20
0.0
 11
1.0
 21
1.0
 12
-16.94038132383885
 22
-12.70407853778236
 13
0.0
 23
0.0
 14
2.5
 24
2.5
 15
10.0
 25
10.0
 16
0.0
 26
0.0
 36
1.0
 17
0.0
 27
0.0
 37
0.0
 40
75.89307211373686
 41
1.56570841889117
 42
50.0
 43
0.0
 44
0.0
 50
0.0
 51
0.0
 71
     0
 72
   100
 73
     1
 74
     3
 75
     0
 76
     0
 77
     0
 78
     0
  0
ENDTAB
  0
TABLE
  2
LTYPE
  5
5
330
0
100
AcDbSymbolTable
 70
    10
  0
LTYPE
  5
14
330
5
100
AcDbSymbolTableRecord
100
AcDbLinetypeTableRecord
  2
BYBLOCK
 70
     0
  3

 72
    65
 73
     0
 40
0.0
  0
LTYPE
  5
15
330
5
100
AcDbSymbolTableRecord
100
AcDbLinetypeTableRecord
  2
BYLAYER
 70
     0
  3

 72
    65
 73
     0
 40
0.0
  0
LTYPE
  5
16
330
5
100
AcDbSymbolTableRecord
100
AcDbLinetypeTableRecord
  2
CONTINUOUS
 70
     0
  3
Solid line
 72
    65
 73
     0
 40
0.0
  0
LTYPE
  5
4B
330
5
100
AcDbSymbolTableRecord
100
AcDbLinetypeTableRecord
  2
AM_ISO02W050
 70
     0
  3
__ __ __ __ __ __ __ __ __ __ __ __ __ __ __
 72
    65
 73
     2
 40
7.5
 49
6.0
 74
     0
 49
-1.5
 74
     0
  0
LTYPE
  5
4C
330
5
100
AcDbSymbolTableRecord
100
AcDbLinetypeTableRecord
  2
AM_ISO08W050
 70
     0
  3
____ . ____ . ____ . ____ . ____ . ____ . ____
 72
    65
 73
     4
 40
18.0
 49
12.0
 74
     0
 49
-1.5
 74
     0
 49
3.0
 74
     0
 49
-1.5
 74
     0
  0
LTYPE
  5
4D
330
5
100
AcDbSymbolTableRecord
100
AcDbLinetypeTableRecord
  2
AM_ISO09W050
 70
     0
  3
_____ . . _____ . . _____ . . ____ .. ____
 72
    65
 73
     6
 40
22.5
 49
12.0
 74
     0
 49
-1.5
 74
     0
 49
3.0
 74
     0
 49
-1.5
 74
     0
 49
3.0
 74
     0
 49
-1.5
 74
     0
  0
LTYPE
  5
4E
330
5
100
AcDbSymbolTableRecord
100
AcDbLinetypeTableRecord
  2
AMCONSTR
 70
     0
  3
_______________________
 72
    65
 73
     2
 40
9999.0
 49
9999.0
 74
     0
 49
0.0
 74
     0
  0
LTYPE
  5
4F
330
5
100
AcDbSymbolTableRecord
100
AcDbLinetypeTableRecord
  2
AM_ISO02W050X2
 70
     0
  3
 _ _ _ _ _ _ _ _ _ _ _ _
 72
    65
 73
     2
 40
3.75
 49
3.0
 74
     0
 49
-0.75
 74
     0
  0
LTYPE
  5
50
330
5
100
AcDbSymbolTableRecord
100
AcDbLinetypeTableRecord
  2
AM_ISO08W050X2
 70
     0
  3
__ . __ . __ . __ . __ . __
 72
    65
 73
     4
 40
9.0
 49
6.0
 74
     0
 49
-0.75
 74
     0
 49
1.5
 74
     0
 49
-0.75
 74
     0
  0
LTYPE
  5
53
330
5
100
AcDbSymbolTableRecord
100
AcDbLinetypeTableRecord
  2
AMZIGZAG
 70
     0
  3
/\/-/\/-/\/-/\/-/\/-/\/
 72
    65
 73
     2
 40
11.00009999999999
 49
0.0001
 74
     4
 75
   135
340
52
 46
0.04
 50
0.0
 44
0.0
 45
0.0
 49
-11.0
 74
     0
  0
LTYPE
  5
166
330
5
100
AcDbSymbolTableRecord
100
AcDbLinetypeTableRecord
  2
ACJISTGL
 70
     0
  3
_ _ _ _ _
 72
    65
 73
     2
 40
3.0
 49
2.0
 74
     0
 49
-1.0
 74
     0
  0
LTYPE
  5
26A
330
5
100
AcDbSymbolTableRecord
100
AcDbLinetypeTableRecord
  2
ACJISTGB
 70
     0
  3
__ . . __ . .
 72
    65
 73
     6
 40
9.0
 49
4.0
 74
     0
 49
-1.0
 74
     0
 49
1.0
 74
     0
 49
-1.0
 74
     0
 49
1.0
 74
     0
 49
-1.0
 74
     0
  0
ENDTAB
  0
TABLE
  2
LAYER
  5
2
330
0
100
AcDbSymbolTable
 70
     7
  0
LAYER
  5
10
330
2
100
AcDbSymbolTableRecord
100
AcDbLayerTableRecord
  2
0
 70
     0
 62
     7
  6
CONTINUOUS
  0
LAYER
  5
3F9
330
2
100
AcDbSymbolTableRecord
100
AcDbLayerTableRecord
  2
AM_0
 70
     0
 62
     7
  6
CONTINUOUS
  0
LAYER
  5
BD4
330
2
100
AcDbSymbolTableRecord
100
AcDbLayerTableRecord
  2
AM_11
 70
     0
 62
     3
  6
AM_ISO09W050
  0
LAYER
  5
BD5
330
2
100
AcDbSymbolTableRecord
100
AcDbLayerTableRecord
  2
AM_7
 70
     0
 62
     4
  6
AM_ISO08W050
  0
LAYER
  5
BD6
330
2
100
AcDbSymbolTableRecord
100
AcDbLayerTableRecord
  2
AM_5
 70
     0
 62
     3
  6
CONTINUOUS
  0
LAYER
  5
BD7
330
2
100
AcDbSymbolTableRecord
100
AcDbLayerTableRecord
  2
DEFPOINTS
 70
     0
 62
     7
  6
CONTINUOUS
  0
LAYER
  5
E59
330
2
100
AcDbSymbolTableRecord
100
AcDbLayerTableRecord
  2
AM_6
 70
     0
 62
     2
  6
CONTINUOUS
  0
ENDTAB
  0
TABLE
  2
STYLE
  5
3
330
0
100
AcDbSymbolTable
 70
     5
  0
STYLE
  5
11
330
3
100
AcDbSymbolTableRecord
100
AcDbTextStyleTableRecord
  2
STANDARD
 70
     0
 40
0.0
 41
1.0
 50
0.0
 71
     0
 42
2.5
  3
simplex.shx
  4
EXTFONT.SHX
  0
STYLE
  5
52
330
3
100
AcDbSymbolTableRecord
100
AcDbTextStyleTableRecord
  2

 70
     1
 40
0.0
 41
1.0
 50
0.0
 71
     0
 42
2.5
  3
ltypeshp.shx
  4

  0
STYLE
  5
6B
330
3
100
AcDbSymbolTableRecord
100
AcDbTextStyleTableRecord
  2
ASAMI
 70
     0
 40
0.0
 41
1.0
 50
0.0
 71
     0
 42
2.5
  3
simplex.shx
  4
EXTFONT.SHX
  0
STYLE
  5
262
330
3
100
AcDbSymbolTableRecord
100
AcDbTextStyleTableRecord
  2
ACJISTS
 70
     0
 40
1.0
 41
1.0
 50
0.0
 71
     0
 42
2.5
  3
simplex.shx
  4
bigfont.shx
  0
STYLE
  5
269
330
3
100
AcDbSymbolTableRecord
100
AcDbTextStyleTableRecord
  2
ACJISGDT
 70
     0
 40
0.0
 41
1.0
 50
0.0
 71
     0
 42
2.5
  3
amgdtans.shx
  4

  0
ENDTAB
  0
TABLE
  2
VIEW
  5
6
330
0
100
AcDbSymbolTable
 70
     0
  0
ENDTAB
  0
TABLE
  2
UCS
  5
7
330
0
100
AcDbSymbolTable
 70
     0
  0
ENDTAB
  0
TABLE
  2
APPID
  5
9
330
0
100
AcDbSymbolTable
 70
    12
  0
APPID
  5
12
330
9
100
AcDbSymbolTableRecord
100
AcDbRegAppTableRecord
  2
ACAD
 70
     0
  0
APPID
  5
30
330
9
100
AcDbSymbolTableRecord
100
AcDbRegAppTableRecord
  2
MCAD_NO_VIS
 70
     0
  0
APPID
  5
31
330
9
100
AcDbSymbolTableRecord
100
AcDbRegAppTableRecord
  2
ACAD_TEMP_GRAPHIC
 70
     0
  0
APPID
  5
2C2
330
9
100
AcDbSymbolTableRecord
100
AcDbRegAppTableRecord
  2
GENIUS_GENDTOL_13
 70
     0
  0
APPID
  5
339
330
9
100
AcDbSymbolTableRecord
100
AcDbRegAppTableRecord
  2
GENIUS_GENODEF_13
 70
     0
  0
APPID
  5
33A
330
9
100
AcDbSymbolTableRecord
100
AcDbRegAppTableRecord
  2
GENIUS_GENOBJ-N-RSBK_13
 70
     0
  0
APPID
  5
33B
330
9
100
AcDbSymbolTableRecord
100
AcDbRegAppTableRecord
  2
GENIUS_GENOBJ-N-LIB_13
 70
     0
  0
APPID
  5
33C
330
9
100
AcDbSymbolTableRecord
100
AcDbRegAppTableRecord
  2
GENIUS_GENSCALE_13
 70
     0
  0
APPID
  5
378
330
9
100
AcDbSymbolTableRecord
100
AcDbRegAppTableRecord
  2
GENIUS_GENDIMSH_14
 70
     0
  0
APPID
  5
BD8
330
9
100
AcDbSymbolTableRecord
100
AcDbRegAppTableRecord
  2
GENIUS_GENOBJ-N-CEN_13
 70
     0
  0
APPID
  5
BD9
330
9
100
AcDbSymbolTableRecord
100
AcDbRegAppTableRecord
  2
GENIUS_GENFIL_13
 70
     0
  0
APPID
  5
BDA
330
9
100
AcDbSymbolTableRecord
100
AcDbRegAppTableRecord
  2
GENIUS_GENOBJ-N-CHA_13
 70
     0
  0
ENDTAB
  0
TABLE
  2
DIMSTYLE
  5
A
330
0
100
AcDbSymbolTable
 70
     8
  0
DIMSTYLE
105
58
102
{ACAD_REACTORS
330
1818
330
18AB
330
193F
330
19E5
102
}
330
A
100
AcDbSymbolTableRecord
100
AcDbDimStyleTableRecord
  2
AM_JIS
 70
     0
  3

  4
"
  5
OPEN30
  6

  7

 40
0.5
 41
2.5
 42
1.0
 43
12.0
 44
1.0
 45
0.0
 46
0.0
 47
0.1
 48
0.1
140
3.2
141
0.0
142
0.0
143
0.0393701
144
1.0
145
0.0
146
0.71
147
1.5
 71
     0
 72
     0
 73
     0
 74
     0
 75
     0
 76
     0
 77
     3
 78
     8
170
     0
171
     2
172
     1
173
     0
174
     0
175
     0
176
   256
177
   256
178
     2
270
     2
271
     3
272
     3
273
     2
274
     2
340
6B
275
     0
280
     0
281
     0
282
     0
283
     0
284
     0
285
     0
286
     0
287
     3
288
     0
  0
DIMSTYLE
105
5F
330
A
100
AcDbSymbolTableRecord
100
AcDbDimStyleTableRecord
  2
AM_JIS$3
 70
     0
  3

  4
"
  5
OPEN30
  6

  7

 40
0.5
 41
2.5
 42
1.0
 43
10.0
 44
1.0
 45
0.0
 46
0.0
 47
0.1
 48
0.1
140
3.2
141
0.0
142
0.0
143
0.0393701
144
1.0
145
0.0
146
0.71
147
1.5
 71
     0
 72
     0
 73
     0
 74
     1
 75
     0
 76
     0
 77
     3
 78
     8
170
     0
171
     2
172
     0
173
     0
174
     0
175
     0
176
   256
177
   256
178
     2
270
     2
271
     2
272
     3
273
     2
274
     2
340
6B
275
     0
280
     0
281
     0
282
     0
283
     0
284
     0
285
     0
286
     0
287
     0
288
     1
  0
DIMSTYLE
105
60
330
A
100
AcDbSymbolTableRecord
100
AcDbDimStyleTableRecord
  2
AM_JIS$4
 70
     0
  3

  4
"
  5
OPEN30
  6

  7

 40
0.5
 41
2.5
 42
1.0
 43
10.0
 44
1.0
 45
0.0
 46
0.0
 47
0.1
 48
0.1
140
3.2
141
0.0
142
0.0
143
0.0393701
144
1.0
145
0.0
146
0.71
147
1.5
 71
     0
 72
     0
 73
     0
 74
     1
 75
     0
 76
     0
 77
     3
 78
     8
170
     0
171
     2
172
     0
173
     0
174
     0
175
     0
176
   256
177
   256
178
     2
270
     2
271
     2
272
     3
273
     2
274
     2
340
6B
275
     0
280
     0
281
     0
282
     0
283
     0
284
     0
285
     0
286
     0
287
     0
288
     1
  0
DIMSTYLE
105
61
330
A
100
AcDbSymbolTableRecord
100
AcDbDimStyleTableRecord
  2
AM_JIS$6
 70
     0
  3

  4
"
  5
OPEN30
  6

  7

 40
0.5
 41
2.5
 42
1.0
 43
10.0
 44
1.0
 45
0.0
 46
0.0
 47
0.1
 48
0.1
140
3.2
141
0.0
142
0.0
143
0.0393701
144
1.0
145
0.0
146
0.71
147
1.5
 71
     0
 72
     0
 73
     0
 74
     0
 75
     0
 76
     0
 77
     0
 78
     8
170
     0
171
     2
172
     1
173
     0
174
     0
175
     0
176
   256
177
   256
178
     2
270
     2
271
     2
272
     2
273
     2
274
     2
340
6B
275
     0
280
     0
281
     0
282
     0
283
     0
284
     0
285
     0
286
     0
287
     3
288
     0
  0
DIMSTYLE
105
62
330
A
100
AcDbSymbolTableRecord
100
AcDbDimStyleTableRecord
  2
AM_JIS$7
 70
     0
  3

  4
"
  5
OPEN30
  6

  7

 40
0.5
 41
2.5
 42
1.0
 43
10.0
 44
1.0
 45
0.0
 46
0.0
 47
0.1
 48
0.1
140
3.2
141
0.0
142
0.0
143
0.0393701
144
1.0
145
0.0
146
0.71
147
1.5
 71
     0
 72
     0
 73
     0
 74
     0
 75
     0
 76
     0
 77
     3
 78
     8
170
     0
171
     2
172
     1
173
     0
174
     0
175
     0
176
   256
177
   256
178
     2
270
     2
271
     2
272
     3
273
     2
274
     2
340
6B
275
     0
280
     0
281
     0
282
     0
283
     0
284
     0
285
     0
286
     0
287
     3
288
     0
  0
DIMSTYLE
105
63
330
A
100
AcDbSymbolTableRecord
100
AcDbDimStyleTableRecord
  2
AM_JIS$SF
 70
     0
  3

  4
"
  5
OPEN30
  6

  7

 40
0.5
 41
2.5
 42
1.0
 43
10.0
 44
1.0
 45
0.0
 46
0.0
 47
0.1
 48
0.1
140
3.2
141
0.0
142
0.0
143
0.0393701
144
1.0
145
0.0
146
0.71
147
1.5
 71
     0
 72
     0
 73
     0
 74
     0
 75
     1
 76
     1
 77
     3
 78
     8
170
     0
171
     2
172
     1
173
     0
174
     0
175
     0
176
   256
177
   256
178
     2
270
     2
271
     2
272
     2
273
     2
274
     2
340
6B
275
     0
280
     0
281
     0
282
     0
283
     0
284
     0
285
     0
286
     0
287
     3
288
     0
  0
DIMSTYLE
105
68
330
A
100
AcDbSymbolTableRecord
100
AcDbDimStyleTableRecord
  2
AM_JIS$SH
 70
     0
  3

  4
"
  5

  6
GENAXEH
  7
OPEN30
 40
0.5
 41
2.5
 42
1.0
 43
10.0
 44
1.0
 45
0.0
 46
0.0
 47
0.1
 48
0.1
140
3.2
141
0.0
142
0.0
143
0.0393701
144
2.0
145
0.0
146
0.71
147
1.5
 71
     0
 72
     0
 73
     0
 74
     0
 75
     1
 76
     1
 77
     3
 78
     8
170
     0
171
     2
172
     1
173
     1
174
     0
175
     0
176
   256
177
   256
178
     2
270
     2
271
     2
272
     2
273
     2
274
     2
340
6B
275
     0
280
     0
281
     0
282
     0
283
     0
284
     0
285
     0
286
     0
287
     3
288
     0
  0
DIMSTYLE
105
B34
330
A
100
AcDbSymbolTableRecord
100
AcDbDimStyleTableRecord
  2
AM_JIS$2
 70
     0
  3

  4
"
  5
OPEN30
  6

  7

 40
0.5
 41
2.5
 42
1.0
 43
12.0
 44
1.0
 45
0.0
 46
0.0
 47
0.1
 48
0.1
140
3.2
141
0.0
142
0.0
143
0.0393701
144
1.0
145
0.0
146
0.71
147
1.5
 71
     0
 72
     0
 73
     0
 74
     0
 75
     0
 76
     0
 77
     3
 78
     8
170
     0
171
     2
172
     1
173
     0
174
     0
175
     0
176
   256
177
   256
178
     2
270
     2
271
     3
272
     3
273
     2
274
     2
340
6B
275
     0
280
     0
281
     0
282
     0
283
     0
284
     0
285
     0
286
     0
287
     3
288
     0
  0
ENDTAB
  0
TABLE
  2
BLOCK_RECORD
  5
1
330
0
100
AcDbSymbolTable
 70
     9
  0
BLOCK_RECORD
  5
1F
102
{ACAD_XDICTIONARY
360
74
102
}
330
1
100
AcDbSymbolTableRecord
100
AcDbBlockTableRecord
  2
*MODEL_SPACE
  0
BLOCK_RECORD
  5
101
102
{ACAD_XDICTIONARY
360
2013
102
}
330
1
100
AcDbSymbolTableRecord
100
AcDbBlockTableRecord
  2
*PAPER_SPACE
  0
BLOCK_RECORD
  5
59
330
1
100
AcDbSymbolTableRecord
100
AcDbBlockTableRecord
  2
_OPEN30
  0
BLOCK_RECORD
  5
64
330
1
100
AcDbSymbolTableRecord
100
AcDbBlockTableRecord
  2
GENAXEH
  0
BLOCK_RECORD
  5
1819
330
1
100
AcDbSymbolTableRecord
100
AcDbBlockTableRecord
  2
*D5
  0
BLOCK_RECORD
  5
18AC
330
1
100
AcDbSymbolTableRecord
100
AcDbBlockTableRecord
  2
*D6
  0
BLOCK_RECORD
  5
1940
330
1
100
AcDbSymbolTableRecord
100
AcDbBlockTableRecord
  2
*D7
  0
BLOCK_RECORD
  5
19E6
330
1
100
AcDbSymbolTableRecord
100
AcDbBlockTableRecord
  2
*D8
  0
ENDTAB
  0
ENDSEC
  0
SECTION
  2
BLOCKS
  0
BLOCK
  5
20
330
1F
100
AcDbEntity
  8
0
100
AcDbBlockBegin
  2
*MODEL_SPACE
 70
     0
 10
0.0
 20
0.0
 30
0.0
  3
*MODEL_SPACE
  1

  0
ENDBLK
  5
21
330
1F
100
AcDbEntity
  8
0
100
AcDbBlockEnd
  0
BLOCK
  5
103
330
101
100
AcDbEntity
 67
     1
  8
0
100
AcDbBlockBegin
  2
*PAPER_SPACE
 70
     0
 10
0.0
 20
0.0
 30
0.0
  3
*PAPER_SPACE
  1

  0
ENDBLK
  5
104
330
101
100
AcDbEntity
 67
     1
  8
0
100
AcDbBlockEnd
  0
BLOCK
  5
5D
330
59
100
AcDbEntity
  8
0
100
AcDbBlockBegin
  2
_OPEN30
 70
     0
 10
0.0
 20
0.0
 30
0.0
  3
_OPEN30
  1

  0
LINE
  5
5A
330
59
100
AcDbEntity
  8
0
 62
     0
100
AcDbLine
 10
-1.0
 20
0.26794919
 30
0.0
 11
0.0
 21
0.0
 31
0.0
  0
LINE
  5
5B
330
59
100
AcDbEntity
  8
0
 62
     0
100
AcDbLine
 10
0.0
 20
0.0
 30
0.0
 11
-1.0
 21
-0.26794919
 31
0.0
  0
LINE
  5
5C
330
59
100
AcDbEntity
  8
0
 62
     0
100
AcDbLine
 10
0.0
 20
0.0
 30
0.0
 11
-1.0
 21
0.0
 31
0.0
  0
ENDBLK
  5
5E
330
59
100
AcDbEntity
  8
0
100
AcDbBlockEnd
  0
BLOCK
  5
66
330
64
100
AcDbEntity
  8
0
100
AcDbBlockBegin
  2
GENAXEH
 70
     0
 10
0.0
 20
0.0
 30
0.0
  3
GENAXEH
  1

  0
LINE
  5
65
330
64
100
AcDbEntity
  8
0
100
AcDbLine
 10
-1.0
 20
0.0
 30
0.0
 11
1.0
 21
0.0
 31
0.0
  0
ENDBLK
  5
67
330
64
100
AcDbEntity
  8
0
100
AcDbBlockEnd
  0
BLOCK
  5
1823
330
1819
100
AcDbEntity
  8
0
100
AcDbBlockBegin
  2
*D5
 70
     1
 10
0.0
 20
0.0
 30
0.0
  3
*D5
  1

  0
LINE
  5
1DEB
330
1819
100
AcDbEntity
  8
AM_5
100
AcDbLine
 10
-45.00000000000009
 20
3.000000000000064
 30
0.0
 11
-53.71831628338793
 21
3.000000000000066
 31
0.0
  0
LINE
  5
1DEC
330
1819
100
AcDbEntity
  8
AM_5
100
AcDbLine
 10
-45.00000000000008
 20
-2.999999999999935
 30
0.0
 11
-53.71831628338793
 21
-2.999999999999933
 31
0.0
  0
LINE
  5
1DED
330
1819
100
AcDbEntity
  8
AM_5
100
AcDbLine
 10
-53.21831628338793
 20
1.750000000000066
 30
0.0
 11
-53.21831628338793
 21
-1.749999999999933
 31
0.0
  0
INSERT
  5
1DEE
330
1819
100
AcDbEntity
  8
AM_5
100
AcDbBlockReference
  2
_OPEN30
 10
-53.21831628338793
 20
3.000000000000066
 30
0.0
 41
1.25
 42
1.25
 43
1.25
 50
90.0
  0
INSERT
  5
1DEF
330
1819
100
AcDbEntity
  8
AM_5
100
AcDbBlockReference
  2
_OPEN30
 10
-53.21831628338793
 20
-2.999999999999933
 30
0.0
 41
1.25
 42
1.25
 43
1.25
 50
270.0
  0
MTEXT
  5
1DF0
330
1819
100
AcDbEntity
  8
AM_5
 62
     2
100
AcDbMText
 10
-54.76831628338793
 20
0.0000000000000581
 30
0.0
 40
1.6
 41
0.0
 71
     5
 72
     1
  1
%%c6
  7
ASAMI
 11
0.0000000000000001
 21
1.0
 31
0.0
1001
ACAD
1000
MTEXTBEGIN
1070
    73
1070
     1
1070
    44
1040
1.0
1070
    74
1070
     0
1000
MTEXTEND
  0
POINT
  5
1DF1
330
1819
100
AcDbEntity
  8
DEFPOINTS
 62
     0
100
AcDbPoint
 10
-44.50000000000009
 20
3.000000000000063
 30
0.0
  0
POINT
  5
1DF2
330
1819
100
AcDbEntity
  8
DEFPOINTS
 62
     0
100
AcDbPoint
 10
-44.50000000000009
 20
-2.999999999999936
 30
0.0
  0
POINT
  5
1DF3
330
1819
100
AcDbEntity
  8
DEFPOINTS
 62
     0
100
AcDbPoint
 10
-53.21831628338793
 20
-2.999999999999933
 30
0.0
  0
ENDBLK
  5
1824
330
1819
100
AcDbEntity
  8
0
100
AcDbBlockEnd
  0
BLOCK
  5
18B6
330
18AC
100
AcDbEntity
  8
0
100
AcDbBlockBegin
  2
*D6
 70
     1
 10
0.0
 20
0.0
 30
0.0
  3
*D6
  1

  0
LINE
  5
1DE2
330
18AC
100
AcDbEntity
  8
AM_5
100
AcDbLine
 10
-45.00000000000008
 20
-2.999999999999936
 30
0.0
 11
-45.00000000000008
 21
-16.50000099999989
 31
0.0
  0
LINE
  5
1DE3
330
18AC
100
AcDbEntity
  8
AM_5
100
AcDbLine
 10
-0.0000000000000671
 20
-2.249999999999989
 30
0.0
 11
-0.000000000000068
 21
-16.50000099999989
 31
0.0
  0
LINE
  5
1DE4
330
18AC
100
AcDbEntity
  8
AM_5
100
AcDbLine
 10
-43.75000000000008
 20
-16.00000099999989
 30
0.0
 11
-1.250000000000067
 21
-16.00000099999989
 31
0.0
  0
INSERT
  5
1DE5
330
18AC
100
AcDbEntity
  8
AM_5
100
AcDbBlockReference
  2
_OPEN30
 10
-45.00000000000008
 20
-16.00000099999989
 30
0.0
 41
1.25
 42
1.25
 43
1.25
 50
180.0
  0
INSERT
  5
1DE6
330
18AC
100
AcDbEntity
  8
AM_5
100
AcDbBlockReference
  2
_OPEN30
 10
-0.0000000000000679
 20
-16.00000099999989
 30
0.0
 41
1.25
 42
1.25
 43
1.25
  0
MTEXT
  5
1DE7
330
18AC
100
AcDbEntity
  8
AM_5
 62
     2
100
AcDbMText
 10
-22.50000000000007
 20
-14.45000099999989
 30
0.0
 40
1.6
 41
0.0
 71
     5
 72
     1
  1
45
  7
ASAMI
1001
ACAD
1000
MTEXTBEGIN
1070
    73
1070
     1
1070
    44
1040
1.0
1070
    74
1070
     0
1000
MTEXTEND
  0
POINT
  5
1DE8
330
18AC
100
AcDbEntity
  8
DEFPOINTS
 62
     0
100
AcDbPoint
 10
-45.00000000000008
 20
-2.499999999999936
 30
0.0
  0
POINT
  5
1DE9
330
18AC
100
AcDbEntity
  8
DEFPOINTS
 62
     0
100
AcDbPoint
 10
-0.0000000000000671
 20
-1.749999999999989
 30
0.0
  0
POINT
  5
1DEA
330
18AC
100
AcDbEntity
  8
DEFPOINTS
 62
     0
100
AcDbPoint
 10
-0.0000000000000679
 20
-16.00000099999989
 30
0.0
  0
ENDBLK
  5
18B7
330
18AC
100
AcDbEntity
  8
0
100
AcDbBlockEnd
  0
BLOCK
  5
194A
330
1940
100
AcDbEntity
  8
0
100
AcDbBlockBegin
  2
*D7
 70
     1
 10
0.0
 20
0.0
 30
0.0
  3
*D7
  1

  0
LINE
  5
1E16
330
1940
100
AcDbEntity
  8
AM_5
100
AcDbLine
 10
-10.00000000000008
 20
-2.250000000000005
 30
0.0
 11
-10.00000000000008
 21
-10.5000009999999
 31
0.0
  0
LINE
  5
1E17
330
1940
100
AcDbEntity
  8
AM_5
100
AcDbLine
 10
-0.0000000000000671
 20
-2.249999999999989
 30
0.0
 11
-0.0000000000000676
 21
-10.5000009999999
 31
0.0
  0
LINE
  5
1E18
330
1940
100
AcDbEntity
  8
AM_5
100
AcDbLine
 10
-8.750000000000083
 20
-10.0000009999999
 30
0.0
 11
-1.250000000000067
 21
-10.0000009999999
 31
0.0
  0
INSERT
  5
1E19
330
1940
100
AcDbEntity
  8
AM_5
100
AcDbBlockReference
  2
_OPEN30
 10
-10.00000000000008
 20
-10.0000009999999
 30
0.0
 41
1.25
 42
1.25
 43
1.25
 50
180.0
  0
INSERT
  5
1E1A
330
1940
100
AcDbEntity
  8
AM_5
100
AcDbBlockReference
  2
_OPEN30
 10
-0.0000000000000676
 20
-10.0000009999999
 30
0.0
 41
1.25
 42
1.25
 43
1.25
  0
MTEXT
  5
1E1B
330
1940
100
AcDbEntity
  8
AM_5
 62
     2
100
AcDbMText
 10
-5.000000000000075
 20
-8.450000999999899
 30
0.0
 40
1.6
 41
0.0
 71
     5
 72
     1
  1
10
  7
ASAMI
1001
ACAD
1000
MTEXTBEGIN
1070
    73
1070
     1
1070
    44
1040
1.0
1070
    74
1070
     0
1000
MTEXTEND
  0
POINT
  5
1E1C
330
1940
100
AcDbEntity
  8
DEFPOINTS
 62
     0
100
AcDbPoint
 10
-10.00000000000008
 20
-1.750000000000005
 30
0.0
  0
POINT
  5
1E1D
330
1940
100
AcDbEntity
  8
DEFPOINTS
 62
     0
100
AcDbPoint
 10
-0.0000000000000671
 20
-1.749999999999989
 30
0.0
  0
POINT
  5
1E1E
330
1940
100
AcDbEntity
  8
DEFPOINTS
 62
     0
100
AcDbPoint
 10
-0.0000000000000676
 20
-10.0000009999999
 30
0.0
  0
ENDBLK
  5
194B
330
1940
100
AcDbEntity
  8
0
100
AcDbBlockEnd
  0
BLOCK
  5
19F0
330
19E6
100
AcDbEntity
  8
0
100
AcDbBlockBegin
  2
*D8
 70
     1
 10
0.0
 20
0.0
 30
0.0
  3
*D8
  1

  0
LINE
  5
1DD7
330
19E6
100
AcDbEntity
  8
AM_5
100
AcDbLine
 10
0.4999999999999365
 20
1.750000000000001
 30
0.0
 11
9.778885015427377
 21
1.749999999999998
 31
0.0
  0
LINE
  5
1DD8
330
19E6
100
AcDbEntity
  8
AM_5
100
AcDbLine
 10
0.4999999999999365
 20
-1.749999999999998
 30
0.0
 11
9.778885015427377
 21
-1.750000000000001
 31
0.0
  0
LINE
  5
1DD9
330
19E6
100
AcDbEntity
  8
AM_5
100
AcDbLine
 10
9.278885015427377
 20
2.999999999999998
 30
0.0
 11
9.278885015427379
 21
4.249999999999999
 31
0.0
  0
LINE
  5
1DDA
330
19E6
100
AcDbEntity
  8
AM_5
100
AcDbLine
 10
9.278885015427377
 20
-3.000000000000001
 30
0.0
 11
9.278885015427375
 21
-10.54999999999999
 31
0.0
  0
LINE
  5
1DDB
330
19E6
100
AcDbEntity
  8
AM_5
100
AcDbLine
 10
9.278885015427377
 20
1.749999999999999
 30
0.0
 11
9.278885015427377
 21
-1.75
 31
0.0
  0
INSERT
  5
1DDC
330
19E6
100
AcDbEntity
  8
AM_5
100
AcDbBlockReference
  2
_OPEN30
 10
9.278885015427377
 20
1.749999999999999
 30
0.0
 41
1.25
 42
1.25
 43
1.25
 50
270.0
  0
INSERT
  5
1DDD
330
19E6
100
AcDbEntity
  8
AM_5
100
AcDbBlockReference
  2
_OPEN30
 10
9.278885015427377
 20
-1.75
 30
0.0
 41
1.25
 42
1.25
 43
1.25
 50
90.0
  0
MTEXT
  5
1DDE
330
19E6
100
AcDbEntity
  8
AM_5
 62
     2
100
AcDbMText
 10
7.728885015427375
 20
-7.399999999999999
 30
0.0
 40
1.6
 41
0.0
 71
     5
 72
     1
  1
%%c3.5
  7
ASAMI
 11
0.0000000000000001
 21
1.0
 31
0.0
1001
ACAD
1000
MTEXTBEGIN
1070
    73
1070
     1
1070
    44
1040
1.0
1070
    74
1070
     0
1000
MTEXTEND
  0
POINT
  5
1DDF
330
19E6
100
AcDbEntity
  8
DEFPOINTS
 62
     0
100
AcDbPoint
 10
-0.0000000000000635
 20
1.750000000000001
 30
0.0
  0
POINT
  5
1DE0
330
19E6
100
AcDbEntity
  8
DEFPOINTS
 62
     0
100
AcDbPoint
 10
-0.0000000000000635
 20
-1.749999999999998
 30
0.0
  0
POINT
  5
1DE1
330
19E6
100
AcDbEntity
  8
DEFPOINTS
 62
     0
100
AcDbPoint
 10
9.278885015427377
 20
-1.75
 30
0.0
  0
ENDBLK
  5
19F1
330
19E6
100
AcDbEntity
  8
0
100
AcDbBlockEnd
  0
ENDSEC
  0
SECTION
  2
ENTITIES
  0
TEXT
  5
E5A
330
1F
100
AcDbEntity
  8
AM_6
100
AcDbText
 10
-30.47619047619055
 20
-27.2500009999999
 30
0.0
 40
2.5
  1
JSM4035
 72
     4
 11
-22.50000000000007
 21
-26.0000009999999
 31
0.0
100
AcDbText
  0
LINE
  5
178E
330
1F
100
AcDbEntity
  8
AM_7
  6
AM_ISO08W050X2
100
AcDbLine
 10
2.278884015427379
 20
0.0
 30
0.0
 11
-46.21831528338794
 21
-0.0000000000000213
 31
0.0
1001
GENIUS_GENODEF_13
1002
{
1000
HIER
1070
     0
1002
}
1002
{
1000
MANEDIT
1070
     0
1002
}
1002
{
1000
NOSEL
1070
     0
1002
}
1002
{
1000
BEHIND
1070
     0
1002
}
1002
{
1000
REACTOR
1002
}
1001
GENIUS_GENOBJ-N-CEN_13
1002
{
1000
OWNER
1000
GEN
1002
}
  0
LINE
  5
17D6
330
1F
100
AcDbEntity
  8
AM_0
100
AcDbLine
 10
-45.00000000000009
 20
2.500000000000063
 30
0.0
 11
-45.00000000000008
 21
-2.499999999999936
 31
0.0
  0
LINE
  5
17D7
330
1F
100
AcDbEntity
  8
AM_0
100
AcDbLine
 10
-44.50000000000009
 20
-2.999999999999936
 30
0.0
 11
-18.50000000000007
 21
-2.999999999999941
 31
0.0
  0
LINE
  5
17D8
330
1F
100
AcDbEntity
  8
AM_0
100
AcDbLine
 10
-44.50000000000009
 20
3.000000000000063
 30
0.0
 11
-18.5000000000001
 21
3.00000000000007
 31
0.0
  0
LINE
  5
17E6
330
1F
100
AcDbEntity
  8
AM_0
100
AcDbLine
 10
-44.50000000000009
 20
3.000000000000063
 30
0.0
 11
-45.00000000000009
 21
2.500000000000063
 31
0.0
1001
GENIUS_GENFIL_13
1070
     0
1040
0.5
1040
0.5
1040
20.0
1040
0.0
1002
{
1002
}
1001
GENIUS_GENODEF_13
1002
{
1000
HIER
1070
     0
1002
}
1002
{
1000
MANEDIT
1070
     0
1002
}
1002
{
1000
NOSEL
1070
     0
1002
}
1002
{
1000
BEHIND
1070
     0
1002
}
1002
{
1000
REACTOR
1002
}
1001
GENIUS_GENOBJ-N-CHA_13
1002
{
1000
OWNER
1000
GEN
1002
}
  0
LINE
  5
17E9
330
1F
100
AcDbEntity
  8
AM_0
100
AcDbLine
 10
-45.00000000000008
 20
-2.499999999999936
 30
0.0
 11
-44.50000000000009
 21
-2.999999999999936
 31
0.0
1001
GENIUS_GENFIL_13
1070
     0
1040
0.5
1040
0.5
1040
20.0
1040
0.0
1002
{
1002
}
1001
GENIUS_GENODEF_13
1002
{
1000
HIER
1070
     0
1002
}
1002
{
1000
MANEDIT
1070
     0
1002
}
1002
{
1000
NOSEL
1070
     0
1002
}
1002
{
1000
BEHIND
1070
     0
1002
}
1002
{
1000
REACTOR
1002
}
1001
GENIUS_GENOBJ-N-CHA_13
1002
{
1000
OWNER
1000
GEN
1002
}
  0
LINE
  5
17EA
330
1F
100
AcDbEntity
  8
AM_0
100
AcDbLine
 10
-44.50000000000009
 20
3.000000000000063
 30
0.0
 11
-44.50000000000009
 21
-2.999999999999921
 31
0.0
  0
DIMENSION
  5
1818
330
1F
100
AcDbEntity
  8
AM_5
100
AcDbDimension
  2
*D5
 10
-53.21831628338793
 20
-2.999999999999933
 30
0.0
 11
-54.76831628338793
 21
0.0000000000000581
 31
0.0
 70
    32
  1
%%c<>
  3
AM_JIS
100
AcDbAlignedDimension
 13
-44.50000000000009
 23
3.000000000000063
 33
0.0
 14
-44.50000000000009
 24
-2.999999999999936
 34
0.0
 50
270.0000000000001
100
AcDbRotatedDimension
1001
GENIUS_GENDTOL_13
1000

1000
h7
1000

1040
0.0
  0
DIMENSION
  5
18AB
330
1F
100
AcDbEntity
  8
AM_5
100
AcDbDimension
  2
*D6
 10
-0.0000000000000679
 20
-16.00000099999989
 30
0.0
 11
-22.50000000000007
 21
-14.45000099999989
 31
0.0
 70
    32
  1
<>
  3
AM_JIS
100
AcDbAlignedDimension
 13
-45.00000000000008
 23
-2.499999999999936
 33
0.0
 14
-0.0000000000000671
 24
-1.749999999999989
 34
0.0
 50
0.0000000000001132
100
AcDbRotatedDimension
1001
GENIUS_GENDTOL_13
1000

1000
h7
1000

1040
0.0
  0
DIMENSION
  5
193F
330
1F
100
AcDbEntity
  8
AM_5
100
AcDbDimension
  2
*D7
 10
-0.0000000000000676
 20
-10.0000009999999
 30
0.0
 11
-5.000000000000075
 21
-8.450000999999899
 31
0.0
 70
    32
  1
<>
  3
AM_JIS
100
AcDbAlignedDimension
 13
-10.00000000000008
 23
-1.750000000000005
 33
0.0
 14
-0.0000000000000671
 24
-1.749999999999989
 34
0.0
 50
0.0000000000001132
100
AcDbRotatedDimension
1001
GENIUS_GENDTOL_13
1000

1000
h7
1000

1040
0.0
  0
DIMENSION
  5
19E5
330
1F
100
AcDbEntity
  8
AM_5
100
AcDbDimension
  2
*D8
 10
9.278885015427377
 20
-1.75
 30
0.0
 11
7.728885015427375
 21
-7.399999999999999
 31
0.0
 70
    32
  1
%%c<>
  3
AM_JIS
100
AcDbAlignedDimension
 13
-0.0000000000000635
 23
1.750000000000001
 33
0.0
 14
-0.0000000000000635
 24
-1.749999999999998
 34
0.0
 50
90.00000000000003
100
AcDbRotatedDimension
1001
GENIUS_GENDTOL_13
1000

1000
h7
1000

1040
0.0
  0
LINE
  5
1D65
330
1F
100
AcDbEntity
  8
AM_0
100
AcDbLine
 10
-0.0000000000000635
 20
0.0000000000000018
 30
0.0
 11
-0.0357000000000614
 21
0.3500000000000387
 31
0.0
  0
LINE
  5
1D66
330
1F
100
AcDbEntity
  8
AM_0
100
AcDbLine
 10
-0.3629582272336551
 20
0.9334992849036378
 30
0.0
 11
-0.8012345585475033
 21
1.052958697884827
 31
0.0
  0
LINE
  5
1D67
330
1F
100
AcDbEntity
  8
AM_0
100
AcDbLine
 10
-0.0357000000000614
 20
0.3500000000000387
 30
0.0
 11
-0.3629582272336551
 21
0.9334992849036378
 31
0.0
  0
LINE
  5
1D68
330
1F
100
AcDbEntity
  8
AM_0
100
AcDbLine
 10
-0.0000000000000635
 20
0.0000000000000018
 30
0.0
 11
-0.8012345585475033
 21
0.0000000000000018
 31
0.0
  0
LINE
  5
1D69
330
1F
100
AcDbEntity
  8
AM_0
100
AcDbLine
 10
-0.0000000000000635
 20
0.0000000000000018
 30
0.0
 11
-0.0000000000000635
 21
1.750000000000001
 31
0.0
  0
LINE
  5
1D6A
330
1F
100
AcDbEntity
  8
AM_0
100
AcDbLine
 10
-10.00000000000005
 20
1.040381416593267
 30
0.0
 11
-10.00000000000003
 21
0.5040078594597813
 31
0.0
  0
POLYLINE
  5
1D6C
330
1F
100
AcDbEntity
  8
AM_0
100
AcDb2dPolyline
 66
     1
 10
0.0
 20
0.0
 30
0.0
 70
     2
  0
VERTEX
  5
1D6D
330
1D6C
100
AcDbEntity
  8
AM_0
100
AcDbVertex
100
AcDb2dVertex
 10
-10.90443827483512
 20
1.40434541806009
 30
0.0
 42
-0.0080850818469205
  0
VERTEX
  5
1D6E
330
1D6C
100
AcDbEntity
  8
AM_0
100
AcDbVertex
100
AcDb2dVertex
 10
-11.07490591097017
 20
1.459311975576364
 30
0.0
 42
-0.0113772357485858
 70
     1
  0
VERTEX
  5
1D6F
330
1D6C
100
AcDbEntity
  8
AM_0
100
AcDbVertex
100
AcDb2dVertex
 10
-11.19635934631005
 20
1.503904710592104
 30
0.0
 42
-0.0082896290467094
  0
VERTEX
  5
1D70
330
1D6C
100
AcDbEntity
  8
AM_0
100
AcDbVertex
100
AcDb2dVertex
 10
-11.58345094223286
 20
1.663956498987255
 30
0.0
 42
-0.2726804491113656
 70
     1
  0
VERTEX
  5
1D71
330
1D6C
100
AcDbEntity
  8
AM_0
100
AcDbVertex
100
AcDb2dVertex
 10
-11.59158538892677
 20
1.675206423124139
 30
0.0
 42
-0.4014058829339297
  0
VERTEX
  5
1D72
330
1D6C
100
AcDbEntity
  8
AM_0
100
AcDbVertex
100
AcDb2dVertex
 10
-11.57683879101673
 20
1.694928914917076
 30
0.0
 42
-0.0313656446754737
 70
     1
  0
VERTEX
  5
1D73
330
1D6C
100
AcDbEntity
  8
AM_0
100
AcDbVertex
100
AcDb2dVertex
 10
-11.31115148708603
 20
1.719241938634697
 30
0.0
 42
-0.0039726403541645
  0
VERTEX
  5
1D74
330
1D6C
100
AcDbEntity
  8
AM_0
100
AcDbVertex
100
AcDb2dVertex
 10
-11.06919501113497
 20
1.723727309657812
 30
0.0
 42
0.0019401889352083
 70
     1
  0
VERTEX
  5
1D75
330
1D6C
100
AcDbEntity
  8
AM_0
100
AcDbVertex
100
AcDb2dVertex
 10
-10.57375000000003
 20
1.730838149805917
 30
0.0
 42
0.0036525506412497
  0
VERTEX
  5
1D76
330
1D6C
100
AcDbEntity
  8
AM_0
100
AcDbVertex
100
AcDb2dVertex
 10
-10.37892317432248
 20
1.735878586908627
 30
0.0
 42
0.0018773371428962
 70
     1
  0
VERTEX
  5
1D77
330
1D6C
100
AcDbEntity
  8
AM_0
100
AcDbVertex
100
AcDb2dVertex
 10
-10.00000000000003
 20
1.749999999999994
 30
0.0
  0
SEQEND
  5
1D78
330
1D6C
100
AcDbEntity
  8
AM_0
  0
LINE
  5
1D79
330
1F
100
AcDbEntity
  8
AM_11
100
AcDbLine
 10
-0.0000000000003257
 20
1.750000000000001
 30
0.0
 11
-10.00000000000005
 21
1.749999999999994
 31
0.0
  0
SPLINE
  5
1D7A
330
1F
100
AcDbEntity
  8
AM_0
100
AcDbSpline
210
0.0
220
0.0
230
1.0
 70
     8
 71
     3
 72
     8
 73
     4
 74
     0
 42
0.0000000001
 43
0.0000000001
 40
0.0
 40
0.0
 40
0.0
 40
0.0
 40
5.071498792270384
 40
5.071498792270384
 40
5.071498792270384
 40
5.071498792270384
 10
-9.248000000000059
 20
1.75000000000003
 30
0.0
 10
-7.605800391074412
 20
1.750000000000031
 30
0.0
 10
-6.114900195537236
 20
0.8750000000000337
 30
0.0
 10
-4.62400000000006
 20
0.0000000000000338
 30
0.0
  0
SPLINE
  5
1D7B
330
1F
100
AcDbEntity
  8
AM_0
100
AcDbSpline
210
0.0
220
0.0
230
1.0
 70
     8
 71
     3
 72
     8
 73
     4
 74
     0
 42
0.0000000001
 43
0.0000000001
 40
4.48458745047074
 40
4.48458745047074
 40
4.48458745047074
 40
4.48458745047074
 40
14.36247867694493
 40
14.36247867694493
 40
14.36247867694493
 40
14.36247867694493
 10
-10.90443827483512
 20
1.40434541806009
 30
0.0
 10
-10.03188506292476
 20
1.111487470412827
 30
0.0
 10
-9.001538695696636
 20
0.5557437352064146
 30
0.0
 10
-7.97119232846853
 20
0.0000000000000124
 30
0.0
  0
SPLINE
  5
1D7D
330
1F
100
AcDbEntity
  8
AM_0
100
AcDbSpline
210
0.0
220
0.0
230
1.0
 70
     8
 71
     3
 72
     8
 73
     4
 74
     0
 42
0.0000000001
 43
0.0000000001
 40
0.7142832446738512
 40
0.7142832446738512
 40
0.7142832446738512
 40
0.7142832446738512
 40
14.36247867694493
 40
14.36247867694493
 40
14.36247867694493
 40
14.36247867694493
 10
-8.119850545993987
 20
1.617879276937007
 30
0.0
 10
-6.194433356021104
 20
1.535732462416428
 30
0.0
 10
-4.770812842244783
 20
0.7678662312082221
 30
0.0
 10
-3.347192328468464
 20
0.000000000000016
 30
0.0
  0
SPLINE
  5
1D7E
330
1F
100
AcDbEntity
  8
AM_0
100
AcDbSpline
210
0.0
220
0.0
230
1.0
 70
     8
 71
     3
 72
     8
 73
     4
 74
     0
 42
0.0000000001
 43
0.0000000001
 40
0.0
 40
0.0
 40
0.0
 40
0.0
 40
5.071498792270391
 40
5.071498792270391
 40
5.071498792270391
 40
5.071498792270391
 10
-4.624000000000068
 20
1.750000000000033
 30
0.0
 10
-2.981800391074418
 20
1.750000000000035
 30
0.0
 10
-1.49090019553724
 20
0.8750000000000355
 30
0.0
 10
-0.0000000000000635
 20
0.0000000000000373
 30
0.0
  0
SPLINE
  5
1D80
330
1F
100
AcDbEntity
  8
AM_0
100
AcDbSpline
210
0.0
220
0.0
230
1.0
 70
     8
 71
     3
 72
     8
 73
     4
 74
     0
 42
0.0000000001
 43
0.0000000001
 40
0.0
 40
0.0
 40
0.0
 40
0.0
 40
5.635889483499127
 40
5.635889483499127
 40
5.635889483499127
 40
5.635889483499127
 10
-0.0000000000000635
 20
1.750000000000001
 30
0.0
 10
-0.6387341414633006
 20
1.750000000000001
 30
0.0
 10
-1.254579346304343
 20
1.617627910142696
 30
0.0
 10
-1.865501872696816
 20
1.390486175642691
 30
0.0
  0
SPLINE
  5
1D81
330
1F
100
AcDbEntity
  8
AM_0
100
AcDbSpline
210
0.0
220
0.0
230
1.0
 70
     8
 71
     3
 72
     8
 73
     4
 74
     0
 42
0.0000000001
 43
0.0000000001
 40
0.0
 40
0.0
 40
0.0
 40
0.0
 40
0.9052978632658483
 40
0.9052978632658483
 40
0.9052978632658483
 40
0.9052978632658483
 10
-0.0000000000000635
 20
1.426145940339386
 30
0.0
 10
-0.1881109093710642
 20
1.194705118652853
 30
0.0
 10
-0.5109926316035014
 20
1.095315828923522
 30
0.0
 10
-0.8012345585475033
 20
1.052958697884827
 30
0.0
  0
SPLINE
  5
1D82
330
1F
100
AcDbEntity
  8
AM_0
100
AcDbSpline
210
0.0
220
0.0
230
1.0
 70
     8
 71
     3
 72
     8
 73
     4
 74
     0
 42
0.0000000001
 43
0.0000000001
 40
0.7142832446738512
 40
0.7142832446738512
 40
0.7142832446738512
 40
0.7142832446738512
 40
9.361146747480315
 40
9.361146747480315
 40
9.361146747480315
 40
9.361146747480315
 10
-3.524407569853547
 20
1.624330576483852
 30
0.0
 10
-2.13287305152146
 20
1.563024203640049
 30
0.0
 10
-1.205110059492393
 20
1.237519458979869
 30
0.0
 10
-0.2937073695742551
 20
0.8100254573183338
 30
0.0
  0
SPLINE
  5
1D84
330
1F
100
AcDbEntity
  8
AM_0
100
AcDbSpline
210
0.0
220
0.0
230
1.0
 70
     8
 71
     3
 72
     8
 73
     4
 74
     0
 42
0.0000000001
 43
0.0000000001
 40
0.0
 40
0.0
 40
0.0
 40
0.0
 40
5.635889483499305
 40
5.635889483499305
 40
5.635889483499305
 40
5.635889483499305
 10
-4.624000000000137
 20
1.750000000000033
 30
0.0
 10
-5.262734141463395
 20
1.750000000000033
 30
0.0
 10
-5.878579346304444
 20
1.617627910142731
 30
0.0
 10
-6.488872445580179
 20
1.372106203360053
 30
0.0
  0
SPLINE
  5
1D85
330
1F
100
AcDbEntity
  8
AM_0
100
AcDbSpline
210
0.0
220
0.0
230
1.0
 70
     8
 71
     3
 72
     8
 73
     4
 74
     0
 42
0.0000000001
 43
0.0000000001
 40
11.41055204919593
 40
11.41055204919593
 40
11.41055204919593
 40
11.41055204919593
 40
14.48999654934393
 40
14.48999654934393
 40
14.48999654934393
 40
14.48999654934393
 10
-10.00000000000006
 20
0.5040078594598843
 30
0.0
 10
-9.579504899448627
 20
0.1974421294150925
 30
0.0
 10
-9.558974339328846
 20
0.1893487137792409
 30
0.0
 10
-9.248000000000129
 20
0.0000000000000302
 30
0.0
  0
LINE
  5
1D86
330
1F
100
AcDbEntity
  8
AM_0
100
AcDbLine
 10
-0.0357000000000614
 20
-0.464414249097116
 30
0.0
 11
-0.0000000000000635
 21
-0.3499999999999996
 31
0.0
  0
LINE
  5
1D87
330
1F
100
AcDbEntity
  8
AM_0
100
AcDbLine
 10
-0.0000000000000635
 20
-1.749999999999998
 30
0.0
 11
-0.0357000000000614
 21
-1.656704405167639
 31
0.0
  0
LINE
  5
1D89
330
1F
100
AcDbEntity
  8
AM_0
100
AcDbLine
 10
-0.0000000000000635
 20
-1.749999999999998
 30
0.0
 11
-0.0000000000000635
 21
-0.3499999999999996
 31
0.0
  0
ELLIPSE
  5
1D8A
330
1F
100
AcDbEntity
  8
AM_0
100
AcDbEllipse
 10
0.6751288818891842
 20
-0.8903580576512641
 30
0.0
 11
-0.0000000000000061
 21
1.064244340430618
 31
0.0
210
0.0
220
0.0
230
1.0
 40
0.9714285714285704
 41
1.211124581303818
 42
2.069278538290312
  0
LINE
  5
1D8B
330
1F
100
AcDbEntity
  8
AM_0
100
AcDbLine
 10
-0.8012345585475033
 20
-0.2800000000000029
 30
0.0
 11
-0.2925557151350611
 21
-0.5157791678082884
 31
0.0
  0
LINE
  5
1D8C
330
1F
100
AcDbEntity
  8
AM_0
100
AcDbLine
 10
-0.2925557151350611
 20
-0.5157791678082884
 30
0.0
 11
-0.0357000000000614
 21
-0.464414249097116
 31
0.0
  0
LINE
  5
1D8D
330
1F
100
AcDbEntity
  8
AM_0
100
AcDbLine
 10
-0.0357000000000614
 20
-1.656704405167618
 30
0.0
 11
-0.2329000000000643
 21
-1.39916582941167
 31
0.0
  0
LINE
  5
1D8E
330
1F
100
AcDbEntity
  8
AM_0
100
AcDbLine
 10
-0.8012345585475033
 20
-0.2800000000000029
 30
0.0
 11
-0.039259818304962
 21
-0.2800000000000029
 31
0.0
  0
ELLIPSE
  5
1D8F
330
1F
100
AcDbEntity
  8
AM_0
100
AcDbEllipse
 10
-9.9944805666948
 20
-5.437736318738684
 30
0.0
 11
0.0000000000000766
 21
3.735992517074875
 31
0.0
210
0.0
220
0.0
230
1.0
 40
0.9714285714285527
 41
0.0015208199008208
 42
0.1609004017522668
  0
LINE
  5
1D90
330
1F
100
AcDbEntity
  8
AM_0
100
AcDbLine
 10
-10.00000000000007
 20
-1.162181369435224
 30
0.0
 11
-10.00000000000011
 21
-1.701748122139012
 31
0.0
  0
LINE
  5
1D91
330
1F
100
AcDbEntity
  8
AM_11
100
AcDbLine
 10
-10.00000000000008
 20
-1.750000000000005
 30
0.0
 11
-0.0000000000000635
 21
-1.749999999999998
 31
0.0
  0
SPLINE
  5
1D92
330
1F
100
AcDbEntity
  8
AM_0
100
AcDbSpline
210
0.0
220
0.0
230
1.0
 70
     8
 71
     3
 72
     8
 73
     4
 74
     0
 42
0.0000000001
 43
0.0000000001
 40
0.0
 40
0.0
 40
0.0
 40
0.0
 40
1.412269715655734
 40
1.412269715655734
 40
1.412269715655734
 40
1.412269715655734
 10
-9.524000000000098
 20
-1.725874061069356
 30
0.0
 10
-9.684057234441082
 20
-1.725874061069356
 30
0.0
 10
-9.842677206784818
 20
-1.717562037202723
 30
0.0
 10
-10.00000000000003
 20
-1.701748122138758
 30
0.0
  0
SPLINE
  5
1D93
330
1F
100
AcDbEntity
  8
AM_0
100
AcDbSpline
210
0.0
220
0.0
230
1.0
 70
     8
 71
     3
 72
     8
 73
     4
 74
     0
 42
0.0000000001
 43
0.0000000001
 40
0.0
 40
0.0
 40
0.0
 40
0.0
 40
2.130230809022907
 40
2.130230809022907
 40
2.130230809022907
 40
2.130230809022907
 10
-9.048000000000103
 20
-1.750000000000008
 30
0.0
 10
-8.806573841644166
 20
-1.750000000000008
 30
0.0
 10
-8.568417730350873
 20
-1.731088550737068
 30
0.0
 10
-7.771192328468505
 20
-1.616105576330907
 30
0.0
  0
SPLINE
  5
1D94
330
1F
100
AcDbEntity
  8
AM_0
100
AcDbSpline
210
0.0
220
0.0
230
1.0
 70
     8
 71
     3
 72
     8
 73
     4
 74
     0
 42
0.0000000001
 43
0.0000000001
 40
0.0
 40
0.0
 40
0.0
 40
0.0
 40
6.769478140335353
 40
6.769478140335353
 40
6.769478140335353
 40
6.769478140335353
 10
-7.771192328468504
 20
-1.616105576330907
 30
0.0
 10
-8.538399851039841
 20
-1.616105576330907
 30
0.0
 10
-9.276811635785335
 20
-1.436594471600061
 30
0.0
 10
-10.00000000000003
 20
-1.162181369434977
 30
0.0
  0
SPLINE
  5
1D96
330
1F
100
AcDbEntity
  8
AM_0
100
AcDbSpline
210
0.0
220
0.0
230
1.0
 70
     8
 71
     3
 72
     8
 73
     4
 74
     0
 42
0.0000000001
 43
0.0000000001
 40
0.0
 40
0.0
 40
0.0
 40
0.0
 40
2.764560748519282
 40
2.764560748519282
 40
2.764560748519282
 40
2.764560748519282
 10
-4.030547414121961
 20
-1.697599284617387
 30
0.0
 10
-3.717230529289779
 20
-1.697599284617387
 30
0.0
 10
-3.409142387881597
 20
-1.666483401978522
 30
0.0
 10
-3.105281870676102
 20
-1.610209226445091
 30
0.0
  0
SPLINE
  5
1D97
330
1F
100
AcDbEntity
  8
AM_0
100
AcDbSpline
210
0.0
220
0.0
230
1.0
 70
     8
 71
     3
 72
     8
 73
     4
 74
     0
 42
0.0000000001
 43
0.0000000001
 40
0.0
 40
0.0
 40
0.0
 40
0.0
 40
4.451443990518192
 40
4.451443990518192
 40
4.451443990518192
 40
4.451443990518192
 10
-3.347192328468532
 20
-1.616105576330943
 30
0.0
 10
-2.842695342876466
 20
-1.616105576330943
 30
0.0
 10
-2.350649799489928
 20
-1.538483944986607
 30
0.0
 10
-1.86719655262621
 20
-1.407298392123218
 30
0.0
  0
SPLINE
  5
1D98
330
1F
100
AcDbEntity
  8
AM_0
100
AcDbSpline
210
0.0
220
0.0
230
1.0
 70
     8
 71
     3
 72
     8
 73
     4
 74
     0
 42
0.0000000001
 43
0.0000000001
 40
0.0
 40
0.0
 40
0.0
 40
0.0
 40
2.130230809022907
 40
2.130230809022907
 40
2.130230809022907
 40
2.130230809022907
 10
-4.62400000000013
 20
-1.750000000000005
 30
0.0
 10
-4.382573841644193
 20
-1.750000000000001
 30
0.0
 10
-4.144417730350902
 20
-1.731088550737061
 30
0.0
 10
-3.909050923769751
 20
-1.6960458979984
 30
0.0
  0
SPLINE
  5
1D99
330
1F
100
AcDbEntity
  8
AM_0
100
AcDbSpline
210
0.0
220
0.0
230
1.0
 70
     8
 71
     3
 72
     8
 73
     4
 74
     0
 42
0.0000000001
 43
0.0000000001
 40
0.0
 40
0.0
 40
0.0
 40
0.0
 40
4.451443990518192
 40
4.451443990518192
 40
4.451443990518192
 40
4.451443990518192
 10
-7.771192328468677
 20
-1.61610557633095
 30
0.0
 10
-7.266695342876611
 20
-1.616105576330946
 30
0.0
 10
-6.774649799490074
 20
-1.538483944986607
 30
0.0
 10
-6.394097350619063
 20
-1.434369765720136
 30
0.0
  0
SPLINE
  5
1D9B
330
1F
100
AcDbEntity
  8
AM_0
100
AcDbSpline
210
0.0
220
0.0
230
1.0
 70
     8
 71
     3
 72
     8
 73
     4
 74
     0
 42
0.0000000001
 43
0.0000000001
 40
0.0
 40
0.0
 40
0.0
 40
0.0
 40
1.412269715655931
 40
1.412269715655931
 40
1.412269715655931
 40
1.412269715655931
 10
-9.048000000000103
 20
-1.749999999999969
 30
0.0
 10
-9.208057234441108
 20
-1.749999999999969
 30
0.0
 10
-9.366677206784865
 20
-1.741687976133333
 30
0.0
 10
-9.524000000000105
 20
-1.725874061069356
 30
0.0
  0
LINE
  5
1D9C
330
1F
100
AcDbEntity
  8
AM_0
100
AcDbLine
 10
-0.0000000000000635
 20
-0.3499999999999996
 30
0.0
 11
-0.1962990915245488
 21
0.0000000000000195
 31
0.0
  0
LINE
  5
1D9D
330
1F
100
AcDbEntity
  8
AM_0
100
AcDbLine
 10
-0.0000000000000635
 20
0.0000000000000018
 30
0.0
 11
-0.0302064871090149
 21
-0.2961420304800111
 31
0.0
  0
LINE
  5
1D9E
330
1F
100
AcDbEntity
  8
AM_0
100
AcDbLine
 10
-0.8012345585475033
 20
0.0000000000000018
 30
0.0
 11
-0.8012345585475033
 21
-0.2800000000000029
 31
0.0
  0
LINE
  5
1DA5
330
1F
100
AcDbEntity
  8
AM_11
100
AcDbLine
 10
-10.00000000000008
 20
-1.750000000000005
 30
0.0
 11
-10.00000000000004
 21
1.749999999999994
 31
0.0
  0
SPLINE
  5
1DA6
330
1F
100
AcDbEntity
  8
AM_0
100
AcDbSpline
210
0.0
220
0.0
230
1.0
 70
     8
 71
     3
 72
     8
 73
     4
 74
     0
 42
0.0000000001
 43
0.0000000001
 40
0.0
 40
0.0
 40
0.0
 40
0.0
 40
5.071498792270384
 40
5.071498792270384
 40
5.071498792270384
 40
5.071498792270384
 10
-4.62400000000013
 20
-1.749999999999966
 30
0.0
 10
-6.266199608925777
 20
-1.749999999999968
 30
0.0
 10
-7.757099804462953
 20
-0.8749999999999698
 30
0.0
 10
-9.248000000000129
 20
0.0000000000000302
 30
0.0
  0
SPLINE
  5
1DA8
330
1F
100
AcDbEntity
  8
AM_0
100
AcDbSpline
210
0.0
220
0.0
230
1.0
 70
     8
 71
     3
 72
     8
 73
     4
 74
     0
 42
0.0000000001
 43
0.0000000001
 40
0.0
 40
0.0
 40
0.0
 40
0.0
 40
5.026867536930726
 40
5.026867536930726
 40
5.026867536930726
 40
5.026867536930726
 10
-3.347192328468532
 20
-1.616105576330904
 30
0.0
 10
-4.974939911855624
 20
-1.616105576330905
 30
0.0
 10
-6.473066120162076
 20
-0.8080527881654262
 30
0.0
 10
-7.97119232846853
 20
0.0000000000000515
 30
0.0
  0
SPLINE
  5
1DA9
330
1F
100
AcDbEntity
  8
AM_0
100
AcDbSpline
210
0.0
220
0.0
230
1.0
 70
     8
 71
     3
 72
     8
 73
     4
 74
     0
 42
0.0000000001
 43
0.0000000001
 40
0.0
 40
0.0
 40
0.0
 40
0.0
 40
5.071498792270383
 40
5.071498792270383
 40
5.071498792270383
 40
5.071498792270383
 10
-0.0000000000000635
 20
-1.749999999999998
 30
0.0
 10
-1.64219960892571
 20
-1.75
 30
0.0
 10
-3.133099804462886
 20
-0.8750000000000035
 30
0.0
 10
-4.62400000000006
 20
-0.0000000000000053
 30
0.0
  0
SPLINE
  5
1DAA
330
1F
100
AcDbEntity
  8
AM_0
100
AcDbSpline
210
0.0
220
0.0
230
1.0
 70
     8
 71
     3
 72
     8
 73
     4
 74
     0
 42
0.0000000001
 43
0.0000000001
 40
4.542668862435135
 40
4.542668862435135
 40
4.542668862435135
 40
4.542668862435135
 40
14.36247867694493
 40
14.36247867694493
 40
14.36247867694493
 40
14.36247867694493
 10
-0.2328999999995949
 20
-1.399165829409819
 30
0.0
 10
-1.298616344530948
 20
-1.1049519903005
 30
0.0
 10
-2.322904336499709
 20
-0.5524759951502443
 30
0.0
 10
-3.347192328468464
 20
0.000000000000016
 30
0.0
  0
LINE
  5
1DFC
330
1F
100
AcDbEntity
  8
AM_0
100
AcDbLine
 10
-18.5000000000001
 20
3.000000000000071
 30
0.0
 11
-18.50000000000008
 21
-2.999999999999942
 31
0.0
  0
LINE
  5
1E14
330
1F
100
AcDbEntity
  8
AM_0
100
AcDbLine
 10
-9.999999999999868
 20
1.749999999999992
 30
0.0
 11
-13.83493649053871
 21
1.749999999999993
 31
0.0
  0
LINE
  5
1E15
330
1F
100
AcDbEntity
  8
AM_0
100
AcDbLine
 10
-10.57591195759423
 20
-1.750000000000005
 30
0.0
 11
-13.83493649053922
 21
-1.750000000000007
 31
0.0
  0
LINE
  5
1E1F
330
1F
100
AcDbEntity
  8
AM_0
100
AcDbLine
 10
-18.5000000000001
 20
3.000000000000071
 30
0.0
 11
-13.83493649053871
 21
1.749999999999993
 31
0.0
  0
LINE
  5
1E20
330
1F
100
AcDbEntity
  8
AM_0
100
AcDbLine
 10
-13.83493649053871
 20
1.749999999999993
 30
0.0
 11
-13.83493649053922
 21
-1.750000000000008
 31
0.0
  0
LINE
  5
1E21
330
1F
100
AcDbEntity
  8
AM_0
100
AcDbLine
 10
-13.83493649053922
 20
-1.750000000000008
 30
0.0
 11
-18.50000000000008
 21
-2.999999999999942
 31
0.0
  0
SPLINE
  5
1F70
330
1F
100
AcDbEntity
  8
AM_0
100
AcDbSpline
210
0.0
220
0.0
230
1.0
 70
    24
 71
     3
 72
     9
 73
     5
 74
     3
 42
0.0000000001
 43
0.0000000001
 44
0.0000000001
 40
0.0
 40
0.0
 40
0.0
 40
0.0
 40
0.4012251594282806
 40
0.7519999999998089
 40
0.7519999999998089
 40
0.7519999999998089
 40
0.7519999999998089
 10
-9.248000000000059
 20
1.75000000000003
 30
0.0
 10
-9.381741719809486
 20
1.750000000000033
 30
0.0
 10
-9.63240838647609
 20
1.75000000000004
 30
0.0
 10
-9.883075053142693
 20
1.750000000000008
 30
0.0
 10
-9.999999999999868
 20
1.749999999999992
 30
0.0
 11
-9.248000000000059
 21
1.75000000000003
 31
0.0
 11
-9.64922515942834
 21
1.75000000000003
 31
0.0
 11
-9.999999999999868
 21
1.749999999999992
 31
0.0
  0
POLYLINE
  5
1FA6
330
1F
100
AcDbEntity
  8
AM_0
100
AcDb2dPolyline
 66
     1
 10
0.0
 20
0.0
 30
0.0
 70
     2
  0
VERTEX
  5
1FA9
330
1FA6
100
AcDbEntity
  8
AM_0
100
AcDbVertex
100
AcDb2dVertex
 10
-10.00000000000007
 20
0.5040078594598855
 30
0.0
 42
0.0375629011394724
  0
VERTEX
  5
1FB1
330
1FA6
100
AcDbEntity
  8
AM_0
100
AcDbVertex
100
AcDb2dVertex
 10
-10.30289175153341
 20
0.6194782418819478
 30
0.0
 42
0.0440721921359464
 70
     1
  0
VERTEX
  5
1FAA
330
1FA6
100
AcDbEntity
  8
AM_0
100
AcDbVertex
100
AcDb2dVertex
 10
-10.57375000000002
 20
0.6746773954322425
 30
0.0
 42
0.0416945651937367
  0
VERTEX
  5
1FB2
330
1FA6
100
AcDbEntity
  8
AM_0
100
AcDbVertex
100
AcDb2dVertex
 10
-11.1196935048865
 20
0.690848739112073
 30
0.0
 42
0.1014319052863478
 70
     1
  0
VERTEX
  5
1FAB
330
1FA6
100
AcDbEntity
  8
AM_0
100
AcDbVertex
100
AcDb2dVertex
 10
-11.33875000000003
 20
0.633535414733986
 30
0.0
 42
0.1074617083621145
  0
VERTEX
  5
1FB3
330
1FA6
100
AcDbEntity
  8
AM_0
100
AcDbVertex
100
AcDb2dVertex
 10
-11.48871572155868
 20
0.5141925967084298
 30
0.0
 42
0.1715610671875587
 70
     1
  0
VERTEX
  5
1FAC
330
1FA6
100
AcDbEntity
  8
AM_0
100
AcDbVertex
100
AcDb2dVertex
 10
-11.53000000000002
 20
0.399207417287327
 30
0.0
 42
0.1097414179419927
  0
VERTEX
  5
1FB4
330
1FA6
100
AcDbEntity
  8
AM_0
100
AcDbVertex
100
AcDb2dVertex
 10
-11.49758798025425
 20
0.2498645728278035
 30
0.0
 42
0.056863512821705
 70
     1
  0
VERTEX
  5
1FAD
330
1FA6
100
AcDbEntity
  8
AM_0
100
AcDbVertex
100
AcDb2dVertex
 10
-11.34579068651316
 20
-0.000000000000006
 30
0.0
 42
0.030683257211814
  0
VERTEX
  5
1FB6
330
1FA6
100
AcDbEntity
  8
AM_0
100
AcDbVertex
100
AcDb2dVertex
 10
-11.08433798567375
 20
-0.2975691844709658
 30
0.0
 42
0.0173428039160046
 70
     1
  0
VERTEX
  5
1FAE
330
1FA6
100
AcDbEntity
  8
AM_0
100
AcDbVertex
100
AcDb2dVertex
 10
-10.57375000000002
 20
-0.7769504356368185
 30
0.0
 42
0.0319891351360459
  0
VERTEX
  5
1FB5
330
1FA6
100
AcDbEntity
  8
AM_0
100
AcDbVertex
100
AcDb2dVertex
 10
-10.36879614481035
 20
-0.9344609671579107
 30
0.0
 42
0.0190646911975825
 70
     1
  0
VERTEX
  5
1FAF
330
1FA6
100
AcDbEntity
  8
AM_0
100
AcDbVertex
100
AcDb2dVertex
 10
-10.00000000000007
 20
-1.162181369435224
 30
0.0
  0
SEQEND
  5
1FB0
330
1FA6
100
AcDbEntity
  8
AM_0
  0
VIEWPORT
  5
110
330
101
100
AcDbEntity
 67
     1
  8
0
100
AcDbViewport
 10
420.5
 20
297.0
 30
0.0
 40
948.9782706766916
 41
628.452
 68
     1
 69
     1
1001
ACAD
1000
MVIEW
1002
{
1070
    16
1010
0.0
1020
0.0
1030
0.0
1010
0.0
1020
0.0
1030
1.0
1040
0.0
1040
628.452
1040
420.5
1040
297.0
1040
50.0
1040
0.0
1040
0.0
1070
     0
1070
   100
1070
     1
1070
     1
1070
     0
1070
     0
1070
     0
1070
     0
1040
0.0
1040
0.0
1040
0.0
1040
10.0
1040
10.0
1040
10.0
1040
10.0
1070
     0
1002
{
1002
}
1002
}
  0
ENDSEC
  0
SECTION
  2
OBJECTS
  0
DICTIONARY
  5
C
330
0
100
AcDbDictionary
  3
ACAD_GROUP
350
D
  3
ACAD_LAYOUT
350
1A
  3
ACAD_MLINESTYLE
350
17
  3
ACAD_PLOTSETTINGS
350
19
  3
ACAD_PLOTSTYLENAME
350
E
  3
ACDBVARIABLEDICTIONARY
350
34
  3
ACMDICTIONARY
350
43
  3
AMG
350
2B
  3
AMGSNAPSETTINGS
350
6E
  3
DWGPROPS
350
1FDF
  3
ACDBHEADERROUNDTRIPXREC
350
1FEB
  0
DICTIONARY
  5
74
330
1F
100
AcDbDictionary
280
     1
  3
ACAD_INDEX
360
1FE1
  3
ACAD_LAYOUTSELFREF
360
200E
  0
DICTIONARY
  5
2013
330
101
100
AcDbDictionary
280
     1
  3
ACAD_LAYOUTSELFREF
360
2014
  0
DICTIONARY
  5
D
102
{ACAD_REACTORS
330
C
102
}
330
C
100
AcDbDictionary
  0
DICTIONARY
  5
1A
102
{ACAD_REACTORS
330
C
102
}
330
C
100
AcDbDictionary
  0
DICTIONARY
  5
17
102
{ACAD_REACTORS
330
C
102
}
330
C
100
AcDbDictionary
  3
STANDARD
350
18
  0
DICTIONARY
  5
19
102
{ACAD_REACTORS
330
C
102
}
330
C
100
AcDbDictionary
  0
ACDBDICTIONARYWDFLT
  5
E
102
{ACAD_REACTORS
330
C
102
}
330
C
100
AcDbDictionary
281
     1
  3
Normal
350
F
100
AcDbDictionaryWithDefault
340
F
  0
DICTIONARY
  5
34
102
{ACAD_REACTORS
330
C
102
}
330
C
100
AcDbDictionary
  3
INDEXCTL
350
35
  3
SORTENTS
350
B5E
  0
DICTIONARY
  5
43
102
{ACAD_REACTORS
330
C
102
}
330
C
100
AcDbDictionary
  3
ACMSTDDICTIONARY
350
260
  0
DICTIONARY
  5
2B
102
{ACAD_REACTORS
330
C
102
}
330
C
100
AcDbDictionary
  3
ACMGSETTINGS
350
2C
  0
DICTIONARY
  5
6E
102
{ACAD_REACTORS
330
C
102
}
330
C
100
AcDbDictionary
  0
XRECORD
  5
1FDF
102
{ACAD_REACTORS
330
C
102
}
330
C
100
AcDbXrecord
  1
DWGPROPS COOKIE
  2

  3

  4

  6

  7

  8

  9

300
AmdtFileType=82
301
=
302
=
303
=
304
=
305
=
306
=
307
=
308
=
309
=
 40
0.0394521180555556
 41
2452836.771637361
 42
2453045.499628298
  1

 90
        1
  0
DICTIONARY
  5
1FEB
102
{ACAD_REACTORS
330
C
102
}
330
C
100
AcDbDictionary
  3
TSTACKALIGN
350
1FEC
  3
TSTACKSIZE
350
1FED
  3
HYPERLINKBASE
350
1FEE
  3
STYLESHEET
350
1FEF
  3
LAYOUTDICT
350
1FF0
  3
PLOTSETDICT
350
1FF1
  3
PLOTSTYLNAMDICT
350
1FF2
  3
LWETCUNION
350
1FF3
  3
INSUNITS
350
1FF4
  3
CEPSNTYPE
350
1FF5
  3
FINGERPRINTGUID
350
1FF6
  3
VERSIONGUID
350
1FF7
  3
PSVPSCALE
350
1FF8
  3
DIMSTYLEDATA
350
1FF9
  3
PUCSORTHOREF
350
1FFA
  3
PUCSORTHOVIEW
350
1FFB
  3
PUCSBASE
350
1FFC
  3
PUCSORGTOP
350
1FFD
  3
PUCSORGBOTTOM
350
1FFE
  3
PUCSORGLEFT
350
1FFF
  3
PUCSORGRIGHT
350
2000
  3
PUCSORGFRONT
350
2001
  3
PUCSORGBACK
350
2002
  3
UCSORTHOREF
350
2003
  3
UCSORTHOVIEW
350
2004
  3
UCSBASE
350
2005
  3
UCSORGTOP
350
2006
  3
UCSORGBOTTOM
350
2007
  3
UCSORGLEFT
350
2008
  3
UCSORGRIGHT
350
2009
  3
UCSORGFRONT
350
200A
  3
UCSORGBACK
350
200B
  0
DICTIONARY
  5
1FE1
102
{ACAD_REACTORS
330
74
102
}
330
74
100
AcDbDictionary
  3
*A1
350
1FE2
  0
XRECORD
  5
200E
102
{ACAD_REACTORS
330
74
102
}
330
74
100
AcDbXrecord
340
1F
  0
XRECORD
  5
2014
102
{ACAD_REACTORS
330
2013
102
}
330
2013
100
AcDbXrecord
340
101
  0
MLINESTYLE
  5
18
102
{ACAD_REACTORS
330
17
102
}
330
17
100
AcDbMlineStyle
  2
STANDARD
 70
     0
  3

 62
   256
 51
90.0
 52
90.0
 71
     2
 49
0.5
 62
   256
  6
BYLAYER
 49
-0.5
 62
   256
  6
BYLAYER
  0
ACDBPLACEHOLDER
  5
F
102
{ACAD_REACTORS
330
E
102
}
330
E
100
AcDbPlaceHolder
280
     0
  0
DICTIONARYVAR
  5
35
102
{ACAD_REACTORS
330
34
102
}
330
34
100
DictionaryVariables
280
     0
  1
1
  0
DICTIONARYVAR
  5
B5E
102
{ACAD_REACTORS
330
34
102
}
330
34
100
DictionaryVariables
280
     0
  1
96
  0
DICTIONARY
  5
260
102
{ACAD_REACTORS
330
43
102
}
330
43
100
AcDbDictionary
  0
DICTIONARY
  5
2C
102
{ACAD_REACTORS
330
2B
102
}
330
2B
100
AcDbDictionary
  3
DWGSETTINGS
350
2D
  0
XRECORD
  5
1FEC
102
{ACAD_REACTORS
330
1FEB
102
}
330
1FEB
100
AcDbXrecord
 90
        1
  0
XRECORD
  5
1FED
102
{ACAD_REACTORS
330
1FEB
102
}
330
1FEB
100
AcDbXrecord
 90
       70
  0
XRECORD
  5
1FEE
102
{ACAD_REACTORS
330
1FEB
102
}
330
1FEB
100
AcDbXrecord
  1

  0
XRECORD
  5
1FEF
102
{ACAD_REACTORS
330
1FEB
102
}
330
1FEB
100
AcDbXrecord
  1
ASAMI.ctb
  0
XRECORD
  5
1FF0
102
{ACAD_REACTORS
330
1FEB
102
}
330
1FEB
100
AcDbXrecord
340
1A
  0
XRECORD
  5
1FF1
102
{ACAD_REACTORS
330
1FEB
102
}
330
1FEB
100
AcDbXrecord
340
19
  0
XRECORD
  5
1FF2
102
{ACAD_REACTORS
330
1FEB
102
}
330
1FEB
100
AcDbXrecord
340
E
  0
XRECORD
  5
1FF3
102
{ACAD_REACTORS
330
1FEB
102
}
330
1FEB
100
AcDbXrecord
 90
    10781
  0
XRECORD
  5
1FF4
102
{ACAD_REACTORS
330
1FEB
102
}
330
1FEB
100
AcDbXrecord
 90
        4
  0
XRECORD
  5
1FF5
102
{ACAD_REACTORS
330
1FEB
102
}
330
1FEB
100
AcDbXrecord
 90
        0
  0
XRECORD
  5
1FF6
102
{ACAD_REACTORS
330
1FEB
102
}
330
1FEB
100
AcDbXrecord
  1
{AFB28963-8C59-40AE-9337-C84526B81ACE}
  0
XRECORD
  5
1FF7
102
{ACAD_REACTORS
330
1FEB
102
}
330
1FEB
100
AcDbXrecord
  1
{812F6056-0BE2-48D8-820F-84F099CBD9B5}
  0
XRECORD
  5
1FF8
102
{ACAD_REACTORS
330
1FEB
102
}
330
1FEB
100
AcDbXrecord
 40
0.0
  0
XRECORD
  5
1FF9
102
{ACAD_REACTORS
330
1FEB
102
}
330
1FEB
100
AcDbXrecord
1000
DSTYLE
1002
{
1070
    79
 70
     2
1070
   341
340
59
1070
   342
340
59
1070
   371
 70
    -1
1070
   372
 70
    -1
1002
}
  0
XRECORD
  5
1FFA
102
{ACAD_REACTORS
330
1FEB
102
}
330
1FEB
100
AcDbXrecord
340
0
  0
XRECORD
  5
1FFB
102
{ACAD_REACTORS
330
1FEB
102
}
330
1FEB
100
AcDbXrecord
 70
     0
  0
XRECORD
  5
1FFC
102
{ACAD_REACTORS
330
1FEB
102
}
330
1FEB
100
AcDbXrecord
340
0
  0
XRECORD
  5
1FFD
102
{ACAD_REACTORS
330
1FEB
102
}
330
1FEB
100
AcDbXrecord
 10
0.0
 20
0.0
 30
0.0
  0
XRECORD
  5
1FFE
102
{ACAD_REACTORS
330
1FEB
102
}
330
1FEB
100
AcDbXrecord
 10
0.0
 20
0.0
 30
0.0
  0
XRECORD
  5
1FFF
102
{ACAD_REACTORS
330
1FEB
102
}
330
1FEB
100
AcDbXrecord
 10
0.0
 20
0.0
 30
0.0
  0
XRECORD
  5
2000
102
{ACAD_REACTORS
330
1FEB
102
}
330
1FEB
100
AcDbXrecord
 10
0.0
 20
0.0
 30
0.0
  0
XRECORD
  5
2001
102
{ACAD_REACTORS
330
1FEB
102
}
330
1FEB
100
AcDbXrecord
 10
0.0
 20
0.0
 30
0.0
  0
XRECORD
  5
2002
102
{ACAD_REACTORS
330
1FEB
102
}
330
1FEB
100
AcDbXrecord
 10
0.0
 20
0.0
 30
0.0
  0
XRECORD
  5
2003
102
{ACAD_REACTORS
330
1FEB
102
}
330
1FEB
100
AcDbXrecord
340
0
  0
XRECORD
  5
2004
102
{ACAD_REACTORS
330
1FEB
102
}
330
1FEB
100
AcDbXrecord
 70
     0
  0
XRECORD
  5
2005
102
{ACAD_REACTORS
330
1FEB
102
}
330
1FEB
100
AcDbXrecord
340
0
  0
XRECORD
  5
2006
102
{ACAD_REACTORS
330
1FEB
102
}
330
1FEB
100
AcDbXrecord
 10
0.0
 20
0.0
 30
0.0
  0
XRECORD
  5
2007
102
{ACAD_REACTORS
330
1FEB
102
}
330
1FEB
100
AcDbXrecord
 10
0.0
 20
0.0
 30
0.0
  0
XRECORD
  5
2008
102
{ACAD_REACTORS
330
1FEB
102
}
330
1FEB
100
AcDbXrecord
 10
0.0
 20
0.0
 30
0.0
  0
XRECORD
  5
2009
102
{ACAD_REACTORS
330
1FEB
102
}
330
1FEB
100
AcDbXrecord
 10
0.0
 20
0.0
 30
0.0
  0
XRECORD
  5
200A
102
{ACAD_REACTORS
330
1FEB
102
}
330
1FEB
100
AcDbXrecord
 10
0.0
 20
0.0
 30
0.0
  0
XRECORD
  5
200B
102
{ACAD_REACTORS
330
1FEB
102
}
330
1FEB
100
AcDbXrecord
 10
0.0
 20
0.0
 30
0.0
  0
LAYER_INDEX
  5
1FE2
102
{ACAD_REACTORS
330
1FE1
102
}
330
1FE1
100
AcDbIndex
 40
2453152.457655439
100
AcDbLayerIndex
  8
0
360
1FE3
 90
        0
  8
AM_0
360
1FE4
 90
       55
  8
AM_11
360
1FE5
 90
        3
  8
AM_7
360
1FE6
 90
        1
  8
AM_5
360
1FE7
 90
        4
  8
Defpoints
360
1FE8
 90
        0
  8
AM_6
360
1FE9
 90
        1
  0
XRECORD
  5
2D
102
{ACAD_REACTORS
330
2C
102
}
330
2C
100
AcDbXrecord
  1
VERSION
140
15.0
  1
PRODUCT
  2
AutoCAD Mechanical 2000
  0
IDBUFFER
  5
1FE3
330
0
100
AcDbIdBuffer
  0
IDBUFFER
  5
1FE4
330
0
100
AcDbIdBuffer
330
1E14
330
1E15
330
1E1F
330
1E20
330
1E21
330
1F70
330
1FA6
330
17D6
330
17D7
330
17D8
330
17E6
330
17E9
330
17EA
330
1D65
330
1D66
330
1D67
330
1D68
330
1D69
330
1D6A
330
1D6C
330
1D7A
330
1D7B
330
1D7D
330
1D7E
330
1D80
330
1D81
330
1D82
330
1D84
330
1D85
330
1D86
330
1D87
330
1D89
330
1D8A
330
1D8B
330
1D8C
330
1D8D
330
1D8E
330
1D8F
330
1D90
330
1D92
330
1D93
330
1D94
330
1D96
330
1D97
330
1D98
330
1D99
330
1D9B
330
1D9C
330
1D9D
330
1D9E
330
1DA6
330
1DA8
330
1DA9
330
1DAA
330
1DFC
  0
IDBUFFER
  5
1FE5
330
0
100
AcDbIdBuffer
330
1D79
330
1D91
330
1DA5
  0
IDBUFFER
  5
1FE6
330
0
100
AcDbIdBuffer
330
178E
  0
IDBUFFER
  5
1FE7
330
0
100
AcDbIdBuffer
330
1818
330
18AB
330
193F
330
19E5
  0
IDBUFFER
  5
1FE8
330
0
100
AcDbIdBuffer
  0
IDBUFFER
  5
1FE9
330
0
100
AcDbIdBuffer
330
E5A
  0
ENDSEC
  0
EOF
