  0
SECTION
  2
HEADER
  9
$ACADVER
  1
AC1014
  9
$ACADMAINTVER
 70
     9
  9
$DWGCODEPAGE
  3
ANSI_932
  9
$INSBASE
 10
0.0
 20
0.0
 30
0.0
  9
$EXTMIN
 10
-55.56831628338794
 20
-27.2500009999999
 30
-0.00000001
  9
$EXTMAX
 10
9.778885015427377
 20
3.00000000000007
 30
0.00000001
  9
$LIMMIN
 10
-58.52445464598639
 20
-33.31002694299596
  9
$LIMMAX
 10
13.94326308567656
 20
11.05692071610948
  9
$ORTHOMODE
 70
     0
  9
$REGENMODE
 70
     1
  9
$FILLMODE
 70
     1
  9
$QTEXTMODE
 70
     0
  9
$MIRRTEXT
 70
     0
  9
$DRAGMODE
 70
     2
  9
$LTSCALE
 40
1.0
  9
$OSMODE
 70
    55
  9
$ATTMODE
 70
     1
  9
$TEXTSIZE
 40
2.5
  9
$TRACEWID
 40
1.0
  9
$TEXTSTYLE
  7
STANDARD
  9
$CLAYER
  8
AM_0
  9
$CELTYPE
  6
BYLAYER
  9
$CECOLOR
 62
   256
  9
$CELTSCALE
 40
1.0
  9
$DELOBJ
 70
     1
  9
$DISPSILH
 70
     0
  9
$DIMSCALE
 40
0.5
  9
$DIMASZ
 40
2.5
  9
$DIMEXO
 40
1.0
  9
$DIMDLI
 40
12.0
  9
$DIMRND
 40
0.0
  9
$DIMDLE
 40
0.0
  9
$DIMEXE
 40
1.0
  9
$DIMTP
 40
0.1
  9
$DIMTM
 40
0.1
  9
$DIMTXT
 40
3.2
  9
$DIMCEN
 40
0.0
  9
$DIMTSZ
 40
0.0
  9
$DIMTOL
 70
     0
  9
$DIMLIM
 70
     0
  9
$DIMTIH
 70
     0
  9
$DIMTOH
 70
     0
  9
$DIMSE1
 70
     0
  9
$DIMSE2
 70
     0
  9
$DIMTAD
 70
     3
  9
$DIMZIN
 70
     8
  9
$DIMBLK
  1
OPEN30
  9
$DIMASO
 70
     1
  9
$DIMSHO
 70
     1
  9
$DIMPOST
  1

  9
$DIMAPOST
  1
"
  9
$DIMALT
 70
     0
  9
$DIMALTD
 70
     2
  9
$DIMALTF
 40
0.0393701
  9
$DIMLFAC
 40
1.0
  9
$DIMTOFL
 70
     1
  9
$DIMTVP
 40
0.0
  9
$DIMTIX
 70
     0
  9
$DIMSOXD
 70
     0
  9
$DIMSAH
 70
     0
  9
$DIMBLK1
  1

  9
$DIMBLK2
  1

  9
$DIMSTYLE
  2
AM_JIS
  9
$DIMCLRD
 70
   256
  9
$DIMCLRE
 70
   256
  9
$DIMCLRT
 70
     2
  9
$DIMTFAC
 40
0.71
  9
$DIMGAP
 40
1.5
  9
$DIMJUST
 70
     0
  9
$DIMSD1
 70
     0
  9
$DIMSD2
 70
     0
  9
$DIMTOLJ
 70
     0
  9
$DIMTZIN
 70
     0
  9
$DIMALTZ
 70
     0
  9
$DIMALTTZ
 70
     0
  9
$DIMFIT
 70
     3
  9
$DIMUPT
 70
     0
  9
$DIMUNIT
 70
     2
  9
$DIMDEC
 70
     3
  9
$DIMTDEC
 70
     3
  9
$DIMALTU
 70
     2
  9
$DIMALTTD
 70
     2
  9
$DIMTXSTY
  7
ASAMI
  9
$DIMAUNIT
 70
     0
  9
$LUNITS
 70
     2
  9
$LUPREC
 70
     2
  9
$SKETCHINC
 40
1.0
  9
$FILLETRAD
 40
2.5
  9
$AUNITS
 70
     0
  9
$AUPREC
 70
     0
  9
$MENU
  1
.
  9
$ELEVATION
 40
0.0
  9
$PELEVATION
 40
0.0
  9
$THICKNESS
 40
0.0
  9
$LIMCHECK
 70
     0
  9
$BLIPMODE
 70
     0
  9
$CHAMFERA
 40
0.5
  9
$CHAMFERB
 40
0.5
  9
$CHAMFERC
 40
20.0
  9
$CHAMFERD
 40
0.0
  9
$SKPOLY
 70
     0
  9
$TDCREATE
 40
2452836.771637361
  9
$TDUPDATE
 40
2453152.454510289
  9
$TDINDWG
 40
0.0568774884
  9
$TDUSRTIMER
 40
0.0568774884
  9
$USRTIMER
 70
     1
  9
$ANGBASE
 50
0.0
  9
$ANGDIR
 70
     0
  9
$PDMODE
 70
     0
  9
$PDSIZE
 40
0.0
  9
$PLINEWID
 40
0.0
  9
$COORDS
 70
     1
  9
$SPLFRAME
 70
     0
  9
$SPLINETYPE
 70
     6
  9
$SPLINESEGS
 70
     8
  9
$ATTDIA
 70
     1
  9
$ATTREQ
 70
     1
  9
$HANDLING
 70
 12289
  9
$HANDSEED
  5
222A
  9
$SURFTAB1
 70
     6
  9
$SURFTAB2
 70
     6
  9
$SURFTYPE
 70
     6
  9
$SURFU
 70
     6
  9
$SURFV
 70
     6
  9
$UCSNAME
  2

  9
$UCSORG
 10
0.0
 20
0.0
 30
0.0
  9
$UCSXDIR
 10
1.0
 20
0.0
 30
0.0
  9
$UCSYDIR
 10
0.0
 20
1.0
 30
0.0
  9
$PUCSNAME
  2

  9
$PUCSORG
 10
0.0
 20
0.0
 30
0.0
  9
$PUCSXDIR
 10
1.0
 20
0.0
 30
0.0
  9
$PUCSYDIR
 10
0.0
 20
1.0
 30
0.0
  9
$USERI1
 70
     0
  9
$USERI2
 70
     0
  9
$USERI3
 70
     0
  9
$USERI4
 70
     0
  9
$USERI5
 70
     0
  9
$USERR1
 40
0.0
  9
$USERR2
 40
0.0
  9
$USERR3
 40
0.0
  9
$USERR4
 40
0.0
  9
$USERR5
 40
0.0
  9
$WORLDVIEW
 70
     1
  9
$SHADEDGE
 70
     3
  9
$SHADEDIF
 70
    70
  9
$TILEMODE
 70
     1
  9
$MAXACTVP
 70
    64
  9
$PINSBASE
 10
0.0
 20
0.0
 30
0.0
  9
$PLIMCHECK
 70
     0
  9
$PEXTMIN
 10
1.000000000000000E+20
 20
1.000000000000000E+20
 30
1.000000000000000E+20
  9
$PEXTMAX
 10
-1.000000000000000E+20
 20
-1.000000000000000E+20
 30
-1.000000000000000E+20
  9
$PLIMMIN
 10
0.0
 20
0.0
  9
$PLIMMAX
 10
841.0
 20
594.0
  9
$UNITMODE
 70
     0
  9
$VISRETAIN
 70
     1
  9
$PLINEGEN
 70
     0
  9
$PSLTSCALE
 70
     0
  9
$TREEDEPTH
 70
  3020
  9
$PICKSTYLE
 70
     0
  9
$CMLSTYLE
  2
STANDARD
  9
$CMLJUST
 70
     0
  9
$CMLSCALE
 40
20.0
  9
$PROXYGRAPHICS
 70
     1
  9
$MEASUREMENT
 70
     1
  0
ENDSEC
  0
SECTION
  2
CLASSES
  0
CLASS
  1
ACDBDICTIONARYWDFLT
  2
AcDbDictionaryWithDefault
  3
AutoCAD 2000
 90
        0
280
     0
281
     0
  0
CLASS
  1
ACDBPLACEHOLDER
  2
AcDbPlaceHolder
  3
AutoCAD 2000
 90
        0
280
     0
281
     0
  0
CLASS
  1
LAYOUT
  2
AcDbLayout
  3
AutoCAD 2000
 90
        0
280
     0
281
     0
  0
CLASS
  1
AMGSETTINGSOBJ
  2
AmgSettingsObj
  3
"AcadM|Product Description: AutoCAD Mechanical 2000|Company: Autodesk"
 90
        0
280
     0
281
     0
  0
CLASS
  1
ACME_DOCUMENT
  2
AcMeDbDoc
  3
AcMeServices
 90
        0
280
     0
281
     0
  0
CLASS
  1
ACMESCOPE
  2
AcMeScope
  3
AcMeServices
 90
        0
280
     0
281
     0
  0
CLASS
  1
ACMECOMMANDHISTORY
  2
AcMeCommandHistory
  3
AcMeServices
 90
        0
280
     0
281
     0
  0
CLASS
  1
DICTIONARYVAR
  2
AcDbDictionaryVar
  3
AutoCAD 2000
 90
        0
280
     0
281
     0
  0
CLASS
  1
ACIMSYSVARMAN
  2
AcImSysVarManager
  3
AcMeServices
 90
        0
280
     0
281
     0
  0
CLASS
  1
ACIMREALSYSVAR
  2
AcImRealSysVar
  3
AcMeServices
 90
        0
280
     0
281
     0
  0
CLASS
  1
ACIMINTSYSVAR
  2
AcImIntSysVar
  3
AcMeServices
 90
        0
280
     0
281
     0
  0
CLASS
  1
ACMEDRAWINGMAN
  2
AcMeDrawingMan
  3
AcMeServices
 90
        0
280
     0
281
     0
  0
CLASS
  1
ACMEVIEW
  2
AcMeView
  3
AcMeServices
 90
        0
280
     0
281
     0
  0
CLASS
  1
ACDBENTITYCACHE
  2
AcMeEntityCache
  3
AcMeServices
 90
        0
280
     0
281
     0
  0
CLASS
  1
GSMANAGER
  2
AcMeGSManager
  3
AcMeServices
 90
        0
280
     0
281
     0
  0
CLASS
  1
AmdtInternalReactor
  2
AmdtInternalReactor
  3
AcMeServices
 90
        0
280
     0
281
     0
  0
CLASS
  1
ACMESTATEMGR
  2
AcMeStateMgr
  3
AcMeServices
 90
        0
280
     0
281
     0
  0
CLASS
  1
ACME_DATABASE
  2
AcMeDbDatabase
  3
AcMeServices
 90
        0
280
     0
281
     0
  0
CLASS
  1
ACRFINSADJUSTERMGR
  2
AcRfInsAdjusterMgr
  3
AcMeServices
 90
        0
280
     0
281
     0
  0
CLASS
  1
ACMDATADICTIONARY
  2
AcmDataDictionary
  3
"AcmSymBB|Product Description: AutoCAD Mechanical 2000|Company: Autodesk"
 90
        0
280
     0
281
     0
  0
CLASS
  1
ACMDATAENTRYBLOCK
  2
AcmDataEntryBlock
  3
"AcmSymBB|Product Description: AutoCAD Mechanical 2000|Company: Autodesk"
 90
        0
280
     0
281
     0
  0
CLASS
  1
AMGOBJPROPCFG
  2
AmgObjPropCfg
  3
"AmgLay|Product Description: AutoCAD Mechanical 2000|Company: Autodesk"
 90
        1
280
     0
281
     0
  0
CLASS
  1
ACAMGFILTERDAT
  2
AcAmgFilterDat
  3
"AcadM|Product Description: AutoCAD Mechanical 2000|Company: Autodesk"
 90
        0
280
     0
281
     0
  0
CLASS
  1
LAYER_INDEX
  2
AcDbLayerIndex
  3
AutoCAD 2000
 90
        0
280
     0
281
     0
  0
CLASS
  1
IDBUFFER
  2
AcDbIdBuffer
  3
AutoCAD 2000
 90
        0
280
     0
281
     0
  0
CLASS
  1
ACIMSTRSYSVAR
  2
AcImStrSysVar
  3
AcMeServices
 90
        0
280
     0
281
     0
  0
CLASS
  1
ACMSTANDARDJIS
  2
AcmStandardJIS
  3
"AcmSymBB|Product Description: AutoCAD Mechanical 2000|Company: Autodesk"
 90
        0
280
     0
281
     0
  0
CLASS
  1
ACMSURFSTANDARDJIS
  2
AcmSurfTextStdJIS
  3
"AcmSymBB|Product Description: AutoCAD Mechanical 2000|Company: Autodesk"
 90
        0
280
     0
281
     0
  0
CLASS
  1
ACMFCFSTANDARDJIS
  2
AcmFCFStdJIS
  3
"AcmSymBB|Product Description: AutoCAD Mechanical 2000|Company: Autodesk"
 90
        0
280
     0
281
     0
  0
CLASS
  1
ACMWELDSTANDARDJIS
  2
AcmWeldingStdJIS
  3
"AcmSymBB|Product Description: AutoCAD Mechanical 2000|Company: Autodesk"
 90
        0
280
     0
281
     0
  0
CLASS
  1
ACMIDSTANDARDJIS
  2
AcmIdStdJIS
  3
"AcmSymBB|Product Description: AutoCAD Mechanical 2000|Company: Autodesk"
 90
        0
280
     0
281
     0
  0
CLASS
  1
ACMDATUMSTANDARDJIS
  2
AcmDatumStdJIS
  3
"AcmSymBB|Product Description: AutoCAD Mechanical 2000|Company: Autodesk"
 90
        0
280
     0
281
     0
  0
CLASS
  1
ACMBOMSTANDARDJIS
  2
AcmBOMStdJIS
  3
"AcmSymBB|Product Description: AutoCAD Mechanical 2000|Company: Autodesk"
 90
        0
280
     0
281
     0
  0
CLASS
  1
ACMSTANDARDANSI
  2
AcmStandardANSI
  3
"AcmSymBB|Product Description: AutoCAD Mechanical 2000|Company: Autodesk"
 90
        0
280
     0
281
     0
  0
CLASS
  1
ACMSURFSTANDARDANSI
  2
AcmSurfTextStdANSI
  3
"AcmSymBB|Product Description: AutoCAD Mechanical 2000|Company: Autodesk"
 90
        0
280
     0
281
     0
  0
CLASS
  1
ACMFCFSTANDARDANSI
  2
AcmFCFStdANSI
  3
"AcmSymBB|Product Description: AutoCAD Mechanical 2000|Company: Autodesk"
 90
        0
280
     0
281
     0
  0
CLASS
  1
ACMWELDSTANDARDANSI
  2
AcmWeldingStdANSI
  3
"AcmSymBB|Product Description: AutoCAD Mechanical 2000|Company: Autodesk"
 90
        0
280
     0
281
     0
  0
CLASS
  1
ACMIDSTANDARDANSI
  2
AcmIdStdANSI
  3
"AcmSymBB|Product Description: AutoCAD Mechanical 2000|Company: Autodesk"
 90
        0
280
     0
281
     0
  0
CLASS
  1
ACMDATUMSTANDARDANSI
  2
AcmDatumStdANSI
  3
"AcmSymBB|Product Description: AutoCAD Mechanical 2000|Company: Autodesk"
 90
        0
280
     0
281
     0
  0
CLASS
  1
ACMBOMSTANDARDANSI
  2
AcmBOMStdANSI
  3
"AcmSymBB|Product Description: AutoCAD Mechanical 2000|Company: Autodesk"
 90
        0
280
     0
281
     0
  0
CLASS
  1
ACMSTANDARDBSI
  2
AcmStandardBSI
  3
"AcmSymBB|Product Description: AutoCAD Mechanical 2000|Company: Autodesk"
 90
        0
280
     0
281
     0
  0
CLASS
  1
ACMSURFSTANDARDBSI
  2
AcmSurfTextStdBSI
  3
"AcmSymBB|Product Description: AutoCAD Mechanical 2000|Company: Autodesk"
 90
        0
280
     0
281
     0
  0
CLASS
  1
ACMFCFSTANDARDBSI
  2
AcmFCFStdBSI
  3
"AcmSymBB|Product Description: AutoCAD Mechanical 2000|Company: Autodesk"
 90
        0
280
     0
281
     0
  0
CLASS
  1
ACMWELDSTANDARDBSI
  2
AcmWeldingStdBSI
  3
"AcmSymBB|Product Description: AutoCAD Mechanical 2000|Company: Autodesk"
 90
        0
280
     0
281
     0
  0
CLASS
  1
ACMIDSTANDARDBSI
  2
AcmIdStdBSI
  3
"AcmSymBB|Product Description: AutoCAD Mechanical 2000|Company: Autodesk"
 90
        0
280
     0
281
     0
  0
CLASS
  1
ACMDATUMSTANDARDBSI
  2
AcmDatumStdBSI
  3
"AcmSymBB|Product Description: AutoCAD Mechanical 2000|Company: Autodesk"
 90
        0
280
     0
281
     0
  0
CLASS
  1
ACMBOMSTANDARDBSI
  2
AcmBOMStdBSI
  3
"AcmSymBB|Product Description: AutoCAD Mechanical 2000|Company: Autodesk"
 90
        0
280
     0
281
     0
  0
CLASS
  1
LONG_TRANSACTION
  2
AcDbLongTransaction
  3
AutoCAD 2000
 90
        0
280
     0
281
     0
  0
CLASS
  1
LWPOLYLINE
  2
AcDbPolyline
  3
AutoCAD 2000
 90
        0
280
     0
281
     1
  0
CLASS
  1
HATCH
  2
AcDbHatch
  3
AutoCAD 2000
 90
        0
280
     0
281
     1
  0
CLASS
  1
XRECORD
  2
AcDbXrecord
  3
AutoCAD 2000
 90
        0
280
     0
281
     0
  0
ENDSEC
  0
SECTION
  2
TABLES
  0
TABLE
  2
VPORT
  5
8
330
0
100
AcDbSymbolTable
 70
     3
  0
VPORT
  5
21FF
330
8
100
AcDbSymbolTableRecord
100
AcDbViewportTableRecord
  2
*ACTIVE
 70
     0
 10
0.0
 20
0.0
 11
1.0
 21
1.0
 12
-19.06405383359399
 22
-4.254125141898477
 13
0.0
 23
0.0
 14
2.5
 24
2.5
 15
10.0
 25
10.0
 16
0.0
 26
0.0
 36
1.0
 17
0.0
 27
0.0
 37
0.0
 40
64.26112060543648
 41
1.56570841889117
 42
50.0
 43
0.0
 44
0.0
 50
0.0
 51
0.0
 71
     0
 72
   100
 73
     1
 74
     3
 75
     0
 76
     0
 77
     0
 78
     0
  0
ENDTAB
  0
TABLE
  2
LTYPE
  5
5
330
0
100
AcDbSymbolTable
 70
    10
  0
LTYPE
  5
14
330
5
100
AcDbSymbolTableRecord
100
AcDbLinetypeTableRecord
  2
BYBLOCK
 70
     0
  3

 72
    65
 73
     0
 40
0.0
  0
LTYPE
  5
15
330
5
100
AcDbSymbolTableRecord
100
AcDbLinetypeTableRecord
  2
BYLAYER
 70
     0
  3

 72
    65
 73
     0
 40
0.0
  0
LTYPE
  5
16
330
5
100
AcDbSymbolTableRecord
100
AcDbLinetypeTableRecord
  2
CONTINUOUS
 70
     0
  3
Solid line
 72
    65
 73
     0
 40
0.0
  0
LTYPE
  5
4B
330
5
100
AcDbSymbolTableRecord
100
AcDbLinetypeTableRecord
  2
AM_ISO02W050
 70
     0
  3
__ __ __ __ __ __ __ __ __ __ __ __ __ __ __
 72
    65
 73
     2
 40
7.5
 49
6.0
 74
     0
 49
-1.5
 74
     0
  0
LTYPE
  5
4C
330
5
100
AcDbSymbolTableRecord
100
AcDbLinetypeTableRecord
  2
AM_ISO08W050
 70
     0
  3
____ . ____ . ____ . ____ . ____ . ____ . ____
 72
    65
 73
     4
 40
18.0
 49
12.0
 74
     0
 49
-1.5
 74
     0
 49
3.0
 74
     0
 49
-1.5
 74
     0
  0
LTYPE
  5
4D
330
5
100
AcDbSymbolTableRecord
100
AcDbLinetypeTableRecord
  2
AM_ISO09W050
 70
     0
  3
_____ . . _____ . . _____ . . ____ .. ____
 72
    65
 73
     6
 40
22.5
 49
12.0
 74
     0
 49
-1.5
 74
     0
 49
3.0
 74
     0
 49
-1.5
 74
     0
 49
3.0
 74
     0
 49
-1.5
 74
     0
  0
LTYPE
  5
4E
330
5
100
AcDbSymbolTableRecord
100
AcDbLinetypeTableRecord
  2
AMCONSTR
 70
     0
  3
_______________________
 72
    65
 73
     2
 40
9999.0
 49
9999.0
 74
     0
 49
0.0
 74
     0
  0
LTYPE
  5
4F
330
5
100
AcDbSymbolTableRecord
100
AcDbLinetypeTableRecord
  2
AM_ISO02W050X2
 70
     0
  3
 _ _ _ _ _ _ _ _ _ _ _ _
 72
    65
 73
     2
 40
3.75
 49
3.0
 74
     0
 49
-0.75
 74
     0
  0
LTYPE
  5
50
330
5
100
AcDbSymbolTableRecord
100
AcDbLinetypeTableRecord
  2
AM_ISO08W050X2
 70
     0
  3
__ . __ . __ . __ . __ . __
 72
    65
 73
     4
 40
9.0
 49
6.0
 74
     0
 49
-0.75
 74
     0
 49
1.5
 74
     0
 49
-0.75
 74
     0
  0
LTYPE
  5
53
330
5
100
AcDbSymbolTableRecord
100
AcDbLinetypeTableRecord
  2
AMZIGZAG
 70
     0
  3
/\/-/\/-/\/-/\/-/\/-/\/
 72
    65
 73
     2
 40
11.00009999999999
 49
0.0001
 74
     4
 75
   135
340
52
 46
0.04
 50
0.0
 44
0.0
 45
0.0
 49
-11.0
 74
     0
  0
LTYPE
  5
166
330
5
100
AcDbSymbolTableRecord
100
AcDbLinetypeTableRecord
  2
ACJISTGL
 70
     0
  3
_ _ _ _ _
 72
    65
 73
     2
 40
3.0
 49
2.0
 74
     0
 49
-1.0
 74
     0
  0
LTYPE
  5
26A
330
5
100
AcDbSymbolTableRecord
100
AcDbLinetypeTableRecord
  2
ACJISTGB
 70
     0
  3
__ . . __ . .
 72
    65
 73
     6
 40
9.0
 49
4.0
 74
     0
 49
-1.0
 74
     0
 49
1.0
 74
     0
 49
-1.0
 74
     0
 49
1.0
 74
     0
 49
-1.0
 74
     0
  0
ENDTAB
  0
TABLE
  2
LAYER
  5
2
330
0
100
AcDbSymbolTable
 70
     7
  0
LAYER
  5
10
330
2
100
AcDbSymbolTableRecord
100
AcDbLayerTableRecord
  2
0
 70
     0
 62
     7
  6
CONTINUOUS
  0
LAYER
  5
3F9
330
2
100
AcDbSymbolTableRecord
100
AcDbLayerTableRecord
  2
AM_0
 70
     0
 62
     7
  6
CONTINUOUS
  0
LAYER
  5
BD4
330
2
100
AcDbSymbolTableRecord
100
AcDbLayerTableRecord
  2
AM_11
 70
     0
 62
     3
  6
AM_ISO09W050
  0
LAYER
  5
BD5
330
2
100
AcDbSymbolTableRecord
100
AcDbLayerTableRecord
  2
AM_7
 70
     0
 62
     4
  6
AM_ISO08W050
  0
LAYER
  5
BD6
330
2
100
AcDbSymbolTableRecord
100
AcDbLayerTableRecord
  2
AM_5
 70
     0
 62
     3
  6
CONTINUOUS
  0
LAYER
  5
BD7
330
2
100
AcDbSymbolTableRecord
100
AcDbLayerTableRecord
  2
DEFPOINTS
 70
     0
 62
     7
  6
CONTINUOUS
  0
LAYER
  5
E59
330
2
100
AcDbSymbolTableRecord
100
AcDbLayerTableRecord
  2
AM_6
 70
     0
 62
     2
  6
CONTINUOUS
  0
ENDTAB
  0
TABLE
  2
STYLE
  5
3
330
0
100
AcDbSymbolTable
 70
     5
  0
STYLE
  5
11
330
3
100
AcDbSymbolTableRecord
100
AcDbTextStyleTableRecord
  2
STANDARD
 70
     0
 40
0.0
 41
1.0
 50
0.0
 71
     0
 42
2.5
  3
simplex.shx
  4
EXTFONT.SHX
  0
STYLE
  5
52
330
3
100
AcDbSymbolTableRecord
100
AcDbTextStyleTableRecord
  2

 70
     1
 40
0.0
 41
1.0
 50
0.0
 71
     0
 42
2.5
  3
ltypeshp.shx
  4

  0
STYLE
  5
6B
330
3
100
AcDbSymbolTableRecord
100
AcDbTextStyleTableRecord
  2
ASAMI
 70
     0
 40
0.0
 41
1.0
 50
0.0
 71
     0
 42
2.5
  3
simplex.shx
  4
EXTFONT.SHX
  0
STYLE
  5
262
330
3
100
AcDbSymbolTableRecord
100
AcDbTextStyleTableRecord
  2
ACJISTS
 70
     0
 40
1.0
 41
1.0
 50
0.0
 71
     0
 42
2.5
  3
simplex.shx
  4
bigfont.shx
  0
STYLE
  5
269
330
3
100
AcDbSymbolTableRecord
100
AcDbTextStyleTableRecord
  2
ACJISGDT
 70
     0
 40
0.0
 41
1.0
 50
0.0
 71
     0
 42
2.5
  3
amgdtans.shx
  4

  0
ENDTAB
  0
TABLE
  2
VIEW
  5
6
330
0
100
AcDbSymbolTable
 70
     0
  0
ENDTAB
  0
TABLE
  2
UCS
  5
7
330
0
100
AcDbSymbolTable
 70
     0
  0
ENDTAB
  0
TABLE
  2
APPID
  5
9
330
0
100
AcDbSymbolTable
 70
    12
  0
APPID
  5
12
330
9
100
AcDbSymbolTableRecord
100
AcDbRegAppTableRecord
  2
ACAD
 70
     0
  0
APPID
  5
30
330
9
100
AcDbSymbolTableRecord
100
AcDbRegAppTableRecord
  2
MCAD_NO_VIS
 70
     0
  0
APPID
  5
31
330
9
100
AcDbSymbolTableRecord
100
AcDbRegAppTableRecord
  2
ACAD_TEMP_GRAPHIC
 70
     0
  0
APPID
  5
2C2
330
9
100
AcDbSymbolTableRecord
100
AcDbRegAppTableRecord
  2
GENIUS_GENDTOL_13
 70
     0
  0
APPID
  5
339
330
9
100
AcDbSymbolTableRecord
100
AcDbRegAppTableRecord
  2
GENIUS_GENODEF_13
 70
     0
  0
APPID
  5
33A
330
9
100
AcDbSymbolTableRecord
100
AcDbRegAppTableRecord
  2
GENIUS_GENOBJ-N-RSBK_13
 70
     0
  0
APPID
  5
33B
330
9
100
AcDbSymbolTableRecord
100
AcDbRegAppTableRecord
  2
GENIUS_GENOBJ-N-LIB_13
 70
     0
  0
APPID
  5
33C
330
9
100
AcDbSymbolTableRecord
100
AcDbRegAppTableRecord
  2
GENIUS_GENSCALE_13
 70
     0
  0
APPID
  5
378
330
9
100
AcDbSymbolTableRecord
100
AcDbRegAppTableRecord
  2
GENIUS_GENDIMSH_14
 70
     0
  0
APPID
  5
BD8
330
9
100
AcDbSymbolTableRecord
100
AcDbRegAppTableRecord
  2
GENIUS_GENOBJ-N-CEN_13
 70
     0
  0
APPID
  5
BD9
330
9
100
AcDbSymbolTableRecord
100
AcDbRegAppTableRecord
  2
GENIUS_GENFIL_13
 70
     0
  0
APPID
  5
BDA
330
9
100
AcDbSymbolTableRecord
100
AcDbRegAppTableRecord
  2
GENIUS_GENOBJ-N-CHA_13
 70
     0
  0
ENDTAB
  0
TABLE
  2
DIMSTYLE
  5
A
330
0
100
AcDbSymbolTable
 70
     8
  0
DIMSTYLE
105
58
102
{ACAD_REACTORS
330
1818
330
18AB
330
193F
330
19E5
102
}
330
A
100
AcDbSymbolTableRecord
100
AcDbDimStyleTableRecord
  2
AM_JIS
 70
     0
  3

  4
"
  5
OPEN30
  6

  7

 40
0.5
 41
2.5
 42
1.0
 43
12.0
 44
1.0
 45
0.0
 46
0.0
 47
0.1
 48
0.1
140
3.2
141
0.0
142
0.0
143
0.0393701
144
1.0
145
0.0
146
0.71
147
1.5
 71
     0
 72
     0
 73
     0
 74
     0
 75
     0
 76
     0
 77
     3
 78
     8
170
     0
171
     2
172
     1
173
     0
174
     0
175
     0
176
   256
177
   256
178
     2
270
     2
271
     3
272
     3
273
     2
274
     2
340
6B
275
     0
280
     0
281
     0
282
     0
283
     0
284
     0
285
     0
286
     0
287
     3
288
     0
  0
DIMSTYLE
105
5F
330
A
100
AcDbSymbolTableRecord
100
AcDbDimStyleTableRecord
  2
AM_JIS$3
 70
     0
  3

  4
"
  5
OPEN30
  6

  7

 40
0.5
 41
2.5
 42
1.0
 43
10.0
 44
1.0
 45
0.0
 46
0.0
 47
0.1
 48
0.1
140
3.2
141
0.0
142
0.0
143
0.0393701
144
1.0
145
0.0
146
0.71
147
1.5
 71
     0
 72
     0
 73
     0
 74
     1
 75
     0
 76
     0
 77
     3
 78
     8
170
     0
171
     2
172
     0
173
     0
174
     0
175
     0
176
   256
177
   256
178
     2
270
     2
271
     2
272
     3
273
     2
274
     2
340
6B
275
     0
280
     0
281
     0
282
     0
283
     0
284
     0
285
     0
286
     0
287
     0
288
     1
  0
DIMSTYLE
105
60
330
A
100
AcDbSymbolTableRecord
100
AcDbDimStyleTableRecord
  2
AM_JIS$4
 70
     0
  3

  4
"
  5
OPEN30
  6

  7

 40
0.5
 41
2.5
 42
1.0
 43
10.0
 44
1.0
 45
0.0
 46
0.0
 47
0.1
 48
0.1
140
3.2
141
0.0
142
0.0
143
0.0393701
144
1.0
145
0.0
146
0.71
147
1.5
 71
     0
 72
     0
 73
     0
 74
     1
 75
     0
 76
     0
 77
     3
 78
     8
170
     0
171
     2
172
     0
173
     0
174
     0
175
     0
176
   256
177
   256
178
     2
270
     2
271
     2
272
     3
273
     2
274
     2
340
6B
275
     0
280
     0
281
     0
282
     0
283
     0
284
     0
285
     0
286
     0
287
     0
288
     1
  0
DIMSTYLE
105
61
330
A
100
AcDbSymbolTableRecord
100
AcDbDimStyleTableRecord
  2
AM_JIS$6
 70
     0
  3

  4
"
  5
OPEN30
  6

  7

 40
0.5
 41
2.5
 42
1.0
 43
10.0
 44
1.0
 45
0.0
 46
0.0
 47
0.1
 48
0.1
140
3.2
141
0.0
142
0.0
143
0.0393701
144
1.0
145
0.0
146
0.71
147
1.5
 71
     0
 72
     0
 73
     0
 74
     0
 75
     0
 76
     0
 77
     0
 78
     8
170
     0
171
     2
172
     1
173
     0
174
     0
175
     0
176
   256
177
   256
178
     2
270
     2
271
     2
272
     2
273
     2
274
     2
340
6B
275
     0
280
     0
281
     0
282
     0
283
     0
284
     0
285
     0
286
     0
287
     3
288
     0
  0
DIMSTYLE
105
62
330
A
100
AcDbSymbolTableRecord
100
AcDbDimStyleTableRecord
  2
AM_JIS$7
 70
     0
  3

  4
"
  5
OPEN30
  6

  7

 40
0.5
 41
2.5
 42
1.0
 43
10.0
 44
1.0
 45
0.0
 46
0.0
 47
0.1
 48
0.1
140
3.2
141
0.0
142
0.0
143
0.0393701
144
1.0
145
0.0
146
0.71
147
1.5
 71
     0
 72
     0
 73
     0
 74
     0
 75
     0
 76
     0
 77
     3
 78
     8
170
     0
171
     2
172
     1
173
     0
174
     0
175
     0
176
   256
177
   256
178
     2
270
     2
271
     2
272
     3
273
     2
274
     2
340
6B
275
     0
280
     0
281
     0
282
     0
283
     0
284
     0
285
     0
286
     0
287
     3
288
     0
  0
DIMSTYLE
105
63
330
A
100
AcDbSymbolTableRecord
100
AcDbDimStyleTableRecord
  2
AM_JIS$SF
 70
     0
  3

  4
"
  5
OPEN30
  6

  7

 40
0.5
 41
2.5
 42
1.0
 43
10.0
 44
1.0
 45
0.0
 46
0.0
 47
0.1
 48
0.1
140
3.2
141
0.0
142
0.0
143
0.0393701
144
1.0
145
0.0
146
0.71
147
1.5
 71
     0
 72
     0
 73
     0
 74
     0
 75
     1
 76
     1
 77
     3
 78
     8
170
     0
171
     2
172
     1
173
     0
174
     0
175
     0
176
   256
177
   256
178
     2
270
     2
271
     2
272
     2
273
     2
274
     2
340
6B
275
     0
280
     0
281
     0
282
     0
283
     0
284
     0
285
     0
286
     0
287
     3
288
     0
  0
DIMSTYLE
105
68
330
A
100
AcDbSymbolTableRecord
100
AcDbDimStyleTableRecord
  2
AM_JIS$SH
 70
     0
  3

  4
"
  5

  6
GENAXEH
  7
OPEN30
 40
0.5
 41
2.5
 42
1.0
 43
10.0
 44
1.0
 45
0.0
 46
0.0
 47
0.1
 48
0.1
140
3.2
141
0.0
142
0.0
143
0.0393701
144
2.0
145
0.0
146
0.71
147
1.5
 71
     0
 72
     0
 73
     0
 74
     0
 75
     1
 76
     1
 77
     3
 78
     8
170
     0
171
     2
172
     1
173
     1
174
     0
175
     0
176
   256
177
   256
178
     2
270
     2
271
     2
272
     2
273
     2
274
     2
340
6B
275
     0
280
     0
281
     0
282
     0
283
     0
284
     0
285
     0
286
     0
287
     3
288
     0
  0
DIMSTYLE
105
B34
330
A
100
AcDbSymbolTableRecord
100
AcDbDimStyleTableRecord
  2
AM_JIS$2
 70
     0
  3

  4
"
  5
OPEN30
  6

  7

 40
0.5
 41
2.5
 42
1.0
 43
12.0
 44
1.0
 45
0.0
 46
0.0
 47
0.1
 48
0.1
140
3.2
141
0.0
142
0.0
143
0.0393701
144
1.0
145
0.0
146
0.71
147
1.5
 71
     0
 72
     0
 73
     0
 74
     0
 75
     0
 76
     0
 77
     3
 78
     8
170
     0
171
     2
172
     1
173
     0
174
     0
175
     0
176
   256
177
   256
178
     2
270
     2
271
     3
272
     3
273
     2
274
     2
340
6B
275
     0
280
     0
281
     0
282
     0
283
     0
284
     0
285
     0
286
     0
287
     3
288
     0
  0
ENDTAB
  0
TABLE
  2
BLOCK_RECORD
  5
1
330
0
100
AcDbSymbolTable
 70
     9
  0
BLOCK_RECORD
  5
1F
102
{ACAD_XDICTIONARY
360
74
102
}
330
1
100
AcDbSymbolTableRecord
100
AcDbBlockTableRecord
  2
*MODEL_SPACE
  0
BLOCK_RECORD
  5
101
102
{ACAD_XDICTIONARY
360
2228
102
}
330
1
100
AcDbSymbolTableRecord
100
AcDbBlockTableRecord
  2
*PAPER_SPACE
  0
BLOCK_RECORD
  5
59
330
1
100
AcDbSymbolTableRecord
100
AcDbBlockTableRecord
  2
_OPEN30
  0
BLOCK_RECORD
  5
64
330
1
100
AcDbSymbolTableRecord
100
AcDbBlockTableRecord
  2
GENAXEH
  0
BLOCK_RECORD
  5
1819
330
1
100
AcDbSymbolTableRecord
100
AcDbBlockTableRecord
  2
*D5
  0
BLOCK_RECORD
  5
18AC
330
1
100
AcDbSymbolTableRecord
100
AcDbBlockTableRecord
  2
*D6
  0
BLOCK_RECORD
  5
1940
330
1
100
AcDbSymbolTableRecord
100
AcDbBlockTableRecord
  2
*D7
  0
BLOCK_RECORD
  5
19E6
330
1
100
AcDbSymbolTableRecord
100
AcDbBlockTableRecord
  2
*D8
  0
ENDTAB
  0
ENDSEC
  0
SECTION
  2
BLOCKS
  0
BLOCK
  5
20
330
1F
100
AcDbEntity
  8
0
100
AcDbBlockBegin
  2
*MODEL_SPACE
 70
     0
 10
0.0
 20
0.0
 30
0.0
  3
*MODEL_SPACE
  1

  0
ENDBLK
  5
21
330
1F
100
AcDbEntity
  8
0
100
AcDbBlockEnd
  0
BLOCK
  5
103
330
101
100
AcDbEntity
 67
     1
  8
0
100
AcDbBlockBegin
  2
*PAPER_SPACE
 70
     0
 10
0.0
 20
0.0
 30
0.0
  3
*PAPER_SPACE
  1

  0
ENDBLK
  5
104
330
101
100
AcDbEntity
 67
     1
  8
0
100
AcDbBlockEnd
  0
BLOCK
  5
5D
330
59
100
AcDbEntity
  8
0
100
AcDbBlockBegin
  2
_OPEN30
 70
     0
 10
0.0
 20
0.0
 30
0.0
  3
_OPEN30
  1

  0
LINE
  5
5A
330
59
100
AcDbEntity
  8
0
 62
     0
100
AcDbLine
 10
-1.0
 20
0.26794919
 30
0.0
 11
0.0
 21
0.0
 31
0.0
  0
LINE
  5
5B
330
59
100
AcDbEntity
  8
0
 62
     0
100
AcDbLine
 10
0.0
 20
0.0
 30
0.0
 11
-1.0
 21
-0.26794919
 31
0.0
  0
LINE
  5
5C
330
59
100
AcDbEntity
  8
0
 62
     0
100
AcDbLine
 10
0.0
 20
0.0
 30
0.0
 11
-1.0
 21
0.0
 31
0.0
  0
ENDBLK
  5
5E
330
59
100
AcDbEntity
  8
0
100
AcDbBlockEnd
  0
BLOCK
  5
66
330
64
100
AcDbEntity
  8
0
100
AcDbBlockBegin
  2
GENAXEH
 70
     0
 10
0.0
 20
0.0
 30
0.0
  3
GENAXEH
  1

  0
LINE
  5
65
330
64
100
AcDbEntity
  8
0
100
AcDbLine
 10
-1.0
 20
0.0
 30
0.0
 11
1.0
 21
0.0
 31
0.0
  0
ENDBLK
  5
67
330
64
100
AcDbEntity
  8
0
100
AcDbBlockEnd
  0
BLOCK
  5
1823
330
1819
100
AcDbEntity
  8
0
100
AcDbBlockBegin
  2
*D5
 70
     1
 10
0.0
 20
0.0
 30
0.0
  3
*D5
  1

  0
LINE
  5
1DEB
330
1819
100
AcDbEntity
  8
AM_5
100
AcDbLine
 10
-45.00000000000009
 20
3.000000000000064
 30
0.0
 11
-53.71831628338793
 21
3.000000000000066
 31
0.0
  0
LINE
  5
1DEC
330
1819
100
AcDbEntity
  8
AM_5
100
AcDbLine
 10
-45.00000000000008
 20
-2.999999999999935
 30
0.0
 11
-53.71831628338793
 21
-2.999999999999933
 31
0.0
  0
LINE
  5
1DED
330
1819
100
AcDbEntity
  8
AM_5
100
AcDbLine
 10
-53.21831628338793
 20
1.750000000000066
 30
0.0
 11
-53.21831628338793
 21
-1.749999999999933
 31
0.0
  0
INSERT
  5
1DEE
330
1819
100
AcDbEntity
  8
AM_5
100
AcDbBlockReference
  2
_OPEN30
 10
-53.21831628338793
 20
3.000000000000066
 30
0.0
 41
1.25
 42
1.25
 43
1.25
 50
90.0
  0
INSERT
  5
1DEF
330
1819
100
AcDbEntity
  8
AM_5
100
AcDbBlockReference
  2
_OPEN30
 10
-53.21831628338793
 20
-2.999999999999933
 30
0.0
 41
1.25
 42
1.25
 43
1.25
 50
270.0
  0
MTEXT
  5
1DF0
330
1819
100
AcDbEntity
  8
AM_5
 62
     2
100
AcDbMText
 10
-54.76831628338793
 20
0.0000000000000581
 30
0.0
 40
1.6
 41
0.0
 71
     5
 72
     1
  1
%%c6
  7
ASAMI
 11
0.0000000000000001
 21
1.0
 31
0.0
1001
ACAD
1000
MTEXTBEGIN
1070
    73
1070
     1
1070
    44
1040
1.0
1070
    74
1070
     0
1000
MTEXTEND
  0
POINT
  5
1DF1
330
1819
100
AcDbEntity
  8
DEFPOINTS
 62
     0
100
AcDbPoint
 10
-44.50000000000009
 20
3.000000000000063
 30
0.0
  0
POINT
  5
1DF2
330
1819
100
AcDbEntity
  8
DEFPOINTS
 62
     0
100
AcDbPoint
 10
-44.50000000000009
 20
-2.999999999999936
 30
0.0
  0
POINT
  5
1DF3
330
1819
100
AcDbEntity
  8
DEFPOINTS
 62
     0
100
AcDbPoint
 10
-53.21831628338793
 20
-2.999999999999933
 30
0.0
  0
ENDBLK
  5
1824
330
1819
100
AcDbEntity
  8
0
100
AcDbBlockEnd
  0
BLOCK
  5
18B6
330
18AC
100
AcDbEntity
  8
0
100
AcDbBlockBegin
  2
*D6
 70
     1
 10
0.0
 20
0.0
 30
0.0
  3
*D6
  1

  0
LINE
  5
1FEB
330
18AC
100
AcDbEntity
  8
AM_5
100
AcDbLine
 10
-45.00000000000008
 20
-2.999999999999936
 30
0.0
 11
-45.00000000000008
 21
-16.50000099999989
 31
0.0
  0
LINE
  5
1FEC
330
18AC
100
AcDbEntity
  8
AM_5
100
AcDbLine
 10
-0.0000000000000746
 20
-2.500000000000003
 30
0.0
 11
-0.0000000000000755
 21
-16.50000099999989
 31
0.0
  0
LINE
  5
1FED
330
18AC
100
AcDbEntity
  8
AM_5
100
AcDbLine
 10
-43.75000000000008
 20
-16.00000099999989
 30
0.0
 11
-1.250000000000075
 21
-16.00000099999989
 31
0.0
  0
INSERT
  5
1FEE
330
18AC
100
AcDbEntity
  8
AM_5
100
AcDbBlockReference
  2
_OPEN30
 10
-45.00000000000008
 20
-16.00000099999989
 30
0.0
 41
1.25
 42
1.25
 43
1.25
 50
180.0
  0
INSERT
  5
1FEF
330
18AC
100
AcDbEntity
  8
AM_5
100
AcDbBlockReference
  2
_OPEN30
 10
-0.0000000000000755
 20
-16.00000099999989
 30
0.0
 41
1.25
 42
1.25
 43
1.25
  0
MTEXT
  5
1FF0
330
18AC
100
AcDbEntity
  8
AM_5
 62
     2
100
AcDbMText
 10
-22.50000000000008
 20
-14.45000099999989
 30
0.0
 40
1.6
 41
0.0
 71
     5
 72
     1
  1
45
  7
ASAMI
1001
ACAD
1000
MTEXTBEGIN
1070
    73
1070
     1
1070
    44
1040
1.0
1070
    74
1070
     0
1000
MTEXTEND
  0
POINT
  5
1FF1
330
18AC
100
AcDbEntity
  8
DEFPOINTS
 62
     0
100
AcDbPoint
 10
-45.00000000000008
 20
-2.499999999999936
 30
0.0
  0
POINT
  5
1FF2
330
18AC
100
AcDbEntity
  8
DEFPOINTS
 62
     0
100
AcDbPoint
 10
-0.0000000000000746
 20
-2.000000000000003
 30
0.0
  0
POINT
  5
1FF3
330
18AC
100
AcDbEntity
  8
DEFPOINTS
 62
     0
100
AcDbPoint
 10
-0.0000000000000755
 20
-16.00000099999989
 30
0.0
  0
ENDBLK
  5
18B7
330
18AC
100
AcDbEntity
  8
0
100
AcDbBlockEnd
  0
BLOCK
  5
194A
330
1940
100
AcDbEntity
  8
0
100
AcDbBlockBegin
  2
*D7
 70
     1
 10
0.0
 20
0.0
 30
0.0
  3
*D7
  1

  0
LINE
  5
1FF4
330
1940
100
AcDbEntity
  8
AM_5
100
AcDbLine
 10
-12.0000000000001
 20
-2.50000000000001
 30
0.0
 11
-12.0000000000001
 21
-10.5000009999999
 31
0.0
  0
LINE
  5
1FF5
330
1940
100
AcDbEntity
  8
AM_5
100
AcDbLine
 10
-0.0000000000000746
 20
-2.500000000000003
 30
0.0
 11
-0.0000000000000751
 21
-10.5000009999999
 31
0.0
  0
LINE
  5
1FF6
330
1940
100
AcDbEntity
  8
AM_5
100
AcDbLine
 10
-10.7500000000001
 20
-10.0000009999999
 30
0.0
 11
-1.250000000000075
 21
-10.0000009999999
 31
0.0
  0
INSERT
  5
1FF7
330
1940
100
AcDbEntity
  8
AM_5
100
AcDbBlockReference
  2
_OPEN30
 10
-12.0000000000001
 20
-10.0000009999999
 30
0.0
 41
1.25
 42
1.25
 43
1.25
 50
180.0
  0
INSERT
  5
1FF8
330
1940
100
AcDbEntity
  8
AM_5
100
AcDbBlockReference
  2
_OPEN30
 10
-0.0000000000000751
 20
-10.0000009999999
 30
0.0
 41
1.25
 42
1.25
 43
1.25
  0
MTEXT
  5
1FF9
330
1940
100
AcDbEntity
  8
AM_5
 62
     2
100
AcDbMText
 10
-6.00000000000009
 20
-8.450000999999899
 30
0.0
 40
1.6
 41
0.0
 71
     5
 72
     1
  1
12
  7
ASAMI
1001
ACAD
1000
MTEXTBEGIN
1070
    73
1070
     1
1070
    44
1040
1.0
1070
    74
1070
     0
1000
MTEXTEND
  0
POINT
  5
1FFA
330
1940
100
AcDbEntity
  8
DEFPOINTS
 62
     0
100
AcDbPoint
 10
-12.0000000000001
 20
-2.00000000000001
 30
0.0
  0
POINT
  5
1FFB
330
1940
100
AcDbEntity
  8
DEFPOINTS
 62
     0
100
AcDbPoint
 10
-0.0000000000000746
 20
-2.000000000000003
 30
0.0
  0
POINT
  5
1FFC
330
1940
100
AcDbEntity
  8
DEFPOINTS
 62
     0
100
AcDbPoint
 10
-0.0000000000000751
 20
-10.0000009999999
 30
0.0
  0
ENDBLK
  5
194B
330
1940
100
AcDbEntity
  8
0
100
AcDbBlockEnd
  0
BLOCK
  5
19F0
330
19E6
100
AcDbEntity
  8
0
100
AcDbBlockBegin
  2
*D8
 70
     1
 10
0.0
 20
0.0
 30
0.0
  3
*D8
  1

  0
LINE
  5
1FFD
330
19E6
100
AcDbEntity
  8
AM_5
100
AcDbLine
 10
0.4999999999999364
 20
2.0
 30
0.0
 11
9.778885015427377
 21
1.999999999999997
 31
0.0
  0
LINE
  5
1FFE
330
19E6
100
AcDbEntity
  8
AM_5
100
AcDbLine
 10
0.499999999999929
 20
-2.000000000000012
 30
0.0
 11
9.778885015427377
 21
-2.000000000000015
 31
0.0
  0
LINE
  5
1FFF
330
19E6
100
AcDbEntity
  8
AM_5
100
AcDbLine
 10
9.278885015427377
 20
0.7499999999999973
 30
0.0
 11
9.278885015427377
 21
-0.750000000000015
 31
0.0
  0
LINE
  5
2000
330
19E6
100
AcDbEntity
  8
AM_5
100
AcDbLine
 10
9.278885015427377
 20
-2.000000000000015
 30
0.0
 11
9.278885015427375
 21
-7.340476190476205
 31
0.0
  0
INSERT
  5
2001
330
19E6
100
AcDbEntity
  8
AM_5
100
AcDbBlockReference
  2
_OPEN30
 10
9.278885015427377
 20
1.999999999999997
 30
0.0
 41
1.25
 42
1.25
 43
1.25
 50
90.0
  0
INSERT
  5
2002
330
19E6
100
AcDbEntity
  8
AM_5
100
AcDbBlockReference
  2
_OPEN30
 10
9.278885015427377
 20
-2.000000000000015
 30
0.0
 41
1.25
 42
1.25
 43
1.25
 50
270.0
  0
MTEXT
  5
2003
330
19E6
100
AcDbEntity
  8
AM_5
 62
     2
100
AcDbMText
 10
7.728885015427376
 20
-5.295238095238109
 30
0.0
 40
1.6
 41
0.0
 71
     5
 72
     1
  1
%%c4
  7
ASAMI
 11
0.0000000000000001
 21
1.0
 31
0.0
1001
ACAD
1000
MTEXTBEGIN
1070
    73
1070
     1
1070
    44
1040
1.0
1070
    74
1070
     0
1000
MTEXTEND
  0
POINT
  5
2004
330
19E6
100
AcDbEntity
  8
DEFPOINTS
 62
     0
100
AcDbPoint
 10
-0.0000000000000636
 20
2.0
 30
0.0
  0
POINT
  5
2005
330
19E6
100
AcDbEntity
  8
DEFPOINTS
 62
     0
100
AcDbPoint
 10
-0.0000000000000711
 20
-2.000000000000012
 30
0.0
  0
POINT
  5
2006
330
19E6
100
AcDbEntity
  8
DEFPOINTS
 62
     0
100
AcDbPoint
 10
9.278885015427377
 20
-2.000000000000015
 30
0.0
  0
ENDBLK
  5
19F1
330
19E6
100
AcDbEntity
  8
0
100
AcDbBlockEnd
  0
ENDSEC
  0
SECTION
  2
ENTITIES
  0
TEXT
  5
E5A
330
1F
100
AcDbEntity
  8
AM_6
100
AcDbText
 10
-32.85714285714293
 20
-27.2500009999999
 30
0.0
 40
2.5
  1
JSM4040ZX
 72
     4
 11
-22.50000000000007
 21
-26.0000009999999
 31
0.0
100
AcDbText
  0
LINE
  5
178E
330
1F
100
AcDbEntity
  8
AM_7
  6
AM_ISO08W050X2
100
AcDbLine
 10
2.278884015427379
 20
0.0
 30
0.0
 11
-46.21831528338794
 21
-0.0000000000000213
 31
0.0
1001
GENIUS_GENODEF_13
1002
{
1000
HIER
1070
     0
1002
}
1002
{
1000
MANEDIT
1070
     0
1002
}
1002
{
1000
NOSEL
1070
     0
1002
}
1002
{
1000
BEHIND
1070
     0
1002
}
1002
{
1000
REACTOR
1002
}
1001
GENIUS_GENOBJ-N-CEN_13
1002
{
1000
OWNER
1000
GEN
1002
}
  0
LINE
  5
17D6
330
1F
100
AcDbEntity
  8
AM_0
100
AcDbLine
 10
-45.00000000000009
 20
2.500000000000063
 30
0.0
 11
-45.00000000000008
 21
-2.499999999999936
 31
0.0
  0
LINE
  5
17D7
330
1F
100
AcDbEntity
  8
AM_0
100
AcDbLine
 10
-44.50000000000009
 20
-2.999999999999936
 30
0.0
 11
-19.50000000000007
 21
-2.999999999999941
 31
0.0
  0
LINE
  5
17D8
330
1F
100
AcDbEntity
  8
AM_0
100
AcDbLine
 10
-44.50000000000009
 20
3.000000000000063
 30
0.0
 11
-19.5000000000001
 21
3.00000000000007
 31
0.0
  0
LINE
  5
17E6
330
1F
100
AcDbEntity
  8
AM_0
100
AcDbLine
 10
-44.50000000000009
 20
3.000000000000063
 30
0.0
 11
-45.00000000000009
 21
2.500000000000063
 31
0.0
1001
GENIUS_GENFIL_13
1070
     0
1040
0.5
1040
0.5
1040
20.0
1040
0.0
1002
{
1002
}
1001
GENIUS_GENODEF_13
1002
{
1000
HIER
1070
     0
1002
}
1002
{
1000
MANEDIT
1070
     0
1002
}
1002
{
1000
NOSEL
1070
     0
1002
}
1002
{
1000
BEHIND
1070
     0
1002
}
1002
{
1000
REACTOR
1002
}
1001
GENIUS_GENOBJ-N-CHA_13
1002
{
1000
OWNER
1000
GEN
1002
}
  0
LINE
  5
17E9
330
1F
100
AcDbEntity
  8
AM_0
100
AcDbLine
 10
-45.00000000000008
 20
-2.499999999999936
 30
0.0
 11
-44.50000000000009
 21
-2.999999999999936
 31
0.0
1001
GENIUS_GENFIL_13
1070
     0
1040
0.5
1040
0.5
1040
20.0
1040
0.0
1002
{
1002
}
1001
GENIUS_GENODEF_13
1002
{
1000
HIER
1070
     0
1002
}
1002
{
1000
MANEDIT
1070
     0
1002
}
1002
{
1000
NOSEL
1070
     0
1002
}
1002
{
1000
BEHIND
1070
     0
1002
}
1002
{
1000
REACTOR
1002
}
1001
GENIUS_GENOBJ-N-CHA_13
1002
{
1000
OWNER
1000
GEN
1002
}
  0
LINE
  5
17EA
330
1F
100
AcDbEntity
  8
AM_0
100
AcDbLine
 10
-44.50000000000009
 20
3.000000000000063
 30
0.0
 11
-44.50000000000009
 21
-2.999999999999921
 31
0.0
  0
DIMENSION
  5
1818
330
1F
100
AcDbEntity
  8
AM_5
100
AcDbDimension
  2
*D5
 10
-53.21831628338793
 20
-2.999999999999933
 30
0.0
 11
-54.76831628338793
 21
0.0000000000000581
 31
0.0
 70
    32
  1
%%c<>
  3
AM_JIS
100
AcDbAlignedDimension
 13
-44.50000000000009
 23
3.000000000000063
 33
0.0
 14
-44.50000000000009
 24
-2.999999999999936
 34
0.0
 50
270.0000000000001
100
AcDbRotatedDimension
1001
GENIUS_GENDTOL_13
1000

1000
h7
1000

1040
0.0
  0
DIMENSION
  5
18AB
330
1F
100
AcDbEntity
  8
AM_5
100
AcDbDimension
  2
*D6
 10
-0.0000000000000755
 20
-16.00000099999989
 30
0.0
 11
-22.50000000000008
 21
-14.45000099999989
 31
0.0
 70
    32
  1
<>
  3
AM_JIS
100
AcDbAlignedDimension
 13
-45.00000000000008
 23
-2.499999999999936
 33
0.0
 14
-0.0000000000000746
 24
-2.000000000000003
 34
0.0
 50
0.0000000000001132
100
AcDbRotatedDimension
1001
GENIUS_GENDTOL_13
1000

1000
h7
1000

1040
0.0
  0
DIMENSION
  5
193F
330
1F
100
AcDbEntity
  8
AM_5
100
AcDbDimension
  2
*D7
 10
-0.0000000000000751
 20
-10.0000009999999
 30
0.0
 11
-6.00000000000009
 21
-8.450000999999899
 31
0.0
 70
    32
  1
<>
  3
AM_JIS
100
AcDbAlignedDimension
 13
-12.0000000000001
 23
-2.00000000000001
 33
0.0
 14
-0.0000000000000746
 24
-2.000000000000003
 34
0.0
 50
0.0000000000001132
100
AcDbRotatedDimension
1001
GENIUS_GENDTOL_13
1000

1000
h7
1000

1040
0.0
  0
DIMENSION
  5
19E5
330
1F
100
AcDbEntity
  8
AM_5
100
AcDbDimension
  2
*D8
 10
9.278885015427377
 20
-2.000000000000015
 30
0.0
 11
7.728885015427376
 21
-5.295238095238109
 31
0.0
 70
    32
  1
%%c<>
  3
AM_JIS
100
AcDbAlignedDimension
 13
-0.0000000000000636
 23
2.0
 33
0.0
 14
-0.0000000000000711
 24
-2.000000000000012
 34
0.0
 50
90.00000000000003
100
AcDbRotatedDimension
1001
GENIUS_GENDTOL_13
1000

1000
h7
1000

1040
0.0
  0
LINE
  5
1DFC
330
1F
100
AcDbEntity
  8
AM_0
100
AcDbLine
 10
-19.5000000000001
 20
3.00000000000007
 30
0.0
 11
-19.50000000000008
 21
-2.999999999999943
 31
0.0
  0
LINE
  5
1E14
330
1F
100
AcDbEntity
  8
AM_0
100
AcDbLine
 10
-12.00000000000006
 20
1.999999999999989
 30
0.0
 11
-15.76794919243087
 21
1.999999999999989
 31
0.0
  0
LINE
  5
1E15
330
1F
100
AcDbEntity
  8
AM_0
100
AcDbLine
 10
-12.67754347952267
 20
-2.000000000000009
 30
0.0
 11
-15.76794919243146
 21
-2.000000000000011
 31
0.0
  0
LINE
  5
1E1F
330
1F
100
AcDbEntity
  8
AM_0
100
AcDbLine
 10
-19.5000000000001
 20
3.00000000000007
 30
0.0
 11
-15.76794919243088
 21
1.999999999999977
 31
0.0
  0
LINE
  5
1E20
330
1F
100
AcDbEntity
  8
AM_0
100
AcDbLine
 10
-15.76794919243087
 20
1.999999999999978
 30
0.0
 11
-15.76794919243146
 21
-2.000000000000011
 31
0.0
  0
SPLINE
  5
1ED8
330
1F
100
AcDbEntity
  8
AM_0
100
AcDbSpline
210
0.0
220
0.0
230
1.0
 70
     8
 71
     3
 72
     8
 73
     4
 74
     0
 42
0.0000000001
 43
0.0000000001
 40
0.0
 40
0.0
 40
0.0
 40
0.0
 40
1.412269715655734
 40
1.412269715655734
 40
1.412269715655734
 40
1.412269715655734
 10
-11.44000000000014
 20
-1.972427498364982
 30
0.0
 10
-11.62830262875424
 20
-1.972427498364982
 30
0.0
 10
-11.81491436092334
 20
-1.962928042517397
 30
0.0
 10
-12.00000000000006
 20
-1.944854996730008
 30
0.0
  0
SPLINE
  5
1ED9
330
1F
100
AcDbEntity
  8
AM_0
100
AcDbSpline
210
0.0
220
0.0
230
1.0
 70
     8
 71
     3
 72
     8
 73
     4
 74
     2
 42
0.0000000001
 43
0.0000000001
 44
0.0000000001
 12
-1.0
 22
-0.0000000000000008
 32
0.0
 40
0.0
 40
0.0
 40
0.0
 40
0.0
 40
5.795998619737582
 40
5.795998619737582
 40
5.795998619737582
 40
5.795998619737582
 10
-5.44000000000015
 20
-1.99999999999996
 30
0.0
 10
-7.371999539912677
 20
-1.999999999999962
 30
0.0
 10
-9.125999769956413
 20
-0.9999999999999634
 30
0.0
 10
-10.88000000000014
 20
0.0000000000000355
 30
0.0
 11
-5.44000000000015
 21
-1.99999999999996
 31
0.0
 11
-10.88000000000014
 21
0.0000000000000355
 31
0.0
  0
SPLINE
  5
1EDA
330
1F
100
AcDbEntity
  8
AM_0
100
AcDbSpline
210
0.0
220
0.0
230
1.0
 70
     8
 71
     3
 72
     8
 73
     4
 74
     2
 42
0.0000000001
 43
0.0000000001
 44
0.0000000001
 12
1.0
 22
0.0000000000000006
 32
0.0
 40
0.0
 40
0.0
 40
0.0
 40
0.0
 40
5.795998619737582
 40
5.795998619737582
 40
5.795998619737582
 40
5.795998619737582
 10
-10.88000000000006
 20
2.000000000000035
 30
0.0
 10
-8.948000460087541
 20
2.000000000000036
 30
0.0
 10
-7.194000230043807
 20
1.000000000000037
 30
0.0
 10
-5.440000000000072
 20
0.0000000000000391
 30
0.0
 11
-10.88000000000006
 21
2.000000000000035
 31
0.0
 11
-5.440000000000072
 21
0.0000000000000391
 31
0.0
  0
SPLINE
  5
1EDB
330
1F
100
AcDbEntity
  8
AM_0
100
AcDbSpline
210
0.0
220
0.0
230
1.0
 70
     8
 71
     3
 72
     8
 73
     4
 74
     0
 42
0.0000000001
 43
0.0000000001
 40
0.0
 40
0.0
 40
0.0
 40
0.0
 40
2.130230809022907
 40
2.130230809022907
 40
2.130230809022907
 40
2.130230809022907
 10
-10.88000000000014
 20
-2.00000000000001
 30
0.0
 10
-10.59596922546375
 20
-2.000000000000007
 30
0.0
 10
-10.3157855651187
 20
-1.978386915128076
 30
0.0
 10
-10.17124078653978
 20
-1.971456617098723
 30
0.0
  0
SPLINE
  5
1EDC
330
1F
100
AcDbEntity
  8
AM_0
100
AcDbSpline
210
0.0
220
0.0
230
1.0
 70
     8
 71
     3
 72
     8
 73
     4
 74
     0
 42
0.0000000001
 43
0.0000000001
 40
0.0
 40
0.0
 40
0.0
 40
0.0
 40
6.769478140335353
 40
6.769478140335353
 40
6.769478140335353
 40
6.769478140335353
 10
-9.377873327610036
 20
-1.846977801521038
 30
0.0
 10
-10.28047041298808
 20
-1.846977801521038
 30
0.0
 10
-11.14919015974748
 20
-1.641822253257213
 30
0.0
 10
-12.00000000000006
 20
-1.328207279354263
 30
0.0
  0
SPLINE
  5
1EDE
330
1F
100
AcDbEntity
  8
AM_0
100
AcDbSpline
210
0.0
220
0.0
230
1.0
 70
     8
 71
     3
 72
     8
 73
     4
 74
     0
 42
0.0000000001
 43
0.0000000001
 40
4.48458745047074
 40
4.48458745047074
 40
4.48458745047074
 40
4.48458745047074
 40
14.36247867694493
 40
14.36247867694493
 40
14.36247867694493
 40
14.36247867694493
 10
-13.06404502921782
 20
1.604966192068673
 30
0.0
 10
-11.80221772108795
 20
1.270271394757514
 30
0.0
 10
-10.59004552434898
 20
0.635135697378761
 30
0.0
 10
-9.377873327610039
 20
0.0000000000000142
 30
0.0
  0
SPLINE
  5
1EE0
330
1F
100
AcDbEntity
  8
AM_0
100
AcDbSpline
210
0.0
220
0.0
230
1.0
 70
     8
 71
     3
 72
     8
 73
     4
 74
     0
 42
0.0000000001
 43
0.0000000001
 40
0.0
 40
0.0
 40
0.0
 40
0.0
 40
2.764560748519282
 40
2.764560748519282
 40
2.764560748519282
 40
2.764560748519282
 10
-4.741820487202307
 20
-1.94011346813416
 30
0.0
 10
-4.373212387399739
 20
-1.94011346813416
 30
0.0
 10
-4.010755750448943
 20
-1.904552459404026
 30
0.0
 10
-3.653272789030705
 20
-1.840239115937247
 30
0.0
  0
SPLINE
  5
1EE2
330
1F
100
AcDbEntity
  8
AM_0
100
AcDbSpline
210
0.0
220
0.0
230
1.0
 70
     8
 71
     3
 72
     8
 73
     4
 74
     0
 42
0.0000000001
 43
0.0000000001
 40
0.7142832446738512
 40
0.7142832446738512
 40
0.7142832446738512
 40
0.7142832446738512
 40
14.36247867694493
 40
14.36247867694493
 40
14.36247867694493
 40
14.36247867694493
 10
-9.715087996888323
 20
1.883004941095626
 30
0.0
 10
-7.287568654142475
 20
1.755122814190208
 30
0.0
 10
-5.612720990876216
 20
0.8775614070951114
 30
0.0
 10
-3.93787332760996
 20
0.0000000000000178
 30
0.0
  0
SPLINE
  5
1EE3
330
1F
100
AcDbEntity
  8
AM_0
100
AcDbSpline
210
0.0
220
0.0
230
1.0
 70
     8
 71
     3
 72
     8
 73
     4
 74
     2
 42
0.0000000001
 43
0.0000000001
 44
0.0000000001
 12
-1.0
 22
-0.0000000000000008
 32
0.0
 40
0.0
 40
0.0
 40
0.0
 40
0.0
 40
5.744991470777978
 40
5.744991470777978
 40
5.744991470777978
 40
5.744991470777978
 10
-3.937873327610038
 20
-1.846977801521035
 30
0.0
 10
-5.852870484536031
 20
-1.846977801521036
 30
0.0
 10
-7.615371906073035
 20
-0.9234889007604882
 30
0.0
 10
-9.377873327610039
 20
0.0000000000000604
 30
0.0
 11
-3.937873327610038
 21
-1.846977801521035
 31
0.0
 11
-9.377873327610039
 21
0.0000000000000604
 31
0.0
  0
SPLINE
  5
1EE4
330
1F
100
AcDbEntity
  8
AM_0
100
AcDbSpline
210
0.0
220
0.0
230
1.0
 70
     8
 71
     3
 72
     8
 73
     4
 74
     2
 42
0.0000000001
 43
0.0000000001
 44
0.0000000001
 12
-1.0
 22
-0.0000000000000008
 32
0.0
 40
0.0
 40
0.0
 40
0.0
 40
0.0
 40
5.795998619737582
 40
5.795998619737582
 40
5.795998619737582
 40
5.795998619737582
 10
-0.0000000000000746
 20
-2.000000000000003
 30
0.0
 10
-1.931999539912601
 20
-2.000000000000004
 30
0.0
 10
-3.685999769956337
 20
-1.000000000000005
 30
0.0
 10
-5.440000000000072
 20
-0.0000000000000071
 30
0.0
 11
-0.0000000000000746
 21
-2.000000000000003
 31
0.0
 11
-5.440000000000072
 21
-0.0000000000000071
 31
0.0
  0
SPLINE
  5
1EE5
330
1F
100
AcDbEntity
  8
AM_0
100
AcDbSpline
210
0.0
220
0.0
230
1.0
 70
     8
 71
     3
 72
     8
 73
     4
 74
     2
 42
0.0000000001
 43
0.0000000001
 44
0.0000000001
 12
1.0
 22
0.0000000000000006
 32
0.0
 40
0.0
 40
0.0
 40
0.0
 40
0.0
 40
5.795998619737586
 40
5.795998619737586
 40
5.795998619737586
 40
5.795998619737586
 10
-5.440000000000075
 20
2.000000000000042
 30
0.0
 10
-3.508000460087547
 20
2.000000000000043
 30
0.0
 10
-1.75400023004381
 20
1.000000000000043
 30
0.0
 10
-0.0000000000000746
 20
0.0000000000000426
 30
0.0
 11
-5.440000000000075
 21
2.000000000000042
 31
0.0
 11
-0.0000000000000746
 21
0.0000000000000426
 31
0.0
  0
SPLINE
  5
1EE7
330
1F
100
AcDbEntity
  8
AM_0
100
AcDbSpline
210
0.0
220
0.0
230
1.0
 70
     8
 71
     3
 72
     8
 73
     4
 74
     0
 42
0.0000000001
 43
0.0000000001
 40
4.542668862435135
 40
4.542668862435135
 40
4.542668862435135
 40
4.542668862435135
 40
14.36247867694493
 40
14.36247867694493
 40
14.36247867694493
 40
14.36247867694493
 10
-0.2739999999995177
 20
-1.599046662182651
 30
0.0
 10
-1.527783934742291
 20
-1.262802274629144
 30
0.0
 10
-2.732828631176126
 20
-0.6314011373145619
 30
0.0
 10
-3.93787332760996
 20
0.0000000000000178
 30
0.0
  0
SPLINE
  5
1EE8
330
1F
100
AcDbEntity
  8
AM_0
100
AcDbSpline
210
0.0
220
0.0
230
1.0
 70
     8
 71
     3
 72
     8
 73
     4
 74
     0
 42
0.0000000001
 43
0.0000000001
 40
0.0
 40
0.0
 40
0.0
 40
0.0
 40
5.635889483499127
 40
5.635889483499127
 40
5.635889483499127
 40
5.635889483499127
 10
-0.0000000000000764
 20
2.0
 30
0.0
 10
-0.7514519311332926
 20
2.0
 30
0.0
 10
-1.475975701534522
 20
1.848717611591652
 30
0.0
 10
-2.24439441413299
 20
1.600697695013863
 30
0.0
  0
SPLINE
  5
1EE9
330
1F
100
AcDbEntity
  8
AM_0
100
AcDbSpline
210
0.0
220
0.0
230
1.0
 70
     8
 71
     3
 72
     8
 73
     4
 74
     2
 42
0.0000000001
 43
0.0000000001
 44
0.0000000001
 12
-0.6417012268563094
 22
-0.7669547153848835
 32
0.0
 13
-0.9900999427831042
 23
-0.140364180975397
 33
0.0
 40
0.0
 40
0.0
 40
0.0
 40
0.0
 40
1.034626129446685
 40
1.034626129446685
 40
1.034626129446685
 40
1.034626129446685
 10
-0.0000000000000764
 20
1.629881074673583
 30
0.0
 10
-0.221306952201254
 20
1.365377278460401
 30
0.0
 10
-0.6011678018864744
 20
1.251789518769738
 30
0.0
 10
-0.9426288924088304
 20
1.203381369011228
 30
0.0
 11
-0.0000000000000764
 21
1.629881074673583
 31
0.0
 11
-0.9426288924088304
 21
1.203381369011228
 31
0.0
  0
SPLINE
  5
1EEA
330
1F
100
AcDbEntity
  8
AM_0
100
AcDbSpline
210
0.0
220
0.0
230
1.0
 70
     8
 71
     3
 72
     8
 73
     4
 74
     0
 42
0.0000000001
 43
0.0000000001
 40
0.7142832446738512
 40
0.7142832446738512
 40
0.7142832446738512
 40
0.7142832446738512
 40
9.361146747480315
 40
9.361146747480315
 40
9.361146747480315
 40
9.361146747480315
 10
-4.241082621672598
 20
1.876222592092233
 30
0.0
 10
-2.509262413554662
 20
1.78631337558863
 30
0.0
 10
-1.417776540579287
 20
1.414307953119848
 30
0.0
 10
-0.3455380818520624
 20
0.9257433797923759
 30
0.0
  0
SPLINE
  5
1EEB
330
1F
100
AcDbEntity
  8
AM_0
100
AcDbSpline
210
0.0
220
0.0
230
1.0
 70
     8
 71
     3
 72
     8
 73
     4
 74
     0
 42
0.0000000001
 43
0.0000000001
 40
0.0
 40
0.0
 40
0.0
 40
0.0
 40
4.451443990518192
 40
4.451443990518192
 40
4.451443990518192
 40
4.451443990518192
 10
-3.937873327610038
 20
-1.846977801521081
 30
0.0
 10
-3.344347462207604
 20
-1.846977801521081
 30
0.0
 10
-2.76547035234109
 20
-1.758267365698976
 30
0.0
 10
-2.196701826619067
 20
-1.60834101956939
 30
0.0
  0
SPLINE
  5
1EEE
330
1F
100
AcDbEntity
  8
AM_0
100
AcDbSpline
210
0.0
220
0.0
230
1.0
 70
     8
 71
     3
 72
     8
 73
     4
 74
     0
 42
0.0000000001
 43
0.0000000001
 40
0.0
 40
0.0
 40
0.0
 40
0.0
 40
5.635889483499305
 40
5.635889483499305
 40
5.635889483499305
 40
5.635889483499305
 10
-5.440000000000154
 20
2.000000000000042
 30
0.0
 10
-6.191451931133403
 20
2.000000000000039
 30
0.0
 10
-6.915975701534645
 20
1.848717611591695
 30
0.0
 10
-7.634185907817295
 20
1.565680047707705
 30
0.0
  0
SPLINE
  5
1EEF
330
1F
100
AcDbEntity
  8
AM_0
100
AcDbSpline
210
0.0
220
0.0
230
1.0
 70
     8
 71
     3
 72
     8
 73
     4
 74
     0
 42
0.0000000001
 43
0.0000000001
 40
0.0
 40
0.0
 40
0.0
 40
0.0
 40
2.130230809022907
 40
2.130230809022907
 40
2.130230809022907
 40
2.130230809022907
 10
-5.44000000000015
 20
-2.000000000000007
 30
0.0
 10
-5.155969225463756
 20
-2.000000000000007
 30
0.0
 10
-4.875785565118707
 20
-1.978386915128073
 30
0.0
 10
-4.598883439729121
 20
-1.938338169141029
 30
0.0
  0
SPLINE
  5
1EF0
330
1F
100
AcDbEntity
  8
AM_0
100
AcDbSpline
210
0.0
220
0.0
230
1.0
 70
     8
 71
     3
 72
     8
 73
     4
 74
     0
 42
0.0000000001
 43
0.0000000001
 40
0.0
 40
0.0
 40
0.0
 40
0.0
 40
4.451443990518192
 40
4.451443990518192
 40
4.451443990518192
 40
4.451443990518192
 10
-9.377873327610036
 20
-1.846977801521084
 30
0.0
 10
-8.784347462207602
 20
-1.846977801521084
 30
0.0
 10
-8.205470352341087
 20
-1.758267365698984
 30
0.0
 10
-7.636701826619066
 20
-1.608341019569397
 30
0.0
  0
SPLINE
  5
1EF1
330
1F
100
AcDbEntity
  8
AM_0
100
AcDbSpline
210
0.0
220
0.0
230
1.0
 70
     8
 71
     3
 72
     8
 73
     4
 74
     0
 42
0.0000000001
 43
0.0000000001
 40
0.0
 40
0.0
 40
0.0
 40
0.0
 40
2.764560748519282
 40
2.764560748519282
 40
2.764560748519282
 40
2.764560748519282
 10
-10.17124078653978
 20
-1.971456617098723
 30
0.0
 10
-9.813212387399737
 20
-1.940113468134164
 30
0.0
 10
-9.450755750448941
 20
-1.90455245940403
 30
0.0
 10
-9.093264508894687
 20
-1.840238725621497
 30
0.0
  0
SPLINE
  5
1EF2
330
1F
100
AcDbEntity
  8
AM_0
100
AcDbSpline
210
0.0
220
0.0
230
1.0
 70
     8
 71
     3
 72
     8
 73
     4
 74
     0
 42
0.0000000001
 43
0.0000000001
 40
0.0
 40
0.0
 40
0.0
 40
0.0
 40
1.412269715655931
 40
1.412269715655931
 40
1.412269715655931
 40
1.412269715655931
 10
-10.88000000000014
 20
-1.999999999999964
 30
0.0
 10
-11.06830262875427
 20
-1.999999999999964
 30
0.0
 10
-11.2549143609234
 20
-1.990500544152382
 30
0.0
 10
-11.44000000000015
 20
-1.972427498364982
 30
0.0
  0
SPLINE
  5
1EF3
330
1F
100
AcDbEntity
  8
AM_0
100
AcDbSpline
210
0.0
220
0.0
230
1.0
 70
     8
 71
     3
 72
     8
 73
     4
 74
     0
 42
0.0000000001
 43
0.0000000001
 40
11.41055204919593
 40
11.41055204919593
 40
11.41055204919593
 40
11.41055204919593
 40
14.48999654934393
 40
14.48999654934393
 40
14.48999654934393
 40
14.48999654934393
 10
-12.00000000000009
 20
0.6279676035916389
 30
0.0
 10
-11.6255276256656
 20
0.4250442006195847
 30
0.0
 10
-11.25276381283287
 20
0.2125221003098083
 30
0.0
 10
-10.88000000000014
 20
0.0000000000000355
 30
0.0
  0
LINE
  5
1EF7
330
1F
100
AcDbEntity
  8
AM_11
100
AcDbLine
 10
-12.0000000000001
 20
-2.00000000000001
 30
0.0
 11
-0.0000000000000746
 21
-2.000000000000003
 31
0.0
  0
LINE
  5
1EF8
330
1F
100
AcDbEntity
  8
AM_11
100
AcDbLine
 10
-0.0000000000003837
 20
2.0
 30
0.0
 11
-12.00000000000017
 21
1.999999999999989
 31
0.0
  0
LINE
  5
1EF9
330
1F
100
AcDbEntity
  8
AM_0
100
AcDbLine
 10
-0.0000000000000746
 20
-0.0000000000000036
 30
0.0
 11
-0.0000000000000764
 21
2.0
 31
0.0
  0
ARC
  5
1EFA
330
1F
100
AcDbEntity
  8
AM_0
100
AcDbCircle
 10
0.794269272810805
 20
-1.017552065887162
 30
0.0
 40
1.21627924620642
100
AcDbArc
 50
159.3923269732582
 51
208.5609268810354
  0
LINE
  5
1EFC
330
1F
100
AcDbEntity
  8
AM_0
100
AcDbLine
 10
-0.0000000000000746
 20
-2.000000000000003
 30
0.0
 11
-0.0000000000000746
 21
-0.4000000000000022
 31
0.0
  0
LINE
  5
1EFD
330
1F
100
AcDbEntity
  8
AM_0
100
AcDbLine
 10
-0.3441831942765425
 20
-0.5894619060666209
 30
0.0
 11
-0.0420000000000691
 21
-0.5307591418252784
 31
0.0
  0
LINE
  5
1EFE
330
1F
100
AcDbEntity
  8
AM_0
100
AcDbLine
 10
-0.0000000000000746
 20
-0.0000000000000036
 30
0.0
 11
-0.9426288924088286
 21
-0.0000000000000036
 31
0.0
  0
LINE
  5
1EFF
330
1F
100
AcDbEntity
  8
AM_0
100
AcDbLine
 10
-0.9426288924088286
 20
-0.3200000000000074
 30
0.0
 11
-0.0461880215352437
 21
-0.3200000000000074
 31
0.0
  0
LINE
  5
1F00
330
1F
100
AcDbEntity
  8
AM_0
100
AcDbLine
 10
-0.0000000000000746
 20
-0.4000000000000022
 30
0.0
 11
-0.2309401076759343
 21
0.0000000000000213
 31
0.0
  0
LINE
  5
1F01
330
1F
100
AcDbEntity
  8
AM_0
100
AcDbLine
 10
-0.0000000000000746
 20
-0.0000000000000036
 30
0.0
 11
-0.0420000000000691
 21
0.4000000000000413
 31
0.0
  0
LINE
  5
1F02
330
1F
100
AcDbEntity
  8
AM_0
100
AcDbLine
 10
-0.0000000000000746
 20
-0.0000000000000036
 30
0.0
 11
-0.0355370436576603
 21
-0.338448034834304
 31
0.0
  0
LINE
  5
1F03
330
1F
100
AcDbEntity
  8
AM_0
100
AcDbLine
 10
-0.9426288924088286
 20
-0.0000000000000036
 30
0.0
 11
-0.9426288924088286
 21
-0.3200000000000074
 31
0.0
  0
LINE
  5
1F04
330
1F
100
AcDbEntity
  8
AM_0
100
AcDbLine
 10
-0.9426288924088286
 20
-0.3200000000000074
 30
0.0
 11
-0.3441831942765425
 21
-0.5894619060666209
 31
0.0
  0
LINE
  5
1F05
330
1F
100
AcDbEntity
  8
AM_0
100
AcDbLine
 10
-0.0420000000000691
 20
-0.5307591418252784
 30
0.0
 11
-0.0000000000000746
 21
-0.4000000000000022
 31
0.0
  0
LINE
  5
1F06
330
1F
100
AcDbEntity
  8
AM_0
100
AcDbLine
 10
-0.4270096790984184
 20
1.066856325604156
 30
0.0
 11
-0.9426288924088304
 21
1.203381369011228
 31
0.0
  0
LINE
  5
1F07
330
1F
100
AcDbEntity
  8
AM_0
100
AcDbLine
 10
-0.0420000000000691
 20
0.4000000000000413
 30
0.0
 11
-0.4270096790984184
 21
1.066856325604156
 31
0.0
  0
LINE
  5
1F08
330
1F
100
AcDbEntity
  8
AM_0
100
AcDbLine
 10
-0.0000000000000746
 20
-2.000000000000003
 30
0.0
 11
-0.0420000000000691
 21
-1.893376463048731
 31
0.0
  0
LINE
  5
1F09
330
1F
100
AcDbEntity
  8
AM_0
100
AcDbLine
 10
-0.0420000000000691
 20
-1.89337646304871
 30
0.0
 11
-0.2740000000000755
 21
-1.599046662184768
 31
0.0
  0
POLYLINE
  5
1F0A
330
1F
100
AcDbEntity
  8
AM_0
100
AcDb2dPolyline
 66
     1
 10
0.0
 20
0.0
 30
0.0
 70
     2
  0
VERTEX
  5
1F0B
330
1F0A
100
AcDbEntity
  8
AM_0
100
AcDbVertex
100
AcDb2dVertex
 10
-13.06404502921782
 20
1.604966192068673
 30
0.0
 42
-0.0080850818469205
  0
VERTEX
  5
1F0C
330
1F0A
100
AcDbEntity
  8
AM_0
100
AcDbVertex
100
AcDb2dVertex
 10
-13.2645951893767
 20
1.667785114944411
 30
0.0
 42
-0.0113772357485858
 70
     1
  0
VERTEX
  5
1F0D
330
1F0A
100
AcDbEntity
  8
AM_0
100
AcDbVertex
100
AcDb2dVertex
 10
-13.40748158389421
 20
1.718748240676688
 30
0.0
 42
-0.0082896290467094
  0
VERTEX
  5
1F0E
330
1F0A
100
AcDbEntity
  8
AM_0
100
AcDbVertex
100
AcDb2dVertex
 10
-13.86288346145045
 20
1.901664570271144
 30
0.0
 42
-0.2726804491113656
 70
     1
  0
VERTEX
  5
1F0F
330
1F0A
100
AcDbEntity
  8
AM_0
100
AcDbVertex
100
AcDb2dVertex
 10
-13.8724533987374
 20
1.914521626427585
 30
0.0
 42
-0.4014058829339297
  0
VERTEX
  5
1F10
330
1F0A
100
AcDbEntity
  8
AM_0
100
AcDbVertex
100
AcDb2dVertex
 10
-13.85510446001971
 20
1.937061617048083
 30
0.0
 42
-0.0313656446754737
 70
     1
  0
VERTEX
  5
1F11
330
1F0A
100
AcDbEntity
  8
AM_0
100
AcDbVertex
100
AcDb2dVertex
 10
-13.54253116127772
 20
1.96484792986822
 30
0.0
 42
-0.0039726403541645
  0
VERTEX
  5
1F12
330
1F0A
100
AcDbEntity
  8
AM_0
100
AcDbVertex
100
AcDb2dVertex
 10
-13.25787648368822
 20
1.969974068180352
 30
0.0
 42
0.0019401889352083
 70
     1
  0
VERTEX
  5
1F13
330
1F0A
100
AcDbEntity
  8
AM_0
100
AcDbVertex
100
AcDb2dVertex
 10
-12.67500000000006
 20
1.97810074263533
 30
0.0
 42
0.0036525506412497
  0
VERTEX
  5
1F14
330
1F0A
100
AcDbEntity
  8
AM_0
100
AcDbVertex
100
AcDb2dVertex
 10
-12.44579196979118
 20
1.983861242181284
 30
0.0
 42
0.0018773371428962
 70
     1
  0
VERTEX
  5
1F15
330
1F0A
100
AcDbEntity
  8
AM_0
100
AcDbVertex
100
AcDb2dVertex
 10
-12.00000000000006
 20
1.999999999999989
 30
0.0
  0
SEQEND
  5
1F16
330
1F0A
100
AcDbEntity
  8
AM_0
  0
LINE
  5
1F17
330
1F
100
AcDbEntity
  8
AM_11
100
AcDbLine
 10
-12.0000000000001
 20
-2.00000000000001
 30
0.0
 11
-12.00000000000006
 21
1.999999999999989
 31
0.0
  0
POLYLINE
  5
1F18
330
1F
100
AcDbEntity
  8
AM_0
100
AcDb2dPolyline
 66
     1
 10
0.0
 20
0.0
 30
0.0
 70
     2
  0
VERTEX
  5
2189
330
1F18
100
AcDbEntity
  8
AM_0
100
AcDbVertex
100
AcDb2dVertex
 10
-12.00000000000006
 20
0.6279676035916744
 30
0.0
 42
0.0282874143909194
  0
VERTEX
  5
2191
330
1F18
100
AcDbEntity
  8
AM_0
100
AcDbVertex
100
AcDb2dVertex
 10
-12.36117420351649
 20
0.7261607289491741
 30
0.0
 42
0.0334074463496893
 70
     1
  0
VERTEX
  5
218A
330
1F18
100
AcDbEntity
  8
AM_0
100
AcDbVertex
100
AcDb2dVertex
 10
-12.67500000000006
 20
0.7710598804939864
 30
0.0
 42
0.0318888583378951
  0
VERTEX
  5
2192
330
1F18
100
AcDbEntity
  8
AM_0
100
AcDbVertex
100
AcDb2dVertex
 10
-13.334568512547
 20
0.7786846872073583
 30
0.0
 42
0.0858515004804066
 70
     1
  0
VERTEX
  5
218B
330
1F18
100
AcDbEntity
  8
AM_0
100
AcDbVertex
100
AcDb2dVertex
 10
-13.57500000000006
 20
0.7240404739816988
 30
0.0
 42
0.1198883322212076
  0
VERTEX
  5
2193
330
1F18
100
AcDbEntity
  8
AM_0
100
AcDbVertex
100
AcDb2dVertex
 10
-13.7464062854017
 20
0.5981708017496583
 30
0.0
 42
0.1704800302433565
 70
     1
  0
VERTEX
  5
218C
330
1F18
100
AcDbEntity
  8
AM_0
100
AcDbVertex
100
AcDb2dVertex
 10
-13.80000000000006
 20
0.4562370483283758
 30
0.0
 42
0.1172295991725384
  0
VERTEX
  5
2194
330
1F18
100
AcDbEntity
  8
AM_0
100
AcDbVertex
100
AcDb2dVertex
 10
-13.76217687627432
 20
0.2788363133661917
 30
0.0
 42
0.0600702127063898
 70
     1
  0
VERTEX
  5
218D
330
1F18
100
AcDbEntity
  8
AM_0
100
AcDbVertex
100
AcDb2dVertex
 10
-13.57500000000006
 20
-0.0174378915601992
 30
0.0
 42
0.0296604585274387
  0
VERTEX
  5
2196
330
1F18
100
AcDbEntity
  8
AM_0
100
AcDbVertex
100
AcDb2dVertex
 10
-13.2682132103009
 20
-0.3515742305979472
 30
0.0
 42
0.0168132859575161
 70
     1
  0
VERTEX
  5
218E
330
1F18
100
AcDbEntity
  8
AM_0
100
AcDbVertex
100
AcDb2dVertex
 10
-12.67500000000006
 20
-0.8879433550135118
 30
0.0
 42
0.0308957679148779
  0
VERTEX
  5
2195
330
1F18
100
AcDbEntity
  8
AM_0
100
AcDbVertex
100
AcDb2dVertex
 10
-12.43113665464228
 20
-1.069405019877002
 30
0.0
 42
0.0186650242726476
 70
     1
  0
VERTEX
  5
218F
330
1F18
100
AcDbEntity
  8
AM_0
100
AcDbVertex
100
AcDb2dVertex
 10
-12.00000000000006
 20
-1.328207279354263
 30
0.0
  0
SEQEND
  5
2190
330
1F18
100
AcDbEntity
  8
AM_0
  0
LINE
  5
1F1A
330
1F
100
AcDbEntity
  8
AM_0
100
AcDbLine
 10
-12.00000000000007
 20
1.254051114407882
 30
0.0
 11
-12.00000000000006
 21
0.6279676035916744
 31
0.0
  0
ARC
  5
1F1B
330
1F
100
AcDbEntity
  8
AM_0
100
AcDbCircle
 10
-11.99350654905273
 20
-6.214555792844215
 30
0.0
 40
4.269705733799858
100
AcDbArc
 50
90.08713656171535
 51
99.21891394236292
  0
LINE
  5
1F1C
330
1F
100
AcDbEntity
  8
AM_0
100
AcDbLine
 10
-12.00000000000006
 20
-1.328207279354263
 30
0.0
 11
-12.0000000000001
 21
-1.944854996730022
 31
0.0
  0
LINE
  5
2010
330
1F
100
AcDbEntity
  8
AM_0
100
AcDbLine
 10
-19.50000000000008
 20
-2.999999999999943
 30
0.0
 11
-15.76794919243146
 21
-2.000000000000011
 31
0.0
  0
SPLINE
  5
2153
330
1F
100
AcDbEntity
  8
AM_0
100
AcDbSpline
210
0.0
220
0.0
230
1.0
 70
     8
 71
     3
 72
     9
 73
     5
 74
     3
 42
0.0000000001
 43
0.0000000001
 44
0.0000000001
 40
0.0
 40
0.0
 40
0.0
 40
0.0
 40
0.6125663796378653
 40
1.120958383511983
 40
1.120958383511983
 40
1.120958383511983
 40
1.120958383511983
 10
-10.88000000000006
 20
2.000000000000035
 30
0.0
 10
-11.08418879337094
 20
2.000004202144474
 30
0.0
 10
-11.45784158816453
 20
2.000011891807496
 30
0.0
 10
-11.83149438136831
 20
1.999977366655028
 30
0.0
 10
-12.00095838207
 20
1.999961708347186
 30
0.0
 11
-10.88000000000006
 21
2.000000000000035
 31
0.0
 11
-11.49256637963793
 21
2.000000000000035
 31
0.0
 11
-12.00095838207
 21
1.999961708347186
 31
0.0
  0
VIEWPORT
  5
110
330
101
100
AcDbEntity
 67
     1
  8
0
100
AcDbViewport
 10
420.5
 20
297.0
 30
0.0
 40
948.9782706766916
 41
628.452
 68
     1
 69
     1
1001
ACAD
1000
MVIEW
1002
{
1070
    16
1010
0.0
1020
0.0
1030
0.0
1010
0.0
1020
0.0
1030
1.0
1040
0.0
1040
628.452
1040
420.5
1040
297.0
1040
50.0
1040
0.0
1040
0.0
1070
     0
1070
   100
1070
     1
1070
     1
1070
     0
1070
     0
1070
     0
1070
     0
1040
0.0
1040
0.0
1040
0.0
1040
10.0
1040
10.0
1040
10.0
1040
10.0
1070
     0
1002
{
1002
}
1002
}
  0
ENDSEC
  0
SECTION
  2
OBJECTS
  0
DICTIONARY
  5
C
330
0
100
AcDbDictionary
  3
ACAD_GROUP
350
D
  3
ACAD_LAYOUT
350
1A
  3
ACAD_MLINESTYLE
350
17
  3
ACAD_PLOTSETTINGS
350
19
  3
ACAD_PLOTSTYLENAME
350
E
  3
ACDBVARIABLEDICTIONARY
350
34
  3
ACMDICTIONARY
350
43
  3
AMG
350
2B
  3
AMGSNAPSETTINGS
350
6E
  3
DWGPROPS
350
21F4
  3
ACDBHEADERROUNDTRIPXREC
350
2200
  0
DICTIONARY
  5
74
330
1F
100
AcDbDictionary
280
     1
  3
ACAD_INDEX
360
21F6
  3
ACAD_LAYOUTSELFREF
360
2223
  0
DICTIONARY
  5
2228
330
101
100
AcDbDictionary
280
     1
  3
ACAD_LAYOUTSELFREF
360
2229
  0
DICTIONARY
  5
D
102
{ACAD_REACTORS
330
C
102
}
330
C
100
AcDbDictionary
  0
DICTIONARY
  5
1A
102
{ACAD_REACTORS
330
C
102
}
330
C
100
AcDbDictionary
  0
DICTIONARY
  5
17
102
{ACAD_REACTORS
330
C
102
}
330
C
100
AcDbDictionary
  3
STANDARD
350
18
  0
DICTIONARY
  5
19
102
{ACAD_REACTORS
330
C
102
}
330
C
100
AcDbDictionary
  0
ACDBDICTIONARYWDFLT
  5
E
102
{ACAD_REACTORS
330
C
102
}
330
C
100
AcDbDictionary
281
     1
  3
Normal
350
F
100
AcDbDictionaryWithDefault
340
F
  0
DICTIONARY
  5
34
102
{ACAD_REACTORS
330
C
102
}
330
C
100
AcDbDictionary
  3
INDEXCTL
350
35
  3
SORTENTS
350
B5E
  0
DICTIONARY
  5
43
102
{ACAD_REACTORS
330
C
102
}
330
C
100
AcDbDictionary
  3
ACMSTDDICTIONARY
350
260
  0
DICTIONARY
  5
2B
102
{ACAD_REACTORS
330
C
102
}
330
C
100
AcDbDictionary
  3
ACMGSETTINGS
350
2C
  0
DICTIONARY
  5
6E
102
{ACAD_REACTORS
330
C
102
}
330
C
100
AcDbDictionary
  0
XRECORD
  5
21F4
102
{ACAD_REACTORS
330
C
102
}
330
C
100
AcDbXrecord
  1
DWGPROPS COOKIE
  2

  3

  4

  6

  7

  8

  9

300
AmdtFileType=82
301
=
302
=
303
=
304
=
305
=
306
=
307
=
308
=
309
=
 40
0.0567478240740741
 41
2452836.771637361
 42
2453045.521332199
  1

 90
        1
  0
DICTIONARY
  5
2200
102
{ACAD_REACTORS
330
C
102
}
330
C
100
AcDbDictionary
  3
TSTACKALIGN
350
2201
  3
TSTACKSIZE
350
2202
  3
HYPERLINKBASE
350
2203
  3
STYLESHEET
350
2204
  3
LAYOUTDICT
350
2205
  3
PLOTSETDICT
350
2206
  3
PLOTSTYLNAMDICT
350
2207
  3
LWETCUNION
350
2208
  3
INSUNITS
350
2209
  3
CEPSNTYPE
350
220A
  3
FINGERPRINTGUID
350
220B
  3
VERSIONGUID
350
220C
  3
PSVPSCALE
350
220D
  3
DIMSTYLEDATA
350
220E
  3
PUCSORTHOREF
350
220F
  3
PUCSORTHOVIEW
350
2210
  3
PUCSBASE
350
2211
  3
PUCSORGTOP
350
2212
  3
PUCSORGBOTTOM
350
2213
  3
PUCSORGLEFT
350
2214
  3
PUCSORGRIGHT
350
2215
  3
PUCSORGFRONT
350
2216
  3
PUCSORGBACK
350
2217
  3
UCSORTHOREF
350
2218
  3
UCSORTHOVIEW
350
2219
  3
UCSBASE
350
221A
  3
UCSORGTOP
350
221B
  3
UCSORGBOTTOM
350
221C
  3
UCSORGLEFT
350
221D
  3
UCSORGRIGHT
350
221E
  3
UCSORGFRONT
350
221F
  3
UCSORGBACK
350
2220
  0
DICTIONARY
  5
21F6
102
{ACAD_REACTORS
330
74
102
}
330
74
100
AcDbDictionary
  3
*A1
350
21F7
  0
XRECORD
  5
2223
102
{ACAD_REACTORS
330
74
102
}
330
74
100
AcDbXrecord
340
1F
  0
XRECORD
  5
2229
102
{ACAD_REACTORS
330
2228
102
}
330
2228
100
AcDbXrecord
340
101
  0
MLINESTYLE
  5
18
102
{ACAD_REACTORS
330
17
102
}
330
17
100
AcDbMlineStyle
  2
STANDARD
 70
     0
  3

 62
   256
 51
90.0
 52
90.0
 71
     2
 49
0.5
 62
   256
  6
BYLAYER
 49
-0.5
 62
   256
  6
BYLAYER
  0
ACDBPLACEHOLDER
  5
F
102
{ACAD_REACTORS
330
E
102
}
330
E
100
AcDbPlaceHolder
280
     0
  0
DICTIONARYVAR
  5
35
102
{ACAD_REACTORS
330
34
102
}
330
34
100
DictionaryVariables
280
     0
  1
1
  0
DICTIONARYVAR
  5
B5E
102
{ACAD_REACTORS
330
34
102
}
330
34
100
DictionaryVariables
280
     0
  1
96
  0
DICTIONARY
  5
260
102
{ACAD_REACTORS
330
43
102
}
330
43
100
AcDbDictionary
  0
DICTIONARY
  5
2C
102
{ACAD_REACTORS
330
2B
102
}
330
2B
100
AcDbDictionary
  3
DWGSETTINGS
350
2D
  0
XRECORD
  5
2201
102
{ACAD_REACTORS
330
2200
102
}
330
2200
100
AcDbXrecord
 90
        1
  0
XRECORD
  5
2202
102
{ACAD_REACTORS
330
2200
102
}
330
2200
100
AcDbXrecord
 90
       70
  0
XRECORD
  5
2203
102
{ACAD_REACTORS
330
2200
102
}
330
2200
100
AcDbXrecord
  1

  0
XRECORD
  5
2204
102
{ACAD_REACTORS
330
2200
102
}
330
2200
100
AcDbXrecord
  1
ASAMI.ctb
  0
XRECORD
  5
2205
102
{ACAD_REACTORS
330
2200
102
}
330
2200
100
AcDbXrecord
340
1A
  0
XRECORD
  5
2206
102
{ACAD_REACTORS
330
2200
102
}
330
2200
100
AcDbXrecord
340
19
  0
XRECORD
  5
2207
102
{ACAD_REACTORS
330
2200
102
}
330
2200
100
AcDbXrecord
340
E
  0
XRECORD
  5
2208
102
{ACAD_REACTORS
330
2200
102
}
330
2200
100
AcDbXrecord
 90
    10781
  0
XRECORD
  5
2209
102
{ACAD_REACTORS
330
2200
102
}
330
2200
100
AcDbXrecord
 90
        4
  0
XRECORD
  5
220A
102
{ACAD_REACTORS
330
2200
102
}
330
2200
100
AcDbXrecord
 90
        0
  0
XRECORD
  5
220B
102
{ACAD_REACTORS
330
2200
102
}
330
2200
100
AcDbXrecord
  1
{AFB28963-8C59-40AE-9337-C84526B81ACE}
  0
XRECORD
  5
220C
102
{ACAD_REACTORS
330
2200
102
}
330
2200
100
AcDbXrecord
  1
{0FE60725-2944-4B88-9E0F-02B54A363E5A}
  0
XRECORD
  5
220D
102
{ACAD_REACTORS
330
2200
102
}
330
2200
100
AcDbXrecord
 40
0.0
  0
XRECORD
  5
220E
102
{ACAD_REACTORS
330
2200
102
}
330
2200
100
AcDbXrecord
1000
DSTYLE
1002
{
1070
    79
 70
     2
1070
   341
340
59
1070
   342
340
59
1070
   371
 70
    -1
1070
   372
 70
    -1
1002
}
  0
XRECORD
  5
220F
102
{ACAD_REACTORS
330
2200
102
}
330
2200
100
AcDbXrecord
340
0
  0
XRECORD
  5
2210
102
{ACAD_REACTORS
330
2200
102
}
330
2200
100
AcDbXrecord
 70
     0
  0
XRECORD
  5
2211
102
{ACAD_REACTORS
330
2200
102
}
330
2200
100
AcDbXrecord
340
0
  0
XRECORD
  5
2212
102
{ACAD_REACTORS
330
2200
102
}
330
2200
100
AcDbXrecord
 10
0.0
 20
0.0
 30
0.0
  0
XRECORD
  5
2213
102
{ACAD_REACTORS
330
2200
102
}
330
2200
100
AcDbXrecord
 10
0.0
 20
0.0
 30
0.0
  0
XRECORD
  5
2214
102
{ACAD_REACTORS
330
2200
102
}
330
2200
100
AcDbXrecord
 10
0.0
 20
0.0
 30
0.0
  0
XRECORD
  5
2215
102
{ACAD_REACTORS
330
2200
102
}
330
2200
100
AcDbXrecord
 10
0.0
 20
0.0
 30
0.0
  0
XRECORD
  5
2216
102
{ACAD_REACTORS
330
2200
102
}
330
2200
100
AcDbXrecord
 10
0.0
 20
0.0
 30
0.0
  0
XRECORD
  5
2217
102
{ACAD_REACTORS
330
2200
102
}
330
2200
100
AcDbXrecord
 10
0.0
 20
0.0
 30
0.0
  0
XRECORD
  5
2218
102
{ACAD_REACTORS
330
2200
102
}
330
2200
100
AcDbXrecord
340
0
  0
XRECORD
  5
2219
102
{ACAD_REACTORS
330
2200
102
}
330
2200
100
AcDbXrecord
 70
     0
  0
XRECORD
  5
221A
102
{ACAD_REACTORS
330
2200
102
}
330
2200
100
AcDbXrecord
340
0
  0
XRECORD
  5
221B
102
{ACAD_REACTORS
330
2200
102
}
330
2200
100
AcDbXrecord
 10
0.0
 20
0.0
 30
0.0
  0
XRECORD
  5
221C
102
{ACAD_REACTORS
330
2200
102
}
330
2200
100
AcDbXrecord
 10
0.0
 20
0.0
 30
0.0
  0
XRECORD
  5
221D
102
{ACAD_REACTORS
330
2200
102
}
330
2200
100
AcDbXrecord
 10
0.0
 20
0.0
 30
0.0
  0
XRECORD
  5
221E
102
{ACAD_REACTORS
330
2200
102
}
330
2200
100
AcDbXrecord
 10
0.0
 20
0.0
 30
0.0
  0
XRECORD
  5
221F
102
{ACAD_REACTORS
330
2200
102
}
330
2200
100
AcDbXrecord
 10
0.0
 20
0.0
 30
0.0
  0
XRECORD
  5
2220
102
{ACAD_REACTORS
330
2200
102
}
330
2200
100
AcDbXrecord
 10
0.0
 20
0.0
 30
0.0
  0
LAYER_INDEX
  5
21F7
102
{ACAD_REACTORS
330
21F6
102
}
330
21F6
100
AcDbIndex
 40
2453152.454510289
100
AcDbLayerIndex
  8
0
360
21F8
 90
        0
  8
AM_0
360
21F9
 90
       56
  8
AM_11
360
21FA
 90
        3
  8
AM_7
360
21FB
 90
        1
  8
AM_5
360
21FC
 90
        4
  8
Defpoints
360
21FD
 90
        0
  8
AM_6
360
21FE
 90
        1
  0
XRECORD
  5
2D
102
{ACAD_REACTORS
330
2C
102
}
330
2C
100
AcDbXrecord
  1
VERSION
140
15.0
  1
PRODUCT
  2
AutoCAD Mechanical 2000
  0
IDBUFFER
  5
21F8
330
0
100
AcDbIdBuffer
  0
IDBUFFER
  5
21F9
330
0
100
AcDbIdBuffer
330
1F09
330
1F0A
330
1F18
330
1F1A
330
1F1B
330
1F1C
330
2010
330
2153
330
17D6
330
17D7
330
17D8
330
17E6
330
17E9
330
17EA
330
1DFC
330
1E14
330
1E15
330
1E1F
330
1E20
330
1ED8
330
1ED9
330
1EDA
330
1EDB
330
1EDC
330
1EDE
330
1EE0
330
1EE2
330
1EE3
330
1EE4
330
1EE5
330
1EE7
330
1EE8
330
1EE9
330
1EEA
330
1EEB
330
1EEE
330
1EEF
330
1EF0
330
1EF1
330
1EF2
330
1EF3
330
1EF9
330
1EFA
330
1EFC
330
1EFD
330
1EFE
330
1EFF
330
1F00
330
1F01
330
1F02
330
1F03
330
1F04
330
1F05
330
1F06
330
1F07
330
1F08
  0
IDBUFFER
  5
21FA
330
0
100
AcDbIdBuffer
330
1EF7
330
1EF8
330
1F17
  0
IDBUFFER
  5
21FB
330
0
100
AcDbIdBuffer
330
178E
  0
IDBUFFER
  5
21FC
330
0
100
AcDbIdBuffer
330
1818
330
18AB
330
193F
330
19E5
  0
IDBUFFER
  5
21FD
330
0
100
AcDbIdBuffer
  0
IDBUFFER
  5
21FE
330
0
100
AcDbIdBuffer
330
E5A
  0
ENDSEC
  0
EOF
