  0
SECTION
  2
HEADER
  9
$ACADVER
  1
AC1014
  9
$ACADMAINTVER
 70
     9
  9
$DWGCODEPAGE
  3
ANSI_932
  9
$INSBASE
 10
0.0
 20
0.0
 30
0.0
  9
$EXTMIN
 10
-83.08320585933191
 20
-29.2500009999966
 30
-0.00000001
  9
$EXTMAX
 10
12.05776903085497
 20
5.428444578771071
 30
0.00000001
  9
$LIMMIN
 10
-85.29694508071669
 20
-33.17120475571403
  9
$LIMMAX
 10
14.84814933859991
 20
11.03671002078567
  9
$ORTHOMODE
 70
     0
  9
$REGENMODE
 70
     1
  9
$FILLMODE
 70
     1
  9
$QTEXTMODE
 70
     0
  9
$MIRRTEXT
 70
     0
  9
$DRAGMODE
 70
     2
  9
$LTSCALE
 40
1.0
  9
$OSMODE
 70
    55
  9
$ATTMODE
 70
     1
  9
$TEXTSIZE
 40
2.5
  9
$TRACEWID
 40
1.0
  9
$TEXTSTYLE
  7
STANDARD
  9
$CLAYER
  8
AM_0
  9
$CELTYPE
  6
BYLAYER
  9
$CECOLOR
 62
   256
  9
$CELTSCALE
 40
1.0
  9
$DELOBJ
 70
     1
  9
$DISPSILH
 70
     0
  9
$DIMSCALE
 40
0.5
  9
$DIMASZ
 40
2.5
  9
$DIMEXO
 40
1.0
  9
$DIMDLI
 40
12.0
  9
$DIMRND
 40
0.0
  9
$DIMDLE
 40
0.0
  9
$DIMEXE
 40
1.0
  9
$DIMTP
 40
0.1
  9
$DIMTM
 40
0.1
  9
$DIMTXT
 40
3.2
  9
$DIMCEN
 40
0.0
  9
$DIMTSZ
 40
0.0
  9
$DIMTOL
 70
     0
  9
$DIMLIM
 70
     0
  9
$DIMTIH
 70
     0
  9
$DIMTOH
 70
     0
  9
$DIMSE1
 70
     0
  9
$DIMSE2
 70
     0
  9
$DIMTAD
 70
     3
  9
$DIMZIN
 70
     8
  9
$DIMBLK
  1
OPEN30
  9
$DIMASO
 70
     1
  9
$DIMSHO
 70
     1
  9
$DIMPOST
  1

  9
$DIMAPOST
  1
"
  9
$DIMALT
 70
     0
  9
$DIMALTD
 70
     2
  9
$DIMALTF
 40
0.0393701
  9
$DIMLFAC
 40
1.0
  9
$DIMTOFL
 70
     1
  9
$DIMTVP
 40
0.0
  9
$DIMTIX
 70
     0
  9
$DIMSOXD
 70
     0
  9
$DIMSAH
 70
     0
  9
$DIMBLK1
  1

  9
$DIMBLK2
  1

  9
$DIMSTYLE
  2
AM_JIS
  9
$DIMCLRD
 70
   256
  9
$DIMCLRE
 70
   256
  9
$DIMCLRT
 70
     2
  9
$DIMTFAC
 40
0.71
  9
$DIMGAP
 40
1.5
  9
$DIMJUST
 70
     0
  9
$DIMSD1
 70
     0
  9
$DIMSD2
 70
     0
  9
$DIMTOLJ
 70
     0
  9
$DIMTZIN
 70
     0
  9
$DIMALTZ
 70
     0
  9
$DIMALTTZ
 70
     0
  9
$DIMFIT
 70
     3
  9
$DIMUPT
 70
     0
  9
$DIMUNIT
 70
     2
  9
$DIMDEC
 70
     3
  9
$DIMTDEC
 70
     3
  9
$DIMALTU
 70
     2
  9
$DIMALTTD
 70
     2
  9
$DIMTXSTY
  7
ASAMI
  9
$DIMAUNIT
 70
     0
  9
$LUNITS
 70
     2
  9
$LUPREC
 70
     2
  9
$SKETCHINC
 40
1.0
  9
$FILLETRAD
 40
2.5
  9
$AUNITS
 70
     0
  9
$AUPREC
 70
     0
  9
$MENU
  1
.
  9
$ELEVATION
 40
0.0
  9
$PELEVATION
 40
0.0
  9
$THICKNESS
 40
0.0
  9
$LIMCHECK
 70
     0
  9
$BLIPMODE
 70
     0
  9
$CHAMFERA
 40
0.75
  9
$CHAMFERB
 40
0.75
  9
$CHAMFERC
 40
20.0
  9
$CHAMFERD
 40
0.0
  9
$SKPOLY
 70
     0
  9
$TDCREATE
 40
2452836.771637361
  9
$TDUPDATE
 40
2453152.456141377
  9
$TDINDWG
 40
0.0403703935
  9
$TDUSRTIMER
 40
0.0403703935
  9
$USRTIMER
 70
     1
  9
$ANGBASE
 50
0.0
  9
$ANGDIR
 70
     0
  9
$PDMODE
 70
     0
  9
$PDSIZE
 40
0.0
  9
$PLINEWID
 40
0.0
  9
$COORDS
 70
     1
  9
$SPLFRAME
 70
     0
  9
$SPLINETYPE
 70
     6
  9
$SPLINESEGS
 70
     8
  9
$ATTDIA
 70
     1
  9
$ATTREQ
 70
     1
  9
$HANDLING
 70
 12289
  9
$HANDSEED
  5
1F4C
  9
$SURFTAB1
 70
     6
  9
$SURFTAB2
 70
     6
  9
$SURFTYPE
 70
     6
  9
$SURFU
 70
     6
  9
$SURFV
 70
     6
  9
$UCSNAME
  2

  9
$UCSORG
 10
0.0
 20
0.0
 30
0.0
  9
$UCSXDIR
 10
1.0
 20
0.0
 30
0.0
  9
$UCSYDIR
 10
0.0
 20
1.0
 30
0.0
  9
$PUCSNAME
  2

  9
$PUCSORG
 10
0.0
 20
0.0
 30
0.0
  9
$PUCSXDIR
 10
1.0
 20
0.0
 30
0.0
  9
$PUCSYDIR
 10
0.0
 20
1.0
 30
0.0
  9
$USERI1
 70
     0
  9
$USERI2
 70
     0
  9
$USERI3
 70
     0
  9
$USERI4
 70
     0
  9
$USERI5
 70
     0
  9
$USERR1
 40
0.0
  9
$USERR2
 40
0.0
  9
$USERR3
 40
0.0
  9
$USERR4
 40
0.0
  9
$USERR5
 40
0.0
  9
$WORLDVIEW
 70
     1
  9
$SHADEDGE
 70
     3
  9
$SHADEDIF
 70
    70
  9
$TILEMODE
 70
     1
  9
$MAXACTVP
 70
    64
  9
$PINSBASE
 10
0.0
 20
0.0
 30
0.0
  9
$PLIMCHECK
 70
     0
  9
$PEXTMIN
 10
1.000000000000000E+20
 20
1.000000000000000E+20
 30
1.000000000000000E+20
  9
$PEXTMAX
 10
-1.000000000000000E+20
 20
-1.000000000000000E+20
 30
-1.000000000000000E+20
  9
$PLIMMIN
 10
0.0
 20
0.0
  9
$PLIMMAX
 10
841.0
 20
594.0
  9
$UNITMODE
 70
     0
  9
$VISRETAIN
 70
     1
  9
$PLINEGEN
 70
     0
  9
$PSLTSCALE
 70
     0
  9
$TREEDEPTH
 70
  3020
  9
$PICKSTYLE
 70
     0
  9
$CMLSTYLE
  2
STANDARD
  9
$CMLJUST
 70
     0
  9
$CMLSCALE
 40
20.0
  9
$PROXYGRAPHICS
 70
     1
  9
$MEASUREMENT
 70
     1
  0
ENDSEC
  0
SECTION
  2
CLASSES
  0
CLASS
  1
ACDBDICTIONARYWDFLT
  2
AcDbDictionaryWithDefault
  3
AutoCAD 2000
 90
        0
280
     0
281
     0
  0
CLASS
  1
ACDBPLACEHOLDER
  2
AcDbPlaceHolder
  3
AutoCAD 2000
 90
        0
280
     0
281
     0
  0
CLASS
  1
LAYOUT
  2
AcDbLayout
  3
AutoCAD 2000
 90
        0
280
     0
281
     0
  0
CLASS
  1
AMGSETTINGSOBJ
  2
AmgSettingsObj
  3
"AcadM|Product Description: AutoCAD Mechanical 2000|Company: Autodesk"
 90
        0
280
     0
281
     0
  0
CLASS
  1
ACME_DOCUMENT
  2
AcMeDbDoc
  3
AcMeServices
 90
        0
280
     0
281
     0
  0
CLASS
  1
ACMESCOPE
  2
AcMeScope
  3
AcMeServices
 90
        0
280
     0
281
     0
  0
CLASS
  1
ACMECOMMANDHISTORY
  2
AcMeCommandHistory
  3
AcMeServices
 90
        0
280
     0
281
     0
  0
CLASS
  1
DICTIONARYVAR
  2
AcDbDictionaryVar
  3
AutoCAD 2000
 90
        0
280
     0
281
     0
  0
CLASS
  1
ACIMSYSVARMAN
  2
AcImSysVarManager
  3
AcMeServices
 90
        0
280
     0
281
     0
  0
CLASS
  1
ACIMREALSYSVAR
  2
AcImRealSysVar
  3
AcMeServices
 90
        0
280
     0
281
     0
  0
CLASS
  1
ACIMINTSYSVAR
  2
AcImIntSysVar
  3
AcMeServices
 90
        0
280
     0
281
     0
  0
CLASS
  1
ACMEDRAWINGMAN
  2
AcMeDrawingMan
  3
AcMeServices
 90
        0
280
     0
281
     0
  0
CLASS
  1
ACMEVIEW
  2
AcMeView
  3
AcMeServices
 90
        0
280
     0
281
     0
  0
CLASS
  1
ACDBENTITYCACHE
  2
AcMeEntityCache
  3
AcMeServices
 90
        0
280
     0
281
     0
  0
CLASS
  1
GSMANAGER
  2
AcMeGSManager
  3
AcMeServices
 90
        0
280
     0
281
     0
  0
CLASS
  1
AmdtInternalReactor
  2
AmdtInternalReactor
  3
AcMeServices
 90
        0
280
     0
281
     0
  0
CLASS
  1
ACMESTATEMGR
  2
AcMeStateMgr
  3
AcMeServices
 90
        0
280
     0
281
     0
  0
CLASS
  1
ACME_DATABASE
  2
AcMeDbDatabase
  3
AcMeServices
 90
        0
280
     0
281
     0
  0
CLASS
  1
ACRFINSADJUSTERMGR
  2
AcRfInsAdjusterMgr
  3
AcMeServices
 90
        0
280
     0
281
     0
  0
CLASS
  1
ACMDATADICTIONARY
  2
AcmDataDictionary
  3
"AcmSymBB|Product Description: AutoCAD Mechanical 2000|Company: Autodesk"
 90
        0
280
     0
281
     0
  0
CLASS
  1
ACMDATAENTRYBLOCK
  2
AcmDataEntryBlock
  3
"AcmSymBB|Product Description: AutoCAD Mechanical 2000|Company: Autodesk"
 90
        0
280
     0
281
     0
  0
CLASS
  1
AMGOBJPROPCFG
  2
AmgObjPropCfg
  3
"AmgLay|Product Description: AutoCAD Mechanical 2000|Company: Autodesk"
 90
        1
280
     0
281
     0
  0
CLASS
  1
ACAMGFILTERDAT
  2
AcAmgFilterDat
  3
"AcadM|Product Description: AutoCAD Mechanical 2000|Company: Autodesk"
 90
        0
280
     0
281
     0
  0
CLASS
  1
LAYER_INDEX
  2
AcDbLayerIndex
  3
AutoCAD 2000
 90
        0
280
     0
281
     0
  0
CLASS
  1
IDBUFFER
  2
AcDbIdBuffer
  3
AutoCAD 2000
 90
        0
280
     0
281
     0
  0
CLASS
  1
ACIMSTRSYSVAR
  2
AcImStrSysVar
  3
AcMeServices
 90
        0
280
     0
281
     0
  0
CLASS
  1
ACMSTANDARDJIS
  2
AcmStandardJIS
  3
"AcmSymBB|Product Description: AutoCAD Mechanical 2000|Company: Autodesk"
 90
        0
280
     0
281
     0
  0
CLASS
  1
ACMSURFSTANDARDJIS
  2
AcmSurfTextStdJIS
  3
"AcmSymBB|Product Description: AutoCAD Mechanical 2000|Company: Autodesk"
 90
        0
280
     0
281
     0
  0
CLASS
  1
ACMFCFSTANDARDJIS
  2
AcmFCFStdJIS
  3
"AcmSymBB|Product Description: AutoCAD Mechanical 2000|Company: Autodesk"
 90
        0
280
     0
281
     0
  0
CLASS
  1
ACMWELDSTANDARDJIS
  2
AcmWeldingStdJIS
  3
"AcmSymBB|Product Description: AutoCAD Mechanical 2000|Company: Autodesk"
 90
        0
280
     0
281
     0
  0
CLASS
  1
ACMIDSTANDARDJIS
  2
AcmIdStdJIS
  3
"AcmSymBB|Product Description: AutoCAD Mechanical 2000|Company: Autodesk"
 90
        0
280
     0
281
     0
  0
CLASS
  1
ACMDATUMSTANDARDJIS
  2
AcmDatumStdJIS
  3
"AcmSymBB|Product Description: AutoCAD Mechanical 2000|Company: Autodesk"
 90
        0
280
     0
281
     0
  0
CLASS
  1
ACMBOMSTANDARDJIS
  2
AcmBOMStdJIS
  3
"AcmSymBB|Product Description: AutoCAD Mechanical 2000|Company: Autodesk"
 90
        0
280
     0
281
     0
  0
CLASS
  1
ACMSTANDARDANSI
  2
AcmStandardANSI
  3
"AcmSymBB|Product Description: AutoCAD Mechanical 2000|Company: Autodesk"
 90
        0
280
     0
281
     0
  0
CLASS
  1
ACMSURFSTANDARDANSI
  2
AcmSurfTextStdANSI
  3
"AcmSymBB|Product Description: AutoCAD Mechanical 2000|Company: Autodesk"
 90
        0
280
     0
281
     0
  0
CLASS
  1
ACMFCFSTANDARDANSI
  2
AcmFCFStdANSI
  3
"AcmSymBB|Product Description: AutoCAD Mechanical 2000|Company: Autodesk"
 90
        0
280
     0
281
     0
  0
CLASS
  1
ACMWELDSTANDARDANSI
  2
AcmWeldingStdANSI
  3
"AcmSymBB|Product Description: AutoCAD Mechanical 2000|Company: Autodesk"
 90
        0
280
     0
281
     0
  0
CLASS
  1
ACMIDSTANDARDANSI
  2
AcmIdStdANSI
  3
"AcmSymBB|Product Description: AutoCAD Mechanical 2000|Company: Autodesk"
 90
        0
280
     0
281
     0
  0
CLASS
  1
ACMDATUMSTANDARDANSI
  2
AcmDatumStdANSI
  3
"AcmSymBB|Product Description: AutoCAD Mechanical 2000|Company: Autodesk"
 90
        0
280
     0
281
     0
  0
CLASS
  1
ACMBOMSTANDARDANSI
  2
AcmBOMStdANSI
  3
"AcmSymBB|Product Description: AutoCAD Mechanical 2000|Company: Autodesk"
 90
        0
280
     0
281
     0
  0
CLASS
  1
ACMSTANDARDBSI
  2
AcmStandardBSI
  3
"AcmSymBB|Product Description: AutoCAD Mechanical 2000|Company: Autodesk"
 90
        0
280
     0
281
     0
  0
CLASS
  1
ACMSURFSTANDARDBSI
  2
AcmSurfTextStdBSI
  3
"AcmSymBB|Product Description: AutoCAD Mechanical 2000|Company: Autodesk"
 90
        0
280
     0
281
     0
  0
CLASS
  1
ACMFCFSTANDARDBSI
  2
AcmFCFStdBSI
  3
"AcmSymBB|Product Description: AutoCAD Mechanical 2000|Company: Autodesk"
 90
        0
280
     0
281
     0
  0
CLASS
  1
ACMWELDSTANDARDBSI
  2
AcmWeldingStdBSI
  3
"AcmSymBB|Product Description: AutoCAD Mechanical 2000|Company: Autodesk"
 90
        0
280
     0
281
     0
  0
CLASS
  1
ACMIDSTANDARDBSI
  2
AcmIdStdBSI
  3
"AcmSymBB|Product Description: AutoCAD Mechanical 2000|Company: Autodesk"
 90
        0
280
     0
281
     0
  0
CLASS
  1
ACMDATUMSTANDARDBSI
  2
AcmDatumStdBSI
  3
"AcmSymBB|Product Description: AutoCAD Mechanical 2000|Company: Autodesk"
 90
        0
280
     0
281
     0
  0
CLASS
  1
ACMBOMSTANDARDBSI
  2
AcmBOMStdBSI
  3
"AcmSymBB|Product Description: AutoCAD Mechanical 2000|Company: Autodesk"
 90
        0
280
     0
281
     0
  0
CLASS
  1
LONG_TRANSACTION
  2
AcDbLongTransaction
  3
AutoCAD 2000
 90
        0
280
     0
281
     0
  0
CLASS
  1
LWPOLYLINE
  2
AcDbPolyline
  3
AutoCAD 2000
 90
        0
280
     0
281
     1
  0
CLASS
  1
HATCH
  2
AcDbHatch
  3
AutoCAD 2000
 90
        0
280
     0
281
     1
  0
CLASS
  1
XRECORD
  2
AcDbXrecord
  3
AutoCAD 2000
 90
        0
280
     0
281
     0
  0
ENDSEC
  0
SECTION
  2
TABLES
  0
TABLE
  2
VPORT
  5
8
330
0
100
AcDbSymbolTable
 70
     3
  0
VPORT
  5
1F21
330
8
100
AcDbSymbolTableRecord
100
AcDbViewportTableRecord
  2
*ACTIVE
 70
     0
 10
0.0
 20
0.0
 11
1.0
 21
1.0
 12
-35.69885089189035
 22
-11.91213272171879
 13
0.0
 23
0.0
 14
2.5
 24
2.5
 15
10.0
 25
10.0
 16
0.0
 26
0.0
 36
1.0
 17
0.0
 27
0.0
 37
0.0
 40
61.01839077377762
 41
1.56570841889117
 42
50.0
 43
0.0
 44
0.0
 50
0.0
 51
0.0
 71
     0
 72
   100
 73
     1
 74
     3
 75
     0
 76
     0
 77
     0
 78
     0
  0
ENDTAB
  0
TABLE
  2
LTYPE
  5
5
330
0
100
AcDbSymbolTable
 70
    10
  0
LTYPE
  5
14
330
5
100
AcDbSymbolTableRecord
100
AcDbLinetypeTableRecord
  2
BYBLOCK
 70
     0
  3

 72
    65
 73
     0
 40
0.0
  0
LTYPE
  5
15
330
5
100
AcDbSymbolTableRecord
100
AcDbLinetypeTableRecord
  2
BYLAYER
 70
     0
  3

 72
    65
 73
     0
 40
0.0
  0
LTYPE
  5
16
330
5
100
AcDbSymbolTableRecord
100
AcDbLinetypeTableRecord
  2
CONTINUOUS
 70
     0
  3
Solid line
 72
    65
 73
     0
 40
0.0
  0
LTYPE
  5
4B
330
5
100
AcDbSymbolTableRecord
100
AcDbLinetypeTableRecord
  2
AM_ISO02W050
 70
     0
  3
__ __ __ __ __ __ __ __ __ __ __ __ __ __ __
 72
    65
 73
     2
 40
7.5
 49
6.0
 74
     0
 49
-1.5
 74
     0
  0
LTYPE
  5
4C
330
5
100
AcDbSymbolTableRecord
100
AcDbLinetypeTableRecord
  2
AM_ISO08W050
 70
     0
  3
____ . ____ . ____ . ____ . ____ . ____ . ____
 72
    65
 73
     4
 40
18.0
 49
12.0
 74
     0
 49
-1.5
 74
     0
 49
3.0
 74
     0
 49
-1.5
 74
     0
  0
LTYPE
  5
4D
330
5
100
AcDbSymbolTableRecord
100
AcDbLinetypeTableRecord
  2
AM_ISO09W050
 70
     0
  3
_____ . . _____ . . _____ . . ____ .. ____
 72
    65
 73
     6
 40
22.5
 49
12.0
 74
     0
 49
-1.5
 74
     0
 49
3.0
 74
     0
 49
-1.5
 74
     0
 49
3.0
 74
     0
 49
-1.5
 74
     0
  0
LTYPE
  5
4E
330
5
100
AcDbSymbolTableRecord
100
AcDbLinetypeTableRecord
  2
AMCONSTR
 70
     0
  3
_______________________
 72
    65
 73
     2
 40
9999.0
 49
9999.0
 74
     0
 49
0.0
 74
     0
  0
LTYPE
  5
4F
330
5
100
AcDbSymbolTableRecord
100
AcDbLinetypeTableRecord
  2
AM_ISO02W050X2
 70
     0
  3
 _ _ _ _ _ _ _ _ _ _ _ _
 72
    65
 73
     2
 40
3.75
 49
3.0
 74
     0
 49
-0.75
 74
     0
  0
LTYPE
  5
50
330
5
100
AcDbSymbolTableRecord
100
AcDbLinetypeTableRecord
  2
AM_ISO08W050X2
 70
     0
  3
__ . __ . __ . __ . __ . __
 72
    65
 73
     4
 40
9.0
 49
6.0
 74
     0
 49
-0.75
 74
     0
 49
1.5
 74
     0
 49
-0.75
 74
     0
  0
LTYPE
  5
53
330
5
100
AcDbSymbolTableRecord
100
AcDbLinetypeTableRecord
  2
AMZIGZAG
 70
     0
  3
/\/-/\/-/\/-/\/-/\/-/\/
 72
    65
 73
     2
 40
11.00009999999999
 49
0.0001
 74
     4
 75
   135
340
52
 46
0.04
 50
0.0
 44
0.0
 45
0.0
 49
-11.0
 74
     0
  0
LTYPE
  5
166
330
5
100
AcDbSymbolTableRecord
100
AcDbLinetypeTableRecord
  2
ACJISTGL
 70
     0
  3
_ _ _ _ _
 72
    65
 73
     2
 40
3.0
 49
2.0
 74
     0
 49
-1.0
 74
     0
  0
LTYPE
  5
26A
330
5
100
AcDbSymbolTableRecord
100
AcDbLinetypeTableRecord
  2
ACJISTGB
 70
     0
  3
__ . . __ . .
 72
    65
 73
     6
 40
9.0
 49
4.0
 74
     0
 49
-1.0
 74
     0
 49
1.0
 74
     0
 49
-1.0
 74
     0
 49
1.0
 74
     0
 49
-1.0
 74
     0
  0
ENDTAB
  0
TABLE
  2
LAYER
  5
2
330
0
100
AcDbSymbolTable
 70
     7
  0
LAYER
  5
10
330
2
100
AcDbSymbolTableRecord
100
AcDbLayerTableRecord
  2
0
 70
     0
 62
     7
  6
CONTINUOUS
  0
LAYER
  5
3F9
330
2
100
AcDbSymbolTableRecord
100
AcDbLayerTableRecord
  2
AM_0
 70
     0
 62
     7
  6
CONTINUOUS
  0
LAYER
  5
BD4
330
2
100
AcDbSymbolTableRecord
100
AcDbLayerTableRecord
  2
AM_11
 70
     0
 62
     3
  6
AM_ISO09W050
  0
LAYER
  5
BD5
330
2
100
AcDbSymbolTableRecord
100
AcDbLayerTableRecord
  2
AM_7
 70
     0
 62
     4
  6
AM_ISO08W050
  0
LAYER
  5
BD6
330
2
100
AcDbSymbolTableRecord
100
AcDbLayerTableRecord
  2
AM_5
 70
     0
 62
     3
  6
CONTINUOUS
  0
LAYER
  5
BD7
330
2
100
AcDbSymbolTableRecord
100
AcDbLayerTableRecord
  2
DEFPOINTS
 70
     0
 62
     7
  6
CONTINUOUS
  0
LAYER
  5
E59
330
2
100
AcDbSymbolTableRecord
100
AcDbLayerTableRecord
  2
AM_6
 70
     0
 62
     2
  6
CONTINUOUS
  0
ENDTAB
  0
TABLE
  2
STYLE
  5
3
330
0
100
AcDbSymbolTable
 70
     5
  0
STYLE
  5
11
330
3
100
AcDbSymbolTableRecord
100
AcDbTextStyleTableRecord
  2
STANDARD
 70
     0
 40
0.0
 41
1.0
 50
0.0
 71
     0
 42
2.5
  3
simplex.shx
  4
EXTFONT.SHX
  0
STYLE
  5
52
330
3
100
AcDbSymbolTableRecord
100
AcDbTextStyleTableRecord
  2

 70
     1
 40
0.0
 41
1.0
 50
0.0
 71
     0
 42
2.5
  3
ltypeshp.shx
  4

  0
STYLE
  5
6B
330
3
100
AcDbSymbolTableRecord
100
AcDbTextStyleTableRecord
  2
ASAMI
 70
     0
 40
0.0
 41
1.0
 50
0.0
 71
     0
 42
2.5
  3
simplex.shx
  4
EXTFONT.SHX
  0
STYLE
  5
262
330
3
100
AcDbSymbolTableRecord
100
AcDbTextStyleTableRecord
  2
ACJISTS
 70
     0
 40
1.0
 41
1.0
 50
0.0
 71
     0
 42
2.5
  3
simplex.shx
  4
bigfont.shx
  0
STYLE
  5
269
330
3
100
AcDbSymbolTableRecord
100
AcDbTextStyleTableRecord
  2
ACJISGDT
 70
     0
 40
0.0
 41
1.0
 50
0.0
 71
     0
 42
2.5
  3
amgdtans.shx
  4

  0
ENDTAB
  0
TABLE
  2
VIEW
  5
6
330
0
100
AcDbSymbolTable
 70
     0
  0
ENDTAB
  0
TABLE
  2
UCS
  5
7
330
0
100
AcDbSymbolTable
 70
     0
  0
ENDTAB
  0
TABLE
  2
APPID
  5
9
330
0
100
AcDbSymbolTable
 70
    12
  0
APPID
  5
12
330
9
100
AcDbSymbolTableRecord
100
AcDbRegAppTableRecord
  2
ACAD
 70
     0
  0
APPID
  5
30
330
9
100
AcDbSymbolTableRecord
100
AcDbRegAppTableRecord
  2
MCAD_NO_VIS
 70
     0
  0
APPID
  5
31
330
9
100
AcDbSymbolTableRecord
100
AcDbRegAppTableRecord
  2
ACAD_TEMP_GRAPHIC
 70
     0
  0
APPID
  5
2C2
330
9
100
AcDbSymbolTableRecord
100
AcDbRegAppTableRecord
  2
GENIUS_GENDTOL_13
 70
     0
  0
APPID
  5
339
330
9
100
AcDbSymbolTableRecord
100
AcDbRegAppTableRecord
  2
GENIUS_GENODEF_13
 70
     0
  0
APPID
  5
33A
330
9
100
AcDbSymbolTableRecord
100
AcDbRegAppTableRecord
  2
GENIUS_GENOBJ-N-RSBK_13
 70
     0
  0
APPID
  5
33B
330
9
100
AcDbSymbolTableRecord
100
AcDbRegAppTableRecord
  2
GENIUS_GENOBJ-N-LIB_13
 70
     0
  0
APPID
  5
33C
330
9
100
AcDbSymbolTableRecord
100
AcDbRegAppTableRecord
  2
GENIUS_GENSCALE_13
 70
     0
  0
APPID
  5
378
330
9
100
AcDbSymbolTableRecord
100
AcDbRegAppTableRecord
  2
GENIUS_GENDIMSH_14
 70
     0
  0
APPID
  5
BD8
330
9
100
AcDbSymbolTableRecord
100
AcDbRegAppTableRecord
  2
GENIUS_GENOBJ-N-CEN_13
 70
     0
  0
APPID
  5
BD9
330
9
100
AcDbSymbolTableRecord
100
AcDbRegAppTableRecord
  2
GENIUS_GENFIL_13
 70
     0
  0
APPID
  5
BDA
330
9
100
AcDbSymbolTableRecord
100
AcDbRegAppTableRecord
  2
GENIUS_GENOBJ-N-CHA_13
 70
     0
  0
ENDTAB
  0
TABLE
  2
DIMSTYLE
  5
A
330
0
100
AcDbSymbolTable
 70
     8
  0
DIMSTYLE
105
58
102
{ACAD_REACTORS
330
13B0
330
13B3
330
145B
330
1D2E
102
}
330
A
100
AcDbSymbolTableRecord
100
AcDbDimStyleTableRecord
  2
AM_JIS
 70
     0
  3

  4
"
  5
OPEN30
  6

  7

 40
0.5
 41
2.5
 42
1.0
 43
12.0
 44
1.0
 45
0.0
 46
0.0
 47
0.1
 48
0.1
140
3.2
141
0.0
142
0.0
143
0.0393701
144
1.0
145
0.0
146
0.71
147
1.5
 71
     0
 72
     0
 73
     0
 74
     0
 75
     0
 76
     0
 77
     3
 78
     8
170
     0
171
     2
172
     1
173
     0
174
     0
175
     0
176
   256
177
   256
178
     2
270
     2
271
     3
272
     3
273
     2
274
     2
340
6B
275
     0
280
     0
281
     0
282
     0
283
     0
284
     0
285
     0
286
     0
287
     3
288
     0
  0
DIMSTYLE
105
5F
330
A
100
AcDbSymbolTableRecord
100
AcDbDimStyleTableRecord
  2
AM_JIS$3
 70
     0
  3

  4
"
  5
OPEN30
  6

  7

 40
0.5
 41
2.5
 42
1.0
 43
10.0
 44
1.0
 45
0.0
 46
0.0
 47
0.1
 48
0.1
140
3.2
141
0.0
142
0.0
143
0.0393701
144
1.0
145
0.0
146
0.71
147
1.5
 71
     0
 72
     0
 73
     0
 74
     1
 75
     0
 76
     0
 77
     3
 78
     8
170
     0
171
     2
172
     0
173
     0
174
     0
175
     0
176
   256
177
   256
178
     2
270
     2
271
     2
272
     3
273
     2
274
     2
340
6B
275
     0
280
     0
281
     0
282
     0
283
     0
284
     0
285
     0
286
     0
287
     0
288
     1
  0
DIMSTYLE
105
60
330
A
100
AcDbSymbolTableRecord
100
AcDbDimStyleTableRecord
  2
AM_JIS$4
 70
     0
  3

  4
"
  5
OPEN30
  6

  7

 40
0.5
 41
2.5
 42
1.0
 43
10.0
 44
1.0
 45
0.0
 46
0.0
 47
0.1
 48
0.1
140
3.2
141
0.0
142
0.0
143
0.0393701
144
1.0
145
0.0
146
0.71
147
1.5
 71
     0
 72
     0
 73
     0
 74
     1
 75
     0
 76
     0
 77
     3
 78
     8
170
     0
171
     2
172
     0
173
     0
174
     0
175
     0
176
   256
177
   256
178
     2
270
     2
271
     2
272
     3
273
     2
274
     2
340
6B
275
     0
280
     0
281
     0
282
     0
283
     0
284
     0
285
     0
286
     0
287
     0
288
     1
  0
DIMSTYLE
105
61
330
A
100
AcDbSymbolTableRecord
100
AcDbDimStyleTableRecord
  2
AM_JIS$6
 70
     0
  3

  4
"
  5
OPEN30
  6

  7

 40
0.5
 41
2.5
 42
1.0
 43
10.0
 44
1.0
 45
0.0
 46
0.0
 47
0.1
 48
0.1
140
3.2
141
0.0
142
0.0
143
0.0393701
144
1.0
145
0.0
146
0.71
147
1.5
 71
     0
 72
     0
 73
     0
 74
     0
 75
     0
 76
     0
 77
     0
 78
     8
170
     0
171
     2
172
     1
173
     0
174
     0
175
     0
176
   256
177
   256
178
     2
270
     2
271
     2
272
     2
273
     2
274
     2
340
6B
275
     0
280
     0
281
     0
282
     0
283
     0
284
     0
285
     0
286
     0
287
     3
288
     0
  0
DIMSTYLE
105
62
330
A
100
AcDbSymbolTableRecord
100
AcDbDimStyleTableRecord
  2
AM_JIS$7
 70
     0
  3

  4
"
  5
OPEN30
  6

  7

 40
0.5
 41
2.5
 42
1.0
 43
10.0
 44
1.0
 45
0.0
 46
0.0
 47
0.1
 48
0.1
140
3.2
141
0.0
142
0.0
143
0.0393701
144
1.0
145
0.0
146
0.71
147
1.5
 71
     0
 72
     0
 73
     0
 74
     0
 75
     0
 76
     0
 77
     3
 78
     8
170
     0
171
     2
172
     1
173
     0
174
     0
175
     0
176
   256
177
   256
178
     2
270
     2
271
     2
272
     3
273
     2
274
     2
340
6B
275
     0
280
     0
281
     0
282
     0
283
     0
284
     0
285
     0
286
     0
287
     3
288
     0
  0
DIMSTYLE
105
63
330
A
100
AcDbSymbolTableRecord
100
AcDbDimStyleTableRecord
  2
AM_JIS$SF
 70
     0
  3

  4
"
  5
OPEN30
  6

  7

 40
0.5
 41
2.5
 42
1.0
 43
10.0
 44
1.0
 45
0.0
 46
0.0
 47
0.1
 48
0.1
140
3.2
141
0.0
142
0.0
143
0.0393701
144
1.0
145
0.0
146
0.71
147
1.5
 71
     0
 72
     0
 73
     0
 74
     0
 75
     1
 76
     1
 77
     3
 78
     8
170
     0
171
     2
172
     1
173
     0
174
     0
175
     0
176
   256
177
   256
178
     2
270
     2
271
     2
272
     2
273
     2
274
     2
340
6B
275
     0
280
     0
281
     0
282
     0
283
     0
284
     0
285
     0
286
     0
287
     3
288
     0
  0
DIMSTYLE
105
68
330
A
100
AcDbSymbolTableRecord
100
AcDbDimStyleTableRecord
  2
AM_JIS$SH
 70
     0
  3

  4
"
  5

  6
GENAXEH
  7
OPEN30
 40
0.5
 41
2.5
 42
1.0
 43
10.0
 44
1.0
 45
0.0
 46
0.0
 47
0.1
 48
0.1
140
3.2
141
0.0
142
0.0
143
0.0393701
144
2.0
145
0.0
146
0.71
147
1.5
 71
     0
 72
     0
 73
     0
 74
     0
 75
     1
 76
     1
 77
     3
 78
     8
170
     0
171
     2
172
     1
173
     1
174
     0
175
     0
176
   256
177
   256
178
     2
270
     2
271
     2
272
     2
273
     2
274
     2
340
6B
275
     0
280
     0
281
     0
282
     0
283
     0
284
     0
285
     0
286
     0
287
     3
288
     0
  0
DIMSTYLE
105
B34
330
A
100
AcDbSymbolTableRecord
100
AcDbDimStyleTableRecord
  2
AM_JIS$2
 70
     0
  3

  4
"
  5
OPEN30
  6

  7

 40
0.5
 41
2.5
 42
1.0
 43
12.0
 44
1.0
 45
0.0
 46
0.0
 47
0.1
 48
0.1
140
3.2
141
0.0
142
0.0
143
0.0393701
144
1.0
145
0.0
146
0.71
147
1.5
 71
     0
 72
     0
 73
     0
 74
     0
 75
     0
 76
     0
 77
     3
 78
     8
170
     0
171
     2
172
     1
173
     0
174
     0
175
     0
176
   256
177
   256
178
     2
270
     2
271
     3
272
     3
273
     2
274
     2
340
6B
275
     0
280
     0
281
     0
282
     0
283
     0
284
     0
285
     0
286
     0
287
     3
288
     0
  0
ENDTAB
  0
TABLE
  2
BLOCK_RECORD
  5
1
330
0
100
AcDbSymbolTable
 70
     9
  0
BLOCK_RECORD
  5
1F
102
{ACAD_XDICTIONARY
360
74
102
}
330
1
100
AcDbSymbolTableRecord
100
AcDbBlockTableRecord
  2
*MODEL_SPACE
  0
BLOCK_RECORD
  5
101
102
{ACAD_XDICTIONARY
360
1F4A
102
}
330
1
100
AcDbSymbolTableRecord
100
AcDbBlockTableRecord
  2
*PAPER_SPACE
  0
BLOCK_RECORD
  5
59
330
1
100
AcDbSymbolTableRecord
100
AcDbBlockTableRecord
  2
_OPEN30
  0
BLOCK_RECORD
  5
64
330
1
100
AcDbSymbolTableRecord
100
AcDbBlockTableRecord
  2
GENAXEH
  0
BLOCK_RECORD
  5
13B4
330
1
100
AcDbSymbolTableRecord
100
AcDbBlockTableRecord
  2
*D5
  0
BLOCK_RECORD
  5
13C0
330
1
100
AcDbSymbolTableRecord
100
AcDbBlockTableRecord
  2
*D6
  0
BLOCK_RECORD
  5
145C
330
1
100
AcDbSymbolTableRecord
100
AcDbBlockTableRecord
  2
*D7
  0
BLOCK_RECORD
  5
1D2F
330
1
100
AcDbSymbolTableRecord
100
AcDbBlockTableRecord
  2
*D8
  0
ENDTAB
  0
ENDSEC
  0
SECTION
  2
BLOCKS
  0
BLOCK
  5
20
330
1F
100
AcDbEntity
  8
0
100
AcDbBlockBegin
  2
*MODEL_SPACE
 70
     0
 10
0.0
 20
0.0
 30
0.0
  3
*MODEL_SPACE
  1

  0
ENDBLK
  5
21
330
1F
100
AcDbEntity
  8
0
100
AcDbBlockEnd
  0
BLOCK
  5
103
330
101
100
AcDbEntity
 67
     1
  8
0
100
AcDbBlockBegin
  2
*PAPER_SPACE
 70
     0
 10
0.0
 20
0.0
 30
0.0
  3
*PAPER_SPACE
  1

  0
ENDBLK
  5
104
330
101
100
AcDbEntity
 67
     1
  8
0
100
AcDbBlockEnd
  0
BLOCK
  5
5D
330
59
100
AcDbEntity
  8
0
100
AcDbBlockBegin
  2
_OPEN30
 70
     0
 10
0.0
 20
0.0
 30
0.0
  3
_OPEN30
  1

  0
LINE
  5
5A
330
59
100
AcDbEntity
  8
0
 62
     0
100
AcDbLine
 10
-1.0
 20
0.26794919
 30
0.0
 11
0.0
 21
0.0
 31
0.0
  0
LINE
  5
5B
330
59
100
AcDbEntity
  8
0
 62
     0
100
AcDbLine
 10
0.0
 20
0.0
 30
0.0
 11
-1.0
 21
-0.26794919
 31
0.0
  0
LINE
  5
5C
330
59
100
AcDbEntity
  8
0
 62
     0
100
AcDbLine
 10
0.0
 20
0.0
 30
0.0
 11
-1.0
 21
0.0
 31
0.0
  0
ENDBLK
  5
5E
330
59
100
AcDbEntity
  8
0
100
AcDbBlockEnd
  0
BLOCK
  5
66
330
64
100
AcDbEntity
  8
0
100
AcDbBlockBegin
  2
GENAXEH
 70
     0
 10
0.0
 20
0.0
 30
0.0
  3
GENAXEH
  1

  0
LINE
  5
65
330
64
100
AcDbEntity
  8
0
100
AcDbLine
 10
-1.0
 20
0.0
 30
0.0
 11
1.0
 21
0.0
 31
0.0
  0
ENDBLK
  5
67
330
64
100
AcDbEntity
  8
0
100
AcDbBlockEnd
  0
BLOCK
  5
13BE
330
13B4
100
AcDbEntity
  8
0
100
AcDbBlockBegin
  2
*D5
 70
     1
 10
0.0
 20
0.0
 30
0.0
  3
*D5
  1

  0
LINE
  5
15A9
330
13B4
100
AcDbEntity
  8
AM_5
100
AcDbLine
 10
-70.74999999999977
 20
4.999999999999822
 30
0.0
 11
-81.23320585933191
 21
4.999999999999825
 31
0.0
  0
LINE
  5
15AA
330
13B4
100
AcDbEntity
  8
AM_5
100
AcDbLine
 10
-70.74999999999977
 20
-4.999999999998912
 30
0.0
 11
-81.23320585933191
 21
-4.99999999999891
 31
0.0
  0
LINE
  5
15AB
330
13B4
100
AcDbEntity
  8
AM_5
100
AcDbLine
 10
-80.73320585933192
 20
3.749999999999825
 30
0.0
 11
-80.73320585933192
 21
-3.74999999999891
 31
0.0
  0
INSERT
  5
15AC
330
13B4
100
AcDbEntity
  8
AM_5
100
AcDbBlockReference
  2
_OPEN30
 10
-80.73320585933192
 20
4.999999999999825
 30
0.0
 41
1.25
 42
1.25
 43
1.25
 50
90.0
  0
INSERT
  5
15AD
330
13B4
100
AcDbEntity
  8
AM_5
100
AcDbBlockReference
  2
_OPEN30
 10
-80.73320585933192
 20
-4.99999999999891
 30
0.0
 41
1.25
 42
1.25
 43
1.25
 50
270.0
  0
MTEXT
  5
15AE
330
13B4
100
AcDbEntity
  8
AM_5
 62
     2
100
AcDbMText
 10
-82.28320585933191
 20
0.0000000000004448
 30
0.0
 40
1.6
 41
0.0
 71
     5
 72
     1
  1
%%c10
  7
ASAMI
 11
0.0000000000000001
 21
1.0
 31
0.0
1001
ACAD
1000
MTEXTBEGIN
1070
    73
1070
     1
1070
    44
1040
1.0
1070
    74
1070
     0
1000
MTEXTEND
  0
POINT
  5
15AF
330
13B4
100
AcDbEntity
  8
DEFPOINTS
 62
     0
100
AcDbPoint
 10
-70.24999999999977
 20
4.999999999999822
 30
0.0
  0
POINT
  5
15B0
330
13B4
100
AcDbEntity
  8
DEFPOINTS
 62
     0
100
AcDbPoint
 10
-70.24999999999977
 20
-4.999999999998912
 30
0.0
  0
POINT
  5
15B1
330
13B4
100
AcDbEntity
  8
DEFPOINTS
 62
     0
100
AcDbPoint
 10
-80.73320585933192
 20
-4.99999999999891
 30
0.0
  0
ENDBLK
  5
13BF
330
13B4
100
AcDbEntity
  8
0
100
AcDbBlockEnd
  0
BLOCK
  5
13CA
330
13C0
100
AcDbEntity
  8
0
100
AcDbBlockBegin
  2
*D6
 70
     1
 10
0.0
 20
0.0
 30
0.0
  3
*D6
  1

  0
LINE
  5
1D9E
330
13C0
100
AcDbEntity
  8
AM_5
100
AcDbLine
 10
-70.99999999999979
 20
-4.749999999998912
 30
0.0
 11
-70.99999999999979
 21
-18.50000099999659
 31
0.0
  0
LINE
  5
1D9F
330
13C0
100
AcDbEntity
  8
AM_5
100
AcDbLine
 10
-0.0000000000006075
 20
-5.000000000000003
 30
0.0
 11
-0.0000000000006084
 21
-18.50000099999659
 31
0.0
  0
LINE
  5
1DA0
330
13C0
100
AcDbEntity
  8
AM_5
100
AcDbLine
 10
-69.74999999999979
 20
-18.00000099999659
 30
0.0
 11
-1.250000000000608
 21
-18.00000099999659
 31
0.0
  0
INSERT
  5
1DA1
330
13C0
100
AcDbEntity
  8
AM_5
100
AcDbBlockReference
  2
_OPEN30
 10
-70.99999999999979
 20
-18.00000099999659
 30
0.0
 41
1.25
 42
1.25
 43
1.25
 50
180.0
  0
INSERT
  5
1DA2
330
13C0
100
AcDbEntity
  8
AM_5
100
AcDbBlockReference
  2
_OPEN30
 10
-0.0000000000006083
 20
-18.00000099999659
 30
0.0
 41
1.25
 42
1.25
 43
1.25
  0
MTEXT
  5
1DA3
330
13C0
100
AcDbEntity
  8
AM_5
 62
     2
100
AcDbMText
 10
-35.5000000000002
 20
-16.45000099999659
 30
0.0
 40
1.6
 41
0.0
 71
     5
 72
     1
  1
71
  7
ASAMI
1001
ACAD
1000
MTEXTBEGIN
1070
    73
1070
     1
1070
    44
1040
1.0
1070
    74
1070
     0
1000
MTEXTEND
  0
POINT
  5
1DA4
330
13C0
100
AcDbEntity
  8
DEFPOINTS
 62
     0
100
AcDbPoint
 10
-70.99999999999979
 20
-4.249999999998912
 30
0.0
  0
POINT
  5
1DA5
330
13C0
100
AcDbEntity
  8
DEFPOINTS
 62
     0
100
AcDbPoint
 10
-0.0000000000006075
 20
-4.500000000000003
 30
0.0
  0
POINT
  5
1DA6
330
13C0
100
AcDbEntity
  8
DEFPOINTS
 62
     0
100
AcDbPoint
 10
-0.0000000000006083
 20
-18.00000099999659
 30
0.0
  0
ENDBLK
  5
13CB
330
13C0
100
AcDbEntity
  8
0
100
AcDbBlockEnd
  0
BLOCK
  5
1466
330
145C
100
AcDbEntity
  8
0
100
AcDbBlockBegin
  2
*D7
 70
     1
 10
0.0
 20
0.0
 30
0.0
  3
*D7
  1

  0
LINE
  5
1D95
330
145C
100
AcDbEntity
  8
AM_5
100
AcDbLine
 10
-22.0000000000002
 20
-5.000000000000019
 30
0.0
 11
-22.0000000000002
 21
-12.50000100000052
 31
0.0
  0
LINE
  5
1D96
330
145C
100
AcDbEntity
  8
AM_5
100
AcDbLine
 10
-0.0000000000006075
 20
-5.000000000000003
 30
0.0
 11
-0.000000000000608
 21
-12.50000100000052
 31
0.0
  0
LINE
  5
1D97
330
145C
100
AcDbEntity
  8
AM_5
100
AcDbLine
 10
-20.7500000000002
 20
-12.00000100000051
 30
0.0
 11
-1.250000000000607
 21
-12.00000100000051
 31
0.0
  0
INSERT
  5
1D98
330
145C
100
AcDbEntity
  8
AM_5
100
AcDbBlockReference
  2
_OPEN30
 10
-22.0000000000002
 20
-12.00000100000051
 30
0.0
 41
1.25
 42
1.25
 43
1.25
 50
180.0
  0
INSERT
  5
1D99
330
145C
100
AcDbEntity
  8
AM_5
100
AcDbBlockReference
  2
_OPEN30
 10
-0.000000000000608
 20
-12.00000100000051
 30
0.0
 41
1.25
 42
1.25
 43
1.25
  0
MTEXT
  5
1D9A
330
145C
100
AcDbEntity
  8
AM_5
 62
     2
100
AcDbMText
 10
-11.0000000000004
 20
-10.45000100000051
 30
0.0
 40
1.6
 41
0.0
 71
     5
 72
     1
  1
22
  7
ASAMI
1001
ACAD
1000
MTEXTBEGIN
1070
    73
1070
     1
1070
    44
1040
1.0
1070
    74
1070
     0
1000
MTEXTEND
  0
POINT
  5
1D9B
330
145C
100
AcDbEntity
  8
DEFPOINTS
 62
     0
100
AcDbPoint
 10
-22.0000000000002
 20
-4.500000000000019
 30
0.0
  0
POINT
  5
1D9C
330
145C
100
AcDbEntity
  8
DEFPOINTS
 62
     0
100
AcDbPoint
 10
-0.0000000000006075
 20
-4.500000000000003
 30
0.0
  0
POINT
  5
1D9D
330
145C
100
AcDbEntity
  8
DEFPOINTS
 62
     0
100
AcDbPoint
 10
-0.000000000000608
 20
-12.00000100000051
 30
0.0
  0
ENDBLK
  5
1467
330
145C
100
AcDbEntity
  8
0
100
AcDbBlockEnd
  0
BLOCK
  5
1D39
330
1D2F
100
AcDbEntity
  8
0
100
AcDbBlockBegin
  2
*D8
 70
     1
 10
0.0
 20
0.0
 30
0.0
  3
*D8
  1

  0
LINE
  5
1D79
330
1D2F
100
AcDbEntity
  8
AM_5
100
AcDbLine
 10
0.5000000000000091
 20
4.499999999999891
 30
0.0
 11
12.05776903085497
 21
4.499999999999888
 31
0.0
  0
LINE
  5
1D7A
330
1D2F
100
AcDbEntity
  8
AM_5
100
AcDbLine
 10
0.5000000000000151
 20
-4.500000000000108
 30
0.0
 11
12.05776903085497
 21
-4.500000000000111
 31
0.0
  0
LINE
  5
1D7B
330
1D2F
100
AcDbEntity
  8
AM_5
100
AcDbLine
 10
11.55776903085497
 20
3.249999999999888
 30
0.0
 11
11.55776903085497
 21
-3.250000000000111
 31
0.0
  0
INSERT
  5
1D7C
330
1D2F
100
AcDbEntity
  8
AM_5
100
AcDbBlockReference
  2
_OPEN30
 10
11.55776903085497
 20
4.499999999999888
 30
0.0
 41
1.25
 42
1.25
 43
1.25
 50
90.0
  0
INSERT
  5
1D7D
330
1D2F
100
AcDbEntity
  8
AM_5
100
AcDbBlockReference
  2
_OPEN30
 10
11.55776903085496
 20
-4.500000000000111
 30
0.0
 41
1.25
 42
1.25
 43
1.25
 50
270.0
  0
MTEXT
  5
1D7E
330
1D2F
100
AcDbEntity
  8
AM_5
 62
     2
100
AcDbMText
 10
10.00776903085496
 20
-0.0000000000001098
 30
0.0
 40
1.6
 41
0.0
 71
     5
 72
     1
  1
%%c9
  7
ASAMI
 11
0.0000000000000001
 21
1.0
 31
0.0
1001
ACAD
1000
MTEXTBEGIN
1070
    73
1070
     1
1070
    44
1040
1.0
1070
    74
1070
     0
1000
MTEXTEND
  0
POINT
  5
1D7F
330
1D2F
100
AcDbEntity
  8
DEFPOINTS
 62
     0
100
AcDbPoint
 10
0.0000000000000091
 20
4.499999999999891
 30
0.0
  0
POINT
  5
1D80
330
1D2F
100
AcDbEntity
  8
DEFPOINTS
 62
     0
100
AcDbPoint
 10
0.0000000000000151
 20
-4.500000000000108
 30
0.0
  0
POINT
  5
1D81
330
1D2F
100
AcDbEntity
  8
DEFPOINTS
 62
     0
100
AcDbPoint
 10
11.55776903085496
 20
-4.500000000000111
 30
0.0
  0
ENDBLK
  5
1D3A
330
1D2F
100
AcDbEntity
  8
0
100
AcDbBlockEnd
  0
ENDSEC
  0
SECTION
  2
ENTITIES
  0
TEXT
  5
E5A
330
1F
100
AcDbEntity
  8
AM_6
100
AcDbText
 10
-45.85714285714263
 20
-29.25000099999659
 30
0.0
 40
2.5
  1
JSM4090ZX
 72
     4
 11
-35.49999999999978
 21
-28.00000099999659
 31
0.0
100
AcDbText
  0
LINE
  5
132B
330
1F
100
AcDbEntity
  8
AM_7
  6
AM_ISO08W050X2
100
AcDbLine
 10
4.557768030854969
 20
-0.0000000000001137
 30
0.0
 11
-73.73320485933165
 21
-0.0000000000001421
 31
0.0
1001
GENIUS_GENODEF_13
1002
{
1000
HIER
1070
     0
1002
}
1002
{
1000
MANEDIT
1070
     0
1002
}
1002
{
1000
NOSEL
1070
     0
1002
}
1002
{
1000
BEHIND
1070
     0
1002
}
1002
{
1000
REACTOR
1002
}
1001
GENIUS_GENOBJ-N-CEN_13
1002
{
1000
OWNER
1000
GEN
1002
}
  0
LINE
  5
13AC
330
1F
100
AcDbEntity
  8
AM_0
100
AcDbLine
 10
-70.24999999999977
 20
4.999999999999822
 30
0.0
 11
-70.24999999999979
 21
-4.999999999998912
 31
0.0
  0
LINE
  5
13AD
330
1F
100
AcDbEntity
  8
AM_0
100
AcDbLine
 10
-70.99999999999977
 20
4.249999999999822
 30
0.0
 11
-70.99999999999979
 21
-4.249999999998912
 31
0.0
  0
LINE
  5
13AE
330
1F
100
AcDbEntity
  8
AM_0
100
AcDbLine
 10
-70.99999999999979
 20
-4.249999999998912
 30
0.0
 11
-70.24999999999979
 21
-4.999999999998912
 31
0.0
1001
GENIUS_GENFIL_13
1070
     0
1040
0.75
1040
0.75
1040
20.0
1040
0.0
1002
{
1002
}
1001
GENIUS_GENODEF_13
1002
{
1000
HIER
1070
     0
1002
}
1002
{
1000
MANEDIT
1070
     0
1002
}
1002
{
1000
NOSEL
1070
     0
1002
}
1002
{
1000
BEHIND
1070
     0
1002
}
1002
{
1000
REACTOR
1002
}
1001
GENIUS_GENOBJ-N-CHA_13
1002
{
1000
OWNER
1000
GEN
1002
}
  0
LINE
  5
13AF
330
1F
100
AcDbEntity
  8
AM_0
100
AcDbLine
 10
-70.24999999999977
 20
4.999999999999822
 30
0.0
 11
-70.99999999999977
 21
4.249999999999822
 31
0.0
1001
GENIUS_GENFIL_13
1070
     0
1040
0.75
1040
0.75
1040
20.0
1040
0.0
1002
{
1002
}
1001
GENIUS_GENODEF_13
1002
{
1000
HIER
1070
     0
1002
}
1002
{
1000
MANEDIT
1070
     0
1002
}
1002
{
1000
NOSEL
1070
     0
1002
}
1002
{
1000
BEHIND
1070
     0
1002
}
1002
{
1000
REACTOR
1002
}
1001
GENIUS_GENOBJ-N-CHA_13
1002
{
1000
OWNER
1000
GEN
1002
}
  0
DIMENSION
  5
13B0
330
1F
100
AcDbEntity
  8
AM_5
100
AcDbDimension
  2
*D5
 10
-80.73320585933192
 20
-4.99999999999891
 30
0.0
 11
-82.28320585933191
 21
0.0000000000004448
 31
0.0
 70
    32
  1
%%c<>
  3
AM_JIS
100
AcDbAlignedDimension
 13
-70.24999999999977
 23
4.999999999999822
 33
0.0
 14
-70.24999999999977
 24
-4.999999999998912
 34
0.0
 50
270.0
100
AcDbRotatedDimension
1001
GENIUS_GENDTOL_13
1000

1000
h7
1000

1040
0.0
  0
LINE
  5
13B1
330
1F
100
AcDbEntity
  8
AM_0
100
AcDbLine
 10
-30.49999999999979
 20
-5.000000000000031
 30
0.0
 11
-70.24999999999979
 21
-4.999999999998912
 31
0.0
  0
LINE
  5
13B2
330
1F
100
AcDbEntity
  8
AM_0
100
AcDbLine
 10
-30.49999999999978
 20
4.999999999999862
 30
0.0
 11
-70.24999999999977
 21
4.999999999999822
 31
0.0
  0
DIMENSION
  5
13B3
330
1F
100
AcDbEntity
  8
AM_5
100
AcDbDimension
  2
*D6
 10
-0.0000000000006083
 20
-18.00000099999659
 30
0.0
 11
-35.5000000000002
 21
-16.45000099999659
 31
0.0
 70
    32
  1
<>
  3
AM_JIS
100
AcDbAlignedDimension
 13
-70.99999999999979
 23
-4.249999999998912
 33
0.0
 14
-0.0000000000006075
 24
-4.500000000000003
 34
0.0
100
AcDbRotatedDimension
1001
GENIUS_GENDTOL_13
1000

1000
h7
1000

1040
0.0
  0
DIMENSION
  5
145B
330
1F
100
AcDbEntity
  8
AM_5
100
AcDbDimension
  2
*D7
 10
-0.000000000000608
 20
-12.00000100000051
 30
0.0
 11
-11.0000000000004
 21
-10.45000100000051
 31
0.0
 70
    32
  1
<>
  3
AM_JIS
100
AcDbAlignedDimension
 13
-22.0000000000002
 23
-4.500000000000019
 33
0.0
 14
-0.0000000000006075
 24
-4.500000000000003
 34
0.0
 50
359.9999999999967
100
AcDbRotatedDimension
1001
GENIUS_GENDTOL_13
1000

1000
h7
1000

1040
0.0
  0
LINE
  5
16DF
330
1F
100
AcDbEntity
  8
AM_0
100
AcDbLine
 10
-30.49999999999978
 20
4.999999999999853
 30
0.0
 11
-30.49999999999979
 21
-5.000000000000144
 31
0.0
  0
LINE
  5
16F6
330
1F
100
AcDbEntity
  8
AM_0
100
AcDbLine
 10
-21.85484434707074
 20
4.499999999999981
 30
0.0
 11
-29.1262612902728
 21
4.499999999999977
 31
0.0
  0
LINE
  5
16F7
330
1F
100
AcDbEntity
  8
AM_0
100
AcDbLine
 10
-23.40595203759422
 20
-4.499999999999872
 30
0.0
 11
-29.12626129027303
 21
-4.499999999999897
 31
0.0
  0
LINE
  5
16F8
330
1F
100
AcDbEntity
  8
AM_0
100
AcDbLine
 10
-30.49999999999981
 20
4.999999999999862
 30
0.0
 11
-29.1262612902728
 21
4.499999999999976
 31
0.0
  0
LINE
  5
16F9
330
1F
100
AcDbEntity
  8
AM_0
100
AcDbLine
 10
-29.1262612902728
 20
4.499999999999976
 30
0.0
 11
-29.12626129027303
 21
-4.500000000000249
 31
0.0
  0
LINE
  5
16FA
330
1F
100
AcDbEntity
  8
AM_0
100
AcDbLine
 10
-29.12626129027303
 20
-4.50000000000025
 30
0.0
 11
-30.49999999999979
 21
-5.000000000000047
 31
0.0
  0
LINE
  5
1D1E
330
1F
100
AcDbEntity
  8
AM_0
100
AcDbLine
 10
-0.870359014284773
 20
2.400426732609353
 30
0.0
 11
-1.921327767945555
 21
2.707608080275268
 31
0.0
  0
LINE
  5
1D1F
330
1F
100
AcDbEntity
  8
AM_0
100
AcDbLine
 10
-1.921327767945541
 20
-0.0000000000000038
 30
0.0
 11
-1.921327767945541
 21
-0.720000000000011
 31
0.0
  0
LINE
  5
1D20
330
1F
100
AcDbEntity
  8
AM_0
100
AcDbLine
 10
-1.921327767945541
 20
-0.720000000000011
 30
0.0
 11
-0.0941434418537171
 21
-0.720000000000011
 31
0.0
  0
LINE
  5
1D21
330
1F
100
AcDbEntity
  8
AM_0
100
AcDbLine
 10
-0.0856071428572847
 20
0.9000000000000992
 30
0.0
 11
-0.870359014284773
 21
2.400426732609353
 31
0.0
  0
LINE
  5
1D22
330
1F
100
AcDbEntity
  8
AM_0
100
AcDbLine
 10
-0.0000000000001563
 20
-0.0000000000000038
 30
0.0
 11
-1.921327767945541
 21
-0.0000000000000038
 31
0.0
  0
LINE
  5
1D23
330
1F
100
AcDbEntity
  8
AM_0
100
AcDbLine
 10
-0.0000000000001563
 20
-0.0000000000000038
 30
0.0
 11
-0.0856071428572847
 21
0.9000000000000992
 31
0.0
  0
LINE
  5
1D24
330
1F
100
AcDbEntity
  8
AM_0
100
AcDbLine
 10
-0.70153666384428
 20
-1.326289288649892
 30
0.0
 11
-0.0856071428572847
 21
-1.194208069106869
 31
0.0
  0
LINE
  5
1D25
330
1F
100
AcDbEntity
  8
AM_0
100
AcDbLine
 10
-0.0856071428572847
 20
-4.260097041859593
 30
0.0
 11
-0.558484693877702
 21
-3.597854989915723
 31
0.0
  0
LINE
  5
1D26
330
1F
100
AcDbEntity
  8
AM_0
100
AcDbLine
 10
-0.0856071428572847
 20
-4.260097041859645
 30
0.0
 11
-0.0856071428572847
 21
-1.194208069106869
 31
0.0
  0
LINE
  5
1D27
330
1F
100
AcDbEntity
  8
AM_0
100
AcDbLine
 10
-0.0856071428572847
 20
-1.194208069106869
 30
0.0
 11
-0.0000000000001563
 21
-0.9000000000000014
 31
0.0
  0
LINE
  5
1D28
330
1F
100
AcDbEntity
  8
AM_0
100
AcDbLine
 10
-1.921327767945541
 20
-0.720000000000011
 30
0.0
 11
-0.70153666384428
 21
-1.326289288649892
 31
0.0
  0
LINE
  5
1D29
330
1F
100
AcDbEntity
  8
AM_0
100
AcDbLine
 10
-0.0000000000001563
 20
-0.0000000000000038
 30
0.0
 11
-0.0724339231695694
 21
-0.7615080783771797
 31
0.0
  0
LINE
  5
1D2A
330
1F
100
AcDbEntity
  8
AM_0
100
AcDbLine
 10
-0.0000000000001563
 20
-0.9000000000000014
 30
0.0
 11
-0.4707172092680452
 21
0.0000000000000489
 31
0.0
  0
LINE
  5
1D2B
330
1F
100
AcDbEntity
  8
AM_0
100
AcDbLine
 10
-0.0000000000001563
 20
-4.500000000000003
 30
0.0
 11
-0.0000000000001563
 21
-0.9000000000000014
 31
0.0
  0
LINE
  5
1D2C
330
1F
100
AcDbEntity
  8
AM_0
100
AcDbLine
 10
-0.0000000000001563
 20
-4.500000000000003
 30
0.0
 11
-0.0856071428572847
 21
-4.260097041859645
 31
0.0
  0
LINE
  5
1D2D
330
1F
100
AcDbEntity
  8
AM_0
100
AcDbLine
 10
-0.0000000000001563
 20
-0.0000000000000038
 30
0.0
 11
-0.0000000000001563
 21
4.499999999999996
 31
0.0
  0
DIMENSION
  5
1D2E
330
1F
100
AcDbEntity
  8
AM_5
100
AcDbDimension
  2
*D8
 10
11.55776903085496
 20
-4.500000000000111
 30
0.0
 11
10.00776903085496
 21
-0.0000000000001098
 31
0.0
 70
    32
  1
%%c<>
  3
AM_JIS
100
AcDbAlignedDimension
 13
0.0000000000000091
 23
4.499999999999891
 33
0.0
 14
0.0000000000000151
 24
-4.500000000000108
 34
0.0
 50
90.0
100
AcDbRotatedDimension
1001
GENIUS_GENDTOL_13
1000

1000
h7
1000

1040
0.0
  0
POLYLINE
  5
1D3B
330
1F
100
AcDbEntity
  8
AM_0
100
AcDb2dPolyline
 66
     1
 10
0.0
 20
0.0
 30
0.0
 70
     2
  0
VERTEX
  5
1D3C
330
1D3B
100
AcDbEntity
  8
AM_0
100
AcDbVertex
100
AcDb2dVertex
 10
-24.81866710566357
 20
3.129136500500303
 30
0.0
 42
-0.0100635788804193
  0
VERTEX
  5
1D3D
330
1D3B
100
AcDbEntity
  8
AM_0
100
AcDbVertex
100
AcDb2dVertex
 10
-25.21097000562656
 20
3.346630675967238
 30
0.0
 42
-0.0111716247241469
 70
     1
  0
VERTEX
  5
1D3E
330
1D3B
100
AcDbEntity
  8
AM_0
100
AcDbVertex
100
AcDb2dVertex
 10
-25.55619627004098
 20
3.558267465850453
 30
0.0
 42
-0.0056817162269327
  0
VERTEX
  5
1D3F
330
1D3B
100
AcDbEntity
  8
AM_0
100
AcDbVertex
100
AcDb2dVertex
 10
-26.01246831102544
 20
3.860162967347608
 30
0.0
 42
-0.1012800428637157
 70
     1
  0
VERTEX
  5
1D40
330
1D3B
100
AcDbEntity
  8
AM_0
100
AcDbVertex
100
AcDb2dVertex
 10
-26.03432127004099
 20
3.882678764694507
 30
0.0
 42
-0.5091829191374789
  0
VERTEX
  5
1D41
330
1D3B
100
AcDbEntity
  8
AM_0
100
AcDbVertex
100
AcDb2dVertex
 10
-26.02036540755177
 20
3.923826778957877
 30
0.0
 42
-0.0367559769825847
 70
     1
  0
VERTEX
  5
1D42
330
1D3B
100
AcDbEntity
  8
AM_0
100
AcDbVertex
100
AcDb2dVertex
 10
-25.6050159982371
 20
4.120031016238463
 30
0.0
 42
-0.00696239136013
  0
VERTEX
  5
1D43
330
1D3B
100
AcDbEntity
  8
AM_0
100
AcDbVertex
100
AcDb2dVertex
 10
-24.93210643911771
 20
4.305174999902167
 30
0.0
 42
-0.0032183393648243
 70
     1
  0
VERTEX
  5
1D44
330
1D3B
100
AcDbEntity
  8
AM_0
100
AcDbVertex
100
AcDb2dVertex
 10
-23.43437499999787
 20
4.449226354115927
 30
0.0
 42
-0.0129305071352978
  0
VERTEX
  5
1D45
330
1D3B
100
AcDbEntity
  8
AM_0
100
AcDbVertex
100
AcDb2dVertex
 10
-22.93556591211508
 20
4.480047995935463
 30
0.0
 42
-0.0069037738036377
 70
     1
  0
VERTEX
  5
1D46
330
1D3B
100
AcDbEntity
  8
AM_0
100
AcDbVertex
100
AcDb2dVertex
 10
-21.99999999999787
 20
4.498499683186404
 30
0.0
  0
SEQEND
  5
1D47
330
1D3B
100
AcDbEntity
  8
AM_0
  0
LINE
  5
1D48
330
1F
100
AcDbEntity
  8
AM_0
100
AcDbLine
 10
-22.00000000000015
 20
1.568003280305204
 30
0.0
 11
-22.57443597998704
 21
1.098085771367797
 31
0.0
  0
LINE
  5
1D49
330
1F
100
AcDbEntity
  8
AM_0
100
AcDbLine
 10
-22.57443597998704
 20
1.098085771367797
 30
0.0
 11
-22.0000000000002
 21
-0.1109600704433095
 31
0.0
  0
POLYLINE
  5
1D4A
330
1F
100
AcDbEntity
  8
AM_0
100
AcDb2dPolyline
 66
     1
 10
0.0
 20
0.0
 30
0.0
 70
     2
  0
VERTEX
  5
1D4B
330
1D4A
100
AcDbEntity
  8
AM_0
100
AcDbVertex
100
AcDb2dVertex
 10
-22.00000000000048
 20
-0.1109600704431967
 30
0.0
 42
0.0439467705075793
  0
VERTEX
  5
1D4C
330
1D4A
100
AcDbEntity
  8
AM_0
100
AcDbVertex
100
AcDb2dVertex
 10
-22.67720648171594
 20
0.2277891862539639
 30
0.0
 42
0.0508069327849505
 70
     1
  0
VERTEX
  5
1D4D
330
1D4A
100
AcDbEntity
  8
AM_0
100
AcDbVertex
100
AcDb2dVertex
 10
-23.30500000000016
 20
0.3989250822901971
 30
0.0
 42
0.048343980581832
  0
VERTEX
  5
1D4E
330
1D4A
100
AcDbEntity
  8
AM_0
100
AcDbVertex
100
AcDb2dVertex
 10
-24.53103921185203
 20
0.4688895862180841
 30
0.0
 42
0.1125487988712446
 70
     1
  0
VERTEX
  5
1D4F
330
1D4A
100
AcDbEntity
  8
AM_0
100
AcDbVertex
100
AcDb2dVertex
 10
-25.04500000000017
 20
0.3200801769897431
 30
0.0
 42
0.1043354721986464
  0
VERTEX
  5
1D50
330
1D4A
100
AcDbEntity
  8
AM_0
100
AcDbVertex
100
AcDb2dVertex
 10
-25.38317160438076
 20
0.0191004373225542
 30
0.0
 42
0.1622046965165543
 70
     1
  0
VERTEX
  5
1D51
330
1D4A
100
AcDbEntity
  8
AM_0
100
AcDbVertex
100
AcDb2dVertex
 10
-25.48000000000016
 20
-0.268649881044086
 30
0.0
 42
0.1126102147106356
  0
VERTEX
  5
1D52
330
1D4A
100
AcDbEntity
  8
AM_0
100
AcDbVertex
100
AcDb2dVertex
 10
-25.40760736850977
 20
-0.6398901344768328
 30
0.0
 42
0.0567482905253302
 70
     1
  0
VERTEX
  5
1D53
330
1D4A
100
AcDbEntity
  8
AM_0
100
AcDbVertex
100
AcDb2dVertex
 10
-25.04500000000017
 20
-1.278564949349631
 30
0.0
 42
0.0381688922511355
  0
VERTEX
  5
1D54
330
1D4A
100
AcDbEntity
  8
AM_0
100
AcDbVertex
100
AcDb2dVertex
 10
-24.41124089815743
 20
-2.026984590330143
 30
0.0
 42
0.0247320414840066
 70
     1
  0
VERTEX
  5
1D55
330
1D4A
100
AcDbEntity
  8
AM_0
100
AcDbVertex
100
AcDb2dVertex
 10
-23.30500000000019
 20
-3.042149895736927
 30
0.0
 42
0.0413520657827975
  0
VERTEX
  5
1D56
330
1D4A
100
AcDbEntity
  8
AM_0
100
AcDbVertex
100
AcDb2dVertex
 10
-22.8338495157774
 20
-3.370413250850851
 30
0.0
 42
0.025170421001692
 70
     1
  0
VERTEX
  5
1D57
330
1D4A
100
AcDbEntity
  8
AM_0
100
AcDbVertex
100
AcDb2dVertex
 10
-22.0000000000002
 20
-3.795819773818677
 30
0.0
  0
SEQEND
  5
1D58
330
1D4A
100
AcDbEntity
  8
AM_0
  0
ELLIPSE
  5
1D59
330
1F
100
AcDbEntity
  8
AM_0
100
AcDbEllipse
 10
-11.8218845593957
 20
-280.9284339349174
 30
0.0
 11
-0.0000000007396425
 21
276.7004177194881
 31
0.0
210
0.0
220
0.0
230
1.0
 40
0.9444444444408182
 41
0.0389574929391707
 42
0.0443421939704414
  0
LINE
  5
1D5A
330
1F
100
AcDbEntity
  8
AM_0
100
AcDbLine
 10
-22.0000000000081
 20
-3.795819773815157
 30
0.0
 11
-21.99999999999791
 21
-4.437961871321229
 31
0.0
  0
LINE
  5
1D5B
330
1F
100
AcDbEntity
  8
AM_11
100
AcDbLine
 10
-22.0000000000002
 20
-4.500000000000018
 30
0.0
 11
-22.00000000000011
 21
4.499999999999981
 31
0.0
  0
LINE
  5
1D5C
330
1F
100
AcDbEntity
  8
AM_11
100
AcDbLine
 10
-0.0000000000007816
 20
4.499999999999996
 30
0.0
 11
-22.00000000000011
 21
4.499999999999979
 31
0.0
  0
LINE
  5
1D5D
330
1F
100
AcDbEntity
  8
AM_11
100
AcDbLine
 10
-22.0000000000002
 20
-4.500000000000019
 30
0.0
 11
-0.0000000000001563
 21
-4.500000000000003
 31
0.0
  0
SPLINE
  5
1D5E
330
1F
100
AcDbEntity
  8
AM_0
100
AcDbSpline
210
0.0
220
0.0
230
1.0
 70
     8
 71
     3
 72
     8
 73
     4
 74
     0
 42
0.0000000001
 43
0.0000000001
 40
0.0
 40
0.0
 40
0.0
 40
0.0
 40
1.412269715655734
 40
1.412269715655734
 40
1.412269715655734
 40
1.412269715655734
 10
-20.80999999999807
 20
-4.499999999999919
 30
0.0
 10
-21.21014308610051
 20
-4.499999999999919
 30
0.0
 10
-21.62747613020796
 20
-4.440511321664472
 30
0.0
 10
-22.00000000000379
 20
-4.437961871321193
 30
0.0
  0
SPLINE
  5
1D5F
330
1F
100
AcDbEntity
  8
AM_0
100
AcDbSpline
210
0.0
220
0.0
230
1.0
 70
     8
 71
     3
 72
     8
 73
     4
 74
     0
 42
0.0000000001
 43
0.0000000001
 40
0.0
 40
0.0
 40
0.0
 40
0.0
 40
2.764560748519282
 40
2.764560748519282
 40
2.764560748519282
 40
2.764560748519282
 10
-19.32636853530264
 20
-4.365255303301869
 30
0.0
 10
-18.54307632322219
 20
-4.365255303301869
 30
0.0
 10
-18.04166628735456
 20
-4.285243033659071
 30
0.0
 10
-17.49882878887068
 20
-4.016055864583182
 30
0.0
  0
SPLINE
  5
1D60
330
1F
100
AcDbEntity
  8
AM_0
100
AcDbSpline
210
0.0
220
0.0
230
1.0
 70
     8
 71
     3
 72
     8
 73
     4
 74
     0
 42
0.0000000001
 43
0.0000000001
 40
0.0
 40
0.0
 40
0.0
 40
0.0
 40
4.451443990518192
 40
4.451443990518192
 40
4.451443990518192
 40
4.451443990518192
 10
-19.11459384887861
 20
-4.155700053422434
 30
0.0
 10
-18.00549808784416
 20
-4.11019815010308
 30
0.0
 10
-16.72492553959318
 20
-3.956101572822712
 30
0.0
 10
-15.56562438639957
 20
-3.618767294031141
 30
0.0
  0
SPLINE
  5
1D61
330
1F
100
AcDbEntity
  8
AM_0
100
AcDbSpline
210
0.0
220
0.0
230
1.0
 70
     8
 71
     3
 72
     8
 73
     4
 74
     0
 42
0.0000000001
 43
0.0000000001
 40
0.0
 40
0.0
 40
0.0
 40
0.0
 40
3.064314925336767
 40
3.064314925336767
 40
3.064314925336767
 40
3.064314925336767
 10
-19.11459384887861
 20
-4.155700053422332
 30
0.0
 10
-19.91358188342575
 20
-4.187626188121116
 30
0.0
 10
-21.05450432579176
 20
-4.024786579957693
 30
0.0
 10
-22.0000000000081
 20
-3.795819773815157
 30
0.0
  0
SPLINE
  5
1D62
330
1F
100
AcDbEntity
  8
AM_0
100
AcDbSpline
210
0.0
220
0.0
230
1.0
 70
     8
 71
     3
 72
     8
 73
     4
 74
     0
 42
0.0000000001
 43
0.0000000001
 40
0.0
 40
0.0
 40
0.0
 40
0.0
 40
2.130230809022907
 40
2.130230809022907
 40
2.130230809022907
 40
2.130230809022907
 10
-20.80999999999807
 20
-4.50000000000002
 30
0.0
 10
-20.20643460410823
 20
-4.50000000000002
 30
0.0
 10
-19.61104432587499
 20
-4.451370559038172
 30
0.0
 10
-19.02262730942213
 20
-4.361260880567328
 30
0.0
  0
SPLINE
  5
1D63
330
1F
100
AcDbEntity
  8
AM_0
100
AcDbSpline
210
0.0
220
0.0
230
1.0
 70
     8
 71
     3
 72
     8
 73
     4
 74
     0
 42
0.0000000001
 43
0.0000000001
 40
0.0
 40
0.0
 40
0.0
 40
0.0
 40
3.20279236890966
 40
3.20279236890966
 40
3.20279236890966
 40
3.20279236890966
 10
-19.32636853530264
 20
-4.365255303301768
 30
0.0
 10
-20.23382637316038
 20
-4.365255303301768
 30
0.0
 10
-21.12373964479537
 20
-4.257865787347697
 30
0.0
 10
-21.99999999999626
 20
-4.066907372134162
 30
0.0
  0
SPLINE
  5
1D64
330
1F
100
AcDbEntity
  8
AM_0
100
AcDbSpline
210
0.0
220
0.0
230
1.0
 70
     8
 71
     3
 72
     8
 73
     4
 74
     0
 42
0.0000000001
 43
0.0000000001
 40
7.394062372230118
 40
7.394062372230118
 40
7.394062372230118
 40
7.394062372230118
 40
14.36247867694493
 40
14.36247867694493
 40
14.36247867694493
 40
14.36247867694493
 10
-24.81866710566357
 20
3.129136500500303
 30
0.0
 10
-22.65514084622091
 20
1.859576926667357
 30
0.0
 10
-20.85758378506343
 20
1.008135457017529
 30
0.0
 10
-19.11459384887837
 20
-0.000000000000015
 30
0.0
  0
SPLINE
  5
1D65
330
1F
100
AcDbEntity
  8
AM_0
100
AcDbSpline
210
0.0
220
0.0
230
1.0
 70
     8
 71
     3
 72
     8
 73
     4
 74
     0
 42
0.0000000001
 43
0.0000000001
 40
11.99421896373959
 40
11.99421896373959
 40
11.99421896373959
 40
11.99421896373959
 40
14.43901837670146
 40
14.43901837670146
 40
14.43901837670146
 40
14.43901837670146
 10
-22.57443598001263
 20
1.098085771319179
 30
0.0
 10
-21.96626762370064
 20
0.7391204391124818
 30
0.0
 10
-21.35975953796582
 20
0.3695602195562333
 30
0.0
 10
-20.75325145223101
 20
-0.000000000000015
 30
0.0
  0
SPLINE
  5
1D66
330
1F
100
AcDbEntity
  8
AM_0
100
AcDbSpline
210
0.0
220
0.0
230
1.0
 70
     8
 71
     3
 72
     8
 73
     4
 74
     0
 42
0.0000000001
 43
0.0000000001
 40
0.0
 40
0.0
 40
0.0
 40
0.0
 40
5.635889483499305
 40
5.635889483499305
 40
5.635889483499305
 40
5.635889483499305
 10
-11.08816326530643
 20
4.500000000000094
 30
0.0
 10
-12.61982166575406
 20
4.500000000000086
 30
0.0
 10
-14.09659333042394
 20
4.15961462608131
 30
0.0
 10
-15.53982647536983
 20
3.611236894534155
 30
0.0
  0
SPLINE
  5
1D67
330
1F
100
AcDbEntity
  8
AM_0
100
AcDbSpline
210
0.0
220
0.0
230
1.0
 70
     8
 71
     3
 72
     8
 73
     4
 74
     0
 42
0.0000000001
 43
0.0000000001
 40
0.0
 40
0.0
 40
0.0
 40
0.0
 40
2.764560748519282
 40
2.764560748519282
 40
2.764560748519282
 40
2.764560748519282
 10
-9.665088186925103
 20
-4.365255303301855
 30
0.0
 10
-8.91376708554182
 20
-4.365255303301855
 30
0.0
 10
-8.174984297471183
 20
-4.285243033659058
 30
0.0
 10
-7.446339179682482
 20
-4.140538010858805
 30
0.0
  0
SPLINE
  5
1D68
330
1F
100
AcDbEntity
  8
AM_0
100
AcDbSpline
210
0.0
220
0.0
230
1.0
 70
     8
 71
     3
 72
     8
 73
     4
 74
     0
 42
0.0000000001
 43
0.0000000001
 40
1.870660592686466
 40
1.870660592686466
 40
1.870660592686466
 40
1.870660592686466
 40
14.43901837670146
 40
14.43901837670146
 40
14.43901837670146
 40
14.43901837670146
 10
-0.0856071428572847
 20
-4.260097041859596
 30
0.0
 10
-3.429148682032618
 20
-3.799710550891335
 30
0.0
 10
-6.547118434478804
 20
-1.899855275445648
 30
0.0
 10
-9.665088186924975
 20
0.0000000000000414
 30
0.0
  0
SPLINE
  5
1D69
330
1F
100
AcDbEntity
  8
AM_0
100
AcDbSpline
210
0.0
220
0.0
230
1.0
 70
     8
 71
     3
 72
     8
 73
     4
 74
     0
 42
0.0000000001
 43
0.0000000001
 40
0.0
 40
0.0
 40
0.0
 40
0.0
 40
12.31649706694236
 40
12.31649706694236
 40
12.31649706694236
 40
12.31649706694236
 10
-0.0000000000001421
 20
-4.500000000000003
 30
0.0
 10
-3.937927633648385
 20
-4.500000000000007
 30
0.0
 10
-7.513045449477331
 20
-2.250000000000003
 30
0.0
 10
-11.08816326530626
 20
-0.0000000000000075
 30
0.0
  0
SPLINE
  5
1D6A
330
1F
100
AcDbEntity
  8
AM_0
100
AcDbSpline
210
0.0
220
0.0
230
1.0
 70
     8
 71
     3
 72
     8
 73
     4
 74
     0
 42
0.0000000001
 43
0.0000000001
 40
0.0
 40
0.0
 40
0.0
 40
0.0
 40
12.31649706694237
 40
12.31649706694237
 40
12.31649706694237
 40
12.31649706694237
 10
-11.08816326530627
 20
4.500000000000094
 30
0.0
 10
-7.150235631658034
 20
4.500000000000097
 30
0.0
 10
-3.575117815829088
 20
2.250000000000094
 30
0.0
 10
-0.0000000000001563
 20
0.0000000000000978
 30
0.0
  0
SPLINE
  5
1D6B
330
1F
100
AcDbEntity
  8
AM_0
100
AcDbSpline
210
0.0
220
0.0
230
1.0
 70
     8
 71
     3
 72
     8
 73
     4
 74
     0
 42
0.0000000001
 43
0.0000000001
 40
0.3581103616548037
 40
0.3581103616548037
 40
0.3581103616548037
 40
0.3581103616548037
 40
12.40023413887867
 40
12.40023413887867
 40
12.40023413887867
 40
12.40023413887867
 10
-9.373744562100611
 20
4.361260880567399
 30
0.0
 10
-6.115046045143728
 20
4.272087543356544
 30
0.0
 10
-3.088346472593897
 20
2.702431015636498
 30
0.0
 10
-0.095238184820829
 20
0.9184143209480659
 30
0.0
  0
SPLINE
  5
1D6C
330
1F
100
AcDbEntity
  8
AM_0
100
AcDbSpline
210
0.0
220
0.0
230
1.0
 70
     8
 71
     3
 72
     8
 73
     4
 74
     0
 42
0.0000000001
 43
0.0000000001
 40
4.542668862435135
 40
4.542668862435135
 40
4.542668862435135
 40
4.542668862435135
 40
14.36247867694493
 40
14.36247867694493
 40
14.36247867694493
 40
14.36247867694493
 10
-0.5584846938765651
 20
-3.597854989910964
 30
0.0
 10
-3.114028989436462
 20
-2.841305117915575
 30
0.0
 10
-5.570229786504398
 20
-1.42065255895777
 30
0.0
 10
-8.026430583572334
 20
0.0000000000000414
 30
0.0
  0
SPLINE
  5
1D6D
330
1F
100
AcDbEntity
  8
AM_0
100
AcDbSpline
210
0.0
220
0.0
230
1.0
 70
     8
 71
     3
 72
     8
 73
     4
 74
     0
 42
0.0000000001
 43
0.0000000001
 40
0.0
 40
0.0
 40
0.0
 40
0.0
 40
5.635889483499127
 40
5.635889483499127
 40
5.635889483499127
 40
5.635889483499127
 10
-0.0000000000001563
 20
4.499999999999996
 30
0.0
 10
-1.531658400447696
 20
4.499999999999996
 30
0.0
 10
-3.008430065117565
 20
4.15961462608122
 30
0.0
 10
-4.451663210063443
 20
3.611236894534114
 30
0.0
  0
SPLINE
  5
1D6E
330
1F
100
AcDbEntity
  8
AM_0
100
AcDbSpline
210
0.0
220
0.0
230
1.0
 70
     8
 71
     3
 72
     8
 73
     4
 74
     0
 42
0.0000000001
 43
0.0000000001
 40
0.0
 40
0.0
 40
0.0
 40
0.0
 40
2.198580525074208
 40
2.198580525074208
 40
2.198580525074208
 40
2.198580525074208
 10
-0.0000000000001563
 20
3.667232418015564
 30
0.0
 10
-0.4510822826755146
 20
3.072098876535906
 30
0.0
 10
-1.22533947374309
 20
2.816526417231917
 30
0.0
 10
-1.921327767945555
 20
2.707608080275268
 30
0.0
  0
SPLINE
  5
1D6F
330
1F
100
AcDbEntity
  8
AM_0
100
AcDbSpline
210
0.0
220
0.0
230
1.0
 70
     8
 71
     3
 72
     8
 73
     4
 74
     0
 42
0.0000000001
 43
0.0000000001
 40
0.7142832446738512
 40
0.7142832446738512
 40
0.7142832446738512
 40
0.7142832446738512
 40
9.361146747480315
 40
9.361146747480315
 40
9.361146747480315
 40
9.361146747480315
 10
-7.446339179596449
 20
4.140538010841852
 30
0.0
 10
-5.114542521505541
 20
4.019205095074418
 30
0.0
 10
-2.889804734497062
 20
3.182192894519663
 30
0.0
 10
-0.7042982841831674
 20
2.08292260453285
 30
0.0
  0
SPLINE
  5
1D70
330
1F
100
AcDbEntity
  8
AM_0
100
AcDbSpline
210
0.0
220
0.0
230
1.0
 70
     8
 71
     3
 72
     8
 73
     4
 74
     0
 42
0.0000000001
 43
0.0000000001
 40
0.0
 40
0.0
 40
0.0
 40
0.0
 40
4.451443990518192
 40
4.451443990518192
 40
4.451443990518192
 40
4.451443990518192
 10
-8.026430583572491
 20
-4.155700053422426
 30
0.0
 10
-6.816667403836419
 20
-4.155700053422426
 30
0.0
 10
-5.636762274287065
 20
-3.956101572822704
 30
0.0
 10
-4.477461121093455
 20
-3.618767294031133
 30
0.0
  0
SPLINE
  5
1D71
330
1F
100
AcDbEntity
  8
AM_0
100
AcDbSpline
210
0.0
220
0.0
230
1.0
 70
     8
 71
     3
 72
     8
 73
     4
 74
     0
 42
0.0000000001
 43
0.0000000001
 40
0.0
 40
0.0
 40
0.0
 40
0.0
 40
2.130230809022907
 40
2.130230809022907
 40
2.130230809022907
 40
2.130230809022907
 10
-11.08816326530642
 20
-4.500000000000007
 30
0.0
 10
-10.50923319169781
 20
-4.500000000000007
 30
0.0
 10
-9.938144557474103
 20
-4.451370559038158
 30
0.0
 10
-9.373744562100938
 20
-4.361260880567315
 30
0.0
  0
SPLINE
  5
1D72
330
1F
100
AcDbEntity
  8
AM_0
100
AcDbSpline
210
0.0
220
0.0
230
1.0
 70
     8
 71
     3
 72
     8
 73
     4
 74
     0
 42
0.0000000001
 43
0.0000000001
 40
0.0
 40
0.0
 40
0.0
 40
0.0
 40
12.31649706694236
 40
12.31649706694236
 40
12.31649706694236
 40
12.31649706694236
 10
-22.1763265306124
 20
4.500000000000079
 30
0.0
 10
-18.23839889696415
 20
4.500000000000082
 30
0.0
 10
-14.66328108113521
 20
2.250000000000086
 30
0.0
 10
-11.08816326530626
 20
0.000000000000094
 30
0.0
  0
SPLINE
  5
1D73
330
1F
100
AcDbEntity
  8
AM_0
100
AcDbSpline
210
0.0
220
0.0
230
1.0
 70
     8
 71
     3
 72
     8
 73
     4
 74
     0
 42
0.0000000001
 43
0.0000000001
 40
0.7142832446738512
 40
0.7142832446738512
 40
0.7142832446738512
 40
0.7142832446738512
 40
14.36247867694493
 40
14.36247867694493
 40
14.36247867694493
 40
14.36247867694493
 10
-18.53450244490257
 20
4.140538010841848
 30
0.0
 10
-14.85399835372408
 20
3.949026331927965
 30
0.0
 10
-11.4402144686482
 20
1.974513165964006
 30
0.0
 10
-8.026430583572334
 20
0.0000000000000414
 30
0.0
  0
SPLINE
  5
1D74
330
1F
100
AcDbEntity
  8
AM_0
100
AcDbSpline
210
0.0
220
0.0
230
1.0
 70
     8
 71
     3
 72
     8
 73
     4
 74
     0
 42
0.0000000001
 43
0.0000000001
 40
0.0
 40
0.0
 40
0.0
 40
0.0
 40
12.20810687540319
 40
12.20810687540319
 40
12.20810687540319
 40
12.20810687540319
 10
-8.026430583572491
 20
-4.155700053422325
 30
0.0
 10
-11.92970284985787
 20
-4.155700053422329
 30
0.0
 10
-15.52214834936823
 20
-2.077850026711094
 30
0.0
 10
-19.11459384887861
 20
0.0000000000001392
 30
0.0
  0
SPLINE
  5
1D75
330
1F
100
AcDbEntity
  8
AM_0
100
AcDbSpline
210
0.0
220
0.0
230
1.0
 70
     8
 71
     3
 72
     8
 73
     4
 74
     0
 42
0.0000000001
 43
0.0000000001
 40
0.0
 40
0.0
 40
0.0
 40
0.0
 40
12.27316562019626
 40
12.27316562019626
 40
12.27316562019626
 40
12.27316562019626
 10
-9.665088186925103
 20
-4.365255303301754
 30
0.0
 10
-13.58916154848445
 20
-4.365255303301758
 30
0.0
 10
-17.17120650035785
 20
-2.182627651650813
 30
0.0
 10
-20.75325145223125
 20
0.0000000000001317
 30
0.0
  0
SPLINE
  5
1D76
330
1F
100
AcDbEntity
  8
AM_0
100
AcDbSpline
210
0.0
220
0.0
230
1.0
 70
     8
 71
     3
 72
     8
 73
     4
 74
     0
 42
0.0000000001
 43
0.0000000001
 40
0.3581103616548037
 40
0.3581103616548037
 40
0.3581103616548037
 40
0.3581103616548037
 40
14.43901837670146
 40
14.43901837670146
 40
14.43901837670146
 40
14.43901837670146
 10
-20.46190782740673
 20
4.361260880567387
 30
0.0
 10
-16.65149739525148
 20
4.256990107247886
 30
0.0
 10
-13.15829279108821
 20
2.128495053623961
 30
0.0
 10
-9.665088186924975
 20
0.0000000000000414
 30
0.0
  0
SPLINE
  5
1D77
330
1F
100
AcDbEntity
  8
AM_0
100
AcDbSpline
210
0.0
220
0.0
230
1.0
 70
     8
 71
     3
 72
     8
 73
     4
 74
     0
 42
0.0000000001
 43
0.0000000001
 40
0.0
 40
0.0
 40
0.0
 40
0.0
 40
12.11401373129973
 40
12.11401373129973
 40
12.11401373129973
 40
12.11401373129973
 10
-11.08816326530642
 20
-4.499999999999905
 30
0.0
 10
-14.96135132905531
 20
-4.499999999999909
 30
0.0
 10
-18.48356071105654
 20
-2.323371928910637
 30
0.0
 10
-22.00000000000014
 20
-0.1109600704431666
 30
0.0
  0
ELLIPSE
  5
1D78
330
1F
100
AcDbEntity
  8
AM_0
100
AcDbEllipse
 10
1.618931502489374
 20
-2.289492148246117
 30
0.0
 11
0.0000000000000025
 21
2.736628303964443
 31
0.0
210
0.0
220
0.0
230
1.0
 40
0.9058956916099775
 41
1.211124581303824
 42
2.069278538290319
  0
VIEWPORT
  5
110
330
101
100
AcDbEntity
 67
     1
  8
0
100
AcDbViewport
 10
420.5
 20
297.0
 30
0.0
 40
948.9782706766916
 41
628.452
 68
     1
 69
     1
1001
ACAD
1000
MVIEW
1002
{
1070
    16
1010
0.0
1020
0.0
1030
0.0
1010
0.0
1020
0.0
1030
1.0
1040
0.0
1040
628.452
1040
420.5
1040
297.0
1040
50.0
1040
0.0
1040
0.0
1070
     0
1070
   100
1070
     1
1070
     1
1070
     0
1070
     0
1070
     0
1070
     0
1040
0.0
1040
0.0
1040
0.0
1040
10.0
1040
10.0
1040
10.0
1040
10.0
1070
     0
1002
{
1002
}
1002
}
  0
ENDSEC
  0
SECTION
  2
OBJECTS
  0
DICTIONARY
  5
C
330
0
100
AcDbDictionary
  3
ACAD_GROUP
350
D
  3
ACAD_LAYOUT
350
1A
  3
ACAD_MLINESTYLE
350
17
  3
ACAD_PLOTSETTINGS
350
19
  3
ACAD_PLOTSTYLENAME
350
E
  3
ACDBVARIABLEDICTIONARY
350
34
  3
ACMDICTIONARY
350
43
  3
AMG
350
2B
  3
AMGSNAPSETTINGS
350
6E
  3
DWGPROPS
350
1F16
  3
ACDBHEADERROUNDTRIPXREC
350
1F22
  0
DICTIONARY
  5
74
330
1F
100
AcDbDictionary
280
     1
  3
ACAD_INDEX
360
1F18
  3
ACAD_LAYOUTSELFREF
360
1F45
  0
DICTIONARY
  5
1F4A
330
101
100
AcDbDictionary
280
     1
  3
ACAD_LAYOUTSELFREF
360
1F4B
  0
DICTIONARY
  5
D
102
{ACAD_REACTORS
330
C
102
}
330
C
100
AcDbDictionary
  0
DICTIONARY
  5
1A
102
{ACAD_REACTORS
330
C
102
}
330
C
100
AcDbDictionary
  0
DICTIONARY
  5
17
102
{ACAD_REACTORS
330
C
102
}
330
C
100
AcDbDictionary
  3
STANDARD
350
18
  0
DICTIONARY
  5
19
102
{ACAD_REACTORS
330
C
102
}
330
C
100
AcDbDictionary
  0
ACDBDICTIONARYWDFLT
  5
E
102
{ACAD_REACTORS
330
C
102
}
330
C
100
AcDbDictionary
281
     1
  3
Normal
350
F
100
AcDbDictionaryWithDefault
340
F
  0
DICTIONARY
  5
34
102
{ACAD_REACTORS
330
C
102
}
330
C
100
AcDbDictionary
  3
INDEXCTL
350
35
  3
SORTENTS
350
B5E
  0
DICTIONARY
  5
43
102
{ACAD_REACTORS
330
C
102
}
330
C
100
AcDbDictionary
  3
ACMSTDDICTIONARY
350
260
  0
DICTIONARY
  5
2B
102
{ACAD_REACTORS
330
C
102
}
330
C
100
AcDbDictionary
  3
ACMGSETTINGS
350
2C
  0
DICTIONARY
  5
6E
102
{ACAD_REACTORS
330
C
102
}
330
C
100
AcDbDictionary
  0
XRECORD
  5
1F16
102
{ACAD_REACTORS
330
C
102
}
330
C
100
AcDbXrecord
  1
DWGPROPS COOKIE
  2

  3

  4

  6

  7

  8

  9

300
AmdtFileType=82
301
=
302
=
303
=
304
=
305
=
306
=
307
=
308
=
309
=
 40
0.0402394560185185
 41
2452836.771637361
 42
2452901.554753321
  1

 90
        1
  0
DICTIONARY
  5
1F22
102
{ACAD_REACTORS
330
C
102
}
330
C
100
AcDbDictionary
  3
TSTACKALIGN
350
1F23
  3
TSTACKSIZE
350
1F24
  3
HYPERLINKBASE
350
1F25
  3
STYLESHEET
350
1F26
  3
LAYOUTDICT
350
1F27
  3
PLOTSETDICT
350
1F28
  3
PLOTSTYLNAMDICT
350
1F29
  3
LWETCUNION
350
1F2A
  3
INSUNITS
350
1F2B
  3
CEPSNTYPE
350
1F2C
  3
FINGERPRINTGUID
350
1F2D
  3
VERSIONGUID
350
1F2E
  3
PSVPSCALE
350
1F2F
  3
DIMSTYLEDATA
350
1F30
  3
PUCSORTHOREF
350
1F31
  3
PUCSORTHOVIEW
350
1F32
  3
PUCSBASE
350
1F33
  3
PUCSORGTOP
350
1F34
  3
PUCSORGBOTTOM
350
1F35
  3
PUCSORGLEFT
350
1F36
  3
PUCSORGRIGHT
350
1F37
  3
PUCSORGFRONT
350
1F38
  3
PUCSORGBACK
350
1F39
  3
UCSORTHOREF
350
1F3A
  3
UCSORTHOVIEW
350
1F3B
  3
UCSBASE
350
1F3C
  3
UCSORGTOP
350
1F3D
  3
UCSORGBOTTOM
350
1F3E
  3
UCSORGLEFT
350
1F3F
  3
UCSORGRIGHT
350
1F40
  3
UCSORGFRONT
350
1F41
  3
UCSORGBACK
350
1F42
  0
DICTIONARY
  5
1F18
102
{ACAD_REACTORS
330
74
102
}
330
74
100
AcDbDictionary
  3
*A1
350
1F19
  0
XRECORD
  5
1F45
102
{ACAD_REACTORS
330
74
102
}
330
74
100
AcDbXrecord
340
1F
  0
XRECORD
  5
1F4B
102
{ACAD_REACTORS
330
1F4A
102
}
330
1F4A
100
AcDbXrecord
340
101
  0
MLINESTYLE
  5
18
102
{ACAD_REACTORS
330
17
102
}
330
17
100
AcDbMlineStyle
  2
STANDARD
 70
     0
  3

 62
   256
 51
90.0
 52
90.0
 71
     2
 49
0.5
 62
   256
  6
BYLAYER
 49
-0.5
 62
   256
  6
BYLAYER
  0
ACDBPLACEHOLDER
  5
F
102
{ACAD_REACTORS
330
E
102
}
330
E
100
AcDbPlaceHolder
280
     0
  0
DICTIONARYVAR
  5
35
102
{ACAD_REACTORS
330
34
102
}
330
34
100
DictionaryVariables
280
     0
  1
1
  0
DICTIONARYVAR
  5
B5E
102
{ACAD_REACTORS
330
34
102
}
330
34
100
DictionaryVariables
280
     0
  1
96
  0
DICTIONARY
  5
260
102
{ACAD_REACTORS
330
43
102
}
330
43
100
AcDbDictionary
  0
DICTIONARY
  5
2C
102
{ACAD_REACTORS
330
2B
102
}
330
2B
100
AcDbDictionary
  3
DWGSETTINGS
350
2D
  0
XRECORD
  5
1F23
102
{ACAD_REACTORS
330
1F22
102
}
330
1F22
100
AcDbXrecord
 90
        1
  0
XRECORD
  5
1F24
102
{ACAD_REACTORS
330
1F22
102
}
330
1F22
100
AcDbXrecord
 90
       70
  0
XRECORD
  5
1F25
102
{ACAD_REACTORS
330
1F22
102
}
330
1F22
100
AcDbXrecord
  1

  0
XRECORD
  5
1F26
102
{ACAD_REACTORS
330
1F22
102
}
330
1F22
100
AcDbXrecord
  1
ASAMI.ctb
  0
XRECORD
  5
1F27
102
{ACAD_REACTORS
330
1F22
102
}
330
1F22
100
AcDbXrecord
340
1A
  0
XRECORD
  5
1F28
102
{ACAD_REACTORS
330
1F22
102
}
330
1F22
100
AcDbXrecord
340
19
  0
XRECORD
  5
1F29
102
{ACAD_REACTORS
330
1F22
102
}
330
1F22
100
AcDbXrecord
340
E
  0
XRECORD
  5
1F2A
102
{ACAD_REACTORS
330
1F22
102
}
330
1F22
100
AcDbXrecord
 90
    10781
  0
XRECORD
  5
1F2B
102
{ACAD_REACTORS
330
1F22
102
}
330
1F22
100
AcDbXrecord
 90
        4
  0
XRECORD
  5
1F2C
102
{ACAD_REACTORS
330
1F22
102
}
330
1F22
100
AcDbXrecord
 90
        0
  0
XRECORD
  5
1F2D
102
{ACAD_REACTORS
330
1F22
102
}
330
1F22
100
AcDbXrecord
  1
{AFB28963-8C59-40AE-9337-C84526B81ACE}
  0
XRECORD
  5
1F2E
102
{ACAD_REACTORS
330
1F22
102
}
330
1F22
100
AcDbXrecord
  1
{791C7366-2429-43B5-8590-2626FC303AF0}
  0
XRECORD
  5
1F2F
102
{ACAD_REACTORS
330
1F22
102
}
330
1F22
100
AcDbXrecord
 40
0.0
  0
XRECORD
  5
1F30
102
{ACAD_REACTORS
330
1F22
102
}
330
1F22
100
AcDbXrecord
1000
DSTYLE
1002
{
1070
    79
 70
     2
1070
   341
340
59
1070
   342
340
59
1070
   371
 70
    -1
1070
   372
 70
    -1
1002
}
  0
XRECORD
  5
1F31
102
{ACAD_REACTORS
330
1F22
102
}
330
1F22
100
AcDbXrecord
340
0
  0
XRECORD
  5
1F32
102
{ACAD_REACTORS
330
1F22
102
}
330
1F22
100
AcDbXrecord
 70
     0
  0
XRECORD
  5
1F33
102
{ACAD_REACTORS
330
1F22
102
}
330
1F22
100
AcDbXrecord
340
0
  0
XRECORD
  5
1F34
102
{ACAD_REACTORS
330
1F22
102
}
330
1F22
100
AcDbXrecord
 10
0.0
 20
0.0
 30
0.0
  0
XRECORD
  5
1F35
102
{ACAD_REACTORS
330
1F22
102
}
330
1F22
100
AcDbXrecord
 10
0.0
 20
0.0
 30
0.0
  0
XRECORD
  5
1F36
102
{ACAD_REACTORS
330
1F22
102
}
330
1F22
100
AcDbXrecord
 10
0.0
 20
0.0
 30
0.0
  0
XRECORD
  5
1F37
102
{ACAD_REACTORS
330
1F22
102
}
330
1F22
100
AcDbXrecord
 10
0.0
 20
0.0
 30
0.0
  0
XRECORD
  5
1F38
102
{ACAD_REACTORS
330
1F22
102
}
330
1F22
100
AcDbXrecord
 10
0.0
 20
0.0
 30
0.0
  0
XRECORD
  5
1F39
102
{ACAD_REACTORS
330
1F22
102
}
330
1F22
100
AcDbXrecord
 10
0.0
 20
0.0
 30
0.0
  0
XRECORD
  5
1F3A
102
{ACAD_REACTORS
330
1F22
102
}
330
1F22
100
AcDbXrecord
340
0
  0
XRECORD
  5
1F3B
102
{ACAD_REACTORS
330
1F22
102
}
330
1F22
100
AcDbXrecord
 70
     0
  0
XRECORD
  5
1F3C
102
{ACAD_REACTORS
330
1F22
102
}
330
1F22
100
AcDbXrecord
340
0
  0
XRECORD
  5
1F3D
102
{ACAD_REACTORS
330
1F22
102
}
330
1F22
100
AcDbXrecord
 10
0.0
 20
0.0
 30
0.0
  0
XRECORD
  5
1F3E
102
{ACAD_REACTORS
330
1F22
102
}
330
1F22
100
AcDbXrecord
 10
0.0
 20
0.0
 30
0.0
  0
XRECORD
  5
1F3F
102
{ACAD_REACTORS
330
1F22
102
}
330
1F22
100
AcDbXrecord
 10
0.0
 20
0.0
 30
0.0
  0
XRECORD
  5
1F40
102
{ACAD_REACTORS
330
1F22
102
}
330
1F22
100
AcDbXrecord
 10
0.0
 20
0.0
 30
0.0
  0
XRECORD
  5
1F41
102
{ACAD_REACTORS
330
1F22
102
}
330
1F22
100
AcDbXrecord
 10
0.0
 20
0.0
 30
0.0
  0
XRECORD
  5
1F42
102
{ACAD_REACTORS
330
1F22
102
}
330
1F22
100
AcDbXrecord
 10
0.0
 20
0.0
 30
0.0
  0
LAYER_INDEX
  5
1F19
102
{ACAD_REACTORS
330
1F18
102
}
330
1F18
100
AcDbIndex
 40
2453152.456141377
100
AcDbLayerIndex
  8
0
360
1F1A
 90
        0
  8
AM_0
360
1F1B
 90
       61
  8
AM_11
360
1F1C
 90
        3
  8
AM_7
360
1F1D
 90
        1
  8
AM_5
360
1F1E
 90
        4
  8
Defpoints
360
1F1F
 90
        0
  8
AM_6
360
1F20
 90
        1
  0
XRECORD
  5
2D
102
{ACAD_REACTORS
330
2C
102
}
330
2C
100
AcDbXrecord
  1
VERSION
140
15.0
  1
PRODUCT
  2
AutoCAD Mechanical 2000
  0
IDBUFFER
  5
1F1A
330
0
100
AcDbIdBuffer
  0
IDBUFFER
  5
1F1B
330
0
100
AcDbIdBuffer
330
1D6C
330
1D6D
330
1D6E
330
1D6F
330
1D70
330
1D71
330
1D72
330
1D73
330
1D74
330
1D75
330
1D76
330
1D77
330
1D78
330
13AC
330
13AD
330
13AE
330
13AF
330
13B1
330
13B2
330
16DF
330
16F6
330
16F7
330
16F8
330
16F9
330
16FA
330
1D1E
330
1D1F
330
1D20
330
1D21
330
1D22
330
1D23
330
1D24
330
1D25
330
1D26
330
1D27
330
1D28
330
1D29
330
1D2A
330
1D2B
330
1D2C
330
1D2D
330
1D3B
330
1D48
330
1D49
330
1D4A
330
1D59
330
1D5A
330
1D5E
330
1D5F
330
1D60
330
1D61
330
1D62
330
1D63
330
1D64
330
1D65
330
1D66
330
1D67
330
1D68
330
1D69
330
1D6A
330
1D6B
  0
IDBUFFER
  5
1F1C
330
0
100
AcDbIdBuffer
330
1D5B
330
1D5C
330
1D5D
  0
IDBUFFER
  5
1F1D
330
0
100
AcDbIdBuffer
330
132B
  0
IDBUFFER
  5
1F1E
330
0
100
AcDbIdBuffer
330
13B0
330
13B3
330
145B
330
1D2E
  0
IDBUFFER
  5
1F1F
330
0
100
AcDbIdBuffer
  0
IDBUFFER
  5
1F20
330
0
100
AcDbIdBuffer
330
E5A
  0
ENDSEC
  0
EOF
