  0
SECTION
  2
HEADER
  9
$ACADVER
  1
AC1014
  9
$ACADMAINTVER
 70
     9
  9
$DWGCODEPAGE
  3
ANSI_932
  9
$INSBASE
 10
0.0
 20
0.0
 30
0.0
  9
$EXTMIN
 10
-87.08320585933192
 20
-30.25000099999992
 30
-0.00000001
  9
$EXTMAX
 10
12.05776903085525
 20
6.662369266392293
 30
0.00000001
  9
$LIMMIN
 10
-90.26083252857615
 20
-36.04116777313549
  9
$LIMMAX
 10
15.67006784125192
 20
12.98276386891694
  9
$ORTHOMODE
 70
     0
  9
$REGENMODE
 70
     1
  9
$FILLMODE
 70
     1
  9
$QTEXTMODE
 70
     0
  9
$MIRRTEXT
 70
     0
  9
$DRAGMODE
 70
     2
  9
$LTSCALE
 40
1.0
  9
$OSMODE
 70
    55
  9
$ATTMODE
 70
     1
  9
$TEXTSIZE
 40
2.5
  9
$TRACEWID
 40
1.0
  9
$TEXTSTYLE
  7
STANDARD
  9
$CLAYER
  8
AM_0
  9
$CELTYPE
  6
BYLAYER
  9
$CECOLOR
 62
   256
  9
$CELTSCALE
 40
1.0
  9
$DELOBJ
 70
     1
  9
$DISPSILH
 70
     0
  9
$DIMSCALE
 40
0.5
  9
$DIMASZ
 40
2.5
  9
$DIMEXO
 40
1.0
  9
$DIMDLI
 40
12.0
  9
$DIMRND
 40
0.0
  9
$DIMDLE
 40
0.0
  9
$DIMEXE
 40
1.0
  9
$DIMTP
 40
0.1
  9
$DIMTM
 40
0.1
  9
$DIMTXT
 40
3.2
  9
$DIMCEN
 40
0.0
  9
$DIMTSZ
 40
0.0
  9
$DIMTOL
 70
     0
  9
$DIMLIM
 70
     0
  9
$DIMTIH
 70
     0
  9
$DIMTOH
 70
     0
  9
$DIMSE1
 70
     0
  9
$DIMSE2
 70
     0
  9
$DIMTAD
 70
     3
  9
$DIMZIN
 70
     8
  9
$DIMBLK
  1
OPEN30
  9
$DIMASO
 70
     1
  9
$DIMSHO
 70
     1
  9
$DIMPOST
  1

  9
$DIMAPOST
  1
"
  9
$DIMALT
 70
     0
  9
$DIMALTD
 70
     2
  9
$DIMALTF
 40
0.0393701
  9
$DIMLFAC
 40
1.0
  9
$DIMTOFL
 70
     1
  9
$DIMTVP
 40
0.0
  9
$DIMTIX
 70
     0
  9
$DIMSOXD
 70
     0
  9
$DIMSAH
 70
     0
  9
$DIMBLK1
  1

  9
$DIMBLK2
  1

  9
$DIMSTYLE
  2
AM_JIS
  9
$DIMCLRD
 70
   256
  9
$DIMCLRE
 70
   256
  9
$DIMCLRT
 70
     2
  9
$DIMTFAC
 40
0.71
  9
$DIMGAP
 40
1.5
  9
$DIMJUST
 70
     0
  9
$DIMSD1
 70
     0
  9
$DIMSD2
 70
     0
  9
$DIMTOLJ
 70
     0
  9
$DIMTZIN
 70
     0
  9
$DIMALTZ
 70
     0
  9
$DIMALTTZ
 70
     0
  9
$DIMFIT
 70
     3
  9
$DIMUPT
 70
     0
  9
$DIMUNIT
 70
     2
  9
$DIMDEC
 70
     3
  9
$DIMTDEC
 70
     3
  9
$DIMALTU
 70
     2
  9
$DIMALTTD
 70
     2
  9
$DIMTXSTY
  7
ASAMI
  9
$DIMAUNIT
 70
     0
  9
$LUNITS
 70
     2
  9
$LUPREC
 70
     2
  9
$SKETCHINC
 40
1.0
  9
$FILLETRAD
 40
2.5
  9
$AUNITS
 70
     0
  9
$AUPREC
 70
     0
  9
$MENU
  1
.
  9
$ELEVATION
 40
0.0
  9
$PELEVATION
 40
0.0
  9
$THICKNESS
 40
0.0
  9
$LIMCHECK
 70
     0
  9
$BLIPMODE
 70
     0
  9
$CHAMFERA
 40
0.75
  9
$CHAMFERB
 40
0.75
  9
$CHAMFERC
 40
20.0
  9
$CHAMFERD
 40
0.0
  9
$SKPOLY
 70
     0
  9
$TDCREATE
 40
2452836.771637361
  9
$TDUPDATE
 40
2453152.456637083
  9
$TDINDWG
 40
0.0255814120
  9
$TDUSRTIMER
 40
0.0255814120
  9
$USRTIMER
 70
     1
  9
$ANGBASE
 50
0.0
  9
$ANGDIR
 70
     0
  9
$PDMODE
 70
     0
  9
$PDSIZE
 40
0.0
  9
$PLINEWID
 40
0.0
  9
$COORDS
 70
     1
  9
$SPLFRAME
 70
     0
  9
$SPLINETYPE
 70
     6
  9
$SPLINESEGS
 70
     8
  9
$ATTDIA
 70
     1
  9
$ATTREQ
 70
     1
  9
$HANDLING
 70
 12289
  9
$HANDSEED
  5
19E2
  9
$SURFTAB1
 70
     6
  9
$SURFTAB2
 70
     6
  9
$SURFTYPE
 70
     6
  9
$SURFU
 70
     6
  9
$SURFV
 70
     6
  9
$UCSNAME
  2

  9
$UCSORG
 10
0.0
 20
0.0
 30
0.0
  9
$UCSXDIR
 10
1.0
 20
0.0
 30
0.0
  9
$UCSYDIR
 10
0.0
 20
1.0
 30
0.0
  9
$PUCSNAME
  2

  9
$PUCSORG
 10
0.0
 20
0.0
 30
0.0
  9
$PUCSXDIR
 10
1.0
 20
0.0
 30
0.0
  9
$PUCSYDIR
 10
0.0
 20
1.0
 30
0.0
  9
$USERI1
 70
     0
  9
$USERI2
 70
     0
  9
$USERI3
 70
     0
  9
$USERI4
 70
     0
  9
$USERI5
 70
     0
  9
$USERR1
 40
0.0
  9
$USERR2
 40
0.0
  9
$USERR3
 40
0.0
  9
$USERR4
 40
0.0
  9
$USERR5
 40
0.0
  9
$WORLDVIEW
 70
     1
  9
$SHADEDGE
 70
     3
  9
$SHADEDIF
 70
    70
  9
$TILEMODE
 70
     1
  9
$MAXACTVP
 70
    64
  9
$PINSBASE
 10
0.0
 20
0.0
 30
0.0
  9
$PLIMCHECK
 70
     0
  9
$PEXTMIN
 10
1.000000000000000E+20
 20
1.000000000000000E+20
 30
1.000000000000000E+20
  9
$PEXTMAX
 10
-1.000000000000000E+20
 20
-1.000000000000000E+20
 30
-1.000000000000000E+20
  9
$PLIMMIN
 10
0.0
 20
0.0
  9
$PLIMMAX
 10
841.0
 20
594.0
  9
$UNITMODE
 70
     0
  9
$VISRETAIN
 70
     1
  9
$PLINEGEN
 70
     0
  9
$PSLTSCALE
 70
     0
  9
$TREEDEPTH
 70
  3020
  9
$PICKSTYLE
 70
     0
  9
$CMLSTYLE
  2
STANDARD
  9
$CMLJUST
 70
     0
  9
$CMLSCALE
 40
20.0
  9
$PROXYGRAPHICS
 70
     1
  9
$MEASUREMENT
 70
     1
  0
ENDSEC
  0
SECTION
  2
CLASSES
  0
CLASS
  1
ACDBDICTIONARYWDFLT
  2
AcDbDictionaryWithDefault
  3
AutoCAD 2000
 90
        0
280
     0
281
     0
  0
CLASS
  1
ACDBPLACEHOLDER
  2
AcDbPlaceHolder
  3
AutoCAD 2000
 90
        0
280
     0
281
     0
  0
CLASS
  1
LAYOUT
  2
AcDbLayout
  3
AutoCAD 2000
 90
        0
280
     0
281
     0
  0
CLASS
  1
AMGSETTINGSOBJ
  2
AmgSettingsObj
  3
"AcadM|Product Description: AutoCAD Mechanical 2000|Company: Autodesk"
 90
        0
280
     0
281
     0
  0
CLASS
  1
ACME_DOCUMENT
  2
AcMeDbDoc
  3
AcMeServices
 90
        0
280
     0
281
     0
  0
CLASS
  1
ACMESCOPE
  2
AcMeScope
  3
AcMeServices
 90
        0
280
     0
281
     0
  0
CLASS
  1
ACMECOMMANDHISTORY
  2
AcMeCommandHistory
  3
AcMeServices
 90
        0
280
     0
281
     0
  0
CLASS
  1
DICTIONARYVAR
  2
AcDbDictionaryVar
  3
AutoCAD 2000
 90
        0
280
     0
281
     0
  0
CLASS
  1
ACIMSYSVARMAN
  2
AcImSysVarManager
  3
AcMeServices
 90
        0
280
     0
281
     0
  0
CLASS
  1
ACIMREALSYSVAR
  2
AcImRealSysVar
  3
AcMeServices
 90
        0
280
     0
281
     0
  0
CLASS
  1
ACIMINTSYSVAR
  2
AcImIntSysVar
  3
AcMeServices
 90
        0
280
     0
281
     0
  0
CLASS
  1
ACMEDRAWINGMAN
  2
AcMeDrawingMan
  3
AcMeServices
 90
        0
280
     0
281
     0
  0
CLASS
  1
ACMEVIEW
  2
AcMeView
  3
AcMeServices
 90
        0
280
     0
281
     0
  0
CLASS
  1
ACDBENTITYCACHE
  2
AcMeEntityCache
  3
AcMeServices
 90
        0
280
     0
281
     0
  0
CLASS
  1
GSMANAGER
  2
AcMeGSManager
  3
AcMeServices
 90
        0
280
     0
281
     0
  0
CLASS
  1
AmdtInternalReactor
  2
AmdtInternalReactor
  3
AcMeServices
 90
        0
280
     0
281
     0
  0
CLASS
  1
ACMESTATEMGR
  2
AcMeStateMgr
  3
AcMeServices
 90
        0
280
     0
281
     0
  0
CLASS
  1
ACME_DATABASE
  2
AcMeDbDatabase
  3
AcMeServices
 90
        0
280
     0
281
     0
  0
CLASS
  1
ACRFINSADJUSTERMGR
  2
AcRfInsAdjusterMgr
  3
AcMeServices
 90
        0
280
     0
281
     0
  0
CLASS
  1
ACMDATADICTIONARY
  2
AcmDataDictionary
  3
"AcmSymBB|Product Description: AutoCAD Mechanical 2000|Company: Autodesk"
 90
        0
280
     0
281
     0
  0
CLASS
  1
ACMDATAENTRYBLOCK
  2
AcmDataEntryBlock
  3
"AcmSymBB|Product Description: AutoCAD Mechanical 2000|Company: Autodesk"
 90
        0
280
     0
281
     0
  0
CLASS
  1
AMGOBJPROPCFG
  2
AmgObjPropCfg
  3
"AmgLay|Product Description: AutoCAD Mechanical 2000|Company: Autodesk"
 90
        1
280
     0
281
     0
  0
CLASS
  1
ACAMGFILTERDAT
  2
AcAmgFilterDat
  3
"AcadM|Product Description: AutoCAD Mechanical 2000|Company: Autodesk"
 90
        0
280
     0
281
     0
  0
CLASS
  1
LAYER_INDEX
  2
AcDbLayerIndex
  3
AutoCAD 2000
 90
        0
280
     0
281
     0
  0
CLASS
  1
IDBUFFER
  2
AcDbIdBuffer
  3
AutoCAD 2000
 90
        0
280
     0
281
     0
  0
CLASS
  1
ACIMSTRSYSVAR
  2
AcImStrSysVar
  3
AcMeServices
 90
        0
280
     0
281
     0
  0
CLASS
  1
ACMSTANDARDJIS
  2
AcmStandardJIS
  3
"AcmSymBB|Product Description: AutoCAD Mechanical 2000|Company: Autodesk"
 90
        0
280
     0
281
     0
  0
CLASS
  1
ACMSURFSTANDARDJIS
  2
AcmSurfTextStdJIS
  3
"AcmSymBB|Product Description: AutoCAD Mechanical 2000|Company: Autodesk"
 90
        0
280
     0
281
     0
  0
CLASS
  1
ACMFCFSTANDARDJIS
  2
AcmFCFStdJIS
  3
"AcmSymBB|Product Description: AutoCAD Mechanical 2000|Company: Autodesk"
 90
        0
280
     0
281
     0
  0
CLASS
  1
ACMWELDSTANDARDJIS
  2
AcmWeldingStdJIS
  3
"AcmSymBB|Product Description: AutoCAD Mechanical 2000|Company: Autodesk"
 90
        0
280
     0
281
     0
  0
CLASS
  1
ACMIDSTANDARDJIS
  2
AcmIdStdJIS
  3
"AcmSymBB|Product Description: AutoCAD Mechanical 2000|Company: Autodesk"
 90
        0
280
     0
281
     0
  0
CLASS
  1
ACMDATUMSTANDARDJIS
  2
AcmDatumStdJIS
  3
"AcmSymBB|Product Description: AutoCAD Mechanical 2000|Company: Autodesk"
 90
        0
280
     0
281
     0
  0
CLASS
  1
ACMBOMSTANDARDJIS
  2
AcmBOMStdJIS
  3
"AcmSymBB|Product Description: AutoCAD Mechanical 2000|Company: Autodesk"
 90
        0
280
     0
281
     0
  0
CLASS
  1
ACMSTANDARDANSI
  2
AcmStandardANSI
  3
"AcmSymBB|Product Description: AutoCAD Mechanical 2000|Company: Autodesk"
 90
        0
280
     0
281
     0
  0
CLASS
  1
ACMSURFSTANDARDANSI
  2
AcmSurfTextStdANSI
  3
"AcmSymBB|Product Description: AutoCAD Mechanical 2000|Company: Autodesk"
 90
        0
280
     0
281
     0
  0
CLASS
  1
ACMFCFSTANDARDANSI
  2
AcmFCFStdANSI
  3
"AcmSymBB|Product Description: AutoCAD Mechanical 2000|Company: Autodesk"
 90
        0
280
     0
281
     0
  0
CLASS
  1
ACMWELDSTANDARDANSI
  2
AcmWeldingStdANSI
  3
"AcmSymBB|Product Description: AutoCAD Mechanical 2000|Company: Autodesk"
 90
        0
280
     0
281
     0
  0
CLASS
  1
ACMIDSTANDARDANSI
  2
AcmIdStdANSI
  3
"AcmSymBB|Product Description: AutoCAD Mechanical 2000|Company: Autodesk"
 90
        0
280
     0
281
     0
  0
CLASS
  1
ACMDATUMSTANDARDANSI
  2
AcmDatumStdANSI
  3
"AcmSymBB|Product Description: AutoCAD Mechanical 2000|Company: Autodesk"
 90
        0
280
     0
281
     0
  0
CLASS
  1
ACMBOMSTANDARDANSI
  2
AcmBOMStdANSI
  3
"AcmSymBB|Product Description: AutoCAD Mechanical 2000|Company: Autodesk"
 90
        0
280
     0
281
     0
  0
CLASS
  1
ACMSTANDARDBSI
  2
AcmStandardBSI
  3
"AcmSymBB|Product Description: AutoCAD Mechanical 2000|Company: Autodesk"
 90
        0
280
     0
281
     0
  0
CLASS
  1
ACMSURFSTANDARDBSI
  2
AcmSurfTextStdBSI
  3
"AcmSymBB|Product Description: AutoCAD Mechanical 2000|Company: Autodesk"
 90
        0
280
     0
281
     0
  0
CLASS
  1
ACMFCFSTANDARDBSI
  2
AcmFCFStdBSI
  3
"AcmSymBB|Product Description: AutoCAD Mechanical 2000|Company: Autodesk"
 90
        0
280
     0
281
     0
  0
CLASS
  1
ACMWELDSTANDARDBSI
  2
AcmWeldingStdBSI
  3
"AcmSymBB|Product Description: AutoCAD Mechanical 2000|Company: Autodesk"
 90
        0
280
     0
281
     0
  0
CLASS
  1
ACMIDSTANDARDBSI
  2
AcmIdStdBSI
  3
"AcmSymBB|Product Description: AutoCAD Mechanical 2000|Company: Autodesk"
 90
        0
280
     0
281
     0
  0
CLASS
  1
ACMDATUMSTANDARDBSI
  2
AcmDatumStdBSI
  3
"AcmSymBB|Product Description: AutoCAD Mechanical 2000|Company: Autodesk"
 90
        0
280
     0
281
     0
  0
CLASS
  1
ACMBOMSTANDARDBSI
  2
AcmBOMStdBSI
  3
"AcmSymBB|Product Description: AutoCAD Mechanical 2000|Company: Autodesk"
 90
        0
280
     0
281
     0
  0
CLASS
  1
LONG_TRANSACTION
  2
AcDbLongTransaction
  3
AutoCAD 2000
 90
        0
280
     0
281
     0
  0
CLASS
  1
LWPOLYLINE
  2
AcDbPolyline
  3
AutoCAD 2000
 90
        0
280
     0
281
     1
  0
CLASS
  1
HATCH
  2
AcDbHatch
  3
AutoCAD 2000
 90
        0
280
     0
281
     1
  0
CLASS
  1
XRECORD
  2
AcDbXrecord
  3
AutoCAD 2000
 90
        0
280
     0
281
     0
  0
ENDSEC
  0
SECTION
  2
TABLES
  0
TABLE
  2
VPORT
  5
8
330
0
100
AcDbSymbolTable
 70
     3
  0
VPORT
  5
19B7
330
8
100
AcDbSymbolTableRecord
100
AcDbViewportTableRecord
  2
*ACTIVE
 70
     0
 10
0.0
 20
0.0
 11
1.0
 21
1.0
 12
-37.51359302790895
 22
-11.79475810861457
 13
0.0
 23
0.0
 14
2.5
 24
2.5
 15
10.0
 25
10.0
 16
0.0
 26
0.0
 36
1.0
 17
0.0
 27
0.0
 37
0.0
 40
63.59764142296238
 41
1.56570841889117
 42
50.0
 43
0.0
 44
0.0
 50
0.0
 51
0.0
 71
     0
 72
   100
 73
     1
 74
     3
 75
     0
 76
     0
 77
     0
 78
     0
  0
ENDTAB
  0
TABLE
  2
LTYPE
  5
5
330
0
100
AcDbSymbolTable
 70
    10
  0
LTYPE
  5
14
330
5
100
AcDbSymbolTableRecord
100
AcDbLinetypeTableRecord
  2
BYBLOCK
 70
     0
  3

 72
    65
 73
     0
 40
0.0
  0
LTYPE
  5
15
330
5
100
AcDbSymbolTableRecord
100
AcDbLinetypeTableRecord
  2
BYLAYER
 70
     0
  3

 72
    65
 73
     0
 40
0.0
  0
LTYPE
  5
16
330
5
100
AcDbSymbolTableRecord
100
AcDbLinetypeTableRecord
  2
CONTINUOUS
 70
     0
  3
Solid line
 72
    65
 73
     0
 40
0.0
  0
LTYPE
  5
4B
330
5
100
AcDbSymbolTableRecord
100
AcDbLinetypeTableRecord
  2
AM_ISO02W050
 70
     0
  3
__ __ __ __ __ __ __ __ __ __ __ __ __ __ __
 72
    65
 73
     2
 40
7.5
 49
6.0
 74
     0
 49
-1.5
 74
     0
  0
LTYPE
  5
4C
330
5
100
AcDbSymbolTableRecord
100
AcDbLinetypeTableRecord
  2
AM_ISO08W050
 70
     0
  3
____ . ____ . ____ . ____ . ____ . ____ . ____
 72
    65
 73
     4
 40
18.0
 49
12.0
 74
     0
 49
-1.5
 74
     0
 49
3.0
 74
     0
 49
-1.5
 74
     0
  0
LTYPE
  5
4D
330
5
100
AcDbSymbolTableRecord
100
AcDbLinetypeTableRecord
  2
AM_ISO09W050
 70
     0
  3
_____ . . _____ . . _____ . . ____ .. ____
 72
    65
 73
     6
 40
22.5
 49
12.0
 74
     0
 49
-1.5
 74
     0
 49
3.0
 74
     0
 49
-1.5
 74
     0
 49
3.0
 74
     0
 49
-1.5
 74
     0
  0
LTYPE
  5
4E
330
5
100
AcDbSymbolTableRecord
100
AcDbLinetypeTableRecord
  2
AMCONSTR
 70
     0
  3
_______________________
 72
    65
 73
     2
 40
9999.0
 49
9999.0
 74
     0
 49
0.0
 74
     0
  0
LTYPE
  5
4F
330
5
100
AcDbSymbolTableRecord
100
AcDbLinetypeTableRecord
  2
AM_ISO02W050X2
 70
     0
  3
 _ _ _ _ _ _ _ _ _ _ _ _
 72
    65
 73
     2
 40
3.75
 49
3.0
 74
     0
 49
-0.75
 74
     0
  0
LTYPE
  5
50
330
5
100
AcDbSymbolTableRecord
100
AcDbLinetypeTableRecord
  2
AM_ISO08W050X2
 70
     0
  3
__ . __ . __ . __ . __ . __
 72
    65
 73
     4
 40
9.0
 49
6.0
 74
     0
 49
-0.75
 74
     0
 49
1.5
 74
     0
 49
-0.75
 74
     0
  0
LTYPE
  5
53
330
5
100
AcDbSymbolTableRecord
100
AcDbLinetypeTableRecord
  2
AMZIGZAG
 70
     0
  3
/\/-/\/-/\/-/\/-/\/-/\/
 72
    65
 73
     2
 40
11.00009999999999
 49
0.0001
 74
     4
 75
   135
340
52
 46
0.04
 50
0.0
 44
0.0
 45
0.0
 49
-11.0
 74
     0
  0
LTYPE
  5
166
330
5
100
AcDbSymbolTableRecord
100
AcDbLinetypeTableRecord
  2
ACJISTGL
 70
     0
  3
_ _ _ _ _
 72
    65
 73
     2
 40
3.0
 49
2.0
 74
     0
 49
-1.0
 74
     0
  0
LTYPE
  5
26A
330
5
100
AcDbSymbolTableRecord
100
AcDbLinetypeTableRecord
  2
ACJISTGB
 70
     0
  3
__ . . __ . .
 72
    65
 73
     6
 40
9.0
 49
4.0
 74
     0
 49
-1.0
 74
     0
 49
1.0
 74
     0
 49
-1.0
 74
     0
 49
1.0
 74
     0
 49
-1.0
 74
     0
  0
ENDTAB
  0
TABLE
  2
LAYER
  5
2
330
0
100
AcDbSymbolTable
 70
     8
  0
LAYER
  5
10
330
2
100
AcDbSymbolTableRecord
100
AcDbLayerTableRecord
  2
0
 70
     0
 62
     7
  6
CONTINUOUS
  0
LAYER
  5
3F9
330
2
100
AcDbSymbolTableRecord
100
AcDbLayerTableRecord
  2
AM_0
 70
     0
 62
     7
  6
CONTINUOUS
  0
LAYER
  5
BD4
330
2
100
AcDbSymbolTableRecord
100
AcDbLayerTableRecord
  2
AM_11
 70
     0
 62
     3
  6
AM_ISO09W050
  0
LAYER
  5
BD5
330
2
100
AcDbSymbolTableRecord
100
AcDbLayerTableRecord
  2
AM_7
 70
     0
 62
     4
  6
AM_ISO08W050
  0
LAYER
  5
BD6
330
2
100
AcDbSymbolTableRecord
100
AcDbLayerTableRecord
  2
AM_5
 70
     0
 62
     3
  6
CONTINUOUS
  0
LAYER
  5
BD7
330
2
100
AcDbSymbolTableRecord
100
AcDbLayerTableRecord
  2
DEFPOINTS
 70
     0
 62
     7
  6
CONTINUOUS
  0
LAYER
  5
E59
330
2
100
AcDbSymbolTableRecord
100
AcDbLayerTableRecord
  2
AM_6
 70
     0
 62
     2
  6
CONTINUOUS
  0
LAYER
  5
1714
330
2
100
AcDbSymbolTableRecord
100
AcDbLayerTableRecord
  2
AM_CL
 70
     0
 62
     1
  6
AMCONSTR
  0
ENDTAB
  0
TABLE
  2
STYLE
  5
3
330
0
100
AcDbSymbolTable
 70
     5
  0
STYLE
  5
11
330
3
100
AcDbSymbolTableRecord
100
AcDbTextStyleTableRecord
  2
STANDARD
 70
     0
 40
0.0
 41
1.0
 50
0.0
 71
     0
 42
2.5
  3
simplex.shx
  4
EXTFONT.SHX
  0
STYLE
  5
52
330
3
100
AcDbSymbolTableRecord
100
AcDbTextStyleTableRecord
  2

 70
     1
 40
0.0
 41
1.0
 50
0.0
 71
     0
 42
2.5
  3
ltypeshp.shx
  4

  0
STYLE
  5
6B
330
3
100
AcDbSymbolTableRecord
100
AcDbTextStyleTableRecord
  2
ASAMI
 70
     0
 40
0.0
 41
1.0
 50
0.0
 71
     0
 42
2.5
  3
simplex.shx
  4
EXTFONT.SHX
  0
STYLE
  5
262
330
3
100
AcDbSymbolTableRecord
100
AcDbTextStyleTableRecord
  2
ACJISTS
 70
     0
 40
1.0
 41
1.0
 50
0.0
 71
     0
 42
2.5
  3
simplex.shx
  4
bigfont.shx
  0
STYLE
  5
269
330
3
100
AcDbSymbolTableRecord
100
AcDbTextStyleTableRecord
  2
ACJISGDT
 70
     0
 40
0.0
 41
1.0
 50
0.0
 71
     0
 42
2.5
  3
amgdtans.shx
  4

  0
ENDTAB
  0
TABLE
  2
VIEW
  5
6
330
0
100
AcDbSymbolTable
 70
     0
  0
ENDTAB
  0
TABLE
  2
UCS
  5
7
330
0
100
AcDbSymbolTable
 70
     0
  0
ENDTAB
  0
TABLE
  2
APPID
  5
9
330
0
100
AcDbSymbolTable
 70
    12
  0
APPID
  5
12
330
9
100
AcDbSymbolTableRecord
100
AcDbRegAppTableRecord
  2
ACAD
 70
     0
  0
APPID
  5
30
330
9
100
AcDbSymbolTableRecord
100
AcDbRegAppTableRecord
  2
MCAD_NO_VIS
 70
     0
  0
APPID
  5
31
330
9
100
AcDbSymbolTableRecord
100
AcDbRegAppTableRecord
  2
ACAD_TEMP_GRAPHIC
 70
     0
  0
APPID
  5
2C2
330
9
100
AcDbSymbolTableRecord
100
AcDbRegAppTableRecord
  2
GENIUS_GENDTOL_13
 70
     0
  0
APPID
  5
339
330
9
100
AcDbSymbolTableRecord
100
AcDbRegAppTableRecord
  2
GENIUS_GENODEF_13
 70
     0
  0
APPID
  5
33A
330
9
100
AcDbSymbolTableRecord
100
AcDbRegAppTableRecord
  2
GENIUS_GENOBJ-N-RSBK_13
 70
     0
  0
APPID
  5
33B
330
9
100
AcDbSymbolTableRecord
100
AcDbRegAppTableRecord
  2
GENIUS_GENOBJ-N-LIB_13
 70
     0
  0
APPID
  5
33C
330
9
100
AcDbSymbolTableRecord
100
AcDbRegAppTableRecord
  2
GENIUS_GENSCALE_13
 70
     0
  0
APPID
  5
378
330
9
100
AcDbSymbolTableRecord
100
AcDbRegAppTableRecord
  2
GENIUS_GENDIMSH_14
 70
     0
  0
APPID
  5
BD8
330
9
100
AcDbSymbolTableRecord
100
AcDbRegAppTableRecord
  2
GENIUS_GENOBJ-N-CEN_13
 70
     0
  0
APPID
  5
BD9
330
9
100
AcDbSymbolTableRecord
100
AcDbRegAppTableRecord
  2
GENIUS_GENFIL_13
 70
     0
  0
APPID
  5
BDA
330
9
100
AcDbSymbolTableRecord
100
AcDbRegAppTableRecord
  2
GENIUS_GENOBJ-N-CHA_13
 70
     0
  0
ENDTAB
  0
TABLE
  2
DIMSTYLE
  5
A
330
0
100
AcDbSymbolTable
 70
     8
  0
DIMSTYLE
105
58
102
{ACAD_REACTORS
330
13B3
330
145B
330
15F8
330
14F3
102
}
330
A
100
AcDbSymbolTableRecord
100
AcDbDimStyleTableRecord
  2
AM_JIS
 70
     0
  3

  4
"
  5
OPEN30
  6

  7

 40
0.5
 41
2.5
 42
1.0
 43
12.0
 44
1.0
 45
0.0
 46
0.0
 47
0.1
 48
0.1
140
3.2
141
0.0
142
0.0
143
0.0393701
144
1.0
145
0.0
146
0.71
147
1.5
 71
     0
 72
     0
 73
     0
 74
     0
 75
     0
 76
     0
 77
     3
 78
     8
170
     0
171
     2
172
     1
173
     0
174
     0
175
     0
176
   256
177
   256
178
     2
270
     2
271
     3
272
     3
273
     2
274
     2
340
6B
275
     0
280
     0
281
     0
282
     0
283
     0
284
     0
285
     0
286
     0
287
     3
288
     0
  0
DIMSTYLE
105
5F
330
A
100
AcDbSymbolTableRecord
100
AcDbDimStyleTableRecord
  2
AM_JIS$3
 70
     0
  3

  4
"
  5
OPEN30
  6

  7

 40
0.5
 41
2.5
 42
1.0
 43
10.0
 44
1.0
 45
0.0
 46
0.0
 47
0.1
 48
0.1
140
3.2
141
0.0
142
0.0
143
0.0393701
144
1.0
145
0.0
146
0.71
147
1.5
 71
     0
 72
     0
 73
     0
 74
     1
 75
     0
 76
     0
 77
     3
 78
     8
170
     0
171
     2
172
     0
173
     0
174
     0
175
     0
176
   256
177
   256
178
     2
270
     2
271
     2
272
     3
273
     2
274
     2
340
6B
275
     0
280
     0
281
     0
282
     0
283
     0
284
     0
285
     0
286
     0
287
     0
288
     1
  0
DIMSTYLE
105
60
330
A
100
AcDbSymbolTableRecord
100
AcDbDimStyleTableRecord
  2
AM_JIS$4
 70
     0
  3

  4
"
  5
OPEN30
  6

  7

 40
0.5
 41
2.5
 42
1.0
 43
10.0
 44
1.0
 45
0.0
 46
0.0
 47
0.1
 48
0.1
140
3.2
141
0.0
142
0.0
143
0.0393701
144
1.0
145
0.0
146
0.71
147
1.5
 71
     0
 72
     0
 73
     0
 74
     1
 75
     0
 76
     0
 77
     3
 78
     8
170
     0
171
     2
172
     0
173
     0
174
     0
175
     0
176
   256
177
   256
178
     2
270
     2
271
     2
272
     3
273
     2
274
     2
340
6B
275
     0
280
     0
281
     0
282
     0
283
     0
284
     0
285
     0
286
     0
287
     0
288
     1
  0
DIMSTYLE
105
61
330
A
100
AcDbSymbolTableRecord
100
AcDbDimStyleTableRecord
  2
AM_JIS$6
 70
     0
  3

  4
"
  5
OPEN30
  6

  7

 40
0.5
 41
2.5
 42
1.0
 43
10.0
 44
1.0
 45
0.0
 46
0.0
 47
0.1
 48
0.1
140
3.2
141
0.0
142
0.0
143
0.0393701
144
1.0
145
0.0
146
0.71
147
1.5
 71
     0
 72
     0
 73
     0
 74
     0
 75
     0
 76
     0
 77
     0
 78
     8
170
     0
171
     2
172
     1
173
     0
174
     0
175
     0
176
   256
177
   256
178
     2
270
     2
271
     2
272
     2
273
     2
274
     2
340
6B
275
     0
280
     0
281
     0
282
     0
283
     0
284
     0
285
     0
286
     0
287
     3
288
     0
  0
DIMSTYLE
105
62
330
A
100
AcDbSymbolTableRecord
100
AcDbDimStyleTableRecord
  2
AM_JIS$7
 70
     0
  3

  4
"
  5
OPEN30
  6

  7

 40
0.5
 41
2.5
 42
1.0
 43
10.0
 44
1.0
 45
0.0
 46
0.0
 47
0.1
 48
0.1
140
3.2
141
0.0
142
0.0
143
0.0393701
144
1.0
145
0.0
146
0.71
147
1.5
 71
     0
 72
     0
 73
     0
 74
     0
 75
     0
 76
     0
 77
     3
 78
     8
170
     0
171
     2
172
     1
173
     0
174
     0
175
     0
176
   256
177
   256
178
     2
270
     2
271
     2
272
     3
273
     2
274
     2
340
6B
275
     0
280
     0
281
     0
282
     0
283
     0
284
     0
285
     0
286
     0
287
     3
288
     0
  0
DIMSTYLE
105
63
330
A
100
AcDbSymbolTableRecord
100
AcDbDimStyleTableRecord
  2
AM_JIS$SF
 70
     0
  3

  4
"
  5
OPEN30
  6

  7

 40
0.5
 41
2.5
 42
1.0
 43
10.0
 44
1.0
 45
0.0
 46
0.0
 47
0.1
 48
0.1
140
3.2
141
0.0
142
0.0
143
0.0393701
144
1.0
145
0.0
146
0.71
147
1.5
 71
     0
 72
     0
 73
     0
 74
     0
 75
     1
 76
     1
 77
     3
 78
     8
170
     0
171
     2
172
     1
173
     0
174
     0
175
     0
176
   256
177
   256
178
     2
270
     2
271
     2
272
     2
273
     2
274
     2
340
6B
275
     0
280
     0
281
     0
282
     0
283
     0
284
     0
285
     0
286
     0
287
     3
288
     0
  0
DIMSTYLE
105
68
330
A
100
AcDbSymbolTableRecord
100
AcDbDimStyleTableRecord
  2
AM_JIS$SH
 70
     0
  3

  4
"
  5

  6
GENAXEH
  7
OPEN30
 40
0.5
 41
2.5
 42
1.0
 43
10.0
 44
1.0
 45
0.0
 46
0.0
 47
0.1
 48
0.1
140
3.2
141
0.0
142
0.0
143
0.0393701
144
2.0
145
0.0
146
0.71
147
1.5
 71
     0
 72
     0
 73
     0
 74
     0
 75
     1
 76
     1
 77
     3
 78
     8
170
     0
171
     2
172
     1
173
     1
174
     0
175
     0
176
   256
177
   256
178
     2
270
     2
271
     2
272
     2
273
     2
274
     2
340
6B
275
     0
280
     0
281
     0
282
     0
283
     0
284
     0
285
     0
286
     0
287
     3
288
     0
  0
DIMSTYLE
105
B34
330
A
100
AcDbSymbolTableRecord
100
AcDbDimStyleTableRecord
  2
AM_JIS$2
 70
     0
  3

  4
"
  5
OPEN30
  6

  7

 40
0.5
 41
2.5
 42
1.0
 43
12.0
 44
1.0
 45
0.0
 46
0.0
 47
0.1
 48
0.1
140
3.2
141
0.0
142
0.0
143
0.0393701
144
1.0
145
0.0
146
0.71
147
1.5
 71
     0
 72
     0
 73
     0
 74
     0
 75
     0
 76
     0
 77
     3
 78
     8
170
     0
171
     2
172
     1
173
     0
174
     0
175
     0
176
   256
177
   256
178
     2
270
     2
271
     3
272
     3
273
     2
274
     2
340
6B
275
     0
280
     0
281
     0
282
     0
283
     0
284
     0
285
     0
286
     0
287
     3
288
     0
  0
ENDTAB
  0
TABLE
  2
BLOCK_RECORD
  5
1
330
0
100
AcDbSymbolTable
 70
     9
  0
BLOCK_RECORD
  5
1F
102
{ACAD_XDICTIONARY
360
74
102
}
330
1
100
AcDbSymbolTableRecord
100
AcDbBlockTableRecord
  2
*MODEL_SPACE
  0
BLOCK_RECORD
  5
101
102
{ACAD_XDICTIONARY
360
19E0
102
}
330
1
100
AcDbSymbolTableRecord
100
AcDbBlockTableRecord
  2
*PAPER_SPACE
  0
BLOCK_RECORD
  5
59
330
1
100
AcDbSymbolTableRecord
100
AcDbBlockTableRecord
  2
_OPEN30
  0
BLOCK_RECORD
  5
64
330
1
100
AcDbSymbolTableRecord
100
AcDbBlockTableRecord
  2
GENAXEH
  0
BLOCK_RECORD
  5
13C0
330
1
100
AcDbSymbolTableRecord
100
AcDbBlockTableRecord
  2
*D5
  0
BLOCK_RECORD
  5
145C
330
1
100
AcDbSymbolTableRecord
100
AcDbBlockTableRecord
  2
*D6
  0
BLOCK_RECORD
  5
14F4
330
1
100
AcDbSymbolTableRecord
100
AcDbBlockTableRecord
  2
*D7
  0
BLOCK_RECORD
  5
15F9
330
1
100
AcDbSymbolTableRecord
100
AcDbBlockTableRecord
  2
*D8
  0
ENDTAB
  0
ENDSEC
  0
SECTION
  2
BLOCKS
  0
BLOCK
  5
20
330
1F
100
AcDbEntity
  8
0
100
AcDbBlockBegin
  2
*MODEL_SPACE
 70
     0
 10
0.0
 20
0.0
 30
0.0
  3
*MODEL_SPACE
  1

  0
ENDBLK
  5
21
330
1F
100
AcDbEntity
  8
0
100
AcDbBlockEnd
  0
BLOCK
  5
103
330
101
100
AcDbEntity
 67
     1
  8
0
100
AcDbBlockBegin
  2
*PAPER_SPACE
 70
     0
 10
0.0
 20
0.0
 30
0.0
  3
*PAPER_SPACE
  1

  0
ENDBLK
  5
104
330
101
100
AcDbEntity
 67
     1
  8
0
100
AcDbBlockEnd
  0
BLOCK
  5
5D
330
59
100
AcDbEntity
  8
0
100
AcDbBlockBegin
  2
_OPEN30
 70
     0
 10
0.0
 20
0.0
 30
0.0
  3
_OPEN30
  1

  0
LINE
  5
5A
330
59
100
AcDbEntity
  8
0
 62
     0
100
AcDbLine
 10
-1.0
 20
0.26794919
 30
0.0
 11
0.0
 21
0.0
 31
0.0
  0
LINE
  5
5B
330
59
100
AcDbEntity
  8
0
 62
     0
100
AcDbLine
 10
0.0
 20
0.0
 30
0.0
 11
-1.0
 21
-0.26794919
 31
0.0
  0
LINE
  5
5C
330
59
100
AcDbEntity
  8
0
 62
     0
100
AcDbLine
 10
0.0
 20
0.0
 30
0.0
 11
-1.0
 21
0.0
 31
0.0
  0
ENDBLK
  5
5E
330
59
100
AcDbEntity
  8
0
100
AcDbBlockEnd
  0
BLOCK
  5
66
330
64
100
AcDbEntity
  8
0
100
AcDbBlockBegin
  2
GENAXEH
 70
     0
 10
0.0
 20
0.0
 30
0.0
  3
GENAXEH
  1

  0
LINE
  5
65
330
64
100
AcDbEntity
  8
0
100
AcDbLine
 10
-1.0
 20
0.0
 30
0.0
 11
1.0
 21
0.0
 31
0.0
  0
ENDBLK
  5
67
330
64
100
AcDbEntity
  8
0
100
AcDbBlockEnd
  0
BLOCK
  5
13CA
330
13C0
100
AcDbEntity
  8
0
100
AcDbBlockBegin
  2
*D5
 70
     1
 10
0.0
 20
0.0
 30
0.0
  3
*D5
  1

  0
LINE
  5
175B
330
13C0
100
AcDbEntity
  8
AM_5
100
AcDbLine
 10
-74.99999999999978
 20
-5.749999999998646
 30
0.0
 11
-74.99999999999978
 21
-19.50000099999991
 31
0.0
  0
LINE
  5
175C
330
13C0
100
AcDbEntity
  8
AM_5
100
AcDbLine
 10
-0.0000000000014637
 20
-6.000000000000147
 30
0.0
 11
-0.0000000000014646
 21
-19.50000099999991
 31
0.0
  0
LINE
  5
175D
330
13C0
100
AcDbEntity
  8
AM_5
100
AcDbLine
 10
-73.74999999999978
 20
-19.00000099999991
 30
0.0
 11
-1.250000000001464
 21
-19.00000099999991
 31
0.0
  0
INSERT
  5
175E
330
13C0
100
AcDbEntity
  8
AM_5
100
AcDbBlockReference
  2
_OPEN30
 10
-74.99999999999978
 20
-19.00000099999991
 30
0.0
 41
1.25
 42
1.25
 43
1.25
 50
180.0
  0
INSERT
  5
175F
330
13C0
100
AcDbEntity
  8
AM_5
100
AcDbBlockReference
  2
_OPEN30
 10
-0.0000000000014645
 20
-19.00000099999991
 30
0.0
 41
1.25
 42
1.25
 43
1.25
  0
MTEXT
  5
1760
330
13C0
100
AcDbEntity
  8
AM_5
 62
     2
100
AcDbMText
 10
-37.50000000000062
 20
-17.45000099999991
 30
0.0
 40
1.6
 41
0.0
 71
     5
 72
     1
  1
75
  7
ASAMI
1001
ACAD
1000
MTEXTBEGIN
1070
    73
1070
     1
1070
    44
1040
1.0
1070
    74
1070
     0
1000
MTEXTEND
  0
POINT
  5
1761
330
13C0
100
AcDbEntity
  8
DEFPOINTS
 62
     0
100
AcDbPoint
 10
-74.99999999999978
 20
-5.249999999998646
 30
0.0
  0
POINT
  5
1762
330
13C0
100
AcDbEntity
  8
DEFPOINTS
 62
     0
100
AcDbPoint
 10
-0.0000000000014637
 20
-5.500000000000147
 30
0.0
  0
POINT
  5
1763
330
13C0
100
AcDbEntity
  8
DEFPOINTS
 62
     0
100
AcDbPoint
 10
-0.0000000000014645
 20
-19.00000099999991
 30
0.0
  0
ENDBLK
  5
13CB
330
13C0
100
AcDbEntity
  8
0
100
AcDbBlockEnd
  0
BLOCK
  5
1466
330
145C
100
AcDbEntity
  8
0
100
AcDbBlockBegin
  2
*D6
 70
     1
 10
0.0
 20
0.0
 30
0.0
  3
*D6
  1

  0
LINE
  5
1764
330
145C
100
AcDbEntity
  8
AM_5
100
AcDbLine
 10
-24.99999999999998
 20
-6.00000000000015
 30
0.0
 11
-24.99999999999998
 21
-13.50000100000134
 31
0.0
  0
LINE
  5
1765
330
145C
100
AcDbEntity
  8
AM_5
100
AcDbLine
 10
-0.0000000000016627
 20
-6.000000000000147
 30
0.0
 11
-0.0000000000016632
 21
-13.50000100000134
 31
0.0
  0
LINE
  5
1766
330
145C
100
AcDbEntity
  8
AM_5
100
AcDbLine
 10
-23.74999999999998
 20
-13.00000100000134
 30
0.0
 11
-1.250000000001663
 21
-13.00000100000134
 31
0.0
  0
INSERT
  5
1767
330
145C
100
AcDbEntity
  8
AM_5
100
AcDbBlockReference
  2
_OPEN30
 10
-24.99999999999998
 20
-13.00000100000134
 30
0.0
 41
1.25
 42
1.25
 43
1.25
 50
180.0
  0
INSERT
  5
1768
330
145C
100
AcDbEntity
  8
AM_5
100
AcDbBlockReference
  2
_OPEN30
 10
-0.0000000000016631
 20
-13.00000100000134
 30
0.0
 41
1.25
 42
1.25
 43
1.25
  0
MTEXT
  5
1769
330
145C
100
AcDbEntity
  8
AM_5
 62
     2
100
AcDbMText
 10
-12.50000000000082
 20
-11.45000100000134
 30
0.0
 40
1.6
 41
0.0
 71
     5
 72
     1
  1
25
  7
ASAMI
1001
ACAD
1000
MTEXTBEGIN
1070
    73
1070
     1
1070
    44
1040
1.0
1070
    74
1070
     0
1000
MTEXTEND
  0
POINT
  5
176A
330
145C
100
AcDbEntity
  8
DEFPOINTS
 62
     0
100
AcDbPoint
 10
-24.99999999999998
 20
-5.50000000000015
 30
0.0
  0
POINT
  5
176B
330
145C
100
AcDbEntity
  8
DEFPOINTS
 62
     0
100
AcDbPoint
 10
-0.0000000000016627
 20
-5.500000000000147
 30
0.0
  0
POINT
  5
176C
330
145C
100
AcDbEntity
  8
DEFPOINTS
 62
     0
100
AcDbPoint
 10
-0.0000000000016631
 20
-13.00000100000134
 30
0.0
  0
ENDBLK
  5
1467
330
145C
100
AcDbEntity
  8
0
100
AcDbBlockEnd
  0
BLOCK
  5
14FE
330
14F4
100
AcDbEntity
  8
0
100
AcDbBlockBegin
  2
*D7
 70
     1
 10
0.0
 20
0.0
 30
0.0
  3
*D7
  1

  0
LINE
  5
1706
330
14F4
100
AcDbEntity
  8
AM_5
100
AcDbLine
 10
0.5000000000000118
 20
5.499999999999867
 30
0.0
 11
12.05776903085525
 21
5.499999999999864
 31
0.0
  0
LINE
  5
1707
330
14F4
100
AcDbEntity
  8
AM_5
100
AcDbLine
 10
0.4999999999983303
 20
-5.500000000000133
 30
0.0
 11
12.05776903085525
 21
-5.500000000000136
 31
0.0
  0
LINE
  5
1708
330
14F4
100
AcDbEntity
  8
AM_5
100
AcDbLine
 10
11.55776903085525
 20
4.249999999999864
 30
0.0
 11
11.55776903085525
 21
-4.250000000000136
 31
0.0
  0
INSERT
  5
1709
330
14F4
100
AcDbEntity
  8
AM_5
100
AcDbBlockReference
  2
_OPEN30
 10
11.55776903085525
 20
5.499999999999864
 30
0.0
 41
1.25
 42
1.25
 43
1.25
 50
90.0
  0
INSERT
  5
170A
330
14F4
100
AcDbEntity
  8
AM_5
100
AcDbBlockReference
  2
_OPEN30
 10
11.55776903085525
 20
-5.500000000000136
 30
0.0
 41
1.25
 42
1.25
 43
1.25
 50
270.0
  0
MTEXT
  5
170B
330
14F4
100
AcDbEntity
  8
AM_5
 62
     2
100
AcDbMText
 10
10.00776903085525
 20
-0.0000000000001342
 30
0.0
 40
1.6
 41
0.0
 71
     5
 72
     1
  1
%%c11
  7
ASAMI
 11
0.0000000000000001
 21
1.0
 31
0.0
1001
ACAD
1000
MTEXTBEGIN
1070
    73
1070
     1
1070
    44
1040
1.0
1070
    74
1070
     0
1000
MTEXTEND
  0
POINT
  5
170C
330
14F4
100
AcDbEntity
  8
DEFPOINTS
 62
     0
100
AcDbPoint
 10
0.0000000000000117
 20
5.499999999999867
 30
0.0
  0
POINT
  5
170D
330
14F4
100
AcDbEntity
  8
DEFPOINTS
 62
     0
100
AcDbPoint
 10
-0.0000000000016698
 20
-5.500000000000133
 30
0.0
  0
POINT
  5
170E
330
14F4
100
AcDbEntity
  8
DEFPOINTS
 62
     0
100
AcDbPoint
 10
11.55776903085525
 20
-5.500000000000136
 30
0.0
  0
ENDBLK
  5
14FF
330
14F4
100
AcDbEntity
  8
0
100
AcDbBlockEnd
  0
BLOCK
  5
1603
330
15F9
100
AcDbEntity
  8
0
100
AcDbBlockBegin
  2
*D8
 70
     1
 10
0.0
 20
0.0
 30
0.0
  3
*D8
  1

  0
LINE
  5
1628
330
15F9
100
AcDbEntity
  8
AM_5
100
AcDbLine
 10
-74.74999999999977
 20
5.999999999999809
 30
0.0
 11
-85.23320585933191
 21
5.999999999999812
 31
0.0
  0
LINE
  5
1629
330
15F9
100
AcDbEntity
  8
AM_5
100
AcDbLine
 10
-74.74999999999977
 20
-5.999999999998672
 30
0.0
 11
-85.23320585933191
 21
-5.999999999998669
 31
0.0
  0
LINE
  5
162A
330
15F9
100
AcDbEntity
  8
AM_5
100
AcDbLine
 10
-84.73320585933192
 20
4.749999999999812
 30
0.0
 11
-84.73320585933192
 21
-4.749999999998669
 31
0.0
  0
INSERT
  5
162B
330
15F9
100
AcDbEntity
  8
AM_5
100
AcDbBlockReference
  2
_OPEN30
 10
-84.73320585933192
 20
5.999999999999812
 30
0.0
 41
1.25
 42
1.25
 43
1.25
 50
90.0
  0
INSERT
  5
162C
330
15F9
100
AcDbEntity
  8
AM_5
100
AcDbBlockReference
  2
_OPEN30
 10
-84.73320585933192
 20
-5.999999999998669
 30
0.0
 41
1.25
 42
1.25
 43
1.25
 50
270.0
  0
MTEXT
  5
162D
330
15F9
100
AcDbEntity
  8
AM_5
 62
     2
100
AcDbMText
 10
-86.28320585933192
 20
0.0000000000005583
 30
0.0
 40
1.6
 41
0.0
 71
     5
 72
     1
  1
%%c12
  7
ASAMI
 11
0.0000000000000001
 21
1.0
 31
0.0
1001
ACAD
1000
MTEXTBEGIN
1070
    73
1070
     1
1070
    44
1040
1.0
1070
    74
1070
     0
1000
MTEXTEND
  0
POINT
  5
162E
330
15F9
100
AcDbEntity
  8
DEFPOINTS
 62
     0
100
AcDbPoint
 10
-74.24999999999977
 20
5.999999999999809
 30
0.0
  0
POINT
  5
162F
330
15F9
100
AcDbEntity
  8
DEFPOINTS
 62
     0
100
AcDbPoint
 10
-74.24999999999977
 20
-5.999999999998672
 30
0.0
  0
POINT
  5
1630
330
15F9
100
AcDbEntity
  8
DEFPOINTS
 62
     0
100
AcDbPoint
 10
-84.73320585933192
 20
-5.999999999998669
 30
0.0
  0
ENDBLK
  5
1604
330
15F9
100
AcDbEntity
  8
0
100
AcDbBlockEnd
  0
ENDSEC
  0
SECTION
  2
ENTITIES
  0
TEXT
  5
E5A
330
1F
100
AcDbEntity
  8
AM_6
100
AcDbText
 10
-47.380952380953
 20
-30.25000099999991
 30
0.0
 40
2.5
  1
JSM4110ZX
 72
     4
 11
-37.50000000000062
 21
-29.00000099999991
 31
0.0
100
AcDbText
  0
SPLINE
  5
1317
330
1F
100
AcDbEntity
  8
AM_0
100
AcDbSpline
210
0.0
220
0.0
230
1.0
 70
     8
 71
     3
 72
     8
 73
     4
 74
     0
 42
0.0000000001
 43
0.0000000001
 40
0.0
 40
0.0
 40
0.0
 40
0.0
 40
4.451443990518192
 40
4.451443990518192
 40
4.451443990518192
 40
4.451443990518192
 10
-27.75000000000004
 20
-5.093339240815446
 30
0.0
 10
-24.95695552107075
 20
-5.079188954183106
 30
0.0
 10
-23.36504346893783
 20
-4.835235255672332
 30
0.0
 10
-21.53206611599415
 20
-4.267709154613982
 30
0.0
  0
SPLINE
  5
1318
330
1F
100
AcDbEntity
  8
AM_0
100
AcDbSpline
210
0.0
220
0.0
230
1.0
 70
     8
 71
     3
 72
     8
 73
     4
 74
     0
 42
0.0000000001
 43
0.0000000001
 40
0.0
 40
0.0
 40
0.0
 40
0.0
 40
2.130230809022907
 40
2.130230809022907
 40
2.130230809022907
 40
2.130230809022907
 10
-14.96000000000019
 20
-5.500000000000141
 30
0.0
 10
-14.17891537002511
 20
-5.500000000000141
 30
0.0
 10
-13.40841030407622
 20
-5.440564016602325
 30
0.0
 10
-12.64692945925486
 20
-5.330429965137959
 30
0.0
  0
SPLINE
  5
1319
330
1F
100
AcDbEntity
  8
AM_0
100
AcDbSpline
210
0.0
220
0.0
230
1.0
 70
     8
 71
     3
 72
     8
 73
     4
 74
     0
 42
0.0000000001
 43
0.0000000001
 40
0.0
 40
0.0
 40
0.0
 40
0.0
 40
5.635889483499305
 40
5.635889483499305
 40
5.635889483499305
 40
5.635889483499305
 10
-14.9600000000002
 20
5.499999999999984
 30
0.0
 10
-17.02649281061663
 20
5.499999999999976
 30
0.0
 10
-19.01893317922005
 20
5.083973431877029
 30
0.0
 10
-21.16854229999707
 20
4.466444919816805
 30
0.0
  0
SPLINE
  5
131A
330
1F
100
AcDbEntity
  8
AM_0
100
AcDbSpline
210
0.0
220
0.0
230
1.0
 70
     8
 71
     3
 72
     8
 73
     4
 74
     0
 42
0.0000000001
 43
0.0000000001
 40
0.3581103616548037
 40
0.3581103616548037
 40
0.3581103616548037
 40
0.3581103616548037
 40
14.43901837670146
 40
14.43901837670146
 40
14.43901837670146
 40
14.43901837670146
 10
-27.90063337507673
 20
5.499999999999843
 30
0.0
 10
-22.46597520911254
 20
5.202987908858397
 30
0.0
 10
-17.75299077445922
 20
2.601493954429155
 30
0.0
 10
-13.04000633980593
 20
-0.0000000000000782
 30
0.0
  0
SPLINE
  5
131B
330
1F
100
AcDbEntity
  8
AM_0
100
AcDbSpline
210
0.0
220
0.0
230
1.0
 70
     8
 71
     3
 72
     8
 73
     4
 74
     0
 42
0.0000000001
 43
0.0000000001
 40
0.0
 40
0.0
 40
0.0
 40
0.0
 40
11.45610476152127
 40
11.45610476152127
 40
11.45610476152127
 40
11.45610476152127
 10
-13.04000633980612
 20
-5.33531203736894
 30
0.0
 10
-17.24057808569726
 20
-5.335312037368948
 30
0.0
 10
-21.15065876763682
 20
-3.656011436824548
 30
0.0
 10
-25.80072776965534
 20
-1.531549360056705
 30
0.0
  0
SPLINE
  5
131C
330
1F
100
AcDbEntity
  8
AM_0
100
AcDbSpline
210
0.0
220
0.0
230
1.0
 70
     8
 71
     3
 72
     8
 73
     4
 74
     0
 42
0.0000000001
 43
0.0000000001
 40
0.0
 40
0.0
 40
0.0
 40
0.0
 40
4.451443990518192
 40
4.451443990518192
 40
4.451443990518192
 40
4.451443990518192
 10
-10.82915165092738
 20
-5.079188954183097
 30
0.0
 10
-9.196955521070693
 20
-5.079188954183097
 30
0.0
 10
-7.605043468937771
 20
-4.835235255672323
 30
0.0
 10
-6.040930023202213
 20
-4.422937803815959
 30
0.0
  0
SPLINE
  5
131D
330
1F
100
AcDbEntity
  8
AM_0
100
AcDbSpline
210
0.0
220
0.0
230
1.0
 70
     8
 71
     3
 72
     8
 73
     4
 74
     0
 42
0.0000000001
 43
0.0000000001
 40
0.7142832446738512
 40
0.7142832446738512
 40
0.7142832446738512
 40
0.7142832446738512
 40
9.361146747480315
 40
9.361146747480315
 40
9.361146747480315
 40
9.361146747480315
 10
-10.04650016971814
 20
5.06065756880658
 30
0.0
 10
-6.9004716372751
 20
4.912361782868602
 30
0.0
 10
-3.89888548659282
 20
3.889346871079457
 30
0.0
 10
-0.9502297250929526
 20
2.54579429442891
 30
0.0
  0
SPLINE
  5
131E
330
1F
100
AcDbEntity
  8
AM_0
100
AcDbSpline
210
0.0
220
0.0
230
1.0
 70
     8
 71
     3
 72
     8
 73
     4
 74
     2
 42
0.0000000001
 43
0.0000000001
 44
0.0000000001
 12
-0.6417012268563094
 22
-0.7669547153848834
 32
0.0
 13
-0.990099942783104
 23
-0.140364180975397
 33
0.0
 40
0.0
 40
0.0
 40
0.0
 40
0.0
 40
2.845221855978385
 40
2.845221855978385
 40
2.845221855978385
 40
2.845221855978385
 10
0.0000000000000117
 20
4.482172955352226
 30
0.0
 10
-0.6085941185532268
 20
3.754787515765976
 30
0.0
 10
-1.653211455187584
 20
3.442421176616654
 30
0.0
 10
-2.592229454124062
 20
3.309298764780753
 30
0.0
 11
0.0000000000000117
 21
4.482172955352226
 31
0.0
 11
-2.592229454124062
 21
3.309298764780753
 31
0.0
  0
SPLINE
  5
131F
330
1F
100
AcDbEntity
  8
AM_0
100
AcDbSpline
210
0.0
220
0.0
230
1.0
 70
     8
 71
     3
 72
     8
 73
     4
 74
     0
 42
0.0000000001
 43
0.0000000001
 40
0.0
 40
0.0
 40
0.0
 40
0.0
 40
5.635889483499127
 40
5.635889483499127
 40
5.635889483499127
 40
5.635889483499127
 10
0.0000000000000117
 20
5.499999999999867
 30
0.0
 10
-2.066492810616329
 20
5.499999999999867
 30
0.0
 10
-4.058933179219716
 20
5.08397343187692
 30
0.0
 10
-6.006123830348201
 20
4.413733982208227
 30
0.0
  0
SPLINE
  5
1320
330
1F
100
AcDbEntity
  8
AM_0
100
AcDbSpline
210
0.0
220
0.0
230
1.0
 70
     8
 71
     3
 72
     8
 73
     4
 74
     0
 42
0.0000000001
 43
0.0000000001
 40
4.542668862435135
 40
4.542668862435135
 40
4.542668862435135
 40
4.542668862435135
 40
14.36247867694493
 40
14.36247867694493
 40
14.36247867694493
 40
14.36247867694493
 10
-0.7534999999984511
 20
-4.39737832100242
 30
0.0
 10
-4.201405820541082
 20
-3.472706255230277
 30
0.0
 10
-7.515278735734124
 20
-1.736353127615181
 30
0.0
 10
-10.82915165092716
 20
-0.0000000000000782
 30
0.0
  0
SPLINE
  5
1321
330
1F
100
AcDbEntity
  8
AM_0
100
AcDbSpline
210
0.0
220
0.0
230
1.0
 70
     8
 71
     3
 72
     8
 73
     4
 74
     0
 42
0.0000000001
 43
0.0000000001
 40
0.3581103616548037
 40
0.3581103616548037
 40
0.3581103616548037
 40
0.3581103616548037
 40
12.40023413887867
 40
12.40023413887867
 40
12.40023413887867
 40
12.40023413887867
 10
-12.64692945925443
 20
5.330429965137803
 30
0.0
 10
-8.250337467665548
 20
5.221440330768981
 30
0.0
 10
-4.16675531596501
 20
3.302971241333367
 30
0.0
 10
-0.1284940716353898
 20
1.122506392269728
 30
0.0
  0
SPLINE
  5
1322
330
1F
100
AcDbEntity
  8
AM_0
100
AcDbSpline
210
0.0
220
0.0
230
1.0
 70
     8
 71
     3
 72
     8
 73
     4
 74
     2
 42
0.0000000001
 43
0.0000000001
 44
0.0000000001
 12
1.0
 22
0.0000000000000006
 32
0.0
 40
0.0
 40
0.0
 40
0.0
 40
0.0
 40
15.93899620427835
 40
15.93899620427835
 40
15.93899620427835
 40
15.93899620427835
 10
-14.95999999999998
 20
5.499999999999984
 30
0.0
 10
-9.647001265240531
 20
5.499999999999988
 30
0.0
 10
-4.823500632620257
 20
2.74999999999999
 30
0.0
 10
0.0000000000000156
 20
-0.0000000000000078
 30
0.0
 11
-14.95999999999998
 21
5.499999999999984
 31
0.0
 11
0.0000000000000156
 21
-0.0000000000000078
 31
0.0
  0
SPLINE
  5
1323
330
1F
100
AcDbEntity
  8
AM_0
100
AcDbSpline
210
0.0
220
0.0
230
1.0
 70
     8
 71
     3
 72
     8
 73
     4
 74
     2
 42
0.0000000001
 43
0.0000000001
 44
0.0000000001
 12
-1.0
 22
-0.0000000000000008
 32
0.0
 40
0.0
 40
0.0
 40
0.0
 40
0.0
 40
15.93899620427836
 40
15.93899620427836
 40
15.93899620427836
 40
15.93899620427836
 10
0.0000000000000195
 20
-5.500000000000133
 30
0.0
 10
-5.312998734759434
 20
-5.500000000000137
 30
0.0
 10
-10.1364993673797
 20
-2.750000000000139
 30
0.0
 10
-14.95999999999998
 20
-0.0000000000001407
 30
0.0
 11
0.0000000000000195
 21
-5.500000000000133
 31
0.0
 11
-14.95999999999998
 21
-0.0000000000001407
 31
0.0
  0
SPLINE
  5
1324
330
1F
100
AcDbEntity
  8
AM_0
100
AcDbSpline
210
0.0
220
0.0
230
1.0
 70
     8
 71
     3
 72
     8
 73
     4
 74
     0
 42
0.0000000001
 43
0.0000000001
 40
0.0
 40
0.0
 40
0.0
 40
0.0
 40
12.79333816032526
 40
12.79333816032526
 40
12.79333816032526
 40
12.79333816032526
 10
-10.82915165092738
 20
-5.079188954182972
 30
0.0
 10
-15.52004230971331
 20
-5.079188954182972
 30
0.0
 10
-19.87819730081417
 20
-3.064196894172341
 30
0.0
 10
-24.99999999999996
 20
-0.6131824997518578
 30
0.0
  0
SPLINE
  5
1325
330
1F
100
AcDbEntity
  8
AM_0
100
AcDbSpline
210
0.0
220
0.0
230
1.0
 70
     8
 71
     3
 72
     8
 73
     4
 74
     0
 42
0.0000000001
 43
0.0000000001
 40
1.090140354492627
 40
1.090140354492627
 40
1.090140354492627
 40
1.090140354492627
 40
14.36247867694493
 40
14.36247867694493
 40
14.36247867694493
 40
14.36247867694493
 10
-24.59706187373182
 20
5.036406830191418
 30
0.0
 10
-19.78713420229274
 20
4.693668531727103
 30
0.0
 10
-15.30814292660997
 20
2.346834265863516
 30
0.0
 10
-10.82915165092716
 20
-0.0000000000000782
 30
0.0
  0
SPLINE
  5
1326
330
1F
100
AcDbEntity
  8
AM_0
100
AcDbSpline
210
0.0
220
0.0
230
1.0
 70
     8
 71
     3
 72
     8
 73
     4
 74
     0
 42
0.0000000001
 43
0.0000000001
 40
1.870660592686466
 40
1.870660592686466
 40
1.870660592686466
 40
1.870660592686466
 40
14.43901837670146
 40
14.43901837670146
 40
14.43901837670146
 40
14.43901837670146
 10
-0.1154999999999692
 20
-5.206785273384078
 30
0.0
 10
-4.626561050351683
 20
-4.644090673311759
 30
0.0
 10
-8.833283695078812
 20
-2.322045336655922
 30
0.0
 10
-13.04000633980593
 20
-0.0000000000000782
 30
0.0
  0
SPLINE
  5
1327
330
1F
100
AcDbEntity
  8
AM_0
100
AcDbSpline
210
0.0
220
0.0
230
1.0
 70
     8
 71
     3
 72
     8
 73
     4
 74
     0
 42
0.0000000001
 43
0.0000000001
 40
0.0
 40
0.0
 40
0.0
 40
0.0
 40
2.764560748519282
 40
2.764560748519282
 40
2.764560748519282
 40
2.764560748519282
 10
-13.04000633980612
 20
-5.335312037369066
 30
0.0
 10
-12.02633406534906
 20
-5.335312037369066
 30
0.0
 10
-11.02957831373436
 20
-5.2375192633612
 30
0.0
 10
-10.04650016983422
 20
-5.060657568827558
 30
0.0
  0
SPLINE
  5
1328
330
1F
100
AcDbEntity
  8
AM_0
100
AcDbSpline
210
0.0
220
0.0
230
1.0
 70
     8
 71
     3
 72
     8
 73
     4
 74
     0
 42
0.0000000001
 43
0.0000000001
 40
5.360156850992435
 40
5.360156850992435
 40
5.360156850992435
 40
5.360156850992435
 40
14.48999654934396
 40
14.48999654934396
 40
14.48999654934396
 40
14.48999654934396
 10
-25.00000000000012
 20
4.72614169296947
 30
0.0
 10
-21.03837102110477
 20
3.465433422978059
 30
0.0
 10
-17.99918551055237
 20
1.732716711489018
 30
0.0
 10
-14.95999999999998
 20
-0.0000000000000156
 30
0.0
  0
SPLINE
  5
1329
330
1F
100
AcDbEntity
  8
AM_0
100
AcDbSpline
210
0.0
220
0.0
230
1.0
 70
     8
 71
     3
 72
     8
 73
     4
 74
     0
 42
0.0000000001
 43
0.0000000001
 40
0.0
 40
0.0
 40
0.0
 40
0.0
 40
9.068166399416787
 40
9.068166399416787
 40
9.068166399416787
 40
9.068166399416787
 10
-14.96000000000019
 20
-5.500000000000015
 30
0.0
 10
-18.28499434645301
 20
-5.500000000000023
 30
0.0
 10
-21.41827487779753
 20
-4.422951919029078
 30
0.0
 10
-24.99999999999998
 20
-2.942896719426819
 30
0.0
  0
LINE
  5
132B
330
1F
100
AcDbEntity
  8
AM_7
  6
AM_ISO08W050X2
100
AcDbLine
 10
4.557768030854969
 20
-0.0000000000001137
 30
0.0
 11
-77.73320485933165
 21
-0.0000000000001474
 31
0.0
1001
GENIUS_GENODEF_13
1002
{
1000
HIER
1070
     0
1002
}
1002
{
1000
MANEDIT
1070
     0
1002
}
1002
{
1000
NOSEL
1070
     0
1002
}
1002
{
1000
BEHIND
1070
     0
1002
}
1002
{
1000
REACTOR
1002
}
1001
GENIUS_GENOBJ-N-CEN_13
1002
{
1000
OWNER
1000
GEN
1002
}
  0
LINE
  5
1356
330
1F
100
AcDbEntity
  8
AM_11
100
AcDbLine
 10
-0.0000000000008324
 20
5.499999999999867
 30
0.0
 11
-25.0
 21
5.499999999999843
 31
0.0
  0
LINE
  5
1357
330
1F
100
AcDbEntity
  8
AM_11
100
AcDbLine
 10
-24.99999999999998
 20
-5.499999999998728
 30
0.0
 11
0.0000000000000195
 21
-5.500000000000133
 31
0.0
  0
ARC
  5
1358
330
1F
100
AcDbEntity
  8
AM_0
100
AcDbCircle
 10
2.184240500229934
 20
-2.79826818118982
 30
0.0
 40
3.344767927067655
100
AcDbArc
 50
159.392326973258
 51
208.5609268810354
  0
LINE
  5
1359
330
1F
100
AcDbEntity
  8
AM_0
100
AcDbLine
 10
0.0000000000000195
 20
-5.500000000000133
 30
0.0
 11
0.0000000000000156
 21
-1.100000000000132
 31
0.0
  0
LINE
  5
135A
330
1F
100
AcDbEntity
  8
AM_0
100
AcDbLine
 10
-0.1154999999999692
 20
-5.206785273384141
 30
0.0
 11
-0.1154999999999731
 21
-1.459587640019636
 31
0.0
  0
LINE
  5
135B
330
1F
100
AcDbEntity
  8
AM_0
100
AcDbLine
 10
-0.115499999999977
 20
1.099999999999992
 30
0.0
 11
-1.174276617520427
 21
2.933854895411301
 31
0.0
  0
LINE
  5
135C
330
1F
100
AcDbEntity
  8
AM_0
100
AcDbLine
 10
0.0000000000000156
 20
-0.0000000000001329
 30
0.0
 11
0.0000000000000117
 21
5.499999999999867
 31
0.0
  0
LINE
  5
135D
330
1F
100
AcDbEntity
  8
AM_0
100
AcDbLine
 10
-1.174276617520427
 20
2.933854895411301
 30
0.0
 11
-2.592229454124062
 21
3.309298764780753
 31
0.0
  0
LINE
  5
135E
330
1F
100
AcDbEntity
  8
AM_0
100
AcDbLine
 10
-0.1154999999999731
 20
-1.459587640019636
 30
0.0
 11
0.0000000000000156
 21
-1.100000000000132
 31
0.0
  0
LINE
  5
135F
330
1F
100
AcDbEntity
  8
AM_0
100
AcDbLine
 10
-2.592229454124058
 20
-0.8800000000001453
 30
0.0
 11
-0.9465037842602711
 21
-1.62102024168333
 31
0.0
  0
LINE
  5
1360
330
1F
100
AcDbEntity
  8
AM_0
100
AcDbLine
 10
-2.592229454124058
 20
-0.0000000000001329
 30
0.0
 11
-2.592229454124058
 21
-0.8800000000001453
 31
0.0
  0
LINE
  5
1361
330
1F
100
AcDbEntity
  8
AM_0
100
AcDbLine
 10
0.0000000000000156
 20
-0.0000000000001329
 30
0.0
 11
-0.097726870058348
 21
-0.930732095794459
 31
0.0
  0
LINE
  5
1362
330
1F
100
AcDbEntity
  8
AM_0
100
AcDbLine
 10
0.0000000000000156
 20
-1.100000000000132
 30
0.0
 11
-0.6350852961086006
 21
-0.0000000000000703
 31
0.0
  0
LINE
  5
1363
330
1F
100
AcDbEntity
  8
AM_0
100
AcDbLine
 10
-2.592229454124058
 20
-0.8800000000001453
 30
0.0
 11
-0.1270170592217014
 21
-0.8800000000001453
 31
0.0
  0
LINE
  5
1364
330
1F
100
AcDbEntity
  8
AM_0
100
AcDbLine
 10
0.0000000000000156
 20
-0.0000000000001329
 30
0.0
 11
-2.592229454124058
 21
-0.0000000000001329
 31
0.0
  0
LINE
  5
1365
330
1F
100
AcDbEntity
  8
AM_0
100
AcDbLine
 10
-0.9465037842602711
 20
-1.62102024168333
 30
0.0
 11
-0.1154999999999731
 21
-1.459587640019636
 31
0.0
  0
LINE
  5
1366
330
1F
100
AcDbEntity
  8
AM_0
100
AcDbLine
 10
0.0000000000000156
 20
-0.0000000000001329
 30
0.0
 11
-0.115499999999977
 21
1.099999999999992
 31
0.0
  0
LINE
  5
1367
330
1F
100
AcDbEntity
  8
AM_0
100
AcDbLine
 10
0.0000000000000195
 20
-5.500000000000133
 30
0.0
 11
-0.1154999999999692
 21
-5.206785273384141
 31
0.0
  0
LINE
  5
1368
330
1F
100
AcDbEntity
  8
AM_0
100
AcDbLine
 10
-0.1154999999999692
 20
-5.206785273384078
 30
0.0
 11
-0.7534999999999831
 21
-4.397378321008235
 31
0.0
  0
POLYLINE
  5
1369
330
1F
100
AcDbEntity
  8
AM_0
100
AcDb2dPolyline
 66
     1
 10
0.0
 20
0.0
 30
0.0
 70
     2
  0
VERTEX
  5
136A
330
1369
100
AcDbEntity
  8
AM_0
100
AcDbVertex
100
AcDb2dVertex
 10
-27.75000000000004
 20
-5.093339240815438
 30
0.0
 42
-0.0230918143391583
  0
VERTEX
  5
136B
330
1369
100
AcDbEntity
  8
AM_0
100
AcDbVertex
100
AcDb2dVertex
 10
-28.38416951983271
 20
-4.932621382864717
 30
0.0
 42
-0.0355587143075394
 70
     1
  0
VERTEX
  5
136C
330
1369
100
AcDbEntity
  8
AM_0
100
AcDbVertex
100
AcDb2dVertex
 10
-28.78125000000004
 20
-4.780675350834146
 30
0.0
 42
-0.0216088548285507
  0
VERTEX
  5
136D
330
1369
100
AcDbEntity
  8
AM_0
100
AcDbVertex
100
AcDb2dVertex
 10
-29.70769664512683
 20
-4.29863262805256
 30
0.0
 42
-0.0414110700152503
 70
     1
  0
VERTEX
  5
136E
330
1369
100
AcDbEntity
  8
AM_0
100
AcDbVertex
100
AcDb2dVertex
 10
-30.15625000000004
 20
-3.987958170173168
 30
0.0
 42
-0.0653031023268945
  0
VERTEX
  5
136F
330
1369
100
AcDbEntity
  8
AM_0
100
AcDbVertex
100
AcDb2dVertex
 10
-30.4451928409547
 20
-3.678946676696042
 30
0.0
 42
-0.1569363594221426
 70
     1
  0
VERTEX
  5
1370
330
1369
100
AcDbEntity
  8
AM_0
100
AcDbVertex
100
AcDb2dVertex
 10
-30.50000000000004
 20
-3.507904879493451
 30
0.0
 42
-0.1617045000652558
  0
VERTEX
  5
1371
330
1369
100
AcDbEntity
  8
AM_0
100
AcDbVertex
100
AcDb2dVertex
 10
-30.44424613678821
 20
-3.340711359132042
 30
0.0
 42
-0.0680210806811403
 70
     1
  0
VERTEX
  5
1372
330
1369
100
AcDbEntity
  8
AM_0
100
AcDbVertex
100
AcDb2dVertex
 10
-30.15625000000004
 20
-3.048620316585904
 30
0.0
 42
-0.0450747416233525
  0
VERTEX
  5
1373
330
1369
100
AcDbEntity
  8
AM_0
100
AcDbVertex
100
AcDb2dVertex
 10
-29.71191874234057
 20
-2.765984830044495
 30
0.0
 42
-0.0231467319857815
 70
     1
  0
VERTEX
  5
1374
330
1369
100
AcDbEntity
  8
AM_0
100
AcDbVertex
100
AcDb2dVertex
 10
-28.78125000000004
 20
-2.338978047013763
 30
0.0
 42
-0.0364444523572374
  0
VERTEX
  5
1375
330
1369
100
AcDbEntity
  8
AM_0
100
AcDbVertex
100
AcDb2dVertex
 10
-28.37706466466777
 20
-2.209051568371321
 30
0.0
 42
-0.0242139410122645
 70
     1
  0
VERTEX
  5
1376
330
1369
100
AcDbEntity
  8
AM_0
100
AcDbVertex
100
AcDb2dVertex
 10
-27.75000000000004
 20
-2.088620340349077
 30
0.0
  0
SEQEND
  5
1377
330
1369
100
AcDbEntity
  8
AM_0
  0
POLYLINE
  5
1379
330
1F
100
AcDbEntity
  8
AM_0
100
AcDb2dPolyline
 66
     1
 10
0.0
 20
0.0
 30
0.0
 70
     2
  0
VERTEX
  5
137A
330
1379
100
AcDbEntity
  8
AM_0
100
AcDbVertex
100
AcDb2dVertex
 10
-25.00000000000005
 20
4.726141692969464
 30
0.0
 42
0.0113495642762015
  0
VERTEX
  5
137B
330
1379
100
AcDbEntity
  8
AM_0
100
AcDbVertex
100
AcDb2dVertex
 10
-26.28229193834486
 20
4.91813817544144
 30
0.0
 42
0.0187918863228812
 70
     1
  0
VERTEX
  5
137C
330
1379
100
AcDbEntity
  8
AM_0
100
AcDbVertex
100
AcDb2dVertex
 10
-27.06250000000005
 20
4.987247541288387
 30
0.0
 42
0.0075788461628208
  0
VERTEX
  5
137D
330
1379
100
AcDbEntity
  8
AM_0
100
AcDbVertex
100
AcDb2dVertex
 10
-29.13654138718025
 20
5.061137034814424
 30
0.0
 42
0.0232722457202398
 70
     1
  0
VERTEX
  5
137E
330
1379
100
AcDbEntity
  8
AM_0
100
AcDbVertex
100
AcDb2dVertex
 10
-29.81250000000006
 20
5.04350220908872
 30
0.0
 42
0.0542958387243925
  0
VERTEX
  5
137F
330
1379
100
AcDbEntity
  8
AM_0
100
AcDbVertex
100
AcDb2dVertex
 10
-30.45815902903034
 20
4.925275415675218
 30
0.0
 42
0.4413285869607302
 70
     1
  0
VERTEX
  5
1380
330
1379
100
AcDbEntity
  8
AM_0
100
AcDbVertex
100
AcDb2dVertex
 10
-30.50000000000006
 20
4.838651028570125
 30
0.0
 42
0.0678159998049314
  0
VERTEX
  5
1381
330
1379
100
AcDbEntity
  8
AM_0
100
AcDbVertex
100
AcDb2dVertex
 10
-30.44848811991961
 20
4.747990113367545
 30
0.0
 42
0.006836731909696
 70
     1
  0
VERTEX
  5
1382
330
1379
100
AcDbEntity
  8
AM_0
100
AcDbVertex
100
AcDb2dVertex
 10
-29.81250000000006
 20
3.938256990061232
 30
0.0
 42
0.0061465077983929
  0
VERTEX
  5
1383
330
1379
100
AcDbEntity
  8
AM_0
100
AcDbVertex
100
AcDb2dVertex
 10
-28.85384148451814
 20
2.780873121380344
 30
0.0
 42
0.0040253861954876
 70
     1
  0
VERTEX
  5
1384
330
1379
100
AcDbEntity
  8
AM_0
100
AcDbVertex
100
AcDb2dVertex
 10
-27.35441661057862
 20
1.043802092201794
 30
0.0
 42
0.0594163782683759
  0
VERTEX
  5
1385
330
1379
100
AcDbEntity
  8
AM_0
100
AcDbVertex
100
AcDb2dVertex
 10
-26.67651343748327
 20
0.4347502915358783
 30
0.0
 42
0.0273113651513278
 70
     1
  0
VERTEX
  5
1386
330
1379
100
AcDbEntity
  8
AM_0
100
AcDbVertex
100
AcDb2dVertex
 10
-25.00000000000004
 20
-0.6131824997518143
 30
0.0
  0
SEQEND
  5
1387
330
1379
100
AcDbEntity
  8
AM_0
  0
LINE
  5
1388
330
1F
100
AcDbEntity
  8
AM_0
100
AcDbLine
 10
-25.00000000000011
 20
4.726141692969455
 30
0.0
 11
-25.25835064879812
 21
5.173618142856016
 31
0.0
  0
ARC
  5
1389
330
1F
100
AcDbEntity
  8
AM_0
100
AcDbCircle
 10
-29.47291865609939
 20
-12.15078320402686
 30
0.0
 40
10.20860275408497
100
AcDbArc
 50
63.95724282821668
 51
80.28361532684805
  0
LINE
  5
138A
330
1F
100
AcDbEntity
  8
AM_0
100
AcDbLine
 10
-25.80072776965534
 20
-1.531549360056705
 30
0.0
 11
-25.00000000000005
 21
-2.978693983351856
 31
0.0
  0
LINE
  5
138B
330
1F
100
AcDbEntity
  8
AM_0
100
AcDbLine
 10
-24.99999999999996
 20
-0.6131824997518578
 30
0.0
 11
-25.80072776965534
 21
-1.531549360056705
 31
0.0
  0
ARC
  5
138C
330
1F
100
AcDbEntity
  8
AM_0
100
AcDbCircle
 10
-30.70861067860281
 20
4.980600641112435
 30
0.0
 40
10.49941150218616
100
AcDbArc
 50
273.4302387719557
 51
286.3669614370606
  0
DIMENSION
  5
13B3
330
1F
100
AcDbEntity
  8
AM_5
100
AcDbDimension
  2
*D5
 10
-0.0000000000014645
 20
-19.00000099999991
 30
0.0
 11
-37.50000000000062
 21
-17.45000099999991
 31
0.0
 70
    32
  1
<>
  3
AM_JIS
100
AcDbAlignedDimension
 13
-74.99999999999978
 23
-5.249999999998646
 33
0.0
 14
-0.0000000000014637
 24
-5.500000000000147
 34
0.0
100
AcDbRotatedDimension
1001
GENIUS_GENDTOL_13
1000

1000
h7
1000

1040
0.0
  0
DIMENSION
  5
145B
330
1F
100
AcDbEntity
  8
AM_5
100
AcDbDimension
  2
*D6
 10
-0.0000000000016631
 20
-13.00000100000134
 30
0.0
 11
-12.50000000000082
 21
-11.45000100000134
 31
0.0
 70
    32
  1
<>
  3
AM_JIS
100
AcDbAlignedDimension
 13
-24.99999999999998
 23
-5.50000000000015
 33
0.0
 14
-0.0000000000016627
 24
-5.500000000000147
 34
0.0
 50
359.9999999999967
100
AcDbRotatedDimension
1001
GENIUS_GENDTOL_13
1000

1000
h7
1000

1040
0.0
  0
DIMENSION
  5
14F3
330
1F
100
AcDbEntity
  8
AM_5
100
AcDbDimension
  2
*D7
 10
11.55776903085525
 20
-5.500000000000136
 30
0.0
 11
10.00776903085525
 21
-0.0000000000001342
 31
0.0
 70
    32
  1
%%c<>
  3
AM_JIS
100
AcDbAlignedDimension
 13
0.0000000000000117
 23
5.499999999999867
 33
0.0
 14
-0.0000000000016698
 24
-5.500000000000133
 34
0.0
 50
90.0
100
AcDbRotatedDimension
1001
GENIUS_GENDTOL_13
1000

1000
h7
1000

1040
0.0
  0
LINE
  5
15F4
330
1F
100
AcDbEntity
  8
AM_0
100
AcDbLine
 10
-33.99999999999979
 20
-5.999999999999912
 30
0.0
 11
-74.24999999999979
 21
-5.999999999998672
 31
0.0
  0
LINE
  5
15F6
330
1F
100
AcDbEntity
  8
AM_0
100
AcDbLine
 10
-74.24999999999977
 20
5.999999999999809
 30
0.0
 11
-74.24999999999979
 21
-5.999999999998672
 31
0.0
  0
LINE
  5
15F7
330
1F
100
AcDbEntity
  8
AM_0
100
AcDbLine
 10
-74.99999999999977
 20
5.249999999999807
 30
0.0
 11
-74.99999999999978
 21
-5.249999999998646
 31
0.0
  0
DIMENSION
  5
15F8
330
1F
100
AcDbEntity
  8
AM_5
100
AcDbDimension
  2
*D8
 10
-84.73320585933192
 20
-5.999999999998669
 30
0.0
 11
-86.28320585933192
 21
0.0000000000005583
 31
0.0
 70
    32
  1
%%c<>
  3
AM_JIS
100
AcDbAlignedDimension
 13
-74.24999999999977
 23
5.999999999999809
 33
0.0
 14
-74.24999999999977
 24
-5.999999999998672
 34
0.0
 50
270.0
100
AcDbRotatedDimension
1001
GENIUS_GENDTOL_13
1000

1000
h7
1000

1040
0.0
  0
LINE
  5
1605
330
1F
100
AcDbEntity
  8
AM_0
100
AcDbLine
 10
-33.99999999999978
 20
5.999999999999857
 30
0.0
 11
-74.24999999999977
 21
5.999999999999808
 31
0.0
  0
LINE
  5
1611
330
1F
100
AcDbEntity
  8
AM_0
100
AcDbLine
 10
-74.24999999999977
 20
5.999999999999808
 30
0.0
 11
-74.99999999999977
 21
5.249999999999807
 31
0.0
1001
GENIUS_GENFIL_13
1070
     0
1040
0.75
1040
0.75
1040
20.0
1040
0.0
1002
{
1002
}
1001
GENIUS_GENODEF_13
1002
{
1000
HIER
1070
     0
1002
}
1002
{
1000
MANEDIT
1070
     0
1002
}
1002
{
1000
NOSEL
1070
     0
1002
}
1002
{
1000
BEHIND
1070
     0
1002
}
1002
{
1000
REACTOR
1002
}
1001
GENIUS_GENOBJ-N-CHA_13
1002
{
1000
OWNER
1000
GEN
1002
}
  0
LINE
  5
1614
330
1F
100
AcDbEntity
  8
AM_0
100
AcDbLine
 10
-74.99999999999978
 20
-5.249999999998646
 30
0.0
 11
-74.24999999999979
 21
-5.999999999998672
 31
0.0
1001
GENIUS_GENFIL_13
1070
     0
1040
0.75
1040
0.75
1040
20.0
1040
0.0
1002
{
1002
}
1001
GENIUS_GENODEF_13
1002
{
1000
HIER
1070
     0
1002
}
1002
{
1000
MANEDIT
1070
     0
1002
}
1002
{
1000
NOSEL
1070
     0
1002
}
1002
{
1000
BEHIND
1070
     0
1002
}
1002
{
1000
REACTOR
1002
}
1001
GENIUS_GENOBJ-N-CHA_13
1002
{
1000
OWNER
1000
GEN
1002
}
  0
LINE
  5
1722
330
1F
100
AcDbEntity
  8
AM_11
100
AcDbLine
 10
-24.99999999999999
 20
5.49999999999985
 30
0.0
 11
-24.99999999999998
 21
-5.50000000000015
 31
0.0
  0
LINE
  5
1738
330
1F
100
AcDbEntity
  8
AM_0
100
AcDbLine
 10
-33.99999999999978
 20
5.999999999999857
 30
0.0
 11
-33.99999999999979
 21
-5.999999999999913
 31
0.0
  0
LINE
  5
174F
330
1F
100
AcDbEntity
  8
AM_0
100
AcDbLine
 10
-27.9006333750767
 20
5.499999999999841
 30
0.0
 11
-32.62626129027241
 21
5.499999999999839
 31
0.0
  0
LINE
  5
1750
330
1F
100
AcDbEntity
  8
AM_0
100
AcDbLine
 10
-30.08039726442775
 20
-5.500000000000153
 30
0.0
 11
-32.62626129027315
 21
-5.500000000000155
 31
0.0
  0
LINE
  5
1752
330
1F
100
AcDbEntity
  8
AM_0
100
AcDbLine
 10
-32.62626129027241
 20
5.499999999999838
 30
0.0
 11
-32.62626129027315
 21
-5.500000000000156
 31
0.0
  0
LINE
  5
1753
330
1F
100
AcDbEntity
  8
AM_0
100
AcDbLine
 10
-32.62626129027315
 20
-5.500000000000156
 30
0.0
 11
-33.99999999999979
 21
-5.999999999999914
 31
0.0
  0
LINE
  5
1758
330
1F
100
AcDbEntity
  8
AM_0
100
AcDbLine
 10
-32.62626129027315
 20
5.499999999999898
 30
0.0
 11
-33.9999999999998
 21
5.999999999999655
 31
0.0
  0
VIEWPORT
  5
110
330
101
100
AcDbEntity
 67
     1
  8
0
100
AcDbViewport
 10
420.5
 20
297.0
 30
0.0
 40
948.9782706766916
 41
628.452
 68
     1
 69
     1
1001
ACAD
1000
MVIEW
1002
{
1070
    16
1010
0.0
1020
0.0
1030
0.0
1010
0.0
1020
0.0
1030
1.0
1040
0.0
1040
628.452
1040
420.5
1040
297.0
1040
50.0
1040
0.0
1040
0.0
1070
     0
1070
   100
1070
     1
1070
     1
1070
     0
1070
     0
1070
     0
1070
     0
1040
0.0
1040
0.0
1040
0.0
1040
10.0
1040
10.0
1040
10.0
1040
10.0
1070
     0
1002
{
1002
}
1002
}
  0
ENDSEC
  0
SECTION
  2
OBJECTS
  0
DICTIONARY
  5
C
330
0
100
AcDbDictionary
  3
ACAD_GROUP
350
D
  3
ACAD_LAYOUT
350
1A
  3
ACAD_MLINESTYLE
350
17
  3
ACAD_PLOTSETTINGS
350
19
  3
ACAD_PLOTSTYLENAME
350
E
  3
ACDBVARIABLEDICTIONARY
350
34
  3
ACMDICTIONARY
350
43
  3
AMG
350
2B
  3
AMGSNAPSETTINGS
350
6E
  3
DWGPROPS
350
19AB
  3
ACDBHEADERROUNDTRIPXREC
350
19B8
  0
DICTIONARY
  5
74
330
1F
100
AcDbDictionary
280
     1
  3
ACAD_INDEX
360
19AD
  3
ACAD_LAYOUTSELFREF
360
19DB
  0
DICTIONARY
  5
19E0
330
101
100
AcDbDictionary
280
     1
  3
ACAD_LAYOUTSELFREF
360
19E1
  0
DICTIONARY
  5
D
102
{ACAD_REACTORS
330
C
102
}
330
C
100
AcDbDictionary
  0
DICTIONARY
  5
1A
102
{ACAD_REACTORS
330
C
102
}
330
C
100
AcDbDictionary
  0
DICTIONARY
  5
17
102
{ACAD_REACTORS
330
C
102
}
330
C
100
AcDbDictionary
  3
STANDARD
350
18
  0
DICTIONARY
  5
19
102
{ACAD_REACTORS
330
C
102
}
330
C
100
AcDbDictionary
  0
ACDBDICTIONARYWDFLT
  5
E
102
{ACAD_REACTORS
330
C
102
}
330
C
100
AcDbDictionary
281
     1
  3
Normal
350
F
100
AcDbDictionaryWithDefault
340
F
  0
DICTIONARY
  5
34
102
{ACAD_REACTORS
330
C
102
}
330
C
100
AcDbDictionary
  3
INDEXCTL
350
35
  3
SORTENTS
350
B5E
  0
DICTIONARY
  5
43
102
{ACAD_REACTORS
330
C
102
}
330
C
100
AcDbDictionary
  3
ACMSTDDICTIONARY
350
260
  0
DICTIONARY
  5
2B
102
{ACAD_REACTORS
330
C
102
}
330
C
100
AcDbDictionary
  3
ACMGSETTINGS
350
2C
  0
DICTIONARY
  5
6E
102
{ACAD_REACTORS
330
C
102
}
330
C
100
AcDbDictionary
  0
XRECORD
  5
19AB
102
{ACAD_REACTORS
330
C
102
}
330
C
100
AcDbXrecord
  1
DWGPROPS COOKIE
  2

  3

  4

  6

  7

  8

  9

300
AmdtFileType=82
301
=
302
=
303
=
304
=
305
=
306
=
307
=
308
=
309
=
 40
0.0254490277777778
 41
2452836.771637361
 42
2452901.554321817
  1

 90
        1
  0
DICTIONARY
  5
19B8
102
{ACAD_REACTORS
330
C
102
}
330
C
100
AcDbDictionary
  3
TSTACKALIGN
350
19B9
  3
TSTACKSIZE
350
19BA
  3
HYPERLINKBASE
350
19BB
  3
STYLESHEET
350
19BC
  3
LAYOUTDICT
350
19BD
  3
PLOTSETDICT
350
19BE
  3
PLOTSTYLNAMDICT
350
19BF
  3
LWETCUNION
350
19C0
  3
INSUNITS
350
19C1
  3
CEPSNTYPE
350
19C2
  3
FINGERPRINTGUID
350
19C3
  3
VERSIONGUID
350
19C4
  3
PSVPSCALE
350
19C5
  3
DIMSTYLEDATA
350
19C6
  3
PUCSORTHOREF
350
19C7
  3
PUCSORTHOVIEW
350
19C8
  3
PUCSBASE
350
19C9
  3
PUCSORGTOP
350
19CA
  3
PUCSORGBOTTOM
350
19CB
  3
PUCSORGLEFT
350
19CC
  3
PUCSORGRIGHT
350
19CD
  3
PUCSORGFRONT
350
19CE
  3
PUCSORGBACK
350
19CF
  3
UCSORTHOREF
350
19D0
  3
UCSORTHOVIEW
350
19D1
  3
UCSBASE
350
19D2
  3
UCSORGTOP
350
19D3
  3
UCSORGBOTTOM
350
19D4
  3
UCSORGLEFT
350
19D5
  3
UCSORGRIGHT
350
19D6
  3
UCSORGFRONT
350
19D7
  3
UCSORGBACK
350
19D8
  0
DICTIONARY
  5
19AD
102
{ACAD_REACTORS
330
74
102
}
330
74
100
AcDbDictionary
  3
*A1
350
19AE
  0
XRECORD
  5
19DB
102
{ACAD_REACTORS
330
74
102
}
330
74
100
AcDbXrecord
340
1F
  0
XRECORD
  5
19E1
102
{ACAD_REACTORS
330
19E0
102
}
330
19E0
100
AcDbXrecord
340
101
  0
MLINESTYLE
  5
18
102
{ACAD_REACTORS
330
17
102
}
330
17
100
AcDbMlineStyle
  2
STANDARD
 70
     0
  3

 62
   256
 51
90.0
 52
90.0
 71
     2
 49
0.5
 62
   256
  6
BYLAYER
 49
-0.5
 62
   256
  6
BYLAYER
  0
ACDBPLACEHOLDER
  5
F
102
{ACAD_REACTORS
330
E
102
}
330
E
100
AcDbPlaceHolder
280
     0
  0
DICTIONARYVAR
  5
35
102
{ACAD_REACTORS
330
34
102
}
330
34
100
DictionaryVariables
280
     0
  1
1
  0
DICTIONARYVAR
  5
B5E
102
{ACAD_REACTORS
330
34
102
}
330
34
100
DictionaryVariables
280
     0
  1
96
  0
DICTIONARY
  5
260
102
{ACAD_REACTORS
330
43
102
}
330
43
100
AcDbDictionary
  0
DICTIONARY
  5
2C
102
{ACAD_REACTORS
330
2B
102
}
330
2B
100
AcDbDictionary
  3
DWGSETTINGS
350
2D
  0
XRECORD
  5
19B9
102
{ACAD_REACTORS
330
19B8
102
}
330
19B8
100
AcDbXrecord
 90
        1
  0
XRECORD
  5
19BA
102
{ACAD_REACTORS
330
19B8
102
}
330
19B8
100
AcDbXrecord
 90
       70
  0
XRECORD
  5
19BB
102
{ACAD_REACTORS
330
19B8
102
}
330
19B8
100
AcDbXrecord
  1

  0
XRECORD
  5
19BC
102
{ACAD_REACTORS
330
19B8
102
}
330
19B8
100
AcDbXrecord
  1
ASAMI.ctb
  0
XRECORD
  5
19BD
102
{ACAD_REACTORS
330
19B8
102
}
330
19B8
100
AcDbXrecord
340
1A
  0
XRECORD
  5
19BE
102
{ACAD_REACTORS
330
19B8
102
}
330
19B8
100
AcDbXrecord
340
19
  0
XRECORD
  5
19BF
102
{ACAD_REACTORS
330
19B8
102
}
330
19B8
100
AcDbXrecord
340
E
  0
XRECORD
  5
19C0
102
{ACAD_REACTORS
330
19B8
102
}
330
19B8
100
AcDbXrecord
 90
    10781
  0
XRECORD
  5
19C1
102
{ACAD_REACTORS
330
19B8
102
}
330
19B8
100
AcDbXrecord
 90
        4
  0
XRECORD
  5
19C2
102
{ACAD_REACTORS
330
19B8
102
}
330
19B8
100
AcDbXrecord
 90
        0
  0
XRECORD
  5
19C3
102
{ACAD_REACTORS
330
19B8
102
}
330
19B8
100
AcDbXrecord
  1
{AFB28963-8C59-40AE-9337-C84526B81ACE}
  0
XRECORD
  5
19C4
102
{ACAD_REACTORS
330
19B8
102
}
330
19B8
100
AcDbXrecord
  1
{AB6BE678-F4F8-43CF-913A-8276328011D7}
  0
XRECORD
  5
19C5
102
{ACAD_REACTORS
330
19B8
102
}
330
19B8
100
AcDbXrecord
 40
0.0
  0
XRECORD
  5
19C6
102
{ACAD_REACTORS
330
19B8
102
}
330
19B8
100
AcDbXrecord
1000
DSTYLE
1002
{
1070
    79
 70
     2
1070
   341
340
59
1070
   342
340
59
1070
   371
 70
    -1
1070
   372
 70
    -1
1002
}
  0
XRECORD
  5
19C7
102
{ACAD_REACTORS
330
19B8
102
}
330
19B8
100
AcDbXrecord
340
0
  0
XRECORD
  5
19C8
102
{ACAD_REACTORS
330
19B8
102
}
330
19B8
100
AcDbXrecord
 70
     0
  0
XRECORD
  5
19C9
102
{ACAD_REACTORS
330
19B8
102
}
330
19B8
100
AcDbXrecord
340
0
  0
XRECORD
  5
19CA
102
{ACAD_REACTORS
330
19B8
102
}
330
19B8
100
AcDbXrecord
 10
0.0
 20
0.0
 30
0.0
  0
XRECORD
  5
19CB
102
{ACAD_REACTORS
330
19B8
102
}
330
19B8
100
AcDbXrecord
 10
0.0
 20
0.0
 30
0.0
  0
XRECORD
  5
19CC
102
{ACAD_REACTORS
330
19B8
102
}
330
19B8
100
AcDbXrecord
 10
0.0
 20
0.0
 30
0.0
  0
XRECORD
  5
19CD
102
{ACAD_REACTORS
330
19B8
102
}
330
19B8
100
AcDbXrecord
 10
0.0
 20
0.0
 30
0.0
  0
XRECORD
  5
19CE
102
{ACAD_REACTORS
330
19B8
102
}
330
19B8
100
AcDbXrecord
 10
0.0
 20
0.0
 30
0.0
  0
XRECORD
  5
19CF
102
{ACAD_REACTORS
330
19B8
102
}
330
19B8
100
AcDbXrecord
 10
0.0
 20
0.0
 30
0.0
  0
XRECORD
  5
19D0
102
{ACAD_REACTORS
330
19B8
102
}
330
19B8
100
AcDbXrecord
340
0
  0
XRECORD
  5
19D1
102
{ACAD_REACTORS
330
19B8
102
}
330
19B8
100
AcDbXrecord
 70
     0
  0
XRECORD
  5
19D2
102
{ACAD_REACTORS
330
19B8
102
}
330
19B8
100
AcDbXrecord
340
0
  0
XRECORD
  5
19D3
102
{ACAD_REACTORS
330
19B8
102
}
330
19B8
100
AcDbXrecord
 10
0.0
 20
0.0
 30
0.0
  0
XRECORD
  5
19D4
102
{ACAD_REACTORS
330
19B8
102
}
330
19B8
100
AcDbXrecord
 10
0.0
 20
0.0
 30
0.0
  0
XRECORD
  5
19D5
102
{ACAD_REACTORS
330
19B8
102
}
330
19B8
100
AcDbXrecord
 10
0.0
 20
0.0
 30
0.0
  0
XRECORD
  5
19D6
102
{ACAD_REACTORS
330
19B8
102
}
330
19B8
100
AcDbXrecord
 10
0.0
 20
0.0
 30
0.0
  0
XRECORD
  5
19D7
102
{ACAD_REACTORS
330
19B8
102
}
330
19B8
100
AcDbXrecord
 10
0.0
 20
0.0
 30
0.0
  0
XRECORD
  5
19D8
102
{ACAD_REACTORS
330
19B8
102
}
330
19B8
100
AcDbXrecord
 10
0.0
 20
0.0
 30
0.0
  0
LAYER_INDEX
  5
19AE
102
{ACAD_REACTORS
330
19AD
102
}
330
19AD
100
AcDbIndex
 40
2453152.456637083
100
AcDbLayerIndex
  8
0
360
19AF
 90
        0
  8
AM_0
360
19B0
 90
       55
  8
AM_11
360
19B1
 90
        3
  8
AM_7
360
19B2
 90
        1
  8
AM_5
360
19B3
 90
        4
  8
Defpoints
360
19B4
 90
        0
  8
AM_6
360
19B5
 90
        1
  8
AM_CL
360
19B6
 90
        0
  0
XRECORD
  5
2D
102
{ACAD_REACTORS
330
2C
102
}
330
2C
100
AcDbXrecord
  1
VERSION
140
15.0
  1
PRODUCT
  2
AutoCAD Mechanical 2000
  0
IDBUFFER
  5
19AF
330
0
100
AcDbIdBuffer
  0
IDBUFFER
  5
19B0
330
0
100
AcDbIdBuffer
330
1614
330
1738
330
174F
330
1750
330
1752
330
1753
330
1758
330
1317
330
1318
330
1319
330
131A
330
131B
330
131C
330
131D
330
131E
330
131F
330
1320
330
1321
330
1322
330
1323
330
1324
330
1325
330
1326
330
1327
330
1328
330
1329
330
1358
330
1359
330
135A
330
135B
330
135C
330
135D
330
135E
330
135F
330
1360
330
1361
330
1362
330
1363
330
1364
330
1365
330
1366
330
1367
330
1368
330
1369
330
1379
330
1388
330
1389
330
138A
330
138B
330
138C
330
15F4
330
15F6
330
15F7
330
1605
330
1611
  0
IDBUFFER
  5
19B1
330
0
100
AcDbIdBuffer
330
1356
330
1357
330
1722
  0
IDBUFFER
  5
19B2
330
0
100
AcDbIdBuffer
330
132B
  0
IDBUFFER
  5
19B3
330
0
100
AcDbIdBuffer
330
13B3
330
145B
330
14F3
330
15F8
  0
IDBUFFER
  5
19B4
330
0
100
AcDbIdBuffer
  0
IDBUFFER
  5
19B5
330
0
100
AcDbIdBuffer
330
E5A
  0
IDBUFFER
  5
19B6
330
0
100
AcDbIdBuffer
  0
ENDSEC
  0
EOF
