  0
SECTION
  2
HEADER
  9
$ACADVER
  1
AC1014
  9
$ACADMAINTVER
 70
     9
  9
$DWGCODEPAGE
  3
ANSI_932
  9
$INSBASE
 10
0.0
 20
0.0
 30
0.0
  9
$EXTMIN
 10
-111.9932451532983
 20
-56.50000099999997
 30
-0.00000001
  9
$EXTMAX
 10
21.83665304628215
 20
8.000000000000001
 30
0.00000001
  9
$LIMMIN
 10
-119.4103057978848
 20
-64.07088123960313
  9
$LIMMAX
 10
26.92028964567458
 20
27.94892642738636
  9
$ORTHOMODE
 70
     0
  9
$REGENMODE
 70
     1
  9
$FILLMODE
 70
     1
  9
$QTEXTMODE
 70
     0
  9
$MIRRTEXT
 70
     0
  9
$DRAGMODE
 70
     2
  9
$LTSCALE
 40
1.0
  9
$OSMODE
 70
    55
  9
$ATTMODE
 70
     1
  9
$TEXTSIZE
 40
2.5
  9
$TRACEWID
 40
1.0
  9
$TEXTSTYLE
  7
STANDARD
  9
$CLAYER
  8
AM_0
  9
$CELTYPE
  6
BYLAYER
  9
$CECOLOR
 62
   256
  9
$CELTSCALE
 40
1.0
  9
$DELOBJ
 70
     1
  9
$DISPSILH
 70
     0
  9
$DIMSCALE
 40
1.0
  9
$DIMASZ
 40
2.5
  9
$DIMEXO
 40
1.0
  9
$DIMDLI
 40
12.0
  9
$DIMRND
 40
0.0
  9
$DIMDLE
 40
0.0
  9
$DIMEXE
 40
1.0
  9
$DIMTP
 40
0.1
  9
$DIMTM
 40
0.1
  9
$DIMTXT
 40
3.2
  9
$DIMCEN
 40
0.0
  9
$DIMTSZ
 40
0.0
  9
$DIMTOL
 70
     0
  9
$DIMLIM
 70
     0
  9
$DIMTIH
 70
     0
  9
$DIMTOH
 70
     0
  9
$DIMSE1
 70
     0
  9
$DIMSE2
 70
     0
  9
$DIMTAD
 70
     3
  9
$DIMZIN
 70
     8
  9
$DIMBLK
  1
OPEN30
  9
$DIMASO
 70
     1
  9
$DIMSHO
 70
     1
  9
$DIMPOST
  1

  9
$DIMAPOST
  1
"
  9
$DIMALT
 70
     0
  9
$DIMALTD
 70
     2
  9
$DIMALTF
 40
0.0393701
  9
$DIMLFAC
 40
1.0
  9
$DIMTOFL
 70
     1
  9
$DIMTVP
 40
0.0
  9
$DIMTIX
 70
     0
  9
$DIMSOXD
 70
     0
  9
$DIMSAH
 70
     0
  9
$DIMBLK1
  1

  9
$DIMBLK2
  1

  9
$DIMSTYLE
  2
AM_JIS
  9
$DIMCLRD
 70
   256
  9
$DIMCLRE
 70
   256
  9
$DIMCLRT
 70
     2
  9
$DIMTFAC
 40
0.71
  9
$DIMGAP
 40
1.5
  9
$DIMJUST
 70
     0
  9
$DIMSD1
 70
     0
  9
$DIMSD2
 70
     0
  9
$DIMTOLJ
 70
     0
  9
$DIMTZIN
 70
     0
  9
$DIMALTZ
 70
     0
  9
$DIMALTTZ
 70
     0
  9
$DIMFIT
 70
     3
  9
$DIMUPT
 70
     0
  9
$DIMUNIT
 70
     2
  9
$DIMDEC
 70
     3
  9
$DIMTDEC
 70
     3
  9
$DIMALTU
 70
     2
  9
$DIMALTTD
 70
     2
  9
$DIMTXSTY
  7
ASAMI
  9
$DIMAUNIT
 70
     0
  9
$LUNITS
 70
     2
  9
$LUPREC
 70
     2
  9
$SKETCHINC
 40
1.0
  9
$FILLETRAD
 40
2.5
  9
$AUNITS
 70
     0
  9
$AUPREC
 70
     0
  9
$MENU
  1
.
  9
$ELEVATION
 40
0.0
  9
$PELEVATION
 40
0.0
  9
$THICKNESS
 40
0.0
  9
$LIMCHECK
 70
     0
  9
$BLIPMODE
 70
     0
  9
$CHAMFERA
 40
1.0
  9
$CHAMFERB
 40
1.0
  9
$CHAMFERC
 40
20.0
  9
$CHAMFERD
 40
0.0
  9
$SKPOLY
 70
     0
  9
$TDCREATE
 40
2452836.771637361
  9
$TDUPDATE
 40
2453152.456970208
  9
$TDINDWG
 40
0.0559747569
  9
$TDUSRTIMER
 40
0.0559747569
  9
$USRTIMER
 70
     1
  9
$ANGBASE
 50
0.0
  9
$ANGDIR
 70
     0
  9
$PDMODE
 70
     0
  9
$PDSIZE
 40
0.0
  9
$PLINEWID
 40
0.0
  9
$COORDS
 70
     1
  9
$SPLFRAME
 70
     0
  9
$SPLINETYPE
 70
     6
  9
$SPLINESEGS
 70
     8
  9
$ATTDIA
 70
     1
  9
$ATTREQ
 70
     1
  9
$HANDLING
 70
 12289
  9
$HANDSEED
  5
2B6B
  9
$SURFTAB1
 70
     6
  9
$SURFTAB2
 70
     6
  9
$SURFTYPE
 70
     6
  9
$SURFU
 70
     6
  9
$SURFV
 70
     6
  9
$UCSNAME
  2

  9
$UCSORG
 10
0.0
 20
0.0
 30
0.0
  9
$UCSXDIR
 10
1.0
 20
0.0
 30
0.0
  9
$UCSYDIR
 10
0.0
 20
1.0
 30
0.0
  9
$PUCSNAME
  2

  9
$PUCSORG
 10
0.0
 20
0.0
 30
0.0
  9
$PUCSXDIR
 10
1.0
 20
0.0
 30
0.0
  9
$PUCSYDIR
 10
0.0
 20
1.0
 30
0.0
  9
$USERI1
 70
     0
  9
$USERI2
 70
     0
  9
$USERI3
 70
     0
  9
$USERI4
 70
     0
  9
$USERI5
 70
     0
  9
$USERR1
 40
0.0
  9
$USERR2
 40
0.0
  9
$USERR3
 40
0.0
  9
$USERR4
 40
0.0
  9
$USERR5
 40
0.0
  9
$WORLDVIEW
 70
     1
  9
$SHADEDGE
 70
     3
  9
$SHADEDIF
 70
    70
  9
$TILEMODE
 70
     1
  9
$MAXACTVP
 70
    64
  9
$PINSBASE
 10
0.0
 20
0.0
 30
0.0
  9
$PLIMCHECK
 70
     0
  9
$PEXTMIN
 10
1.000000000000000E+20
 20
1.000000000000000E+20
 30
1.000000000000000E+20
  9
$PEXTMAX
 10
-1.000000000000000E+20
 20
-1.000000000000000E+20
 30
-1.000000000000000E+20
  9
$PLIMMIN
 10
0.0
 20
0.0
  9
$PLIMMAX
 10
841.0
 20
594.0
  9
$UNITMODE
 70
     0
  9
$VISRETAIN
 70
     1
  9
$PLINEGEN
 70
     0
  9
$PSLTSCALE
 70
     0
  9
$TREEDEPTH
 70
  3020
  9
$PICKSTYLE
 70
     0
  9
$CMLSTYLE
  2
STANDARD
  9
$CMLJUST
 70
     0
  9
$CMLSCALE
 40
20.0
  9
$PROXYGRAPHICS
 70
     1
  9
$MEASUREMENT
 70
     1
  0
ENDSEC
  0
SECTION
  2
CLASSES
  0
CLASS
  1
ACDBDICTIONARYWDFLT
  2
AcDbDictionaryWithDefault
  3
AutoCAD 2000
 90
        0
280
     0
281
     0
  0
CLASS
  1
ACDBPLACEHOLDER
  2
AcDbPlaceHolder
  3
AutoCAD 2000
 90
        0
280
     0
281
     0
  0
CLASS
  1
LAYOUT
  2
AcDbLayout
  3
AutoCAD 2000
 90
        0
280
     0
281
     0
  0
CLASS
  1
AMGSETTINGSOBJ
  2
AmgSettingsObj
  3
"AcadM|Product Description: AutoCAD Mechanical 2000|Company: Autodesk"
 90
        0
280
     0
281
     0
  0
CLASS
  1
ACME_DOCUMENT
  2
AcMeDbDoc
  3
AcMeServices
 90
        0
280
     0
281
     0
  0
CLASS
  1
ACMESCOPE
  2
AcMeScope
  3
AcMeServices
 90
        0
280
     0
281
     0
  0
CLASS
  1
ACMECOMMANDHISTORY
  2
AcMeCommandHistory
  3
AcMeServices
 90
        0
280
     0
281
     0
  0
CLASS
  1
DICTIONARYVAR
  2
AcDbDictionaryVar
  3
AutoCAD 2000
 90
        0
280
     0
281
     0
  0
CLASS
  1
ACIMSYSVARMAN
  2
AcImSysVarManager
  3
AcMeServices
 90
        0
280
     0
281
     0
  0
CLASS
  1
ACIMREALSYSVAR
  2
AcImRealSysVar
  3
AcMeServices
 90
        0
280
     0
281
     0
  0
CLASS
  1
ACIMINTSYSVAR
  2
AcImIntSysVar
  3
AcMeServices
 90
        0
280
     0
281
     0
  0
CLASS
  1
ACMEDRAWINGMAN
  2
AcMeDrawingMan
  3
AcMeServices
 90
        0
280
     0
281
     0
  0
CLASS
  1
ACMEVIEW
  2
AcMeView
  3
AcMeServices
 90
        0
280
     0
281
     0
  0
CLASS
  1
ACDBENTITYCACHE
  2
AcMeEntityCache
  3
AcMeServices
 90
        0
280
     0
281
     0
  0
CLASS
  1
GSMANAGER
  2
AcMeGSManager
  3
AcMeServices
 90
        0
280
     0
281
     0
  0
CLASS
  1
AmdtInternalReactor
  2
AmdtInternalReactor
  3
AcMeServices
 90
        0
280
     0
281
     0
  0
CLASS
  1
ACMESTATEMGR
  2
AcMeStateMgr
  3
AcMeServices
 90
        0
280
     0
281
     0
  0
CLASS
  1
ACME_DATABASE
  2
AcMeDbDatabase
  3
AcMeServices
 90
        0
280
     0
281
     0
  0
CLASS
  1
ACRFINSADJUSTERMGR
  2
AcRfInsAdjusterMgr
  3
AcMeServices
 90
        0
280
     0
281
     0
  0
CLASS
  1
ACMDATADICTIONARY
  2
AcmDataDictionary
  3
"AcmSymBB|Product Description: AutoCAD Mechanical 2000|Company: Autodesk"
 90
        0
280
     0
281
     0
  0
CLASS
  1
ACMDATAENTRYBLOCK
  2
AcmDataEntryBlock
  3
"AcmSymBB|Product Description: AutoCAD Mechanical 2000|Company: Autodesk"
 90
        0
280
     0
281
     0
  0
CLASS
  1
AMGOBJPROPCFG
  2
AmgObjPropCfg
  3
"AmgLay|Product Description: AutoCAD Mechanical 2000|Company: Autodesk"
 90
        1
280
     0
281
     0
  0
CLASS
  1
ACAMGFILTERDAT
  2
AcAmgFilterDat
  3
"AcadM|Product Description: AutoCAD Mechanical 2000|Company: Autodesk"
 90
        0
280
     0
281
     0
  0
CLASS
  1
LAYER_INDEX
  2
AcDbLayerIndex
  3
AutoCAD 2000
 90
        0
280
     0
281
     0
  0
CLASS
  1
IDBUFFER
  2
AcDbIdBuffer
  3
AutoCAD 2000
 90
        0
280
     0
281
     0
  0
CLASS
  1
ACIMSTRSYSVAR
  2
AcImStrSysVar
  3
AcMeServices
 90
        0
280
     0
281
     0
  0
CLASS
  1
ACMSTANDARDJIS
  2
AcmStandardJIS
  3
"AcmSymBB|Product Description: AutoCAD Mechanical 2000|Company: Autodesk"
 90
        0
280
     0
281
     0
  0
CLASS
  1
ACMSURFSTANDARDJIS
  2
AcmSurfTextStdJIS
  3
"AcmSymBB|Product Description: AutoCAD Mechanical 2000|Company: Autodesk"
 90
        0
280
     0
281
     0
  0
CLASS
  1
ACMFCFSTANDARDJIS
  2
AcmFCFStdJIS
  3
"AcmSymBB|Product Description: AutoCAD Mechanical 2000|Company: Autodesk"
 90
        0
280
     0
281
     0
  0
CLASS
  1
ACMWELDSTANDARDJIS
  2
AcmWeldingStdJIS
  3
"AcmSymBB|Product Description: AutoCAD Mechanical 2000|Company: Autodesk"
 90
        0
280
     0
281
     0
  0
CLASS
  1
ACMIDSTANDARDJIS
  2
AcmIdStdJIS
  3
"AcmSymBB|Product Description: AutoCAD Mechanical 2000|Company: Autodesk"
 90
        0
280
     0
281
     0
  0
CLASS
  1
ACMDATUMSTANDARDJIS
  2
AcmDatumStdJIS
  3
"AcmSymBB|Product Description: AutoCAD Mechanical 2000|Company: Autodesk"
 90
        0
280
     0
281
     0
  0
CLASS
  1
ACMBOMSTANDARDJIS
  2
AcmBOMStdJIS
  3
"AcmSymBB|Product Description: AutoCAD Mechanical 2000|Company: Autodesk"
 90
        0
280
     0
281
     0
  0
CLASS
  1
ACMSTANDARDANSI
  2
AcmStandardANSI
  3
"AcmSymBB|Product Description: AutoCAD Mechanical 2000|Company: Autodesk"
 90
        0
280
     0
281
     0
  0
CLASS
  1
ACMSURFSTANDARDANSI
  2
AcmSurfTextStdANSI
  3
"AcmSymBB|Product Description: AutoCAD Mechanical 2000|Company: Autodesk"
 90
        0
280
     0
281
     0
  0
CLASS
  1
ACMFCFSTANDARDANSI
  2
AcmFCFStdANSI
  3
"AcmSymBB|Product Description: AutoCAD Mechanical 2000|Company: Autodesk"
 90
        0
280
     0
281
     0
  0
CLASS
  1
ACMWELDSTANDARDANSI
  2
AcmWeldingStdANSI
  3
"AcmSymBB|Product Description: AutoCAD Mechanical 2000|Company: Autodesk"
 90
        0
280
     0
281
     0
  0
CLASS
  1
ACMIDSTANDARDANSI
  2
AcmIdStdANSI
  3
"AcmSymBB|Product Description: AutoCAD Mechanical 2000|Company: Autodesk"
 90
        0
280
     0
281
     0
  0
CLASS
  1
ACMDATUMSTANDARDANSI
  2
AcmDatumStdANSI
  3
"AcmSymBB|Product Description: AutoCAD Mechanical 2000|Company: Autodesk"
 90
        0
280
     0
281
     0
  0
CLASS
  1
ACMBOMSTANDARDANSI
  2
AcmBOMStdANSI
  3
"AcmSymBB|Product Description: AutoCAD Mechanical 2000|Company: Autodesk"
 90
        0
280
     0
281
     0
  0
CLASS
  1
ACMSTANDARDBSI
  2
AcmStandardBSI
  3
"AcmSymBB|Product Description: AutoCAD Mechanical 2000|Company: Autodesk"
 90
        0
280
     0
281
     0
  0
CLASS
  1
ACMSURFSTANDARDBSI
  2
AcmSurfTextStdBSI
  3
"AcmSymBB|Product Description: AutoCAD Mechanical 2000|Company: Autodesk"
 90
        0
280
     0
281
     0
  0
CLASS
  1
ACMFCFSTANDARDBSI
  2
AcmFCFStdBSI
  3
"AcmSymBB|Product Description: AutoCAD Mechanical 2000|Company: Autodesk"
 90
        0
280
     0
281
     0
  0
CLASS
  1
ACMWELDSTANDARDBSI
  2
AcmWeldingStdBSI
  3
"AcmSymBB|Product Description: AutoCAD Mechanical 2000|Company: Autodesk"
 90
        0
280
     0
281
     0
  0
CLASS
  1
ACMIDSTANDARDBSI
  2
AcmIdStdBSI
  3
"AcmSymBB|Product Description: AutoCAD Mechanical 2000|Company: Autodesk"
 90
        0
280
     0
281
     0
  0
CLASS
  1
ACMDATUMSTANDARDBSI
  2
AcmDatumStdBSI
  3
"AcmSymBB|Product Description: AutoCAD Mechanical 2000|Company: Autodesk"
 90
        0
280
     0
281
     0
  0
CLASS
  1
ACMBOMSTANDARDBSI
  2
AcmBOMStdBSI
  3
"AcmSymBB|Product Description: AutoCAD Mechanical 2000|Company: Autodesk"
 90
        0
280
     0
281
     0
  0
CLASS
  1
LONG_TRANSACTION
  2
AcDbLongTransaction
  3
AutoCAD 2000
 90
        0
280
     0
281
     0
  0
CLASS
  1
LWPOLYLINE
  2
AcDbPolyline
  3
AutoCAD 2000
 90
        0
280
     0
281
     1
  0
CLASS
  1
HATCH
  2
AcDbHatch
  3
AutoCAD 2000
 90
        0
280
     0
281
     1
  0
CLASS
  1
XRECORD
  2
AcDbXrecord
  3
AutoCAD 2000
 90
        0
280
     0
281
     0
  0
ENDSEC
  0
SECTION
  2
TABLES
  0
TABLE
  2
VPORT
  5
8
330
0
100
AcDbSymbolTable
 70
     3
  0
VPORT
  5
2B40
330
8
100
AcDbSymbolTableRecord
100
AcDbViewportTableRecord
  2
*ACTIVE
 70
     0
 10
0.0
 20
0.0
 11
1.0
 21
1.0
 12
-45.07835526640443
 22
-24.24959570327789
 13
0.0
 23
0.0
 14
2.5
 24
2.5
 15
10.0
 25
10.0
 16
0.0
 26
0.0
 36
1.0
 17
0.0
 27
0.0
 37
0.0
 40
85.83261489313297
 41
1.56570841889117
 42
50.0
 43
0.0
 44
0.0
 50
0.0
 51
0.0
 71
     0
 72
   100
 73
     1
 74
     3
 75
     0
 76
     0
 77
     0
 78
     0
  0
ENDTAB
  0
TABLE
  2
LTYPE
  5
5
330
0
100
AcDbSymbolTable
 70
    10
  0
LTYPE
  5
14
330
5
100
AcDbSymbolTableRecord
100
AcDbLinetypeTableRecord
  2
BYBLOCK
 70
     0
  3

 72
    65
 73
     0
 40
0.0
  0
LTYPE
  5
15
330
5
100
AcDbSymbolTableRecord
100
AcDbLinetypeTableRecord
  2
BYLAYER
 70
     0
  3

 72
    65
 73
     0
 40
0.0
  0
LTYPE
  5
16
330
5
100
AcDbSymbolTableRecord
100
AcDbLinetypeTableRecord
  2
CONTINUOUS
 70
     0
  3
Solid line
 72
    65
 73
     0
 40
0.0
  0
LTYPE
  5
4B
330
5
100
AcDbSymbolTableRecord
100
AcDbLinetypeTableRecord
  2
AM_ISO02W050
 70
     0
  3
__ __ __ __ __ __ __ __ __ __ __ __ __ __ __
 72
    65
 73
     2
 40
7.5
 49
6.0
 74
     0
 49
-1.5
 74
     0
  0
LTYPE
  5
4C
330
5
100
AcDbSymbolTableRecord
100
AcDbLinetypeTableRecord
  2
AM_ISO08W050
 70
     0
  3
____ . ____ . ____ . ____ . ____ . ____ . ____
 72
    65
 73
     4
 40
18.0
 49
12.0
 74
     0
 49
-1.5
 74
     0
 49
3.0
 74
     0
 49
-1.5
 74
     0
  0
LTYPE
  5
4D
330
5
100
AcDbSymbolTableRecord
100
AcDbLinetypeTableRecord
  2
AM_ISO09W050
 70
     0
  3
_____ . . _____ . . _____ . . ____ .. ____
 72
    65
 73
     6
 40
22.5
 49
12.0
 74
     0
 49
-1.5
 74
     0
 49
3.0
 74
     0
 49
-1.5
 74
     0
 49
3.0
 74
     0
 49
-1.5
 74
     0
  0
LTYPE
  5
4E
330
5
100
AcDbSymbolTableRecord
100
AcDbLinetypeTableRecord
  2
AMCONSTR
 70
     0
  3
_______________________
 72
    65
 73
     2
 40
9999.0
 49
9999.0
 74
     0
 49
0.0
 74
     0
  0
LTYPE
  5
4F
330
5
100
AcDbSymbolTableRecord
100
AcDbLinetypeTableRecord
  2
AM_ISO02W050X2
 70
     0
  3
 _ _ _ _ _ _ _ _ _ _ _ _
 72
    65
 73
     2
 40
3.75
 49
3.0
 74
     0
 49
-0.75
 74
     0
  0
LTYPE
  5
50
330
5
100
AcDbSymbolTableRecord
100
AcDbLinetypeTableRecord
  2
AM_ISO08W050X2
 70
     0
  3
__ . __ . __ . __ . __ . __
 72
    65
 73
     4
 40
9.0
 49
6.0
 74
     0
 49
-0.75
 74
     0
 49
1.5
 74
     0
 49
-0.75
 74
     0
  0
LTYPE
  5
53
330
5
100
AcDbSymbolTableRecord
100
AcDbLinetypeTableRecord
  2
AMZIGZAG
 70
     0
  3
/\/-/\/-/\/-/\/-/\/-/\/
 72
    65
 73
     2
 40
11.00009999999999
 49
0.0001
 74
     4
 75
   135
340
52
 46
0.04
 50
0.0
 44
0.0
 45
0.0
 49
-11.0
 74
     0
  0
LTYPE
  5
166
330
5
100
AcDbSymbolTableRecord
100
AcDbLinetypeTableRecord
  2
ACJISTGL
 70
     0
  3
_ _ _ _ _
 72
    65
 73
     2
 40
3.0
 49
2.0
 74
     0
 49
-1.0
 74
     0
  0
LTYPE
  5
26A
330
5
100
AcDbSymbolTableRecord
100
AcDbLinetypeTableRecord
  2
ACJISTGB
 70
     0
  3
__ . . __ . .
 72
    65
 73
     6
 40
9.0
 49
4.0
 74
     0
 49
-1.0
 74
     0
 49
1.0
 74
     0
 49
-1.0
 74
     0
 49
1.0
 74
     0
 49
-1.0
 74
     0
  0
ENDTAB
  0
TABLE
  2
LAYER
  5
2
330
0
100
AcDbSymbolTable
 70
     7
  0
LAYER
  5
10
330
2
100
AcDbSymbolTableRecord
100
AcDbLayerTableRecord
  2
0
 70
     0
 62
     7
  6
CONTINUOUS
  0
LAYER
  5
3F9
330
2
100
AcDbSymbolTableRecord
100
AcDbLayerTableRecord
  2
AM_0
 70
     0
 62
     7
  6
CONTINUOUS
  0
LAYER
  5
BD4
330
2
100
AcDbSymbolTableRecord
100
AcDbLayerTableRecord
  2
AM_11
 70
     0
 62
     3
  6
AM_ISO09W050
  0
LAYER
  5
BD5
330
2
100
AcDbSymbolTableRecord
100
AcDbLayerTableRecord
  2
AM_7
 70
     0
 62
     4
  6
AM_ISO08W050
  0
LAYER
  5
BD6
330
2
100
AcDbSymbolTableRecord
100
AcDbLayerTableRecord
  2
AM_5
 70
     0
 62
     3
  6
CONTINUOUS
  0
LAYER
  5
BD7
330
2
100
AcDbSymbolTableRecord
100
AcDbLayerTableRecord
  2
DEFPOINTS
 70
     0
 62
     7
  6
CONTINUOUS
  0
LAYER
  5
E59
330
2
100
AcDbSymbolTableRecord
100
AcDbLayerTableRecord
  2
AM_6
 70
     0
 62
     2
  6
CONTINUOUS
  0
ENDTAB
  0
TABLE
  2
STYLE
  5
3
330
0
100
AcDbSymbolTable
 70
     5
  0
STYLE
  5
11
330
3
100
AcDbSymbolTableRecord
100
AcDbTextStyleTableRecord
  2
STANDARD
 70
     0
 40
0.0
 41
1.0
 50
0.0
 71
     0
 42
2.5
  3
simplex.shx
  4
EXTFONT.SHX
  0
STYLE
  5
52
330
3
100
AcDbSymbolTableRecord
100
AcDbTextStyleTableRecord
  2

 70
     1
 40
0.0
 41
1.0
 50
0.0
 71
     0
 42
2.5
  3
ltypeshp.shx
  4

  0
STYLE
  5
6B
330
3
100
AcDbSymbolTableRecord
100
AcDbTextStyleTableRecord
  2
ASAMI
 70
     0
 40
0.0
 41
1.0
 50
0.0
 71
     0
 42
2.5
  3
simplex.shx
  4
EXTFONT.SHX
  0
STYLE
  5
262
330
3
100
AcDbSymbolTableRecord
100
AcDbTextStyleTableRecord
  2
ACJISTS
 70
     0
 40
1.0
 41
1.0
 50
0.0
 71
     0
 42
2.5
  3
simplex.shx
  4
bigfont.shx
  0
STYLE
  5
269
330
3
100
AcDbSymbolTableRecord
100
AcDbTextStyleTableRecord
  2
ACJISGDT
 70
     0
 40
0.0
 41
1.0
 50
0.0
 71
     0
 42
2.5
  3
amgdtans.shx
  4

  0
ENDTAB
  0
TABLE
  2
VIEW
  5
6
330
0
100
AcDbSymbolTable
 70
     0
  0
ENDTAB
  0
TABLE
  2
UCS
  5
7
330
0
100
AcDbSymbolTable
 70
     0
  0
ENDTAB
  0
TABLE
  2
APPID
  5
9
330
0
100
AcDbSymbolTable
 70
    12
  0
APPID
  5
12
330
9
100
AcDbSymbolTableRecord
100
AcDbRegAppTableRecord
  2
ACAD
 70
     0
  0
APPID
  5
30
330
9
100
AcDbSymbolTableRecord
100
AcDbRegAppTableRecord
  2
MCAD_NO_VIS
 70
     0
  0
APPID
  5
31
330
9
100
AcDbSymbolTableRecord
100
AcDbRegAppTableRecord
  2
ACAD_TEMP_GRAPHIC
 70
     0
  0
APPID
  5
2C2
330
9
100
AcDbSymbolTableRecord
100
AcDbRegAppTableRecord
  2
GENIUS_GENDTOL_13
 70
     0
  0
APPID
  5
339
330
9
100
AcDbSymbolTableRecord
100
AcDbRegAppTableRecord
  2
GENIUS_GENODEF_13
 70
     0
  0
APPID
  5
33A
330
9
100
AcDbSymbolTableRecord
100
AcDbRegAppTableRecord
  2
GENIUS_GENOBJ-N-RSBK_13
 70
     0
  0
APPID
  5
33B
330
9
100
AcDbSymbolTableRecord
100
AcDbRegAppTableRecord
  2
GENIUS_GENOBJ-N-LIB_13
 70
     0
  0
APPID
  5
33C
330
9
100
AcDbSymbolTableRecord
100
AcDbRegAppTableRecord
  2
GENIUS_GENSCALE_13
 70
     0
  0
APPID
  5
378
330
9
100
AcDbSymbolTableRecord
100
AcDbRegAppTableRecord
  2
GENIUS_GENDIMSH_14
 70
     0
  0
APPID
  5
BD8
330
9
100
AcDbSymbolTableRecord
100
AcDbRegAppTableRecord
  2
GENIUS_GENOBJ-N-CEN_13
 70
     0
  0
APPID
  5
BD9
330
9
100
AcDbSymbolTableRecord
100
AcDbRegAppTableRecord
  2
GENIUS_GENFIL_13
 70
     0
  0
APPID
  5
BDA
330
9
100
AcDbSymbolTableRecord
100
AcDbRegAppTableRecord
  2
GENIUS_GENOBJ-N-CHA_13
 70
     0
  0
ENDTAB
  0
TABLE
  2
DIMSTYLE
  5
A
330
0
100
AcDbSymbolTable
 70
     8
  0
DIMSTYLE
105
58
102
{ACAD_REACTORS
330
2307
330
2393
330
2423
330
24B8
102
}
330
A
100
AcDbSymbolTableRecord
100
AcDbDimStyleTableRecord
  2
AM_JIS
 70
     0
  3

  4
"
  5
OPEN30
  6

  7

 40
1.0
 41
2.5
 42
1.0
 43
12.0
 44
1.0
 45
0.0
 46
0.0
 47
0.1
 48
0.1
140
3.2
141
0.0
142
0.0
143
0.0393701
144
1.0
145
0.0
146
0.71
147
1.5
 71
     0
 72
     0
 73
     0
 74
     0
 75
     0
 76
     0
 77
     3
 78
     8
170
     0
171
     2
172
     1
173
     0
174
     0
175
     0
176
   256
177
   256
178
     2
270
     2
271
     3
272
     3
273
     2
274
     2
340
6B
275
     0
280
     0
281
     0
282
     0
283
     0
284
     0
285
     0
286
     0
287
     3
288
     0
  0
DIMSTYLE
105
5F
330
A
100
AcDbSymbolTableRecord
100
AcDbDimStyleTableRecord
  2
AM_JIS$3
 70
     0
  3

  4
"
  5
OPEN30
  6

  7

 40
1.0
 41
2.5
 42
1.0
 43
10.0
 44
1.0
 45
0.0
 46
0.0
 47
0.1
 48
0.1
140
3.2
141
0.0
142
0.0
143
0.0393701
144
1.0
145
0.0
146
0.71
147
1.5
 71
     0
 72
     0
 73
     0
 74
     1
 75
     0
 76
     0
 77
     3
 78
     8
170
     0
171
     2
172
     0
173
     0
174
     0
175
     0
176
   256
177
   256
178
     2
270
     2
271
     2
272
     3
273
     2
274
     2
340
6B
275
     0
280
     0
281
     0
282
     0
283
     0
284
     0
285
     0
286
     0
287
     0
288
     1
  0
DIMSTYLE
105
60
330
A
100
AcDbSymbolTableRecord
100
AcDbDimStyleTableRecord
  2
AM_JIS$4
 70
     0
  3

  4
"
  5
OPEN30
  6

  7

 40
1.0
 41
2.5
 42
1.0
 43
10.0
 44
1.0
 45
0.0
 46
0.0
 47
0.1
 48
0.1
140
3.2
141
0.0
142
0.0
143
0.0393701
144
1.0
145
0.0
146
0.71
147
1.5
 71
     0
 72
     0
 73
     0
 74
     1
 75
     0
 76
     0
 77
     3
 78
     8
170
     0
171
     2
172
     0
173
     0
174
     0
175
     0
176
   256
177
   256
178
     2
270
     2
271
     2
272
     3
273
     2
274
     2
340
6B
275
     0
280
     0
281
     0
282
     0
283
     0
284
     0
285
     0
286
     0
287
     0
288
     1
  0
DIMSTYLE
105
61
330
A
100
AcDbSymbolTableRecord
100
AcDbDimStyleTableRecord
  2
AM_JIS$6
 70
     0
  3

  4
"
  5
OPEN30
  6

  7

 40
1.0
 41
2.5
 42
1.0
 43
10.0
 44
1.0
 45
0.0
 46
0.0
 47
0.1
 48
0.1
140
3.2
141
0.0
142
0.0
143
0.0393701
144
1.0
145
0.0
146
0.71
147
1.5
 71
     0
 72
     0
 73
     0
 74
     0
 75
     0
 76
     0
 77
     0
 78
     8
170
     0
171
     2
172
     1
173
     0
174
     0
175
     0
176
   256
177
   256
178
     2
270
     2
271
     2
272
     2
273
     2
274
     2
340
6B
275
     0
280
     0
281
     0
282
     0
283
     0
284
     0
285
     0
286
     0
287
     3
288
     0
  0
DIMSTYLE
105
62
330
A
100
AcDbSymbolTableRecord
100
AcDbDimStyleTableRecord
  2
AM_JIS$7
 70
     0
  3

  4
"
  5
OPEN30
  6

  7

 40
1.0
 41
2.5
 42
1.0
 43
10.0
 44
1.0
 45
0.0
 46
0.0
 47
0.1
 48
0.1
140
3.2
141
0.0
142
0.0
143
0.0393701
144
1.0
145
0.0
146
0.71
147
1.5
 71
     0
 72
     0
 73
     0
 74
     0
 75
     0
 76
     0
 77
     3
 78
     8
170
     0
171
     2
172
     1
173
     0
174
     0
175
     0
176
   256
177
   256
178
     2
270
     2
271
     2
272
     3
273
     2
274
     2
340
6B
275
     0
280
     0
281
     0
282
     0
283
     0
284
     0
285
     0
286
     0
287
     3
288
     0
  0
DIMSTYLE
105
63
330
A
100
AcDbSymbolTableRecord
100
AcDbDimStyleTableRecord
  2
AM_JIS$SF
 70
     0
  3

  4
"
  5
OPEN30
  6

  7

 40
1.0
 41
2.5
 42
1.0
 43
10.0
 44
1.0
 45
0.0
 46
0.0
 47
0.1
 48
0.1
140
3.2
141
0.0
142
0.0
143
0.0393701
144
1.0
145
0.0
146
0.71
147
1.5
 71
     0
 72
     0
 73
     0
 74
     0
 75
     1
 76
     1
 77
     3
 78
     8
170
     0
171
     2
172
     1
173
     0
174
     0
175
     0
176
   256
177
   256
178
     2
270
     2
271
     2
272
     2
273
     2
274
     2
340
6B
275
     0
280
     0
281
     0
282
     0
283
     0
284
     0
285
     0
286
     0
287
     3
288
     0
  0
DIMSTYLE
105
68
330
A
100
AcDbSymbolTableRecord
100
AcDbDimStyleTableRecord
  2
AM_JIS$SH
 70
     0
  3

  4
"
  5

  6
GENAXEH
  7
OPEN30
 40
1.0
 41
2.5
 42
1.0
 43
10.0
 44
1.0
 45
0.0
 46
0.0
 47
0.1
 48
0.1
140
3.2
141
0.0
142
0.0
143
0.0393701
144
2.0
145
0.0
146
0.71
147
1.5
 71
     0
 72
     0
 73
     0
 74
     0
 75
     1
 76
     1
 77
     3
 78
     8
170
     0
171
     2
172
     1
173
     1
174
     0
175
     0
176
   256
177
   256
178
     2
270
     2
271
     2
272
     2
273
     2
274
     2
340
6B
275
     0
280
     0
281
     0
282
     0
283
     0
284
     0
285
     0
286
     0
287
     3
288
     0
  0
DIMSTYLE
105
B34
330
A
100
AcDbSymbolTableRecord
100
AcDbDimStyleTableRecord
  2
AM_JIS$2
 70
     0
  3

  4
"
  5
OPEN30
  6

  7

 40
1.0
 41
2.5
 42
1.0
 43
12.0
 44
1.0
 45
0.0
 46
0.0
 47
0.1
 48
0.1
140
3.2
141
0.0
142
0.0
143
0.0393701
144
1.0
145
0.0
146
0.71
147
1.5
 71
     0
 72
     0
 73
     0
 74
     0
 75
     0
 76
     0
 77
     3
 78
     8
170
     0
171
     2
172
     1
173
     0
174
     0
175
     0
176
   256
177
   256
178
     2
270
     2
271
     3
272
     3
273
     2
274
     2
340
6B
275
     0
280
     0
281
     0
282
     0
283
     0
284
     0
285
     0
286
     0
287
     3
288
     0
  0
ENDTAB
  0
TABLE
  2
BLOCK_RECORD
  5
1
330
0
100
AcDbSymbolTable
 70
     9
  0
BLOCK_RECORD
  5
1F
102
{ACAD_XDICTIONARY
360
74
102
}
330
1
100
AcDbSymbolTableRecord
100
AcDbBlockTableRecord
  2
*MODEL_SPACE
  0
BLOCK_RECORD
  5
101
102
{ACAD_XDICTIONARY
360
2B69
102
}
330
1
100
AcDbSymbolTableRecord
100
AcDbBlockTableRecord
  2
*PAPER_SPACE
  0
BLOCK_RECORD
  5
59
330
1
100
AcDbSymbolTableRecord
100
AcDbBlockTableRecord
  2
_OPEN30
  0
BLOCK_RECORD
  5
64
330
1
100
AcDbSymbolTableRecord
100
AcDbBlockTableRecord
  2
GENAXEH
  0
BLOCK_RECORD
  5
2308
330
1
100
AcDbSymbolTableRecord
100
AcDbBlockTableRecord
  2
*D5
  0
BLOCK_RECORD
  5
2394
330
1
100
AcDbSymbolTableRecord
100
AcDbBlockTableRecord
  2
*D6
  0
BLOCK_RECORD
  5
2424
330
1
100
AcDbSymbolTableRecord
100
AcDbBlockTableRecord
  2
*D7
  0
BLOCK_RECORD
  5
24B9
330
1
100
AcDbSymbolTableRecord
100
AcDbBlockTableRecord
  2
*D8
  0
ENDTAB
  0
ENDSEC
  0
SECTION
  2
BLOCKS
  0
BLOCK
  5
20
330
1F
100
AcDbEntity
  8
0
100
AcDbBlockBegin
  2
*MODEL_SPACE
 70
     0
 10
0.0
 20
0.0
 30
0.0
  3
*MODEL_SPACE
  1

  0
ENDBLK
  5
21
330
1F
100
AcDbEntity
  8
0
100
AcDbBlockEnd
  0
BLOCK
  5
103
330
101
100
AcDbEntity
 67
     1
  8
0
100
AcDbBlockBegin
  2
*PAPER_SPACE
 70
     0
 10
0.0
 20
0.0
 30
0.0
  3
*PAPER_SPACE
  1

  0
ENDBLK
  5
104
330
101
100
AcDbEntity
 67
     1
  8
0
100
AcDbBlockEnd
  0
BLOCK
  5
5D
330
59
100
AcDbEntity
  8
0
100
AcDbBlockBegin
  2
_OPEN30
 70
     0
 10
0.0
 20
0.0
 30
0.0
  3
_OPEN30
  1

  0
LINE
  5
5A
330
59
100
AcDbEntity
  8
0
 62
     0
100
AcDbLine
 10
-1.0
 20
0.26794919
 30
0.0
 11
0.0
 21
0.0
 31
0.0
  0
LINE
  5
5B
330
59
100
AcDbEntity
  8
0
 62
     0
100
AcDbLine
 10
0.0
 20
0.0
 30
0.0
 11
-1.0
 21
-0.26794919
 31
0.0
  0
LINE
  5
5C
330
59
100
AcDbEntity
  8
0
 62
     0
100
AcDbLine
 10
0.0
 20
0.0
 30
0.0
 11
-1.0
 21
0.0
 31
0.0
  0
ENDBLK
  5
5E
330
59
100
AcDbEntity
  8
0
100
AcDbBlockEnd
  0
BLOCK
  5
66
330
64
100
AcDbEntity
  8
0
100
AcDbBlockBegin
  2
GENAXEH
 70
     0
 10
0.0
 20
0.0
 30
0.0
  3
GENAXEH
  1

  0
LINE
  5
65
330
64
100
AcDbEntity
  8
0
100
AcDbLine
 10
-1.0
 20
0.0
 30
0.0
 11
1.0
 21
0.0
 31
0.0
  0
ENDBLK
  5
67
330
64
100
AcDbEntity
  8
0
100
AcDbBlockEnd
  0
BLOCK
  5
2312
330
2308
100
AcDbEntity
  8
0
100
AcDbBlockBegin
  2
*D5
 70
     1
 10
0.0
 20
0.0
 30
0.0
  3
*D5
  1

  0
LINE
  5
257E
330
2308
100
AcDbEntity
  8
AM_5
100
AcDbLine
 10
-90.00000000000026
 20
7.999999999999996
 30
0.0
 11
-108.2932451532983
 21
8.000000000000001
 31
0.0
  0
LINE
  5
257F
330
2308
100
AcDbEntity
  8
AM_5
100
AcDbLine
 10
-90.00000000000026
 20
-8.000000000000021
 30
0.0
 11
-108.2932451532983
 21
-8.000000000000014
 31
0.0
  0
LINE
  5
2580
330
2308
100
AcDbEntity
  8
AM_5
100
AcDbLine
 10
-107.2932451532983
 20
5.5
 30
0.0
 11
-107.2932451532983
 21
-5.500000000000015
 31
0.0
  0
INSERT
  5
2581
330
2308
100
AcDbEntity
  8
AM_5
100
AcDbBlockReference
  2
_OPEN30
 10
-107.2932451532983
 20
8.0
 30
0.0
 41
2.5
 42
2.5
 43
2.5
 50
90.0
  0
INSERT
  5
2582
330
2308
100
AcDbEntity
  8
AM_5
100
AcDbBlockReference
  2
_OPEN30
 10
-107.2932451532983
 20
-8.000000000000015
 30
0.0
 41
2.5
 42
2.5
 43
2.5
 50
270.0
  0
MTEXT
  5
2583
330
2308
100
AcDbEntity
  8
AM_5
 62
     2
100
AcDbMText
 10
-110.3932451532983
 20
-0.0000000000000241
 30
0.0
 40
3.2
 41
0.0
 71
     5
 72
     1
  1
%%c16
  7
ASAMI
 11
0.0000000000000001
 21
1.0
 31
0.0
1001
ACAD
1000
MTEXTBEGIN
1070
    73
1070
     1
1070
    44
1040
1.0
1070
    74
1070
     0
1000
MTEXTEND
  0
POINT
  5
2584
330
2308
100
AcDbEntity
  8
DEFPOINTS
 62
     0
100
AcDbPoint
 10
-89.00000000000027
 20
7.999999999999995
 30
0.0
  0
POINT
  5
2585
330
2308
100
AcDbEntity
  8
DEFPOINTS
 62
     0
100
AcDbPoint
 10
-89.00000000000025
 20
-8.000000000000021
 30
0.0
  0
POINT
  5
2586
330
2308
100
AcDbEntity
  8
DEFPOINTS
 62
     0
100
AcDbPoint
 10
-107.2932451532983
 20
-8.000000000000015
 30
0.0
  0
ENDBLK
  5
2313
330
2308
100
AcDbEntity
  8
0
100
AcDbBlockEnd
  0
BLOCK
  5
239E
330
2394
100
AcDbEntity
  8
0
100
AcDbBlockBegin
  2
*D6
 70
     1
 10
0.0
 20
0.0
 30
0.0
  3
*D6
  1

  0
LINE
  5
29D0
330
2394
100
AcDbEntity
  8
AM_5
100
AcDbLine
 10
-90.00000000000026
 20
-8.000000000000007
 30
0.0
 11
-90.00000000000026
 21
-35.00000099999996
 31
0.0
  0
LINE
  5
29D1
330
2394
100
AcDbEntity
  8
AM_5
100
AcDbLine
 10
-0.0000000000002329
 20
-7.500000000002302
 30
0.0
 11
-0.0000000000002346
 21
-35.00000099999996
 31
0.0
  0
LINE
  5
29D2
330
2394
100
AcDbEntity
  8
AM_5
100
AcDbLine
 10
-87.50000000000026
 20
-34.00000099999996
 30
0.0
 11
-2.500000000000234
 21
-34.00000099999996
 31
0.0
  0
INSERT
  5
29D3
330
2394
100
AcDbEntity
  8
AM_5
100
AcDbBlockReference
  2
_OPEN30
 10
-90.00000000000026
 20
-34.00000099999996
 30
0.0
 41
2.5
 42
2.5
 43
2.5
 50
180.0
  0
INSERT
  5
29D4
330
2394
100
AcDbEntity
  8
AM_5
100
AcDbBlockReference
  2
_OPEN30
 10
-0.0000000000002346
 20
-34.00000099999996
 30
0.0
 41
2.5
 42
2.5
 43
2.5
  0
MTEXT
  5
29D5
330
2394
100
AcDbEntity
  8
AM_5
 62
     2
100
AcDbMText
 10
-45.00000000000025
 20
-30.90000099999996
 30
0.0
 40
3.2
 41
0.0
 71
     5
 72
     1
  1
90
  7
ASAMI
1001
ACAD
1000
MTEXTBEGIN
1070
    73
1070
     1
1070
    44
1040
1.0
1070
    74
1070
     0
1000
MTEXTEND
  0
POINT
  5
29D6
330
2394
100
AcDbEntity
  8
DEFPOINTS
 62
     0
100
AcDbPoint
 10
-90.00000000000026
 20
-7.000000000000007
 30
0.0
  0
POINT
  5
29D7
330
2394
100
AcDbEntity
  8
DEFPOINTS
 62
     0
100
AcDbPoint
 10
-0.0000000000002329
 20
-6.500000000002302
 30
0.0
  0
POINT
  5
29D8
330
2394
100
AcDbEntity
  8
DEFPOINTS
 62
     0
100
AcDbPoint
 10
-0.0000000000002346
 20
-34.00000099999996
 30
0.0
  0
ENDBLK
  5
239F
330
2394
100
AcDbEntity
  8
0
100
AcDbBlockEnd
  0
BLOCK
  5
242E
330
2424
100
AcDbEntity
  8
0
100
AcDbBlockBegin
  2
*D7
 70
     1
 10
0.0
 20
0.0
 30
0.0
  3
*D7
  1

  0
LINE
  5
29C7
330
2424
100
AcDbEntity
  8
AM_5
100
AcDbLine
 10
-32.00000000000025
 20
-7.500000000002316
 30
0.0
 11
-32.00000000000025
 21
-23.00000099999988
 31
0.0
  0
LINE
  5
29C8
330
2424
100
AcDbEntity
  8
AM_5
100
AcDbLine
 10
-0.0000000000002329
 20
-7.500000000002302
 30
0.0
 11
-0.0000000000002339
 21
-23.00000099999988
 31
0.0
  0
LINE
  5
29C9
330
2424
100
AcDbEntity
  8
AM_5
100
AcDbLine
 10
-29.50000000000025
 20
-22.00000099999988
 30
0.0
 11
-2.500000000000234
 21
-22.00000099999988
 31
0.0
  0
INSERT
  5
29CA
330
2424
100
AcDbEntity
  8
AM_5
100
AcDbBlockReference
  2
_OPEN30
 10
-32.00000000000025
 20
-22.00000099999988
 30
0.0
 41
2.5
 42
2.5
 43
2.5
 50
180.0
  0
INSERT
  5
29CB
330
2424
100
AcDbEntity
  8
AM_5
100
AcDbBlockReference
  2
_OPEN30
 10
-0.0000000000002338
 20
-22.00000099999988
 30
0.0
 41
2.5
 42
2.5
 43
2.5
  0
MTEXT
  5
29CC
330
2424
100
AcDbEntity
  8
AM_5
 62
     2
100
AcDbMText
 10
-16.00000000000024
 20
-18.90000099999987
 30
0.0
 40
3.2
 41
0.0
 71
     5
 72
     1
  1
32
  7
ASAMI
1001
ACAD
1000
MTEXTBEGIN
1070
    73
1070
     1
1070
    44
1040
1.0
1070
    74
1070
     0
1000
MTEXTEND
  0
POINT
  5
29CD
330
2424
100
AcDbEntity
  8
DEFPOINTS
 62
     0
100
AcDbPoint
 10
-32.00000000000025
 20
-6.500000000002316
 30
0.0
  0
POINT
  5
29CE
330
2424
100
AcDbEntity
  8
DEFPOINTS
 62
     0
100
AcDbPoint
 10
-0.0000000000002329
 20
-6.500000000002302
 30
0.0
  0
POINT
  5
29CF
330
2424
100
AcDbEntity
  8
DEFPOINTS
 62
     0
100
AcDbPoint
 10
-0.0000000000002338
 20
-22.00000099999988
 30
0.0
  0
ENDBLK
  5
242F
330
2424
100
AcDbEntity
  8
0
100
AcDbBlockEnd
  0
BLOCK
  5
24C3
330
24B9
100
AcDbEntity
  8
0
100
AcDbBlockBegin
  2
*D8
 70
     1
 10
0.0
 20
0.0
 30
0.0
  3
*D8
  1

  0
LINE
  5
2A3E
330
24B9
100
AcDbEntity
  8
AM_5
100
AcDbLine
 10
0.9999999999986863
 20
6.499999999999997
 30
0.0
 11
21.83665304628215
 21
6.499999999999991
 31
0.0
  0
LINE
  5
2A3F
330
24B9
100
AcDbEntity
  8
AM_5
100
AcDbLine
 10
0.9999999999997722
 20
-6.500000000000003
 30
0.0
 11
21.83665304628215
 21
-6.500000000000009
 31
0.0
  0
LINE
  5
2A40
330
24B9
100
AcDbEntity
  8
AM_5
100
AcDbLine
 10
20.83665304628215
 20
3.999999999999992
 30
0.0
 11
20.83665304628215
 21
-4.000000000000008
 31
0.0
  0
INSERT
  5
2A41
330
24B9
100
AcDbEntity
  8
AM_5
100
AcDbBlockReference
  2
_OPEN30
 10
20.83665304628215
 20
6.499999999999992
 30
0.0
 41
2.5
 42
2.5
 43
2.5
 50
90.0
  0
INSERT
  5
2A42
330
24B9
100
AcDbEntity
  8
AM_5
100
AcDbBlockReference
  2
_OPEN30
 10
20.83665304628215
 20
-6.500000000000008
 30
0.0
 41
2.5
 42
2.5
 43
2.5
 50
270.0
  0
MTEXT
  5
2A43
330
24B9
100
AcDbEntity
  8
AM_5
 62
     2
100
AcDbMText
 10
17.73665304628215
 20
-0.0000000000000049
 30
0.0
 40
3.2
 41
0.0
 71
     5
 72
     1
  1
%%c13
  7
ASAMI
 11
0.0000000000000001
 21
1.0
 31
0.0
1001
ACAD
1000
MTEXTBEGIN
1070
    73
1070
     1
1070
    44
1040
1.0
1070
    74
1070
     0
1000
MTEXTEND
  0
POINT
  5
2A44
330
24B9
100
AcDbEntity
  8
DEFPOINTS
 62
     0
100
AcDbPoint
 10
-0.0000000000013136
 20
6.499999999999997
 30
0.0
  0
POINT
  5
2A45
330
24B9
100
AcDbEntity
  8
DEFPOINTS
 62
     0
100
AcDbPoint
 10
-0.0000000000002278
 20
-6.500000000000003
 30
0.0
  0
POINT
  5
2A46
330
24B9
100
AcDbEntity
  8
DEFPOINTS
 62
     0
100
AcDbPoint
 10
20.83665304628215
 20
-6.500000000000008
 30
0.0
  0
ENDBLK
  5
24C4
330
24B9
100
AcDbEntity
  8
0
100
AcDbBlockEnd
  0
ENDSEC
  0
SECTION
  2
ENTITIES
  0
TEXT
  5
E5A
330
1F
100
AcDbEntity
  8
AM_6
100
AcDbText
 10
-65.23809523809546
 20
-56.50000099999996
 30
0.0
 40
5.0
  1
JSM4130ZX
 72
     4
 11
-45.00000000000023
 21
-54.00000099999996
 31
0.0
100
AcDbText
  0
LINE
  5
20AA
330
1F
100
AcDbEntity
  8
AM_7
  6
AM_ISO08W050X2
100
AcDbLine
 10
6.836652046282154
 20
0.0000000000000071
 30
0.0
 11
-93.29324415329843
 21
-0.0000000000000711
 31
0.0
1001
GENIUS_GENODEF_13
1002
{
1000
HIER
1070
     0
1002
}
1002
{
1000
MANEDIT
1070
     0
1002
}
1002
{
1000
NOSEL
1070
     0
1002
}
1002
{
1000
BEHIND
1070
     0
1002
}
1002
{
1000
REACTOR
1002
}
1001
GENIUS_GENOBJ-N-CEN_13
1002
{
1000
OWNER
1000
GEN
1002
}
  0
LINE
  5
22CD
330
1F
100
AcDbEntity
  8
AM_0
100
AcDbLine
 10
-90.00000000000026
 20
6.999999999999996
 30
0.0
 11
-90.00000000000026
 21
-7.000000000000007
 31
0.0
  0
LINE
  5
22CE
330
1F
100
AcDbEntity
  8
AM_0
100
AcDbLine
 10
-89.00000000000027
 20
-8.000000000000007
 30
0.0
 11
-45.00000000000027
 21
-8.000000000000001
 31
0.0
  0
LINE
  5
22CF
330
1F
100
AcDbEntity
  8
AM_0
100
AcDbLine
 10
-89.00000000000027
 20
7.999999999999996
 30
0.0
 11
-45.00000000000027
 21
7.999999999999996
 31
0.0
  0
LINE
  5
22D4
330
1F
100
AcDbEntity
  8
AM_0
100
AcDbLine
 10
-89.00000000000027
 20
7.999999999999996
 30
0.0
 11
-90.00000000000026
 21
6.999999999999996
 31
0.0
1001
GENIUS_GENFIL_13
1070
     0
1040
1.0
1040
1.0
1040
20.0
1040
0.0
1002
{
1002
}
1001
GENIUS_GENODEF_13
1002
{
1000
HIER
1070
     0
1002
}
1002
{
1000
MANEDIT
1070
     0
1002
}
1002
{
1000
NOSEL
1070
     0
1002
}
1002
{
1000
BEHIND
1070
     0
1002
}
1002
{
1000
REACTOR
1002
}
1001
GENIUS_GENOBJ-N-CHA_13
1002
{
1000
OWNER
1000
GEN
1002
}
  0
LINE
  5
22D7
330
1F
100
AcDbEntity
  8
AM_0
100
AcDbLine
 10
-90.00000000000026
 20
-7.000000000000007
 30
0.0
 11
-89.00000000000027
 21
-8.000000000000007
 31
0.0
1001
GENIUS_GENFIL_13
1070
     0
1040
1.0
1040
1.0
1040
20.0
1040
0.0
1002
{
1002
}
1001
GENIUS_GENODEF_13
1002
{
1000
HIER
1070
     0
1002
}
1002
{
1000
MANEDIT
1070
     0
1002
}
1002
{
1000
NOSEL
1070
     0
1002
}
1002
{
1000
BEHIND
1070
     0
1002
}
1002
{
1000
REACTOR
1002
}
1001
GENIUS_GENOBJ-N-CHA_13
1002
{
1000
OWNER
1000
GEN
1002
}
  0
LINE
  5
22D8
330
1F
100
AcDbEntity
  8
AM_0
100
AcDbLine
 10
-89.00000000000027
 20
7.999999999999996
 30
0.0
 11
-89.00000000000027
 21
-8.000000000000007
 31
0.0
  0
LINE
  5
22E0
330
1F
100
AcDbEntity
  8
AM_0
100
AcDbLine
 10
-45.00000000000027
 20
7.999999999999994
 30
0.0
 11
-45.00000000000027
 21
-8.000000000000003
 31
0.0
  0
LINE
  5
22F9
330
1F
100
AcDbEntity
  8
AM_0
100
AcDbLine
 10
-31.99997761179103
 20
6.499999999997957
 30
0.0
 11
-40.8787838708127
 21
6.499999999997949
 31
0.0
  0
LINE
  5
22FA
330
1F
100
AcDbEntity
  8
AM_0
100
AcDbLine
 10
-33.99668818784805
 20
-6.50000000000233
 30
0.0
 11
-40.87878387082474
 21
-6.500000000002327
 31
0.0
  0
LINE
  5
22FB
330
1F
100
AcDbEntity
  8
AM_0
100
AcDbLine
 10
-45.00000000000027
 20
7.999999999999994
 30
0.0
 11
-40.8787838708127
 21
6.499999999997948
 31
0.0
  0
LINE
  5
22FC
330
1F
100
AcDbEntity
  8
AM_0
100
AcDbLine
 10
-40.8787838708127
 20
6.499999999997949
 30
0.0
 11
-40.87878387081269
 21
-6.499999999997943
 31
0.0
  0
LINE
  5
22FD
330
1F
100
AcDbEntity
  8
AM_0
100
AcDbLine
 10
-40.87878387082474
 20
-6.500000000002327
 30
0.0
 11
-45.00000000000027
 21
-8.000000000000003
 31
0.0
  0
DIMENSION
  5
2307
330
1F
100
AcDbEntity
  8
AM_5
100
AcDbDimension
  2
*D5
 10
-107.2932451532983
 20
-8.000000000000015
 30
0.0
 11
-110.3932451532983
 21
-0.0000000000000241
 31
0.0
 70
    32
  1
%%c<>
  3
AM_JIS
100
AcDbAlignedDimension
 13
-89.00000000000027
 23
7.999999999999995
 33
0.0
 14
-89.00000000000025
 24
-8.000000000000021
 34
0.0
 50
270.0
100
AcDbRotatedDimension
1001
GENIUS_GENDTOL_13
1000

1000
h7
1000

1040
0.0
  0
DIMENSION
  5
2393
330
1F
100
AcDbEntity
  8
AM_5
100
AcDbDimension
  2
*D6
 10
-0.0000000000002346
 20
-34.00000099999996
 30
0.0
 11
-45.00000000000025
 21
-30.90000099999996
 31
0.0
 70
    32
  1
<>
  3
AM_JIS
100
AcDbAlignedDimension
 13
-90.00000000000026
 23
-7.000000000000007
 33
0.0
 14
-0.0000000000002329
 24
-6.500000000002302
 34
0.0
 50
0.0000000000001132
100
AcDbRotatedDimension
1001
GENIUS_GENDTOL_13
1000

1000
h7
1000

1040
0.0
  0
DIMENSION
  5
2423
330
1F
100
AcDbEntity
  8
AM_5
100
AcDbDimension
  2
*D7
 10
-0.0000000000002338
 20
-22.00000099999988
 30
0.0
 11
-16.00000000000024
 21
-18.90000099999987
 31
0.0
 70
    32
  1
<>
  3
AM_JIS
100
AcDbAlignedDimension
 13
-32.00000000000025
 23
-6.500000000002316
 33
0.0
 14
-0.0000000000002329
 24
-6.500000000002302
 34
0.0
 50
0.0000000000001641
100
AcDbRotatedDimension
1001
GENIUS_GENDTOL_13
1000

1000
h7
1000

1040
0.0
  0
DIMENSION
  5
24B8
330
1F
100
AcDbEntity
  8
AM_5
100
AcDbDimension
  2
*D8
 10
20.83665304628215
 20
-6.500000000000008
 30
0.0
 11
17.73665304628215
 21
-0.0000000000000049
 31
0.0
 70
    32
  1
%%c<>
  3
AM_JIS
100
AcDbAlignedDimension
 13
-0.0000000000013136
 23
6.499999999999997
 33
0.0
 14
-0.0000000000002278
 24
-6.500000000000003
 34
0.0
 50
90.00000000000005
100
AcDbRotatedDimension
1001
GENIUS_GENDTOL_13
1000

1000
h7
1000

1040
0.0
  0
SPLINE
  5
28DA
330
1F
100
AcDbEntity
  8
AM_0
100
AcDbSpline
210
0.0
220
0.0
230
1.0
 70
     8
 71
     3
 72
     8
 73
     4
 74
     0
 42
0.0000000001
 43
0.0000000001
 40
0.0
 40
0.0
 40
0.0
 40
0.0
 40
3.20279236890966
 40
3.20279236890966
 40
3.20279236890966
 40
3.20279236890966
 10
-28.2029939703049
 20
-6.319271002049884
 30
0.0
 10
-29.49173661398521
 20
-6.319271002049884
 30
0.0
 10
-30.75556302496264
 20
-6.494148051522923
 30
0.0
 10
-32.00000000004691
 20
-6.22163725415211
 30
0.0
  0
SPLINE
  5
28DB
330
1F
100
AcDbEntity
  8
AM_0
100
AcDbSpline
210
0.0
220
0.0
230
1.0
 70
     8
 71
     3
 72
     8
 73
     4
 74
     0
 42
0.0000000001
 43
0.0000000001
 40
0.0
 40
0.0
 40
0.0
 40
0.0
 40
2.130230809022907
 40
2.130230809022907
 40
2.130230809022907
 40
2.130230809022907
 10
-30.30999999999839
 20
-6.500000000002312
 30
0.0
 10
-29.45283569827251
 20
-6.500000000002312
 30
0.0
 10
-28.60728143758832
 20
-6.434774797442369
 30
0.0
 10
-27.77163038060906
 20
-6.313913403302887
 30
0.0
  0
SPLINE
  5
28DC
330
1F
100
AcDbEntity
  8
AM_0
100
AcDbSpline
210
0.0
220
0.0
230
1.0
 70
     8
 71
     3
 72
     8
 73
     4
 74
     0
 42
0.0000000001
 43
0.0000000001
 40
0.0
 40
0.0
 40
0.0
 40
0.0
 40
2.764560748519282
 40
2.764560748519282
 40
2.764560748519282
 40
2.764560748519282
 10
-28.2029939703049
 20
-6.319271002050026
 30
0.0
 10
-27.09058738340074
 20
-6.319271002050026
 30
0.0
 10
-25.9967450326028
 20
-6.211952957846573
 30
0.0
 10
-24.91791252403704
 20
-6.01786447488433
 30
0.0
  0
SPLINE
  5
28DD
330
1F
100
AcDbEntity
  8
AM_0
100
AcDbSpline
210
0.0
220
0.0
230
1.0
 70
     8
 71
     3
 72
     8
 73
     4
 74
     0
 42
0.0000000001
 43
0.0000000001
 40
0.0
 40
0.0
 40
0.0
 40
0.0
 40
1.412269715655734
 40
1.412269715655734
 40
1.412269715655734
 40
1.412269715655734
 10
-30.30999999999839
 20
-6.500000000002184
 30
0.0
 10
-30.87827043320271
 20
-6.500000000002184
 30
0.0
 10
-31.4414379820702
 20
-6.471331999319328
 30
0.0
 10
-31.99999999999818
 20
-6.41679012899662
 30
0.0
  0
SPLINE
  5
28DE
330
1F
100
AcDbEntity
  8
AM_0
100
AcDbSpline
210
0.0
220
0.0
230
1.0
 70
     8
 71
     3
 72
     8
 73
     4
 74
     0
 42
0.0000000001
 43
0.0000000001
 40
0.0
 40
0.0
 40
0.0
 40
0.0
 40
2.882111486036089
 40
2.882111486036089
 40
2.882111486036089
 40
2.882111486036089
 10
-24.91791252403704
 20
-6.01786447488433
 30
0.0
 10
-24.1251727205139
 20
-5.879557486570622
 30
0.0
 10
-23.2358180872352
 20
-5.759374993869318
 30
0.0
 10
-22.56088138486552
 20
-5.643942022935494
 30
0.0
  0
SPLINE
  5
28DF
330
1F
100
AcDbEntity
  8
AM_0
100
AcDbSpline
210
0.0
220
0.0
230
1.0
 70
     8
 71
     3
 72
     8
 73
     4
 74
     0
 42
0.0000000001
 43
0.0000000001
 40
0.0
 40
0.0
 40
0.0
 40
0.0
 40
5.291496149500158
 40
5.291496149500158
 40
5.291496149500158
 40
5.291496149500158
 10
-24.91791252403704
 20
-6.01786447488433
 30
0.0
 10
-27.76807388535261
 20
-6.277084736005743
 30
0.0
 10
-29.78168495890172
 20
-6.153241700883508
 30
0.0
 10
-32.00000000018204
 20
-5.680599437735093
 30
0.0
  0
SPLINE
  5
28E0
330
1F
100
AcDbEntity
  8
AM_0
100
AcDbSpline
210
0.0
220
0.0
230
1.0
 70
     8
 71
     3
 72
     8
 73
     4
 74
     0
 42
0.0000000001
 43
0.0000000001
 40
5.522276060027962
 40
5.522276060027962
 40
5.522276060027962
 40
5.522276060027962
 40
13.69616833517527
 40
13.69616833517527
 40
13.69616833517527
 40
13.69616833517527
 10
-37.35339652309161
 20
4.626464845937878
 30
0.0
 10
-34.52361742903458
 20
2.635293655263048
 30
0.0
 10
-30.88651606368968
 20
1.164314217537793
 30
0.0
 10
-28.66681301578948
 20
-0.0790893574717053
 30
0.0
  0
ELLIPSE
  5
28E1
330
1F
100
AcDbEntity
  8
AM_0
100
AcDbEllipse
 10
2.485768650093066
 20
-3.307044214135544
 30
0.0
 11
0.0000000000000011
 21
3.952907550170867
 31
0.0
210
0.0
220
0.0
230
1.0
 40
0.9629629629629626
 41
1.211124581303828
 42
2.06927853829032
  0
SPLINE
  5
28E2
330
1F
100
AcDbEntity
  8
AM_0
100
AcDbSpline
210
0.0
220
0.0
230
1.0
 70
     8
 71
     3
 72
     8
 73
     4
 74
     0
 42
0.0000000001
 43
0.0000000001
 40
0.0
 40
0.0
 40
0.0
 40
0.0
 40
6.076845125434727
 40
6.076845125434727
 40
6.076845125434727
 40
6.076845125434727
 10
-17.02518518518566
 20
-6.500000000002145
 30
0.0
 10
-22.66022949903186
 20
-6.500000000002145
 30
0.0
 10
-27.81142909109514
 20
-3.677213021055194
 30
0.0
 10
-31.99999999999308
 20
-0.9637693735446859
 30
0.0
  0
SPLINE
  5
28E3
330
1F
100
AcDbEntity
  8
AM_0
100
AcDbSpline
210
0.0
220
0.0
230
1.0
 70
     8
 71
     3
 72
     8
 73
     4
 74
     0
 42
0.0000000001
 43
0.0000000001
 40
0.0
 40
0.0
 40
0.0
 40
0.0
 40
6.520498447204779
 40
6.520498447204779
 40
6.520498447204779
 40
6.520498447204779
 10
-32.00000000007475
 20
6.499999999997967
 30
0.0
 10
-28.00392736582953
 20
6.499999999997854
 30
0.0
 10
-22.51455627550748
 20
3.249999999997854
 30
0.0
 10
-17.02518518518541
 20
-0.0000000000021458
 30
0.0
  0
SPLINE
  5
28E4
330
1F
100
AcDbEntity
  8
AM_0
100
AcDbSpline
210
0.0
220
0.0
230
1.0
 70
     8
 71
     3
 72
     8
 73
     4
 74
     0
 42
0.0000000001
 43
0.0000000001
 40
0.0
 40
0.0
 40
0.0
 40
0.0
 40
6.189049472460146
 40
6.189049472460146
 40
6.189049472460146
 40
6.189049472460146
 10
-14.84014189513315
 20
-6.305368771438139
 30
0.0
 10
-20.57923303831979
 20
-6.305368771438153
 30
0.0
 10
-25.84184716547053
 20
-3.444960412222471
 30
0.0
 10
-32.70902163540496
 20
0.6145187155543326
 30
0.0
  0
SPLINE
  5
28E5
330
1F
100
AcDbEntity
  8
AM_0
100
AcDbSpline
210
0.0
220
0.0
230
1.0
 70
     8
 71
     3
 72
     8
 73
     4
 74
     0
 42
0.0000000001
 43
0.0000000001
 40
0.0
 40
0.0
 40
0.0
 40
0.0
 40
2.764560748519282
 40
2.764560748519282
 40
2.764560748519282
 40
2.764560748519282
 10
-14.84014189513315
 20
-6.305368771438295
 30
0.0
 10
-13.68653506426957
 20
-6.305368771438295
 30
0.0
 10
-12.55218003381243
 20
-6.189795493065346
 30
0.0
 10
-11.43339076567016
 20
-5.980777126798315
 30
0.0
  0
SPLINE
  5
28E6
330
1F
100
AcDbEntity
  8
AM_0
100
AcDbSpline
210
0.0
220
0.0
230
1.0
 70
     8
 71
     3
 72
     8
 73
     4
 74
     0
 42
0.0000000001
 43
0.0000000001
 40
0.7142832446738512
 40
0.7142832446738512
 40
0.7142832446738512
 40
0.7142832446738512
 40
14.36247867694493
 40
14.36247867694493
 40
14.36247867694493
 40
14.36247867694493
 10
-28.45857595072327
 20
5.980777126769297
 30
0.0
 10
-22.80739078796443
 20
5.704149146115909
 30
0.0
 10
-17.56573791589038
 20
2.852074573056839
 30
0.0
 10
-12.32408504381637
 20
-0.0000000000022027
 30
0.0
  0
SPLINE
  5
28E7
330
1F
100
AcDbEntity
  8
AM_0
100
AcDbSpline
210
0.0
220
0.0
230
1.0
 70
     8
 71
     3
 72
     8
 73
     4
 74
     0
 42
0.0000000001
 43
0.0000000001
 40
0.0
 40
0.0
 40
0.0
 40
0.0
 40
6.463115404625226
 40
6.463115404625226
 40
6.463115404625226
 40
6.463115404625226
 10
-12.32408504381661
 20
-6.00267785494563
 30
0.0
 10
-18.31731688678871
 20
-6.002677854945645
 30
0.0
 10
-23.83329355789526
 20
-3.001338927473867
 30
0.0
 10
-28.66681301584269
 20
-0.0790893574376987
 30
0.0
  0
SPLINE
  5
28E8
330
1F
100
AcDbEntity
  8
AM_0
100
AcDbSpline
210
0.0
220
0.0
230
1.0
 70
     8
 71
     3
 72
     8
 73
     4
 74
     0
 42
0.0000000001
 43
0.0000000001
 40
0.0
 40
0.0
 40
0.0
 40
0.0
 40
4.451443990518192
 40
4.451443990518192
 40
4.451443990518192
 40
4.451443990518192
 10
-12.32408504381661
 20
-6.002677854945787
 30
0.0
 10
-10.46656890950159
 20
-6.002677854945787
 30
0.0
 10
-8.654897954548969
 20
-5.714368938523946
 30
0.0
 10
-6.874863124048582
 20
-5.227108313602798
 30
0.0
  0
SPLINE
  5
28E9
330
1F
100
AcDbEntity
  8
AM_0
100
AcDbSpline
210
0.0
220
0.0
230
1.0
 70
     8
 71
     3
 72
     8
 73
     4
 74
     0
 42
0.0000000001
 43
0.0000000001
 40
1.947519081170268
 40
1.947519081170268
 40
1.947519081170268
 40
1.947519081170268
 40
14.43901837670146
 40
14.43901837670146
 40
14.43901837670146
 40
14.43901837670146
 10
-29.45469490755778
 20
6.141040766834827
 30
0.0
 10
-24.35648645999869
 20
5.454907495201801
 30
0.0
 10
-19.59831417756581
 20
2.727453747599799
 30
0.0
 10
-14.84014189513294
 20
-0.0000000000022027
 30
0.0
  0
SPLINE
  5
28EA
330
1F
100
AcDbEntity
  8
AM_0
100
AcDbSpline
210
0.0
220
0.0
230
1.0
 70
     8
 71
     3
 72
     8
 73
     4
 74
     0
 42
0.0000000001
 43
0.0000000001
 40
0.0
 40
0.0
 40
0.0
 40
0.0
 40
5.635889483499305
 40
5.635889483499305
 40
5.635889483499305
 40
5.635889483499305
 10
-17.02518518518568
 20
6.499999999997868
 30
0.0
 10
-19.37695141410268
 20
6.499999999997854
 30
0.0
 10
-21.64444247332141
 20
6.008332237670742
 30
0.0
 10
-23.86043722107036
 20
5.216231069880407
 30
0.0
  0
SPLINE
  5
28EB
330
1F
100
AcDbEntity
  8
AM_0
100
AcDbSpline
210
0.0
220
0.0
230
1.0
 70
     8
 71
     3
 72
     8
 73
     4
 74
     0
 42
0.0000000001
 43
0.0000000001
 40
0.0
 40
0.0
 40
0.0
 40
0.0
 40
2.130230809022907
 40
2.130230809022907
 40
2.130230809022907
 40
2.130230809022907
 10
-17.02518518518566
 20
-6.500000000002287
 30
0.0
 10
-16.13627405746993
 20
-6.500000000002287
 30
0.0
 10
-15.25940297231596
 20
-6.429757474168511
 30
0.0
 10
-14.3928018761893
 20
-6.299599049710607
 30
0.0
  0
SPLINE
  5
28EC
330
1F
100
AcDbEntity
  8
AM_0
100
AcDbSpline
210
0.0
220
0.0
230
1.0
 70
     8
 71
     3
 72
     8
 73
     4
 74
     0
 42
0.0000000001
 43
0.0000000001
 40
1.870660592686466
 40
1.870660592686466
 40
1.870660592686466
 40
1.870660592686466
 40
14.43901837670146
 40
14.43901837670146
 40
14.43901837670146
 40
14.43901837670146
 10
-0.1314444444446765
 20
-6.153473504910579
 30
0.0
 10
-5.265244562353354
 20
-5.488470795734201
 30
0.0
 10
-10.05269322874313
 20
-2.744235397868209
 30
0.0
 10
-14.84014189513294
 20
-0.0000000000022027
 30
0.0
  0
SPLINE
  5
28ED
330
1F
100
AcDbEntity
  8
AM_0
100
AcDbSpline
210
0.0
220
0.0
230
1.0
 70
     8
 71
     3
 72
     8
 73
     4
 74
     0
 42
0.0000000001
 43
0.0000000001
 40
0.0
 40
0.0
 40
0.0
 40
0.0
 40
6.520498447204779
 40
6.520498447204779
 40
6.520498447204779
 40
6.520498447204779
 10
-0.0000000000002315
 20
-6.500000000002287
 30
0.0
 10
-6.046443004541318
 20
-6.500000000002287
 30
0.0
 10
-11.53581409486337
 20
-3.250000000002287
 30
0.0
 10
-17.02518518518541
 20
-0.0000000000022879
 30
0.0
  0
SPLINE
  5
28EE
330
1F
100
AcDbEntity
  8
AM_0
100
AcDbSpline
210
0.0
220
0.0
230
1.0
 70
     8
 71
     3
 72
     8
 73
     4
 74
     0
 42
0.0000000001
 43
0.0000000001
 40
0.0
 40
0.0
 40
0.0
 40
0.0
 40
6.520498447204785
 40
6.520498447204785
 40
6.520498447204785
 40
6.520498447204785
 10
-17.02518518518543
 20
6.499999999997868
 30
0.0
 10
-10.97874218064436
 20
6.499999999997868
 30
0.0
 10
-5.489371090322311
 20
3.249999999997868
 30
0.0
 10
-0.0000000000002315
 20
-0.0000000000021316
 30
0.0
  0
SPLINE
  5
28EF
330
1F
100
AcDbEntity
  8
AM_0
100
AcDbSpline
210
0.0
220
0.0
230
1.0
 70
     8
 71
     3
 72
     8
 73
     4
 74
     0
 42
0.0000000001
 43
0.0000000001
 40
0.3581103616548037
 40
0.3581103616548037
 40
0.3581103616548037
 40
0.3581103616548037
 40
12.40023413887867
 40
12.40023413887867
 40
12.40023413887867
 40
12.40023413887867
 10
-14.39280187618881
 20
6.299599049706202
 30
0.0
 10
-9.389272943000117
 20
6.170793118179403
 30
0.0
 10
-4.741963962276955
 20
3.903511467028224
 30
0.0
 10
-0.1462323104809317
 20
1.326598463589377
 30
0.0
  0
SPLINE
  5
28F0
330
1F
100
AcDbEntity
  8
AM_0
100
AcDbSpline
210
0.0
220
0.0
230
1.0
 70
     8
 71
     3
 72
     8
 73
     4
 74
     0
 42
0.0000000001
 43
0.0000000001
 40
4.542668862435135
 40
4.542668862435135
 40
4.542668862435135
 40
4.542668862435135
 40
14.36247867694493
 40
14.36247867694493
 40
14.36247867694493
 40
14.36247867694493
 10
-0.857518518517028
 20
-5.196901652095888
 30
0.0
 10
-4.78139786984164
 20
-4.104107392546993
 30
0.0
 10
-8.552741456828997
 20
-2.052053696274597
 30
0.0
 10
-12.32408504381637
 20
-0.0000000000022027
 30
0.0
  0
SPLINE
  5
28F1
330
1F
100
AcDbEntity
  8
AM_0
100
AcDbSpline
210
0.0
220
0.0
230
1.0
 70
     8
 71
     3
 72
     8
 73
     4
 74
     0
 42
0.0000000001
 43
0.0000000001
 40
0.0
 40
0.0
 40
0.0
 40
0.0
 40
5.635889483499127
 40
5.635889483499127
 40
5.635889483499127
 40
5.635889483499127
 10
-0.0000000000002582
 20
6.499999999997726
 30
0.0
 10
-2.351766228917154
 20
6.499999999997726
 30
0.0
 10
-4.619257288135818
 20
6.0083322376706
 30
0.0
 10
-6.835252035884749
 20
5.216231069880336
 30
0.0
  0
SPLINE
  5
28F2
330
1F
100
AcDbEntity
  8
AM_0
100
AcDbSpline
210
0.0
220
0.0
230
1.0
 70
     8
 71
     3
 72
     8
 73
     4
 74
     0
 42
0.0000000001
 43
0.0000000001
 40
0.0
 40
0.0
 40
0.0
 40
0.0
 40
1.163954395627521
 40
1.163954395627521
 40
1.163954395627521
 40
1.163954395627521
 10
-0.0000000000002582
 20
5.297113492686875
 30
0.0
 10
-0.6926087948520941
 20
4.43747615499403
 30
0.0
 10
-1.881432565163229
 20
4.068315935999379
 30
0.0
 10
-2.950079311427657
 20
3.910989449284215
 30
0.0
  0
SPLINE
  5
28F3
330
1F
100
AcDbEntity
  8
AM_0
100
AcDbSpline
210
0.0
220
0.0
230
1.0
 70
     8
 71
     3
 72
     8
 73
     4
 74
     0
 42
0.0000000001
 43
0.0000000001
 40
0.7142832446738512
 40
0.7142832446738512
 40
0.7142832446738512
 40
0.7142832446738512
 40
9.361146747480315
 40
9.361146747480315
 40
9.361146747480315
 40
9.361146747480315
 10
-11.43339076553807
 20
5.980777126769297
 30
0.0
 10
-7.853061997976647
 20
5.805518470660786
 30
0.0
 10
-4.437115469590741
 20
4.59650084763723
 30
0.0
 10
-1.081406219129617
 20
3.008665984322959
 30
0.0
  0
LINE
  5
28F4
330
1F
100
AcDbEntity
  8
AM_0
100
AcDbLine
 10
-1.336382143845044
 20
3.467283058211229
 30
0.0
 11
-2.950079311427645
 21
3.910989449284215
 31
0.0
  0
LINE
  5
28F5
330
1F
100
AcDbEntity
  8
AM_11
100
AcDbLine
 10
-0.0000000000011957
 20
6.499999999997726
 30
0.0
 11
-31.99999999999888
 21
6.499999999997957
 31
0.0
  0
LINE
  5
28F6
330
1F
100
AcDbEntity
  8
AM_0
100
AcDbLine
 10
-0.0000000000002329
 20
-0.0000000000023022
 30
0.0
 11
-2.95007931142763
 21
-0.0000000000023022
 31
0.0
  0
LINE
  5
28F7
330
1F
100
AcDbEntity
  8
AM_0
100
AcDbLine
 10
-2.95007931142763
 20
-1.040000000002294
 30
0.0
 11
-0.1445514007306825
 21
-1.040000000002294
 31
0.0
  0
LINE
  5
28F8
330
1F
100
AcDbEntity
  8
AM_0
100
AcDbLine
 10
-2.95007931142763
 20
-1.040000000002294
 30
0.0
 11
-1.07716592282844
 21
-1.915751194718808
 31
0.0
  0
LINE
  5
28F9
330
1F
100
AcDbEntity
  8
AM_11
100
AcDbLine
 10
-31.99999999999901
 20
-6.500000000002316
 30
0.0
 11
-0.0000000000002329
 21
-6.500000000002302
 31
0.0
  0
LINE
  5
2909
330
1F
100
AcDbEntity
  8
AM_11
100
AcDbLine
 10
-31.99999999999901
 20
-6.500000000002323
 30
0.0
 11
-31.99999999999888
 21
6.499999999997676
 31
0.0
  0
LINE
  5
290A
330
1F
100
AcDbEntity
  8
AM_0
100
AcDbLine
 10
-32.00000000018204
 20
-5.680599437735093
 30
0.0
 11
-31.99999999999818
 21
-6.416790128996627
 31
0.0
  0
ARC
  5
290B
330
1F
100
AcDbEntity
  8
AM_0
100
AcDbCircle
 10
-17.54536546966315
 20
-377.2651216371252
 30
0.0
 40
371.129925284621
100
AcDbArc
 50
92.23209992593766
 51
92.54062056902688
  0
POLYLINE
  5
290C
330
1F
100
AcDbEntity
  8
AM_0
100
AcDb2dPolyline
 66
     1
 10
0.0
 20
0.0
 30
0.0
 70
     2
  0
VERTEX
  5
290D
330
290C
100
AcDbEntity
  8
AM_0
100
AcDbVertex
100
AcDb2dVertex
 10
-37.35339652309161
 20
4.626464845937871
 30
0.0
 42
-0.0100635788804193
  0
VERTEX
  5
290E
330
290C
100
AcDbEntity
  8
AM_0
100
AcDbVertex
100
AcDb2dVertex
 10
-37.95338919362324
 20
4.940623099390091
 30
0.0
 42
-0.0111716247241469
 70
     1
  0
VERTEX
  5
290F
330
290C
100
AcDbEntity
  8
AM_0
100
AcDbVertex
100
AcDb2dVertex
 10
-38.48138230390412
 20
5.246320684776957
 30
0.0
 42
-0.0056817162269327
  0
VERTEX
  5
2910
330
290C
100
AcDbEntity
  8
AM_0
100
AcDbVertex
100
AcDb2dVertex
 10
-39.17921013129211
 20
5.682391964717321
 30
0.0
 42
-0.1012800428637157
 70
     1
  0
VERTEX
  5
2911
330
290C
100
AcDbEntity
  8
AM_0
100
AcDbVertex
100
AcDb2dVertex
 10
-39.21263230390411
 20
5.714914783107285
 30
0.0
 42
-0.5091829191374789
  0
VERTEX
  5
2912
330
290C
100
AcDbEntity
  8
AM_0
100
AcDbVertex
100
AcDb2dVertex
 10
-39.19128804362651
 20
5.774350803709932
 30
0.0
 42
-0.0351954426445148
 70
     1
  0
VERTEX
  5
2913
330
290C
100
AcDbEntity
  8
AM_0
100
AcDbVertex
100
AcDb2dVertex
 10
-38.48138230390412
 20
5.928432542412689
 30
0.0
 42
-0.011586529956417
  0
VERTEX
  5
2914
330
290C
100
AcDbEntity
  8
AM_0
100
AcDbVertex
100
AcDb2dVertex
 10
-37.84703038726387
 20
6.005048709844533
 30
0.0
 42
-0.0030188361960122
 70
     1
  0
VERTEX
  5
2915
330
290C
100
AcDbEntity
  8
AM_0
100
AcDbVertex
100
AcDb2dVertex
 10
-35.60730150166504
 20
6.404496500614843
 30
0.0
 42
-0.0270236747876273
  0
VERTEX
  5
2916
330
290C
100
AcDbEntity
  8
AM_0
100
AcDbVertex
100
AcDb2dVertex
 10
-34.66896075074335
 20
6.473347562857714
 30
0.0
 42
-0.0069037738036377
 70
     1
  0
VERTEX
  5
2917
330
290C
100
AcDbEntity
  8
AM_0
100
AcDbVertex
100
AcDb2dVertex
 10
-31.99999999999881
 20
6.499999999997687
 30
0.0
  0
SEQEND
  5
2918
330
290C
100
AcDbEntity
  8
AM_0
  0
LINE
  5
2919
330
1F
100
AcDbEntity
  8
AM_0
100
AcDbLine
 10
-31.99999999999308
 20
1.605639495500525
 30
0.0
 11
-32.70902163540496
 21
0.6145187155543326
 31
0.0
  0
LINE
  5
291A
330
1F
100
AcDbEntity
  8
AM_0
100
AcDbLine
 10
-32.70902163540496
 20
0.6145187155543326
 30
0.0
 11
-31.99999999999308
 21
-0.9637693735446859
 31
0.0
  0
LINE
  5
291B
330
1F
100
AcDbEntity
  8
AM_0
100
AcDbLine
 10
-2.95007931142763
 20
-0.0000000000023022
 30
0.0
 11
-2.95007931142763
 21
-1.040000000002294
 31
0.0
  0
LINE
  5
291C
330
1F
100
AcDbEntity
  8
AM_0
100
AcDbLine
 10
-0.1314444444446769
 20
-6.153473504910671
 30
0.0
 11
-0.1314444444446769
 21
-1.72496721093443
 31
0.0
  0
LINE
  5
291D
330
1F
100
AcDbEntity
  8
AM_0
100
AcDbLine
 10
-0.0000000000002329
 20
-6.500000000002302
 30
0.0
 11
-0.0000000000002329
 21
-1.300000000002285
 31
0.0
  0
LINE
  5
291F
330
1F
100
AcDbEntity
  8
AM_0
100
AcDbLine
 10
-0.1314444444446769
 20
-6.153473504910579
 30
0.0
 11
-0.8575185185187683
 21
-5.196901652102773
 31
0.0
  0
LINE
  5
2920
330
1F
100
AcDbEntity
  8
AM_0
100
AcDbLine
 10
-0.0000000000002329
 20
-6.500000000002302
 30
0.0
 11
-0.1314444444446769
 21
-6.153473504910671
 31
0.0
  0
LINE
  5
2921
330
1F
100
AcDbEntity
  8
AM_0
100
AcDbLine
 10
-0.0000000000002329
 20
-0.0000000000023022
 30
0.0
 11
-0.0000000000002577
 21
6.499999999997726
 31
0.0
  0
LINE
  5
2922
330
1F
100
AcDbEntity
  8
AM_0
100
AcDbLine
 10
-0.1314444444446769
 20
1.299999999997858
 30
0.0
 11
-1.336382143845044
 21
3.467283058211229
 31
0.0
  0
LINE
  5
2923
330
1F
100
AcDbEntity
  8
AM_0
100
AcDbLine
 10
-0.0000000000002329
 20
-1.300000000002285
 30
0.0
 11
-0.7227570036524666
 21
-0.0000000000022098
 31
0.0
  0
LINE
  5
2924
330
1F
100
AcDbEntity
  8
AM_0
100
AcDbLine
 10
-0.0000000000002329
 20
-0.0000000000023022
 30
0.0
 11
-0.1112177847804487
 21
-1.099956113213778
 31
0.0
  0
LINE
  5
2925
330
1F
100
AcDbEntity
  8
AM_0
100
AcDbLine
 10
-1.07716592282844
 20
-1.915751194718808
 30
0.0
 11
-0.1314444444446769
 21
-1.72496721093443
 31
0.0
  0
LINE
  5
2926
330
1F
100
AcDbEntity
  8
AM_0
100
AcDbLine
 10
-0.1314444444446769
 20
-1.72496721093443
 30
0.0
 11
-0.0000000000002329
 21
-1.300000000002285
 31
0.0
  0
LINE
  5
2927
330
1F
100
AcDbEntity
  8
AM_0
100
AcDbLine
 10
-0.0000000000002329
 20
-0.0000000000023022
 30
0.0
 11
-0.1314444444446769
 21
1.299999999997858
 31
0.0
  0
POLYLINE
  5
29AB
330
1F
100
AcDbEntity
  8
AM_0
100
AcDb2dPolyline
 66
     1
 10
0.0
 20
0.0
 30
0.0
  0
VERTEX
  5
29AC
330
29AB
100
AcDbEntity
  8
AM_0
100
AcDbVertex
100
AcDb2dVertex
 10
-31.99999999999894
 20
-5.680599437774105
 30
0.0
 42
-0.0264642626031715
  0
VERTEX
  5
29AD
330
29AB
100
AcDbEntity
  8
AM_0
100
AcDbVertex
100
AcDb2dVertex
 10
-33.27631191451523
 20
-5.105706241094239
 30
0.0
 42
-0.0430225768898295
  0
VERTEX
  5
29AE
330
29AB
100
AcDbEntity
  8
AM_0
100
AcDbVertex
100
AcDb2dVertex
 10
-34.00571428562136
 20
-4.646248330634669
 30
0.0
 42
-0.0234835336146825
  0
VERTEX
  5
29AF
330
29AB
100
AcDbEntity
  8
AM_0
100
AcDbVertex
100
AcDb2dVertex
 10
-35.96380527934432
 20
-3.062395791821451
 30
0.0
 42
-0.0405798970953311
  0
VERTEX
  5
29B0
330
29AB
100
AcDbEntity
  8
AM_0
100
AcDbVertex
100
AcDb2dVertex
 10
-36.94209186590219
 20
-1.980241085193686
 30
0.0
 42
-0.1552529872078953
  0
VERTEX
  5
29B1
330
29AB
100
AcDbEntity
  8
AM_0
100
AcDbVertex
100
AcDb2dVertex
 10
-37.15634629715033
 20
-1.642545471861236
 30
0.0
 42
-0.1108569244299674
  0
VERTEX
  5
29B2
330
29AB
100
AcDbEntity
  8
AM_0
100
AcDbVertex
100
AcDb2dVertex
 10
-37.27049849187712
 20
-1.089086477373694
 30
0.0
 42
-0.1576957029240751
  0
VERTEX
  5
29B3
330
29AB
100
AcDbEntity
  8
AM_0
100
AcDbVertex
100
AcDb2dVertex
 10
-37.12112466489985
 20
-0.6533136086323275
 30
0.0
 42
-0.1036277984354372
  0
VERTEX
  5
29B4
330
29AB
100
AcDbEntity
  8
AM_0
100
AcDbVertex
100
AcDb2dVertex
 10
-36.60192706330566
 20
-0.19680636417797
 30
0.0
 42
-0.1140006267273625
  0
VERTEX
  5
29B5
330
29AB
100
AcDbEntity
  8
AM_0
100
AcDbVertex
100
AcDb2dVertex
 10
-35.80271832777195
 20
0.0396832251629284
 30
0.0
 42
-0.0437557896692052
  0
VERTEX
  5
29B6
330
29AB
100
AcDbEntity
  8
AM_0
100
AcDbVertex
100
AcDb2dVertex
 10
-33.66554948293296
 20
-0.1856656001984724
 30
0.0
 42
-0.0539995340699978
  0
VERTEX
  5
29B7
330
29AB
100
AcDbEntity
  8
AM_0
100
AcDbVertex
100
AcDb2dVertex
 10
-32.77117104755994
 20
-0.5503681030550851
 30
0.0
 42
0.0335558904808079
  0
VERTEX
  5
29B8
330
29AB
100
AcDbEntity
  8
AM_0
100
AcDbVertex
100
AcDb2dVertex
 10
-31.99999999999894
 20
-0.9637693735316368
 30
0.0
  0
SEQEND
  5
29B9
330
29AB
100
AcDbEntity
  8
AM_0
  0
VIEWPORT
  5
110
330
101
100
AcDbEntity
 67
     1
  8
0
100
AcDbViewport
 10
420.5
 20
297.0
 30
0.0
 40
948.9782706766916
 41
628.452
 68
     1
 69
     1
1001
ACAD
1000
MVIEW
1002
{
1070
    16
1010
0.0
1020
0.0
1030
0.0
1010
0.0
1020
0.0
1030
1.0
1040
0.0
1040
628.452
1040
420.5
1040
297.0
1040
50.0
1040
0.0
1040
0.0
1070
     0
1070
   100
1070
     1
1070
     1
1070
     0
1070
     0
1070
     0
1070
     0
1040
0.0
1040
0.0
1040
0.0
1040
10.0
1040
10.0
1040
10.0
1040
10.0
1070
     0
1002
{
1002
}
1002
}
  0
ENDSEC
  0
SECTION
  2
OBJECTS
  0
DICTIONARY
  5
C
330
0
100
AcDbDictionary
  3
ACAD_GROUP
350
D
  3
ACAD_LAYOUT
350
1A
  3
ACAD_MLINESTYLE
350
17
  3
ACAD_PLOTSETTINGS
350
19
  3
ACAD_PLOTSTYLENAME
350
E
  3
ACDBVARIABLEDICTIONARY
350
34
  3
ACMDICTIONARY
350
43
  3
AMG
350
2B
  3
AMGSNAPSETTINGS
350
6E
  3
DWGPROPS
350
2B35
  3
ACDBHEADERROUNDTRIPXREC
350
2B41
  0
DICTIONARY
  5
74
330
1F
100
AcDbDictionary
280
     1
  3
ACAD_INDEX
360
2B37
  3
ACAD_LAYOUTSELFREF
360
2B64
  0
DICTIONARY
  5
2B69
330
101
100
AcDbDictionary
280
     1
  3
ACAD_LAYOUTSELFREF
360
2B6A
  0
DICTIONARY
  5
D
102
{ACAD_REACTORS
330
C
102
}
330
C
100
AcDbDictionary
  0
DICTIONARY
  5
1A
102
{ACAD_REACTORS
330
C
102
}
330
C
100
AcDbDictionary
  0
DICTIONARY
  5
17
102
{ACAD_REACTORS
330
C
102
}
330
C
100
AcDbDictionary
  3
STANDARD
350
18
  0
DICTIONARY
  5
19
102
{ACAD_REACTORS
330
C
102
}
330
C
100
AcDbDictionary
  0
ACDBDICTIONARYWDFLT
  5
E
102
{ACAD_REACTORS
330
C
102
}
330
C
100
AcDbDictionary
281
     1
  3
Normal
350
F
100
AcDbDictionaryWithDefault
340
F
  0
DICTIONARY
  5
34
102
{ACAD_REACTORS
330
C
102
}
330
C
100
AcDbDictionary
  3
INDEXCTL
350
35
  3
SORTENTS
350
B5E
  0
DICTIONARY
  5
43
102
{ACAD_REACTORS
330
C
102
}
330
C
100
AcDbDictionary
  3
ACMSTDDICTIONARY
350
260
  0
DICTIONARY
  5
2B
102
{ACAD_REACTORS
330
C
102
}
330
C
100
AcDbDictionary
  3
ACMGSETTINGS
350
2C
  0
DICTIONARY
  5
6E
102
{ACAD_REACTORS
330
C
102
}
330
C
100
AcDbDictionary
  0
XRECORD
  5
2B35
102
{ACAD_REACTORS
330
C
102
}
330
C
100
AcDbXrecord
  1
DWGPROPS COOKIE
  2

  3

  4

  6

  7

  8

  9

300
AmdtFileType=82
301
=
302
=
303
=
304
=
305
=
306
=
307
=
308
=
309
=
 40
0.05583875
 41
2452836.771637361
 42
2452901.554058148
  1

 90
        1
  0
DICTIONARY
  5
2B41
102
{ACAD_REACTORS
330
C
102
}
330
C
100
AcDbDictionary
  3
TSTACKALIGN
350
2B42
  3
TSTACKSIZE
350
2B43
  3
HYPERLINKBASE
350
2B44
  3
STYLESHEET
350
2B45
  3
LAYOUTDICT
350
2B46
  3
PLOTSETDICT
350
2B47
  3
PLOTSTYLNAMDICT
350
2B48
  3
LWETCUNION
350
2B49
  3
INSUNITS
350
2B4A
  3
CEPSNTYPE
350
2B4B
  3
FINGERPRINTGUID
350
2B4C
  3
VERSIONGUID
350
2B4D
  3
PSVPSCALE
350
2B4E
  3
DIMSTYLEDATA
350
2B4F
  3
PUCSORTHOREF
350
2B50
  3
PUCSORTHOVIEW
350
2B51
  3
PUCSBASE
350
2B52
  3
PUCSORGTOP
350
2B53
  3
PUCSORGBOTTOM
350
2B54
  3
PUCSORGLEFT
350
2B55
  3
PUCSORGRIGHT
350
2B56
  3
PUCSORGFRONT
350
2B57
  3
PUCSORGBACK
350
2B58
  3
UCSORTHOREF
350
2B59
  3
UCSORTHOVIEW
350
2B5A
  3
UCSBASE
350
2B5B
  3
UCSORGTOP
350
2B5C
  3
UCSORGBOTTOM
350
2B5D
  3
UCSORGLEFT
350
2B5E
  3
UCSORGRIGHT
350
2B5F
  3
UCSORGFRONT
350
2B60
  3
UCSORGBACK
350
2B61
  0
DICTIONARY
  5
2B37
102
{ACAD_REACTORS
330
74
102
}
330
74
100
AcDbDictionary
  3
*A1
350
2B38
  0
XRECORD
  5
2B64
102
{ACAD_REACTORS
330
74
102
}
330
74
100
AcDbXrecord
340
1F
  0
XRECORD
  5
2B6A
102
{ACAD_REACTORS
330
2B69
102
}
330
2B69
100
AcDbXrecord
340
101
  0
MLINESTYLE
  5
18
102
{ACAD_REACTORS
330
17
102
}
330
17
100
AcDbMlineStyle
  2
STANDARD
 70
     0
  3

 62
   256
 51
90.0
 52
90.0
 71
     2
 49
0.5
 62
   256
  6
BYLAYER
 49
-0.5
 62
   256
  6
BYLAYER
  0
ACDBPLACEHOLDER
  5
F
102
{ACAD_REACTORS
330
E
102
}
330
E
100
AcDbPlaceHolder
280
     0
  0
DICTIONARYVAR
  5
35
102
{ACAD_REACTORS
330
34
102
}
330
34
100
DictionaryVariables
280
     0
  1
1
  0
DICTIONARYVAR
  5
B5E
102
{ACAD_REACTORS
330
34
102
}
330
34
100
DictionaryVariables
280
     0
  1
96
  0
DICTIONARY
  5
260
102
{ACAD_REACTORS
330
43
102
}
330
43
100
AcDbDictionary
  0
DICTIONARY
  5
2C
102
{ACAD_REACTORS
330
2B
102
}
330
2B
100
AcDbDictionary
  3
DWGSETTINGS
350
2D
  0
XRECORD
  5
2B42
102
{ACAD_REACTORS
330
2B41
102
}
330
2B41
100
AcDbXrecord
 90
        1
  0
XRECORD
  5
2B43
102
{ACAD_REACTORS
330
2B41
102
}
330
2B41
100
AcDbXrecord
 90
       70
  0
XRECORD
  5
2B44
102
{ACAD_REACTORS
330
2B41
102
}
330
2B41
100
AcDbXrecord
  1

  0
XRECORD
  5
2B45
102
{ACAD_REACTORS
330
2B41
102
}
330
2B41
100
AcDbXrecord
  1
ASAMI.ctb
  0
XRECORD
  5
2B46
102
{ACAD_REACTORS
330
2B41
102
}
330
2B41
100
AcDbXrecord
340
1A
  0
XRECORD
  5
2B47
102
{ACAD_REACTORS
330
2B41
102
}
330
2B41
100
AcDbXrecord
340
19
  0
XRECORD
  5
2B48
102
{ACAD_REACTORS
330
2B41
102
}
330
2B41
100
AcDbXrecord
340
E
  0
XRECORD
  5
2B49
102
{ACAD_REACTORS
330
2B41
102
}
330
2B41
100
AcDbXrecord
 90
    10781
  0
XRECORD
  5
2B4A
102
{ACAD_REACTORS
330
2B41
102
}
330
2B41
100
AcDbXrecord
 90
        4
  0
XRECORD
  5
2B4B
102
{ACAD_REACTORS
330
2B41
102
}
330
2B41
100
AcDbXrecord
 90
        0
  0
XRECORD
  5
2B4C
102
{ACAD_REACTORS
330
2B41
102
}
330
2B41
100
AcDbXrecord
  1
{AFB28963-8C59-40AE-9337-C84526B81ACE}
  0
XRECORD
  5
2B4D
102
{ACAD_REACTORS
330
2B41
102
}
330
2B41
100
AcDbXrecord
  1
{C0EF77D0-A6B9-4A34-BFDD-956772E38800}
  0
XRECORD
  5
2B4E
102
{ACAD_REACTORS
330
2B41
102
}
330
2B41
100
AcDbXrecord
 40
0.0
  0
XRECORD
  5
2B4F
102
{ACAD_REACTORS
330
2B41
102
}
330
2B41
100
AcDbXrecord
1000
DSTYLE
1002
{
1070
    79
 70
     2
1070
   341
340
59
1070
   342
340
59
1070
   371
 70
    -1
1070
   372
 70
    -1
1002
}
  0
XRECORD
  5
2B50
102
{ACAD_REACTORS
330
2B41
102
}
330
2B41
100
AcDbXrecord
340
0
  0
XRECORD
  5
2B51
102
{ACAD_REACTORS
330
2B41
102
}
330
2B41
100
AcDbXrecord
 70
     0
  0
XRECORD
  5
2B52
102
{ACAD_REACTORS
330
2B41
102
}
330
2B41
100
AcDbXrecord
340
0
  0
XRECORD
  5
2B53
102
{ACAD_REACTORS
330
2B41
102
}
330
2B41
100
AcDbXrecord
 10
0.0
 20
0.0
 30
0.0
  0
XRECORD
  5
2B54
102
{ACAD_REACTORS
330
2B41
102
}
330
2B41
100
AcDbXrecord
 10
0.0
 20
0.0
 30
0.0
  0
XRECORD
  5
2B55
102
{ACAD_REACTORS
330
2B41
102
}
330
2B41
100
AcDbXrecord
 10
0.0
 20
0.0
 30
0.0
  0
XRECORD
  5
2B56
102
{ACAD_REACTORS
330
2B41
102
}
330
2B41
100
AcDbXrecord
 10
0.0
 20
0.0
 30
0.0
  0
XRECORD
  5
2B57
102
{ACAD_REACTORS
330
2B41
102
}
330
2B41
100
AcDbXrecord
 10
0.0
 20
0.0
 30
0.0
  0
XRECORD
  5
2B58
102
{ACAD_REACTORS
330
2B41
102
}
330
2B41
100
AcDbXrecord
 10
0.0
 20
0.0
 30
0.0
  0
XRECORD
  5
2B59
102
{ACAD_REACTORS
330
2B41
102
}
330
2B41
100
AcDbXrecord
340
0
  0
XRECORD
  5
2B5A
102
{ACAD_REACTORS
330
2B41
102
}
330
2B41
100
AcDbXrecord
 70
     0
  0
XRECORD
  5
2B5B
102
{ACAD_REACTORS
330
2B41
102
}
330
2B41
100
AcDbXrecord
340
0
  0
XRECORD
  5
2B5C
102
{ACAD_REACTORS
330
2B41
102
}
330
2B41
100
AcDbXrecord
 10
0.0
 20
0.0
 30
0.0
  0
XRECORD
  5
2B5D
102
{ACAD_REACTORS
330
2B41
102
}
330
2B41
100
AcDbXrecord
 10
0.0
 20
0.0
 30
0.0
  0
XRECORD
  5
2B5E
102
{ACAD_REACTORS
330
2B41
102
}
330
2B41
100
AcDbXrecord
 10
0.0
 20
0.0
 30
0.0
  0
XRECORD
  5
2B5F
102
{ACAD_REACTORS
330
2B41
102
}
330
2B41
100
AcDbXrecord
 10
0.0
 20
0.0
 30
0.0
  0
XRECORD
  5
2B60
102
{ACAD_REACTORS
330
2B41
102
}
330
2B41
100
AcDbXrecord
 10
0.0
 20
0.0
 30
0.0
  0
XRECORD
  5
2B61
102
{ACAD_REACTORS
330
2B41
102
}
330
2B41
100
AcDbXrecord
 10
0.0
 20
0.0
 30
0.0
  0
LAYER_INDEX
  5
2B38
102
{ACAD_REACTORS
330
2B37
102
}
330
2B37
100
AcDbIndex
 40
2453152.456970208
100
AcDbLayerIndex
  8
0
360
2B39
 90
        0
  8
AM_0
360
2B3A
 90
       60
  8
AM_11
360
2B3B
 90
        3
  8
AM_7
360
2B3C
 90
        1
  8
AM_5
360
2B3D
 90
        4
  8
Defpoints
360
2B3E
 90
        0
  8
AM_6
360
2B3F
 90
        1
  0
XRECORD
  5
2D
102
{ACAD_REACTORS
330
2C
102
}
330
2C
100
AcDbXrecord
  1
VERSION
140
15.0
  1
PRODUCT
  2
AutoCAD Mechanical 2000
  0
IDBUFFER
  5
2B39
330
0
100
AcDbIdBuffer
  0
IDBUFFER
  5
2B3A
330
0
100
AcDbIdBuffer
330
291C
330
291D
330
291F
330
2920
330
2921
330
2922
330
2923
330
2924
330
2925
330
2926
330
2927
330
29AB
330
22CD
330
22CE
330
22CF
330
22D4
330
22D7
330
22D8
330
22E0
330
22F9
330
22FA
330
22FB
330
22FC
330
22FD
330
28DA
330
28DB
330
28DC
330
28DD
330
28DE
330
28DF
330
28E0
330
28E1
330
28E2
330
28E3
330
28E4
330
28E5
330
28E6
330
28E7
330
28E8
330
28E9
330
28EA
330
28EB
330
28EC
330
28ED
330
28EE
330
28EF
330
28F0
330
28F1
330
28F2
330
28F3
330
28F4
330
28F6
330
28F7
330
28F8
330
290A
330
290B
330
290C
330
2919
330
291A
330
291B
  0
IDBUFFER
  5
2B3B
330
0
100
AcDbIdBuffer
330
28F5
330
28F9
330
2909
  0
IDBUFFER
  5
2B3C
330
0
100
AcDbIdBuffer
330
20AA
  0
IDBUFFER
  5
2B3D
330
0
100
AcDbIdBuffer
330
2307
330
2393
330
2423
330
24B8
  0
IDBUFFER
  5
2B3E
330
0
100
AcDbIdBuffer
  0
IDBUFFER
  5
2B3F
330
0
100
AcDbIdBuffer
330
E5A
  0
ENDSEC
  0
EOF
