  0
SECTION
  2
HEADER
  9
$ACADVER
  1
AC1014
  9
$ACADMAINTVER
 70
     9
  9
$DWGCODEPAGE
  3
ANSI_932
  9
$INSBASE
 10
0.0
 20
0.0
 30
0.0
  9
$EXTMIN
 10
-111.9932451532983
 20
-56.50000099999997
 30
-0.00000001
  9
$EXTMAX
 10
21.83665304628215
 20
8.469008138139123
 30
0.00000001
  9
$LIMMIN
 10
-119.4103057978848
 20
-64.07088123960313
  9
$LIMMAX
 10
26.92028964567458
 20
27.94892642738636
  9
$ORTHOMODE
 70
     0
  9
$REGENMODE
 70
     1
  9
$FILLMODE
 70
     1
  9
$QTEXTMODE
 70
     0
  9
$MIRRTEXT
 70
     0
  9
$DRAGMODE
 70
     2
  9
$LTSCALE
 40
1.0
  9
$OSMODE
 70
    55
  9
$ATTMODE
 70
     1
  9
$TEXTSIZE
 40
2.5
  9
$TRACEWID
 40
1.0
  9
$TEXTSTYLE
  7
STANDARD
  9
$CLAYER
  8
AM_0
  9
$CELTYPE
  6
BYLAYER
  9
$CECOLOR
 62
   256
  9
$CELTSCALE
 40
1.0
  9
$DELOBJ
 70
     1
  9
$DISPSILH
 70
     0
  9
$DIMSCALE
 40
1.0
  9
$DIMASZ
 40
2.5
  9
$DIMEXO
 40
1.0
  9
$DIMDLI
 40
12.0
  9
$DIMRND
 40
0.0
  9
$DIMDLE
 40
0.0
  9
$DIMEXE
 40
1.0
  9
$DIMTP
 40
0.1
  9
$DIMTM
 40
0.1
  9
$DIMTXT
 40
3.2
  9
$DIMCEN
 40
0.0
  9
$DIMTSZ
 40
0.0
  9
$DIMTOL
 70
     0
  9
$DIMLIM
 70
     0
  9
$DIMTIH
 70
     0
  9
$DIMTOH
 70
     0
  9
$DIMSE1
 70
     0
  9
$DIMSE2
 70
     0
  9
$DIMTAD
 70
     3
  9
$DIMZIN
 70
     8
  9
$DIMBLK
  1
OPEN30
  9
$DIMASO
 70
     1
  9
$DIMSHO
 70
     1
  9
$DIMPOST
  1

  9
$DIMAPOST
  1
"
  9
$DIMALT
 70
     0
  9
$DIMALTD
 70
     2
  9
$DIMALTF
 40
0.0393701
  9
$DIMLFAC
 40
1.0
  9
$DIMTOFL
 70
     1
  9
$DIMTVP
 40
0.0
  9
$DIMTIX
 70
     0
  9
$DIMSOXD
 70
     0
  9
$DIMSAH
 70
     0
  9
$DIMBLK1
  1

  9
$DIMBLK2
  1

  9
$DIMSTYLE
  2
AM_JIS
  9
$DIMCLRD
 70
   256
  9
$DIMCLRE
 70
   256
  9
$DIMCLRT
 70
     2
  9
$DIMTFAC
 40
0.71
  9
$DIMGAP
 40
1.5
  9
$DIMJUST
 70
     0
  9
$DIMSD1
 70
     0
  9
$DIMSD2
 70
     0
  9
$DIMTOLJ
 70
     0
  9
$DIMTZIN
 70
     0
  9
$DIMALTZ
 70
     0
  9
$DIMALTTZ
 70
     0
  9
$DIMFIT
 70
     3
  9
$DIMUPT
 70
     0
  9
$DIMUNIT
 70
     2
  9
$DIMDEC
 70
     3
  9
$DIMTDEC
 70
     3
  9
$DIMALTU
 70
     2
  9
$DIMALTTD
 70
     2
  9
$DIMTXSTY
  7
ASAMI
  9
$DIMAUNIT
 70
     0
  9
$LUNITS
 70
     2
  9
$LUPREC
 70
     2
  9
$SKETCHINC
 40
1.0
  9
$FILLETRAD
 40
2.5
  9
$AUNITS
 70
     0
  9
$AUPREC
 70
     0
  9
$MENU
  1
.
  9
$ELEVATION
 40
0.0
  9
$PELEVATION
 40
0.0
  9
$THICKNESS
 40
0.0
  9
$LIMCHECK
 70
     0
  9
$BLIPMODE
 70
     0
  9
$CHAMFERA
 40
1.0
  9
$CHAMFERB
 40
1.0
  9
$CHAMFERC
 40
20.0
  9
$CHAMFERD
 40
0.0
  9
$SKPOLY
 70
     0
  9
$TDCREATE
 40
2452836.771637361
  9
$TDUPDATE
 40
2453152.460575983
  9
$TDINDWG
 40
0.0453513657
  9
$TDUSRTIMER
 40
0.0453513657
  9
$USRTIMER
 70
     1
  9
$ANGBASE
 50
0.0
  9
$ANGDIR
 70
     0
  9
$PDMODE
 70
     0
  9
$PDSIZE
 40
0.0
  9
$PLINEWID
 40
0.0
  9
$COORDS
 70
     1
  9
$SPLFRAME
 70
     0
  9
$SPLINETYPE
 70
     6
  9
$SPLINESEGS
 70
     8
  9
$ATTDIA
 70
     1
  9
$ATTREQ
 70
     1
  9
$HANDLING
 70
 12289
  9
$HANDSEED
  5
28EF
  9
$SURFTAB1
 70
     6
  9
$SURFTAB2
 70
     6
  9
$SURFTYPE
 70
     6
  9
$SURFU
 70
     6
  9
$SURFV
 70
     6
  9
$UCSNAME
  2

  9
$UCSORG
 10
0.0
 20
0.0
 30
0.0
  9
$UCSXDIR
 10
1.0
 20
0.0
 30
0.0
  9
$UCSYDIR
 10
0.0
 20
1.0
 30
0.0
  9
$PUCSNAME
  2

  9
$PUCSORG
 10
0.0
 20
0.0
 30
0.0
  9
$PUCSXDIR
 10
1.0
 20
0.0
 30
0.0
  9
$PUCSYDIR
 10
0.0
 20
1.0
 30
0.0
  9
$USERI1
 70
     0
  9
$USERI2
 70
     0
  9
$USERI3
 70
     0
  9
$USERI4
 70
     0
  9
$USERI5
 70
     0
  9
$USERR1
 40
0.0
  9
$USERR2
 40
0.0
  9
$USERR3
 40
0.0
  9
$USERR4
 40
0.0
  9
$USERR5
 40
0.0
  9
$WORLDVIEW
 70
     1
  9
$SHADEDGE
 70
     3
  9
$SHADEDIF
 70
    70
  9
$TILEMODE
 70
     1
  9
$MAXACTVP
 70
    64
  9
$PINSBASE
 10
0.0
 20
0.0
 30
0.0
  9
$PLIMCHECK
 70
     0
  9
$PEXTMIN
 10
1.000000000000000E+20
 20
1.000000000000000E+20
 30
1.000000000000000E+20
  9
$PEXTMAX
 10
-1.000000000000000E+20
 20
-1.000000000000000E+20
 30
-1.000000000000000E+20
  9
$PLIMMIN
 10
0.0
 20
0.0
  9
$PLIMMAX
 10
841.0
 20
594.0
  9
$UNITMODE
 70
     0
  9
$VISRETAIN
 70
     1
  9
$PLINEGEN
 70
     0
  9
$PSLTSCALE
 70
     0
  9
$TREEDEPTH
 70
  3020
  9
$PICKSTYLE
 70
     0
  9
$CMLSTYLE
  2
STANDARD
  9
$CMLJUST
 70
     0
  9
$CMLSCALE
 40
20.0
  9
$PROXYGRAPHICS
 70
     1
  9
$MEASUREMENT
 70
     1
  0
ENDSEC
  0
SECTION
  2
CLASSES
  0
CLASS
  1
ACDBDICTIONARYWDFLT
  2
AcDbDictionaryWithDefault
  3
AutoCAD 2000
 90
        0
280
     0
281
     0
  0
CLASS
  1
ACDBPLACEHOLDER
  2
AcDbPlaceHolder
  3
AutoCAD 2000
 90
        0
280
     0
281
     0
  0
CLASS
  1
LAYOUT
  2
AcDbLayout
  3
AutoCAD 2000
 90
        0
280
     0
281
     0
  0
CLASS
  1
AMGSETTINGSOBJ
  2
AmgSettingsObj
  3
"AcadM|Product Description: AutoCAD Mechanical 2000|Company: Autodesk"
 90
        0
280
     0
281
     0
  0
CLASS
  1
ACME_DOCUMENT
  2
AcMeDbDoc
  3
AcMeServices
 90
        0
280
     0
281
     0
  0
CLASS
  1
ACMESCOPE
  2
AcMeScope
  3
AcMeServices
 90
        0
280
     0
281
     0
  0
CLASS
  1
ACMECOMMANDHISTORY
  2
AcMeCommandHistory
  3
AcMeServices
 90
        0
280
     0
281
     0
  0
CLASS
  1
DICTIONARYVAR
  2
AcDbDictionaryVar
  3
AutoCAD 2000
 90
        0
280
     0
281
     0
  0
CLASS
  1
ACIMSYSVARMAN
  2
AcImSysVarManager
  3
AcMeServices
 90
        0
280
     0
281
     0
  0
CLASS
  1
ACIMREALSYSVAR
  2
AcImRealSysVar
  3
AcMeServices
 90
        0
280
     0
281
     0
  0
CLASS
  1
ACIMINTSYSVAR
  2
AcImIntSysVar
  3
AcMeServices
 90
        0
280
     0
281
     0
  0
CLASS
  1
ACMEDRAWINGMAN
  2
AcMeDrawingMan
  3
AcMeServices
 90
        0
280
     0
281
     0
  0
CLASS
  1
ACMEVIEW
  2
AcMeView
  3
AcMeServices
 90
        0
280
     0
281
     0
  0
CLASS
  1
ACDBENTITYCACHE
  2
AcMeEntityCache
  3
AcMeServices
 90
        0
280
     0
281
     0
  0
CLASS
  1
GSMANAGER
  2
AcMeGSManager
  3
AcMeServices
 90
        0
280
     0
281
     0
  0
CLASS
  1
AmdtInternalReactor
  2
AmdtInternalReactor
  3
AcMeServices
 90
        0
280
     0
281
     0
  0
CLASS
  1
ACMESTATEMGR
  2
AcMeStateMgr
  3
AcMeServices
 90
        0
280
     0
281
     0
  0
CLASS
  1
ACME_DATABASE
  2
AcMeDbDatabase
  3
AcMeServices
 90
        0
280
     0
281
     0
  0
CLASS
  1
ACRFINSADJUSTERMGR
  2
AcRfInsAdjusterMgr
  3
AcMeServices
 90
        0
280
     0
281
     0
  0
CLASS
  1
ACMDATADICTIONARY
  2
AcmDataDictionary
  3
"AcmSymBB|Product Description: AutoCAD Mechanical 2000|Company: Autodesk"
 90
        0
280
     0
281
     0
  0
CLASS
  1
ACMDATAENTRYBLOCK
  2
AcmDataEntryBlock
  3
"AcmSymBB|Product Description: AutoCAD Mechanical 2000|Company: Autodesk"
 90
        0
280
     0
281
     0
  0
CLASS
  1
AMGOBJPROPCFG
  2
AmgObjPropCfg
  3
"AmgLay|Product Description: AutoCAD Mechanical 2000|Company: Autodesk"
 90
        1
280
     0
281
     0
  0
CLASS
  1
ACAMGFILTERDAT
  2
AcAmgFilterDat
  3
"AcadM|Product Description: AutoCAD Mechanical 2000|Company: Autodesk"
 90
        0
280
     0
281
     0
  0
CLASS
  1
LAYER_INDEX
  2
AcDbLayerIndex
  3
AutoCAD 2000
 90
        0
280
     0
281
     0
  0
CLASS
  1
IDBUFFER
  2
AcDbIdBuffer
  3
AutoCAD 2000
 90
        0
280
     0
281
     0
  0
CLASS
  1
ACIMSTRSYSVAR
  2
AcImStrSysVar
  3
AcMeServices
 90
        0
280
     0
281
     0
  0
CLASS
  1
ACMSTANDARDJIS
  2
AcmStandardJIS
  3
"AcmSymBB|Product Description: AutoCAD Mechanical 2000|Company: Autodesk"
 90
        0
280
     0
281
     0
  0
CLASS
  1
ACMSURFSTANDARDJIS
  2
AcmSurfTextStdJIS
  3
"AcmSymBB|Product Description: AutoCAD Mechanical 2000|Company: Autodesk"
 90
        0
280
     0
281
     0
  0
CLASS
  1
ACMFCFSTANDARDJIS
  2
AcmFCFStdJIS
  3
"AcmSymBB|Product Description: AutoCAD Mechanical 2000|Company: Autodesk"
 90
        0
280
     0
281
     0
  0
CLASS
  1
ACMWELDSTANDARDJIS
  2
AcmWeldingStdJIS
  3
"AcmSymBB|Product Description: AutoCAD Mechanical 2000|Company: Autodesk"
 90
        0
280
     0
281
     0
  0
CLASS
  1
ACMIDSTANDARDJIS
  2
AcmIdStdJIS
  3
"AcmSymBB|Product Description: AutoCAD Mechanical 2000|Company: Autodesk"
 90
        0
280
     0
281
     0
  0
CLASS
  1
ACMDATUMSTANDARDJIS
  2
AcmDatumStdJIS
  3
"AcmSymBB|Product Description: AutoCAD Mechanical 2000|Company: Autodesk"
 90
        0
280
     0
281
     0
  0
CLASS
  1
ACMBOMSTANDARDJIS
  2
AcmBOMStdJIS
  3
"AcmSymBB|Product Description: AutoCAD Mechanical 2000|Company: Autodesk"
 90
        0
280
     0
281
     0
  0
CLASS
  1
ACMSTANDARDANSI
  2
AcmStandardANSI
  3
"AcmSymBB|Product Description: AutoCAD Mechanical 2000|Company: Autodesk"
 90
        0
280
     0
281
     0
  0
CLASS
  1
ACMSURFSTANDARDANSI
  2
AcmSurfTextStdANSI
  3
"AcmSymBB|Product Description: AutoCAD Mechanical 2000|Company: Autodesk"
 90
        0
280
     0
281
     0
  0
CLASS
  1
ACMFCFSTANDARDANSI
  2
AcmFCFStdANSI
  3
"AcmSymBB|Product Description: AutoCAD Mechanical 2000|Company: Autodesk"
 90
        0
280
     0
281
     0
  0
CLASS
  1
ACMWELDSTANDARDANSI
  2
AcmWeldingStdANSI
  3
"AcmSymBB|Product Description: AutoCAD Mechanical 2000|Company: Autodesk"
 90
        0
280
     0
281
     0
  0
CLASS
  1
ACMIDSTANDARDANSI
  2
AcmIdStdANSI
  3
"AcmSymBB|Product Description: AutoCAD Mechanical 2000|Company: Autodesk"
 90
        0
280
     0
281
     0
  0
CLASS
  1
ACMDATUMSTANDARDANSI
  2
AcmDatumStdANSI
  3
"AcmSymBB|Product Description: AutoCAD Mechanical 2000|Company: Autodesk"
 90
        0
280
     0
281
     0
  0
CLASS
  1
ACMBOMSTANDARDANSI
  2
AcmBOMStdANSI
  3
"AcmSymBB|Product Description: AutoCAD Mechanical 2000|Company: Autodesk"
 90
        0
280
     0
281
     0
  0
CLASS
  1
ACMSTANDARDBSI
  2
AcmStandardBSI
  3
"AcmSymBB|Product Description: AutoCAD Mechanical 2000|Company: Autodesk"
 90
        0
280
     0
281
     0
  0
CLASS
  1
ACMSURFSTANDARDBSI
  2
AcmSurfTextStdBSI
  3
"AcmSymBB|Product Description: AutoCAD Mechanical 2000|Company: Autodesk"
 90
        0
280
     0
281
     0
  0
CLASS
  1
ACMFCFSTANDARDBSI
  2
AcmFCFStdBSI
  3
"AcmSymBB|Product Description: AutoCAD Mechanical 2000|Company: Autodesk"
 90
        0
280
     0
281
     0
  0
CLASS
  1
ACMWELDSTANDARDBSI
  2
AcmWeldingStdBSI
  3
"AcmSymBB|Product Description: AutoCAD Mechanical 2000|Company: Autodesk"
 90
        0
280
     0
281
     0
  0
CLASS
  1
ACMIDSTANDARDBSI
  2
AcmIdStdBSI
  3
"AcmSymBB|Product Description: AutoCAD Mechanical 2000|Company: Autodesk"
 90
        0
280
     0
281
     0
  0
CLASS
  1
ACMDATUMSTANDARDBSI
  2
AcmDatumStdBSI
  3
"AcmSymBB|Product Description: AutoCAD Mechanical 2000|Company: Autodesk"
 90
        0
280
     0
281
     0
  0
CLASS
  1
ACMBOMSTANDARDBSI
  2
AcmBOMStdBSI
  3
"AcmSymBB|Product Description: AutoCAD Mechanical 2000|Company: Autodesk"
 90
        0
280
     0
281
     0
  0
CLASS
  1
LONG_TRANSACTION
  2
AcDbLongTransaction
  3
AutoCAD 2000
 90
        0
280
     0
281
     0
  0
CLASS
  1
LWPOLYLINE
  2
AcDbPolyline
  3
AutoCAD 2000
 90
        0
280
     0
281
     1
  0
CLASS
  1
HATCH
  2
AcDbHatch
  3
AutoCAD 2000
 90
        0
280
     0
281
     1
  0
CLASS
  1
XRECORD
  2
AcDbXrecord
  3
AutoCAD 2000
 90
        0
280
     0
281
     0
  0
ENDSEC
  0
SECTION
  2
TABLES
  0
TABLE
  2
VPORT
  5
8
330
0
100
AcDbSymbolTable
 70
     3
  0
VPORT
  5
28C4
330
8
100
AcDbSymbolTableRecord
100
AcDbViewportTableRecord
  2
*ACTIVE
 70
     0
 10
0.0
 20
0.0
 11
1.0
 21
1.0
 12
-45.07835526640443
 22
-24.01791741527241
 13
0.0
 23
0.0
 14
2.5
 24
2.5
 15
10.0
 25
10.0
 16
0.0
 26
0.0
 36
1.0
 17
0.0
 27
0.0
 37
0.0
 40
85.83444362297941
 41
1.56570841889117
 42
50.0
 43
0.0
 44
0.0
 50
0.0
 51
0.0
 71
     0
 72
   100
 73
     1
 74
     3
 75
     0
 76
     0
 77
     0
 78
     0
  0
ENDTAB
  0
TABLE
  2
LTYPE
  5
5
330
0
100
AcDbSymbolTable
 70
    10
  0
LTYPE
  5
14
330
5
100
AcDbSymbolTableRecord
100
AcDbLinetypeTableRecord
  2
BYBLOCK
 70
     0
  3

 72
    65
 73
     0
 40
0.0
  0
LTYPE
  5
15
330
5
100
AcDbSymbolTableRecord
100
AcDbLinetypeTableRecord
  2
BYLAYER
 70
     0
  3

 72
    65
 73
     0
 40
0.0
  0
LTYPE
  5
16
330
5
100
AcDbSymbolTableRecord
100
AcDbLinetypeTableRecord
  2
CONTINUOUS
 70
     0
  3
Solid line
 72
    65
 73
     0
 40
0.0
  0
LTYPE
  5
4B
330
5
100
AcDbSymbolTableRecord
100
AcDbLinetypeTableRecord
  2
AM_ISO02W050
 70
     0
  3
__ __ __ __ __ __ __ __ __ __ __ __ __ __ __
 72
    65
 73
     2
 40
7.5
 49
6.0
 74
     0
 49
-1.5
 74
     0
  0
LTYPE
  5
4C
330
5
100
AcDbSymbolTableRecord
100
AcDbLinetypeTableRecord
  2
AM_ISO08W050
 70
     0
  3
____ . ____ . ____ . ____ . ____ . ____ . ____
 72
    65
 73
     4
 40
18.0
 49
12.0
 74
     0
 49
-1.5
 74
     0
 49
3.0
 74
     0
 49
-1.5
 74
     0
  0
LTYPE
  5
4D
330
5
100
AcDbSymbolTableRecord
100
AcDbLinetypeTableRecord
  2
AM_ISO09W050
 70
     0
  3
_____ . . _____ . . _____ . . ____ .. ____
 72
    65
 73
     6
 40
22.5
 49
12.0
 74
     0
 49
-1.5
 74
     0
 49
3.0
 74
     0
 49
-1.5
 74
     0
 49
3.0
 74
     0
 49
-1.5
 74
     0
  0
LTYPE
  5
4E
330
5
100
AcDbSymbolTableRecord
100
AcDbLinetypeTableRecord
  2
AMCONSTR
 70
     0
  3
_______________________
 72
    65
 73
     2
 40
9999.0
 49
9999.0
 74
     0
 49
0.0
 74
     0
  0
LTYPE
  5
4F
330
5
100
AcDbSymbolTableRecord
100
AcDbLinetypeTableRecord
  2
AM_ISO02W050X2
 70
     0
  3
 _ _ _ _ _ _ _ _ _ _ _ _
 72
    65
 73
     2
 40
3.75
 49
3.0
 74
     0
 49
-0.75
 74
     0
  0
LTYPE
  5
50
330
5
100
AcDbSymbolTableRecord
100
AcDbLinetypeTableRecord
  2
AM_ISO08W050X2
 70
     0
  3
__ . __ . __ . __ . __ . __
 72
    65
 73
     4
 40
9.0
 49
6.0
 74
     0
 49
-0.75
 74
     0
 49
1.5
 74
     0
 49
-0.75
 74
     0
  0
LTYPE
  5
53
330
5
100
AcDbSymbolTableRecord
100
AcDbLinetypeTableRecord
  2
AMZIGZAG
 70
     0
  3
/\/-/\/-/\/-/\/-/\/-/\/
 72
    65
 73
     2
 40
11.00009999999999
 49
0.0001
 74
     4
 75
   135
340
52
 46
0.04
 50
0.0
 44
0.0
 45
0.0
 49
-11.0
 74
     0
  0
LTYPE
  5
166
330
5
100
AcDbSymbolTableRecord
100
AcDbLinetypeTableRecord
  2
ACJISTGL
 70
     0
  3
_ _ _ _ _
 72
    65
 73
     2
 40
3.0
 49
2.0
 74
     0
 49
-1.0
 74
     0
  0
LTYPE
  5
26A
330
5
100
AcDbSymbolTableRecord
100
AcDbLinetypeTableRecord
  2
ACJISTGB
 70
     0
  3
__ . . __ . .
 72
    65
 73
     6
 40
9.0
 49
4.0
 74
     0
 49
-1.0
 74
     0
 49
1.0
 74
     0
 49
-1.0
 74
     0
 49
1.0
 74
     0
 49
-1.0
 74
     0
  0
ENDTAB
  0
TABLE
  2
LAYER
  5
2
330
0
100
AcDbSymbolTable
 70
     7
  0
LAYER
  5
10
330
2
100
AcDbSymbolTableRecord
100
AcDbLayerTableRecord
  2
0
 70
     0
 62
     7
  6
CONTINUOUS
  0
LAYER
  5
3F9
330
2
100
AcDbSymbolTableRecord
100
AcDbLayerTableRecord
  2
AM_0
 70
     0
 62
     7
  6
CONTINUOUS
  0
LAYER
  5
BD4
330
2
100
AcDbSymbolTableRecord
100
AcDbLayerTableRecord
  2
AM_11
 70
     0
 62
     3
  6
AM_ISO09W050
  0
LAYER
  5
BD5
330
2
100
AcDbSymbolTableRecord
100
AcDbLayerTableRecord
  2
AM_7
 70
     0
 62
     4
  6
AM_ISO08W050
  0
LAYER
  5
BD6
330
2
100
AcDbSymbolTableRecord
100
AcDbLayerTableRecord
  2
AM_5
 70
     0
 62
     3
  6
CONTINUOUS
  0
LAYER
  5
BD7
330
2
100
AcDbSymbolTableRecord
100
AcDbLayerTableRecord
  2
DEFPOINTS
 70
     0
 62
     7
  6
CONTINUOUS
  0
LAYER
  5
E59
330
2
100
AcDbSymbolTableRecord
100
AcDbLayerTableRecord
  2
AM_6
 70
     0
 62
     2
  6
CONTINUOUS
  0
ENDTAB
  0
TABLE
  2
STYLE
  5
3
330
0
100
AcDbSymbolTable
 70
     5
  0
STYLE
  5
11
330
3
100
AcDbSymbolTableRecord
100
AcDbTextStyleTableRecord
  2
STANDARD
 70
     0
 40
0.0
 41
1.0
 50
0.0
 71
     0
 42
2.5
  3
simplex.shx
  4
EXTFONT.SHX
  0
STYLE
  5
52
330
3
100
AcDbSymbolTableRecord
100
AcDbTextStyleTableRecord
  2

 70
     1
 40
0.0
 41
1.0
 50
0.0
 71
     0
 42
2.5
  3
ltypeshp.shx
  4

  0
STYLE
  5
6B
330
3
100
AcDbSymbolTableRecord
100
AcDbTextStyleTableRecord
  2
ASAMI
 70
     0
 40
0.0
 41
1.0
 50
0.0
 71
     0
 42
2.5
  3
simplex.shx
  4
EXTFONT.SHX
  0
STYLE
  5
262
330
3
100
AcDbSymbolTableRecord
100
AcDbTextStyleTableRecord
  2
ACJISTS
 70
     0
 40
1.0
 41
1.0
 50
0.0
 71
     0
 42
2.5
  3
simplex.shx
  4
bigfont.shx
  0
STYLE
  5
269
330
3
100
AcDbSymbolTableRecord
100
AcDbTextStyleTableRecord
  2
ACJISGDT
 70
     0
 40
0.0
 41
1.0
 50
0.0
 71
     0
 42
2.5
  3
amgdtans.shx
  4

  0
ENDTAB
  0
TABLE
  2
VIEW
  5
6
330
0
100
AcDbSymbolTable
 70
     0
  0
ENDTAB
  0
TABLE
  2
UCS
  5
7
330
0
100
AcDbSymbolTable
 70
     0
  0
ENDTAB
  0
TABLE
  2
APPID
  5
9
330
0
100
AcDbSymbolTable
 70
    12
  0
APPID
  5
12
330
9
100
AcDbSymbolTableRecord
100
AcDbRegAppTableRecord
  2
ACAD
 70
     0
  0
APPID
  5
30
330
9
100
AcDbSymbolTableRecord
100
AcDbRegAppTableRecord
  2
MCAD_NO_VIS
 70
     0
  0
APPID
  5
31
330
9
100
AcDbSymbolTableRecord
100
AcDbRegAppTableRecord
  2
ACAD_TEMP_GRAPHIC
 70
     0
  0
APPID
  5
2C2
330
9
100
AcDbSymbolTableRecord
100
AcDbRegAppTableRecord
  2
GENIUS_GENDTOL_13
 70
     0
  0
APPID
  5
339
330
9
100
AcDbSymbolTableRecord
100
AcDbRegAppTableRecord
  2
GENIUS_GENODEF_13
 70
     0
  0
APPID
  5
33A
330
9
100
AcDbSymbolTableRecord
100
AcDbRegAppTableRecord
  2
GENIUS_GENOBJ-N-RSBK_13
 70
     0
  0
APPID
  5
33B
330
9
100
AcDbSymbolTableRecord
100
AcDbRegAppTableRecord
  2
GENIUS_GENOBJ-N-LIB_13
 70
     0
  0
APPID
  5
33C
330
9
100
AcDbSymbolTableRecord
100
AcDbRegAppTableRecord
  2
GENIUS_GENSCALE_13
 70
     0
  0
APPID
  5
378
330
9
100
AcDbSymbolTableRecord
100
AcDbRegAppTableRecord
  2
GENIUS_GENDIMSH_14
 70
     0
  0
APPID
  5
BD8
330
9
100
AcDbSymbolTableRecord
100
AcDbRegAppTableRecord
  2
GENIUS_GENOBJ-N-CEN_13
 70
     0
  0
APPID
  5
BD9
330
9
100
AcDbSymbolTableRecord
100
AcDbRegAppTableRecord
  2
GENIUS_GENFIL_13
 70
     0
  0
APPID
  5
BDA
330
9
100
AcDbSymbolTableRecord
100
AcDbRegAppTableRecord
  2
GENIUS_GENOBJ-N-CHA_13
 70
     0
  0
ENDTAB
  0
TABLE
  2
DIMSTYLE
  5
A
330
0
100
AcDbSymbolTable
 70
     8
  0
DIMSTYLE
105
58
102
{ACAD_REACTORS
330
2307
330
2393
330
2423
330
24B8
102
}
330
A
100
AcDbSymbolTableRecord
100
AcDbDimStyleTableRecord
  2
AM_JIS
 70
     0
  3

  4
"
  5
OPEN30
  6

  7

 40
1.0
 41
2.5
 42
1.0
 43
12.0
 44
1.0
 45
0.0
 46
0.0
 47
0.1
 48
0.1
140
3.2
141
0.0
142
0.0
143
0.0393701
144
1.0
145
0.0
146
0.71
147
1.5
 71
     0
 72
     0
 73
     0
 74
     0
 75
     0
 76
     0
 77
     3
 78
     8
170
     0
171
     2
172
     1
173
     0
174
     0
175
     0
176
   256
177
   256
178
     2
270
     2
271
     3
272
     3
273
     2
274
     2
340
6B
275
     0
280
     0
281
     0
282
     0
283
     0
284
     0
285
     0
286
     0
287
     3
288
     0
  0
DIMSTYLE
105
5F
330
A
100
AcDbSymbolTableRecord
100
AcDbDimStyleTableRecord
  2
AM_JIS$3
 70
     0
  3

  4
"
  5
OPEN30
  6

  7

 40
1.0
 41
2.5
 42
1.0
 43
10.0
 44
1.0
 45
0.0
 46
0.0
 47
0.1
 48
0.1
140
3.2
141
0.0
142
0.0
143
0.0393701
144
1.0
145
0.0
146
0.71
147
1.5
 71
     0
 72
     0
 73
     0
 74
     1
 75
     0
 76
     0
 77
     3
 78
     8
170
     0
171
     2
172
     0
173
     0
174
     0
175
     0
176
   256
177
   256
178
     2
270
     2
271
     2
272
     3
273
     2
274
     2
340
6B
275
     0
280
     0
281
     0
282
     0
283
     0
284
     0
285
     0
286
     0
287
     0
288
     1
  0
DIMSTYLE
105
60
330
A
100
AcDbSymbolTableRecord
100
AcDbDimStyleTableRecord
  2
AM_JIS$4
 70
     0
  3

  4
"
  5
OPEN30
  6

  7

 40
1.0
 41
2.5
 42
1.0
 43
10.0
 44
1.0
 45
0.0
 46
0.0
 47
0.1
 48
0.1
140
3.2
141
0.0
142
0.0
143
0.0393701
144
1.0
145
0.0
146
0.71
147
1.5
 71
     0
 72
     0
 73
     0
 74
     1
 75
     0
 76
     0
 77
     3
 78
     8
170
     0
171
     2
172
     0
173
     0
174
     0
175
     0
176
   256
177
   256
178
     2
270
     2
271
     2
272
     3
273
     2
274
     2
340
6B
275
     0
280
     0
281
     0
282
     0
283
     0
284
     0
285
     0
286
     0
287
     0
288
     1
  0
DIMSTYLE
105
61
330
A
100
AcDbSymbolTableRecord
100
AcDbDimStyleTableRecord
  2
AM_JIS$6
 70
     0
  3

  4
"
  5
OPEN30
  6

  7

 40
1.0
 41
2.5
 42
1.0
 43
10.0
 44
1.0
 45
0.0
 46
0.0
 47
0.1
 48
0.1
140
3.2
141
0.0
142
0.0
143
0.0393701
144
1.0
145
0.0
146
0.71
147
1.5
 71
     0
 72
     0
 73
     0
 74
     0
 75
     0
 76
     0
 77
     0
 78
     8
170
     0
171
     2
172
     1
173
     0
174
     0
175
     0
176
   256
177
   256
178
     2
270
     2
271
     2
272
     2
273
     2
274
     2
340
6B
275
     0
280
     0
281
     0
282
     0
283
     0
284
     0
285
     0
286
     0
287
     3
288
     0
  0
DIMSTYLE
105
62
330
A
100
AcDbSymbolTableRecord
100
AcDbDimStyleTableRecord
  2
AM_JIS$7
 70
     0
  3

  4
"
  5
OPEN30
  6

  7

 40
1.0
 41
2.5
 42
1.0
 43
10.0
 44
1.0
 45
0.0
 46
0.0
 47
0.1
 48
0.1
140
3.2
141
0.0
142
0.0
143
0.0393701
144
1.0
145
0.0
146
0.71
147
1.5
 71
     0
 72
     0
 73
     0
 74
     0
 75
     0
 76
     0
 77
     3
 78
     8
170
     0
171
     2
172
     1
173
     0
174
     0
175
     0
176
   256
177
   256
178
     2
270
     2
271
     2
272
     3
273
     2
274
     2
340
6B
275
     0
280
     0
281
     0
282
     0
283
     0
284
     0
285
     0
286
     0
287
     3
288
     0
  0
DIMSTYLE
105
63
330
A
100
AcDbSymbolTableRecord
100
AcDbDimStyleTableRecord
  2
AM_JIS$SF
 70
     0
  3

  4
"
  5
OPEN30
  6

  7

 40
1.0
 41
2.5
 42
1.0
 43
10.0
 44
1.0
 45
0.0
 46
0.0
 47
0.1
 48
0.1
140
3.2
141
0.0
142
0.0
143
0.0393701
144
1.0
145
0.0
146
0.71
147
1.5
 71
     0
 72
     0
 73
     0
 74
     0
 75
     1
 76
     1
 77
     3
 78
     8
170
     0
171
     2
172
     1
173
     0
174
     0
175
     0
176
   256
177
   256
178
     2
270
     2
271
     2
272
     2
273
     2
274
     2
340
6B
275
     0
280
     0
281
     0
282
     0
283
     0
284
     0
285
     0
286
     0
287
     3
288
     0
  0
DIMSTYLE
105
68
330
A
100
AcDbSymbolTableRecord
100
AcDbDimStyleTableRecord
  2
AM_JIS$SH
 70
     0
  3

  4
"
  5

  6
GENAXEH
  7
OPEN30
 40
1.0
 41
2.5
 42
1.0
 43
10.0
 44
1.0
 45
0.0
 46
0.0
 47
0.1
 48
0.1
140
3.2
141
0.0
142
0.0
143
0.0393701
144
2.0
145
0.0
146
0.71
147
1.5
 71
     0
 72
     0
 73
     0
 74
     0
 75
     1
 76
     1
 77
     3
 78
     8
170
     0
171
     2
172
     1
173
     1
174
     0
175
     0
176
   256
177
   256
178
     2
270
     2
271
     2
272
     2
273
     2
274
     2
340
6B
275
     0
280
     0
281
     0
282
     0
283
     0
284
     0
285
     0
286
     0
287
     3
288
     0
  0
DIMSTYLE
105
B34
330
A
100
AcDbSymbolTableRecord
100
AcDbDimStyleTableRecord
  2
AM_JIS$2
 70
     0
  3

  4
"
  5
OPEN30
  6

  7

 40
1.0
 41
2.5
 42
1.0
 43
12.0
 44
1.0
 45
0.0
 46
0.0
 47
0.1
 48
0.1
140
3.2
141
0.0
142
0.0
143
0.0393701
144
1.0
145
0.0
146
0.71
147
1.5
 71
     0
 72
     0
 73
     0
 74
     0
 75
     0
 76
     0
 77
     3
 78
     8
170
     0
171
     2
172
     1
173
     0
174
     0
175
     0
176
   256
177
   256
178
     2
270
     2
271
     3
272
     3
273
     2
274
     2
340
6B
275
     0
280
     0
281
     0
282
     0
283
     0
284
     0
285
     0
286
     0
287
     3
288
     0
  0
ENDTAB
  0
TABLE
  2
BLOCK_RECORD
  5
1
330
0
100
AcDbSymbolTable
 70
     9
  0
BLOCK_RECORD
  5
1F
102
{ACAD_XDICTIONARY
360
74
102
}
330
1
100
AcDbSymbolTableRecord
100
AcDbBlockTableRecord
  2
*MODEL_SPACE
  0
BLOCK_RECORD
  5
101
102
{ACAD_XDICTIONARY
360
28ED
102
}
330
1
100
AcDbSymbolTableRecord
100
AcDbBlockTableRecord
  2
*PAPER_SPACE
  0
BLOCK_RECORD
  5
59
330
1
100
AcDbSymbolTableRecord
100
AcDbBlockTableRecord
  2
_OPEN30
  0
BLOCK_RECORD
  5
64
330
1
100
AcDbSymbolTableRecord
100
AcDbBlockTableRecord
  2
GENAXEH
  0
BLOCK_RECORD
  5
2308
330
1
100
AcDbSymbolTableRecord
100
AcDbBlockTableRecord
  2
*D5
  0
BLOCK_RECORD
  5
2394
330
1
100
AcDbSymbolTableRecord
100
AcDbBlockTableRecord
  2
*D6
  0
BLOCK_RECORD
  5
2424
330
1
100
AcDbSymbolTableRecord
100
AcDbBlockTableRecord
  2
*D7
  0
BLOCK_RECORD
  5
24B9
330
1
100
AcDbSymbolTableRecord
100
AcDbBlockTableRecord
  2
*D8
  0
ENDTAB
  0
ENDSEC
  0
SECTION
  2
BLOCKS
  0
BLOCK
  5
20
330
1F
100
AcDbEntity
  8
0
100
AcDbBlockBegin
  2
*MODEL_SPACE
 70
     0
 10
0.0
 20
0.0
 30
0.0
  3
*MODEL_SPACE
  1

  0
ENDBLK
  5
21
330
1F
100
AcDbEntity
  8
0
100
AcDbBlockEnd
  0
BLOCK
  5
103
330
101
100
AcDbEntity
 67
     1
  8
0
100
AcDbBlockBegin
  2
*PAPER_SPACE
 70
     0
 10
0.0
 20
0.0
 30
0.0
  3
*PAPER_SPACE
  1

  0
ENDBLK
  5
104
330
101
100
AcDbEntity
 67
     1
  8
0
100
AcDbBlockEnd
  0
BLOCK
  5
5D
330
59
100
AcDbEntity
  8
0
100
AcDbBlockBegin
  2
_OPEN30
 70
     0
 10
0.0
 20
0.0
 30
0.0
  3
_OPEN30
  1

  0
LINE
  5
5A
330
59
100
AcDbEntity
  8
0
 62
     0
100
AcDbLine
 10
-1.0
 20
0.26794919
 30
0.0
 11
0.0
 21
0.0
 31
0.0
  0
LINE
  5
5B
330
59
100
AcDbEntity
  8
0
 62
     0
100
AcDbLine
 10
0.0
 20
0.0
 30
0.0
 11
-1.0
 21
-0.26794919
 31
0.0
  0
LINE
  5
5C
330
59
100
AcDbEntity
  8
0
 62
     0
100
AcDbLine
 10
0.0
 20
0.0
 30
0.0
 11
-1.0
 21
0.0
 31
0.0
  0
ENDBLK
  5
5E
330
59
100
AcDbEntity
  8
0
100
AcDbBlockEnd
  0
BLOCK
  5
66
330
64
100
AcDbEntity
  8
0
100
AcDbBlockBegin
  2
GENAXEH
 70
     0
 10
0.0
 20
0.0
 30
0.0
  3
GENAXEH
  1

  0
LINE
  5
65
330
64
100
AcDbEntity
  8
0
100
AcDbLine
 10
-1.0
 20
0.0
 30
0.0
 11
1.0
 21
0.0
 31
0.0
  0
ENDBLK
  5
67
330
64
100
AcDbEntity
  8
0
100
AcDbBlockEnd
  0
BLOCK
  5
2312
330
2308
100
AcDbEntity
  8
0
100
AcDbBlockBegin
  2
*D5
 70
     1
 10
0.0
 20
0.0
 30
0.0
  3
*D5
  1

  0
LINE
  5
257E
330
2308
100
AcDbEntity
  8
AM_5
100
AcDbLine
 10
-90.00000000000026
 20
7.999999999999996
 30
0.0
 11
-108.2932451532983
 21
8.000000000000001
 31
0.0
  0
LINE
  5
257F
330
2308
100
AcDbEntity
  8
AM_5
100
AcDbLine
 10
-90.00000000000026
 20
-8.000000000000021
 30
0.0
 11
-108.2932451532983
 21
-8.000000000000014
 31
0.0
  0
LINE
  5
2580
330
2308
100
AcDbEntity
  8
AM_5
100
AcDbLine
 10
-107.2932451532983
 20
5.5
 30
0.0
 11
-107.2932451532983
 21
-5.500000000000015
 31
0.0
  0
INSERT
  5
2581
330
2308
100
AcDbEntity
  8
AM_5
100
AcDbBlockReference
  2
_OPEN30
 10
-107.2932451532983
 20
8.0
 30
0.0
 41
2.5
 42
2.5
 43
2.5
 50
90.0
  0
INSERT
  5
2582
330
2308
100
AcDbEntity
  8
AM_5
100
AcDbBlockReference
  2
_OPEN30
 10
-107.2932451532983
 20
-8.000000000000015
 30
0.0
 41
2.5
 42
2.5
 43
2.5
 50
270.0
  0
MTEXT
  5
2583
330
2308
100
AcDbEntity
  8
AM_5
 62
     2
100
AcDbMText
 10
-110.3932451532983
 20
-0.0000000000000241
 30
0.0
 40
3.2
 41
0.0
 71
     5
 72
     1
  1
%%c16
  7
ASAMI
 11
0.0000000000000001
 21
1.0
 31
0.0
1001
ACAD
1000
MTEXTBEGIN
1070
    73
1070
     1
1070
    44
1040
1.0
1070
    74
1070
     0
1000
MTEXTEND
  0
POINT
  5
2584
330
2308
100
AcDbEntity
  8
DEFPOINTS
 62
     0
100
AcDbPoint
 10
-89.00000000000027
 20
7.999999999999995
 30
0.0
  0
POINT
  5
2585
330
2308
100
AcDbEntity
  8
DEFPOINTS
 62
     0
100
AcDbPoint
 10
-89.00000000000025
 20
-8.000000000000021
 30
0.0
  0
POINT
  5
2586
330
2308
100
AcDbEntity
  8
DEFPOINTS
 62
     0
100
AcDbPoint
 10
-107.2932451532983
 20
-8.000000000000015
 30
0.0
  0
ENDBLK
  5
2313
330
2308
100
AcDbEntity
  8
0
100
AcDbBlockEnd
  0
BLOCK
  5
239E
330
2394
100
AcDbEntity
  8
0
100
AcDbBlockBegin
  2
*D6
 70
     1
 10
0.0
 20
0.0
 30
0.0
  3
*D6
  1

  0
LINE
  5
26E3
330
2394
100
AcDbEntity
  8
AM_5
100
AcDbLine
 10
-90.00000000000026
 20
-8.000000000000007
 30
0.0
 11
-90.00000000000026
 21
-35.00000099999996
 31
0.0
  0
LINE
  5
26E4
330
2394
100
AcDbEntity
  8
AM_5
100
AcDbLine
 10
-0.0000000000002454
 20
-8.000000000000003
 30
0.0
 11
-0.0000000000002471
 21
-35.00000099999996
 31
0.0
  0
LINE
  5
26E5
330
2394
100
AcDbEntity
  8
AM_5
100
AcDbLine
 10
-87.50000000000026
 20
-34.00000099999996
 30
0.0
 11
-2.500000000000246
 21
-34.00000099999996
 31
0.0
  0
INSERT
  5
26E6
330
2394
100
AcDbEntity
  8
AM_5
100
AcDbBlockReference
  2
_OPEN30
 10
-90.00000000000026
 20
-34.00000099999996
 30
0.0
 41
2.5
 42
2.5
 43
2.5
 50
180.0
  0
INSERT
  5
26E7
330
2394
100
AcDbEntity
  8
AM_5
100
AcDbBlockReference
  2
_OPEN30
 10
-0.000000000000247
 20
-34.00000099999996
 30
0.0
 41
2.5
 42
2.5
 43
2.5
  0
MTEXT
  5
26E8
330
2394
100
AcDbEntity
  8
AM_5
 62
     2
100
AcDbMText
 10
-45.00000000000025
 20
-30.90000099999996
 30
0.0
 40
3.2
 41
0.0
 71
     5
 72
     1
  1
90
  7
ASAMI
1001
ACAD
1000
MTEXTBEGIN
1070
    73
1070
     1
1070
    44
1040
1.0
1070
    74
1070
     0
1000
MTEXTEND
  0
POINT
  5
26E9
330
2394
100
AcDbEntity
  8
DEFPOINTS
 62
     0
100
AcDbPoint
 10
-90.00000000000026
 20
-7.000000000000007
 30
0.0
  0
POINT
  5
26EA
330
2394
100
AcDbEntity
  8
DEFPOINTS
 62
     0
100
AcDbPoint
 10
-0.0000000000002454
 20
-7.000000000000003
 30
0.0
  0
POINT
  5
26EB
330
2394
100
AcDbEntity
  8
DEFPOINTS
 62
     0
100
AcDbPoint
 10
-0.000000000000247
 20
-34.00000099999996
 30
0.0
  0
ENDBLK
  5
239F
330
2394
100
AcDbEntity
  8
0
100
AcDbBlockEnd
  0
BLOCK
  5
242E
330
2424
100
AcDbEntity
  8
0
100
AcDbBlockBegin
  2
*D7
 70
     1
 10
0.0
 20
0.0
 30
0.0
  3
*D7
  1

  0
LINE
  5
26EC
330
2424
100
AcDbEntity
  8
AM_5
100
AcDbLine
 10
-32.00000000000025
 20
-8.000000000000035
 30
0.0
 11
-32.00000000000025
 21
-23.00000099999988
 31
0.0
  0
LINE
  5
26ED
330
2424
100
AcDbEntity
  8
AM_5
100
AcDbLine
 10
-0.0000000000002454
 20
-8.000000000000003
 30
0.0
 11
-0.0000000000002464
 21
-23.00000099999988
 31
0.0
  0
LINE
  5
26EE
330
2424
100
AcDbEntity
  8
AM_5
100
AcDbLine
 10
-29.50000000000025
 20
-22.00000099999988
 30
0.0
 11
-2.500000000000246
 21
-22.00000099999988
 31
0.0
  0
INSERT
  5
26EF
330
2424
100
AcDbEntity
  8
AM_5
100
AcDbBlockReference
  2
_OPEN30
 10
-32.00000000000025
 20
-22.00000099999988
 30
0.0
 41
2.5
 42
2.5
 43
2.5
 50
180.0
  0
INSERT
  5
26F0
330
2424
100
AcDbEntity
  8
AM_5
100
AcDbBlockReference
  2
_OPEN30
 10
-0.0000000000002463
 20
-22.00000099999988
 30
0.0
 41
2.5
 42
2.5
 43
2.5
  0
MTEXT
  5
26F1
330
2424
100
AcDbEntity
  8
AM_5
 62
     2
100
AcDbMText
 10
-16.00000000000025
 20
-18.90000099999987
 30
0.0
 40
3.2
 41
0.0
 71
     5
 72
     1
  1
32
  7
ASAMI
1001
ACAD
1000
MTEXTBEGIN
1070
    73
1070
     1
1070
    44
1040
1.0
1070
    74
1070
     0
1000
MTEXTEND
  0
POINT
  5
26F2
330
2424
100
AcDbEntity
  8
DEFPOINTS
 62
     0
100
AcDbPoint
 10
-32.00000000000025
 20
-7.000000000000035
 30
0.0
  0
POINT
  5
26F3
330
2424
100
AcDbEntity
  8
DEFPOINTS
 62
     0
100
AcDbPoint
 10
-0.0000000000002454
 20
-7.000000000000003
 30
0.0
  0
POINT
  5
26F4
330
2424
100
AcDbEntity
  8
DEFPOINTS
 62
     0
100
AcDbPoint
 10
-0.0000000000002463
 20
-22.00000099999988
 30
0.0
  0
ENDBLK
  5
242F
330
2424
100
AcDbEntity
  8
0
100
AcDbBlockEnd
  0
BLOCK
  5
24C3
330
24B9
100
AcDbEntity
  8
0
100
AcDbBlockBegin
  2
*D8
 70
     1
 10
0.0
 20
0.0
 30
0.0
  3
*D8
  1

  0
LINE
  5
270A
330
24B9
100
AcDbEntity
  8
AM_5
100
AcDbLine
 10
0.9999999999985853
 20
6.999999999999996
 30
0.0
 11
21.83665304628215
 21
6.99999999999999
 31
0.0
  0
LINE
  5
270B
330
24B9
100
AcDbEntity
  8
AM_5
100
AcDbLine
 10
0.9999999999997546
 20
-7.000000000000003
 30
0.0
 11
21.83665304628215
 21
-7.000000000000009
 31
0.0
  0
LINE
  5
270C
330
24B9
100
AcDbEntity
  8
AM_5
100
AcDbLine
 10
20.83665304628214
 20
4.499999999999991
 30
0.0
 11
20.83665304628214
 21
-4.500000000000008
 31
0.0
  0
INSERT
  5
270D
330
24B9
100
AcDbEntity
  8
AM_5
100
AcDbBlockReference
  2
_OPEN30
 10
20.83665304628214
 20
6.999999999999991
 30
0.0
 41
2.5
 42
2.5
 43
2.5
 50
90.0
  0
INSERT
  5
270E
330
24B9
100
AcDbEntity
  8
AM_5
100
AcDbBlockReference
  2
_OPEN30
 10
20.83665304628214
 20
-7.000000000000008
 30
0.0
 41
2.5
 42
2.5
 43
2.5
 50
270.0
  0
MTEXT
  5
270F
330
24B9
100
AcDbEntity
  8
AM_5
 62
     2
100
AcDbMText
 10
17.73665304628214
 20
-0.0000000000000053
 30
0.0
 40
3.2
 41
0.0
 71
     5
 72
     1
  1
%%c14
  7
ASAMI
 11
0.0000000000000001
 21
1.0
 31
0.0
1001
ACAD
1000
MTEXTBEGIN
1070
    73
1070
     1
1070
    44
1040
1.0
1070
    74
1070
     0
1000
MTEXTEND
  0
POINT
  5
2710
330
24B9
100
AcDbEntity
  8
DEFPOINTS
 62
     0
100
AcDbPoint
 10
-0.0000000000014147
 20
6.999999999999996
 30
0.0
  0
POINT
  5
2711
330
24B9
100
AcDbEntity
  8
DEFPOINTS
 62
     0
100
AcDbPoint
 10
-0.0000000000002454
 20
-7.000000000000003
 30
0.0
  0
POINT
  5
2712
330
24B9
100
AcDbEntity
  8
DEFPOINTS
 62
     0
100
AcDbPoint
 10
20.83665304628214
 20
-7.000000000000008
 30
0.0
  0
ENDBLK
  5
24C4
330
24B9
100
AcDbEntity
  8
0
100
AcDbBlockEnd
  0
ENDSEC
  0
SECTION
  2
ENTITIES
  0
TEXT
  5
E5A
330
1F
100
AcDbEntity
  8
AM_6
100
AcDbText
 10
-60.47619047619071
 20
-56.50000099999996
 30
0.0
 40
5.0
  1
JSM4140
 72
     4
 11
-45.00000000000023
 21
-54.00000099999996
 31
0.0
100
AcDbText
  0
LINE
  5
20AA
330
1F
100
AcDbEntity
  8
AM_7
  6
AM_ISO08W050X2
100
AcDbLine
 10
6.836652046282154
 20
0.0000000000000071
 30
0.0
 11
-93.29324415329843
 21
-0.0000000000000711
 31
0.0
1001
GENIUS_GENODEF_13
1002
{
1000
HIER
1070
     0
1002
}
1002
{
1000
MANEDIT
1070
     0
1002
}
1002
{
1000
NOSEL
1070
     0
1002
}
1002
{
1000
BEHIND
1070
     0
1002
}
1002
{
1000
REACTOR
1002
}
1001
GENIUS_GENOBJ-N-CEN_13
1002
{
1000
OWNER
1000
GEN
1002
}
  0
LINE
  5
2207
330
1F
100
AcDbEntity
  8
AM_0
100
AcDbLine
 10
-1.449244971485541
 20
3.733997139614549
 30
0.0
 11
-3.199225331811789
 21
4.211834791539305
 31
0.0
  0
LINE
  5
2208
330
1F
100
AcDbEntity
  8
AM_0
100
AcDbLine
 10
-0.0000000000002586
 20
-0.0000000000000033
 30
0.0
 11
-0.1425454545456963
 21
1.400000000000155
 31
0.0
  0
LINE
  5
2209
330
1F
100
AcDbEntity
  8
AM_0
100
AcDbLine
 10
-1.168136901787054
 20
-2.063116671233164
 30
0.0
 11
-0.1425454545456963
 21
-1.857656996388462
 31
0.0
  0
LINE
  5
220A
330
1F
100
AcDbEntity
  8
AM_0
100
AcDbLine
 10
-0.1425454545456963
 20
-1.857656996388462
 30
0.0
 11
-0.0000000000002586
 21
-1.400000000000003
 31
0.0
  0
LINE
  5
220B
330
1F
100
AcDbEntity
  8
AM_0
100
AcDbLine
 10
-0.0000000000002586
 20
-0.0000000000000033
 30
0.0
 11
-0.1206105724138846
 21
-1.184568121920054
 31
0.0
  0
LINE
  5
220C
330
1F
100
AcDbEntity
  8
AM_0
100
AcDbLine
 10
-0.0000000000002586
 20
-1.400000000000003
 30
0.0
 11
-0.7837967290819668
 21
0.0000000000000763
 31
0.0
  0
LINE
  5
220D
330
1F
100
AcDbEntity
  8
AM_0
100
AcDbLine
 10
-3.199225331811789
 20
-0.0000000000000033
 30
0.0
 11
-3.199225331811789
 21
-1.120000000000019
 31
0.0
  0
LINE
  5
220E
330
1F
100
AcDbEntity
  8
AM_0
100
AcDbLine
 10
-3.199225331811789
 20
-1.120000000000019
 30
0.0
 11
-1.168136901787054
 21
-2.063116671233164
 31
0.0
  0
LINE
  5
220F
330
1F
100
AcDbEntity
  8
AM_0
100
AcDbLine
 10
-3.199225331811789
 20
-1.120000000000019
 30
0.0
 11
-0.1567593458165883
 21
-1.120000000000019
 31
0.0
  0
LINE
  5
2210
330
1F
100
AcDbEntity
  8
AM_0
100
AcDbLine
 10
-0.0000000000002586
 20
-0.0000000000000033
 30
0.0
 11
-3.199225331811789
 21
-0.0000000000000033
 31
0.0
  0
LINE
  5
2211
330
1F
100
AcDbEntity
  8
AM_0
100
AcDbLine
 10
-0.1425454545456963
 20
1.400000000000155
 30
0.0
 11
-1.449244971485541
 21
3.733997139614549
 31
0.0
  0
LINE
  5
2212
330
1F
100
AcDbEntity
  8
AM_0
100
AcDbLine
 10
-0.0000000000002586
 20
-0.0000000000000033
 30
0.0
 11
-0.0000000000002586
 21
6.999999999999996
 31
0.0
  0
LINE
  5
2213
330
1F
100
AcDbEntity
  8
AM_0
100
AcDbLine
 10
-0.0000000000002454
 20
-7.000000000000003
 30
0.0
 11
-0.142545454545683
 21
-6.626817620670559
 31
0.0
  0
LINE
  5
2214
330
1F
100
AcDbEntity
  8
AM_0
100
AcDbLine
 10
-0.142545454545683
 20
-6.62681762067048
 30
0.0
 11
-0.9299393939396555
 21
-5.596663317646679
 31
0.0
  0
LINE
  5
2215
330
1F
100
AcDbEntity
  8
AM_0
100
AcDbLine
 10
-0.0000000000002454
 20
-7.000000000000003
 30
0.0
 11
-0.0000000000002586
 21
-1.400000000000003
 31
0.0
  0
LINE
  5
2216
330
1F
100
AcDbEntity
  8
AM_0
100
AcDbLine
 10
-0.142545454545683
 20
-6.626817620670559
 30
0.0
 11
-0.1425454545456963
 21
-1.857656996388462
 31
0.0
  0
ELLIPSE
  5
2217
330
1F
100
AcDbEntity
  8
AM_0
100
AcDbEllipse
 10
2.695701774388196
 20
-3.56143223060507
 30
0.0
 11
-0.0000000000000588
 21
4.256977361722474
 31
0.0
210
0.0
220
0.0
230
1.0
 40
0.9696969696969686
 41
1.21112458130381
 42
2.069278538290304
  0
LINE
  5
2218
330
1F
100
AcDbEntity
  8
AM_0
100
AcDbLine
 10
-32.00000000000033
 20
6.043934633319558
 30
0.0
 11
-32.38783322607359
 21
6.736673574880019
 31
0.0
  0
LINE
  5
2219
330
1F
100
AcDbEntity
  8
AM_0
100
AcDbLine
 10
-32.00000000000025
 20
-0.4451571698407122
 30
0.0
 11
-32.89196782230025
 21
-1.364998986587593
 31
0.0
  0
POLYLINE
  5
221A
330
1F
100
AcDbEntity
  8
AM_0
100
AcDb2dPolyline
 66
     1
 10
0.0
 20
0.0
 30
0.0
 70
     2
  0
VERTEX
  5
221B
330
221A
100
AcDbEntity
  8
AM_0
100
AcDbVertex
100
AcDb2dVertex
 10
-32.00000000000025
 20
6.043934633319544
 30
0.0
 42
0.0113495642762015
  0
VERTEX
  5
221C
330
221A
100
AcDbEntity
  8
AM_0
100
AcDbVertex
100
AcDb2dVertex
 10
-33.5825531360291
 20
6.288293792829332
 30
0.0
 42
0.0187918863228812
 70
     1
  0
VERTEX
  5
221D
330
221A
100
AcDbEntity
  8
AM_0
100
AcDbVertex
100
AcDb2dVertex
 10
-34.54545454545479
 20
6.376251167543639
 30
0.0
 42
0.0075788461628208
  0
VERTEX
  5
221E
330
221A
100
AcDbEntity
  8
AM_0
100
AcDbVertex
100
AcDb2dVertex
 10
-37.10515300676811
 20
6.470292341122231
 30
0.0
 42
0.0232722457202398
 70
     1
  0
VERTEX
  5
221F
330
221A
100
AcDbEntity
  8
AM_0
100
AcDbVertex
100
AcDb2dVertex
 10
-37.9393939393942
 20
6.447848017471336
 30
0.0
 42
0.0542958387243925
  0
VERTEX
  5
2220
330
221A
100
AcDbEntity
  8
AM_0
100
AcDbVertex
100
AcDb2dVertex
 10
-38.73624034436823
 20
6.297377553126878
 30
0.0
 42
0.4413285869607302
 70
     1
  0
VERTEX
  5
2221
330
221A
100
AcDbEntity
  8
AM_0
100
AcDbVertex
100
AcDb2dVertex
 10
-38.78787878787904
 20
6.187128333174939
 30
0.0
 42
0.0678159998049314
  0
VERTEX
  5
2222
330
221A
100
AcDbEntity
  8
AM_0
100
AcDbVertex
100
AcDb2dVertex
 10
-38.72430489731146
 20
6.071741713826202
 30
0.0
 42
0.006836731909696
 70
     1
  0
VERTEX
  5
2223
330
221A
100
AcDbEntity
  8
AM_0
100
AcDbVertex
100
AcDb2dVertex
 10
-37.9393939393942
 20
5.041172284163621
 30
0.0
 42
0.007537816044723
  0
VERTEX
  5
2224
330
221A
100
AcDbEntity
  8
AM_0
100
AcDbVertex
100
AcDb2dVertex
 10
-36.93316304325238
 20
3.874549984327497
 30
0.0
 42
0.0040253861954876
 70
     1
  0
VERTEX
  5
2225
330
221A
100
AcDbEntity
  8
AM_0
100
AcDbVertex
100
AcDb2dVertex
 10
-35.08263317128292
 20
1.663732310827523
 30
0.0
 42
0.0594163782683759
  0
VERTEX
  5
2226
330
221A
100
AcDbEntity
  8
AM_0
100
AcDbVertex
100
AcDb2dVertex
 10
-34.24599234057572
 20
0.8885754736163615
 30
0.0
 42
0.0273113651513278
 70
     1
  0
VERTEX
  5
2227
330
221A
100
AcDbEntity
  8
AM_0
100
AcDbVertex
100
AcDb2dVertex
 10
-32.00000000000025
 20
-0.4451571698407131
 30
0.0
  0
SEQEND
  5
2228
330
221A
100
AcDbEntity
  8
AM_0
  0
ELLIPSE
  5
2229
330
1F
100
AcDbEntity
  8
AM_0
100
AcDbEllipse
 10
-36.91200436367529
 20
6.338946270506896
 30
0.0
 11
0.0000000000000571
 21
13.36288736641875
 31
0.0
210
0.0
220
0.0
230
1.0
 40
0.9696969696969716
 41
3.201461614289992
 42
3.427250019213448
  0
POLYLINE
  5
222A
330
1F
100
AcDbEntity
  8
AM_0
100
AcDb2dPolyline
 66
     1
 10
0.0
 20
0.0
 30
0.0
 70
     2
  0
VERTEX
  5
222B
330
222A
100
AcDbEntity
  8
AM_0
100
AcDbVertex
100
AcDb2dVertex
 10
-33.26060606060631
 20
-6.482431761037672
 30
0.0
 42
-0.0230918143391583
  0
VERTEX
  5
222C
330
222A
100
AcDbEntity
  8
AM_0
100
AcDbVertex
100
AcDb2dVertex
 10
-34.04327257544109
 20
-6.277881760009482
 30
0.0
 42
-0.0355587143075394
 70
     1
  0
VERTEX
  5
222D
330
222A
100
AcDbEntity
  8
AM_0
100
AcDbVertex
100
AcDb2dVertex
 10
-34.53333333333358
 20
-6.084495901061483
 30
0.0
 42
-0.0216088548285507
  0
VERTEX
  5
222E
330
222A
100
AcDbEntity
  8
AM_0
100
AcDbVertex
100
AcDb2dVertex
 10
-35.67671652070767
 20
-5.470986981157647
 30
0.0
 42
-0.0414110700152503
 70
     1
  0
VERTEX
  5
222F
330
222A
100
AcDbEntity
  8
AM_0
100
AcDbVertex
100
AcDb2dVertex
 10
-36.23030303030327
 20
-5.075583125674784
 30
0.0
 42
-0.0653031023268945
  0
VERTEX
  5
2230
330
222A
100
AcDbEntity
  8
AM_0
100
AcDbVertex
100
AcDb2dVertex
 10
-36.58690466321701
 20
-4.682295770340259
 30
0.0
 42
-0.1569363594221426
 70
     1
  0
VERTEX
  5
2231
330
222A
100
AcDbEntity
  8
AM_0
100
AcDbVertex
100
AcDb2dVertex
 10
-36.65454545454569
 20
-4.464606210264235
 30
0.0
 42
-0.1617045000652558
  0
VERTEX
  5
2232
330
222A
100
AcDbEntity
  8
AM_0
100
AcDbVertex
100
AcDb2dVertex
 10
-36.58573627901152
 20
-4.251814457076988
 30
0.0
 42
-0.0680210806811403
 70
     1
  0
VERTEX
  5
2233
330
222A
100
AcDbEntity
  8
AM_0
100
AcDbVertex
100
AcDb2dVertex
 10
-36.23030303030327
 20
-3.880062221109175
 30
0.0
 42
-0.0450747416233525
  0
VERTEX
  5
2234
330
222A
100
AcDbEntity
  8
AM_0
100
AcDbVertex
100
AcDb2dVertex
 10
-35.68192726327449
 20
-3.520344329147382
 30
0.0
 42
-0.0231467319857815
 70
     1
  0
VERTEX
  5
2235
330
222A
100
AcDbEntity
  8
AM_0
100
AcDbVertex
100
AcDb2dVertex
 10
-34.53333333333358
 20
-2.976881150744633
 30
0.0
 42
-0.0364444523572374
  0
VERTEX
  5
2236
330
222A
100
AcDbEntity
  8
AM_0
100
AcDbVertex
100
AcDb2dVertex
 10
-34.03450404895655
 20
-2.811520177926978
 30
0.0
 42
-0.0242139410122645
 70
     1
  0
VERTEX
  5
2237
330
222A
100
AcDbEntity
  8
AM_0
100
AcDbVertex
100
AcDb2dVertex
 10
-33.26060606060631
 20
-2.658244069535031
 30
0.0
  0
SEQEND
  5
2238
330
222A
100
AcDbEntity
  8
AM_0
  0
ELLIPSE
  5
223A
330
1F
100
AcDbEntity
  8
AM_0
100
AcDbEllipse
 10
-36.90170527739763
 20
-18.60460889832819
 30
0.0
 11
-108.1953914880921
 21
40.14769883478495
 31
0.0
210
0.0
220
0.0
230
1.0
 40
0.1405476536007276
 41
4.699515236140752
 42
4.730880664165015
  0
LINE
  5
223B
330
1F
100
AcDbEntity
  8
AM_0
100
AcDbLine
 10
-32.89196782230025
 20
-1.364998986587593
 30
0.0
 11
-32.00000000000025
 21
-3.123460672319403
 31
0.0
  0
LINE
  5
223C
330
1F
100
AcDbEntity
  8
AM_11
100
AcDbLine
 10
-0.0000000000012998
 20
6.999999999999996
 30
0.0
 11
-32.00000000000025
 21
6.999999999999976
 31
0.0
  0
LINE
  5
223D
330
1F
100
AcDbEntity
  8
AM_11
100
AcDbLine
 10
-32.00000000000025
 20
-7.000000000000035
 30
0.0
 11
-0.0000000000002454
 21
-7.000000000000003
 31
0.0
  0
SPLINE
  5
223E
330
1F
100
AcDbEntity
  8
AM_0
100
AcDbSpline
210
0.0
220
0.0
230
1.0
 70
     8
 71
     3
 72
     8
 73
     4
 74
     0
 42
0.0000000001
 43
0.0000000001
 40
0.0
 40
0.0
 40
0.0
 40
0.0
 40
4.451443990518192
 40
4.451443990518192
 40
4.451443990518192
 40
4.451443990518192
 10
-33.26060606060631
 20
-6.482431761037663
 30
0.0
 10
-29.81354290203793
 20
-6.464422305323785
 30
0.0
 10
-27.84886907461217
 20
-6.153935779946437
 30
0.0
 10
-25.91850316913137
 20
-5.629193568492883
 30
0.0
  0
SPLINE
  5
223F
330
1F
100
AcDbEntity
  8
AM_0
100
AcDbSpline
210
0.0
220
0.0
230
1.0
 70
     8
 71
     3
 72
     8
 73
     4
 74
     0
 42
0.0000000001
 43
0.0000000001
 40
0.0
 40
0.0
 40
0.0
 40
0.0
 40
2.130230809022907
 40
2.130230809022907
 40
2.130230809022907
 40
2.130230809022907
 10
-18.46303030303081
 20
-7.000000000000016
 30
0.0
 10
-17.49904706824064
 20
-7.000000000000016
 30
0.0
 10
-16.54812070585743
 20
-6.924354202948251
 30
0.0
 10
-15.60833167423217
 20
-6.784183591993603
 30
0.0
  0
SPLINE
  5
2240
330
1F
100
AcDbEntity
  8
AM_0
100
AcDbSpline
210
0.0
220
0.0
230
1.0
 70
     8
 71
     3
 72
     8
 73
     4
 74
     0
 42
0.0000000001
 43
0.0000000001
 40
0.0
 40
0.0
 40
0.0
 40
0.0
 40
5.635889483499305
 40
5.635889483499305
 40
5.635889483499305
 40
5.635889483499305
 10
-18.46303030303081
 20
7.000000000000142
 30
0.0
 10
-21.01341261475579
 20
7.000000000000142
 30
0.0
 10
-23.47240238096606
 20
6.470511640570929
 30
0.0
 10
-25.87554676582991
 20
5.617479613719797
 30
0.0
  0
SPLINE
  5
2241
330
1F
100
AcDbEntity
  8
AM_0
100
AcDbSpline
210
0.0
220
0.0
230
1.0
 70
     8
 71
     3
 72
     8
 73
     4
 74
     0
 42
0.0000000001
 43
0.0000000001
 40
0.3581103616548037
 40
0.3581103616548037
 40
0.3581103616548037
 40
0.3581103616548037
 40
14.43901837670146
 40
14.43901837670146
 40
14.43901837670146
 40
14.43901837670146
 10
-34.97504401997821
 20
6.99999999999997
 30
0.0
 10
-27.72660301289949
 20
6.62198461127449
 30
0.0
 10
-21.91002718170201
 20
3.310992305637272
 30
0.0
 10
-16.09345135050457
 20
0.000000000000063
 30
0.0
  0
SPLINE
  5
2242
330
1F
100
AcDbEntity
  8
AM_0
100
AcDbSpline
210
0.0
220
0.0
230
1.0
 70
     8
 71
     3
 72
     8
 73
     4
 74
     0
 42
0.0000000001
 43
0.0000000001
 40
0.0
 40
0.0
 40
0.0
 40
0.0
 40
11.29030023141951
 40
11.29030023141951
 40
11.29030023141951
 40
11.29030023141951
 10
-16.0934513505048
 20
-6.790397138469398
 30
0.0
 10
-21.20259731381384
 20
-6.790397138469405
 30
0.0
 10
-25.96353331255023
 20
-4.714523936032898
 30
0.0
 10
-32.89196782230025
 20
-1.364998986587594
 30
0.0
  0
SPLINE
  5
2243
330
1F
100
AcDbEntity
  8
AM_0
100
AcDbSpline
210
0.0
220
0.0
230
1.0
 70
     8
 71
     3
 72
     8
 73
     4
 74
     0
 42
0.0000000001
 43
0.0000000001
 40
5.360156850992435
 40
5.360156850992435
 40
5.360156850992435
 40
5.360156850992435
 40
14.48999654934396
 40
14.48999654934396
 40
14.48999654934396
 40
14.48999654934396
 10
-32.00000000000025
 20
6.043934633319544
 30
0.0
 10
-26.51685594173543
 20
4.962696228129058
 30
0.0
 10
-22.21387082294094
 20
2.205275814622552
 30
0.0
 10
-18.46303030303055
 20
0.0000000000001426
 30
0.0
  0
SPLINE
  5
2244
330
1F
100
AcDbEntity
  8
AM_0
100
AcDbSpline
210
0.0
220
0.0
230
1.0
 70
     8
 71
     3
 72
     8
 73
     4
 74
     0
 42
0.0000000001
 43
0.0000000001
 40
0.0
 40
0.0
 40
0.0
 40
0.0
 40
8.792094651249836
 40
8.792094651249836
 40
8.792094651249836
 40
8.792094651249836
 10
-18.46303030303081
 20
-6.999999999999857
 30
0.0
 10
-22.44167515531358
 20
-6.999999999999864
 30
0.0
 10
-26.19790169230915
 20
-5.711405747533301
 30
0.0
 10
-29.8666666666652
 20
-3.916097527813655
 30
0.0
  0
SPLINE
  5
2245
330
1F
100
AcDbEntity
  8
AM_0
100
AcDbSpline
210
0.0
220
0.0
230
1.0
 70
     8
 71
     3
 72
     8
 73
     4
 74
     0
 42
0.0000000001
 43
0.0000000001
 40
0.0
 40
0.0
 40
0.0
 40
0.0
 40
4.451443990518192
 40
4.451443990518192
 40
4.451443990518192
 40
4.451443990518192
 10
-13.36490341491892
 20
-6.464422305323779
 30
0.0
 10
-11.35051259900763
 20
-6.464422305323779
 30
0.0
 10
-9.38583877158188
 20
-6.15393577994643
 30
0.0
 10
-7.455472866101087
 20
-5.629193568492863
 30
0.0
  0
SPLINE
  5
2246
330
1F
100
AcDbEntity
  8
AM_0
100
AcDbSpline
210
0.0
220
0.0
230
1.0
 70
     8
 71
     3
 72
     8
 73
     4
 74
     0
 42
0.0000000001
 43
0.0000000001
 40
0.7142832446738512
 40
0.7142832446738512
 40
0.7142832446738512
 40
0.7142832446738512
 40
9.361146747480315
 40
9.361146747480315
 40
9.361146747480315
 40
9.361146747480315
 10
-12.39898643535489
 20
6.440836905753991
 30
0.0
 10
-8.51628455509461
 20
6.252096814560214
 30
0.0
 10
-4.811847652875155
 20
4.950077835919475
 30
0.0
 10
-1.17273530810397
 20
3.240101829273325
 30
0.0
  0
SPLINE
  5
2247
330
1F
100
AcDbEntity
  8
AM_0
100
AcDbSpline
210
0.0
220
0.0
230
1.0
 70
     8
 71
     3
 72
     8
 73
     4
 74
     0
 42
0.0000000001
 43
0.0000000001
 40
0.0
 40
0.0
 40
0.0
 40
0.0
 40
3.87984798542507
 40
3.87984798542507
 40
3.87984798542507
 40
3.87984798542507
 10
-0.0000000000002586
 20
5.704583761357545
 30
0.0
 10
-0.7511023832284964
 20
4.778820474611407
 30
0.0
 10
-2.040327085190453
 20
4.381263315694088
 30
0.0
 10
-3.199225331811789
 20
4.211834791539305
 30
0.0
  0
SPLINE
  5
2248
330
1F
100
AcDbEntity
  8
AM_0
100
AcDbSpline
210
0.0
220
0.0
230
1.0
 70
     8
 71
     3
 72
     8
 73
     4
 74
     0
 42
0.0000000001
 43
0.0000000001
 40
0.0
 40
0.0
 40
0.0
 40
0.0
 40
5.635889483499127
 40
5.635889483499127
 40
5.635889483499127
 40
5.635889483499127
 10
-0.0000000000002586
 20
6.999999999999996
 30
0.0
 10
-2.55038231172511
 20
6.999999999999996
 30
0.0
 10
-5.009372077935349
 20
6.470511640570791
 30
0.0
 10
-7.412516462799154
 20
5.617479613719737
 30
0.0
  0
SPLINE
  5
2249
330
1F
100
AcDbEntity
  8
AM_0
100
AcDbSpline
210
0.0
220
0.0
230
1.0
 70
     8
 71
     3
 72
     8
 73
     4
 74
     0
 42
0.0000000001
 43
0.0000000001
 40
4.542668862435135
 40
4.542668862435135
 40
4.542668862435135
 40
4.542668862435135
 40
14.36247867694493
 40
14.36247867694493
 40
14.36247867694493
 40
14.36247867694493
 10
-0.9299393939377655
 20
-5.596663317639277
 30
0.0
 10
-5.185206081549602
 20
-4.419807961202005
 30
0.0
 10
-9.275054748234124
 20
-2.209903980600977
 30
0.0
 10
-13.36490341491865
 20
0.000000000000063
 30
0.0
  0
SPLINE
  5
224A
330
1F
100
AcDbEntity
  8
AM_0
100
AcDbSpline
210
0.0
220
0.0
230
1.0
 70
     8
 71
     3
 72
     8
 73
     4
 74
     0
 42
0.0000000001
 43
0.0000000001
 40
0.3581103616548037
 40
0.3581103616548037
 40
0.3581103616548037
 40
0.3581103616548037
 40
12.40023413887867
 40
12.40023413887867
 40
12.40023413887867
 40
12.40023413887867
 10
-15.60833167423163
 20
6.78418359199373
 30
0.0
 10
-10.18223467083819
 20
6.645469511887956
 30
0.0
 10
-5.142441822458464
 20
4.203781579878997
 30
0.0
 10
-0.158582215131553
 20
1.428644499252547
 30
0.0
  0
SPLINE
  5
224B
330
1F
100
AcDbEntity
  8
AM_0
100
AcDbSpline
210
0.0
220
0.0
230
1.0
 70
     8
 71
     3
 72
     8
 73
     4
 74
     0
 42
0.0000000001
 43
0.0000000001
 40
0.0
 40
0.0
 40
0.0
 40
0.0
 40
21.73499482401593
 40
21.73499482401593
 40
21.73499482401593
 40
21.73499482401593
 10
-18.46303030303055
 20
7.000000000000142
 30
0.0
 10
-11.90594095544864
 20
7.000000000000149
 30
0.0
 10
-5.952970477724448
 20
3.500000000000155
 30
0.0
 10
-0.0000000000002586
 20
0.0000000000001558
 30
0.0
  0
SPLINE
  5
224C
330
1F
100
AcDbEntity
  8
AM_0
100
AcDbSpline
210
0.0
220
0.0
230
1.0
 70
     8
 71
     3
 72
     8
 73
     4
 74
     0
 42
0.0000000001
 43
0.0000000001
 40
0.0
 40
0.0
 40
0.0
 40
0.0
 40
21.73499482401595
 40
21.73499482401595
 40
21.73499482401595
 40
21.73499482401595
 10
-0.0000000000002454
 20
-7.000000000000003
 30
0.0
 10
-6.557089347582162
 20
-7.000000000000009
 30
0.0
 10
-12.51005982530635
 20
-3.500000000000013
 30
0.0
 10
-18.46303030303055
 20
-0.0000000000000166
 30
0.0
  0
SPLINE
  5
224D
330
1F
100
AcDbEntity
  8
AM_0
100
AcDbSpline
210
0.0
220
0.0
230
1.0
 70
     8
 71
     3
 72
     8
 73
     4
 74
     0
 42
0.0000000001
 43
0.0000000001
 40
0.0
 40
0.0
 40
0.0
 40
0.0
 40
12.79333816032526
 40
12.79333816032526
 40
12.79333816032526
 40
12.79333816032526
 10
-13.36490341491892
 20
-6.464422305323619
 30
0.0
 10
-19.15421199656107
 20
-6.464422305323619
 30
0.0
 10
-24.53287159990317
 20
-3.899886956219178
 30
0.0
 10
-32.00000000000025
 20
-0.4451571698407122
 30
0.0
  0
SPLINE
  5
224E
330
1F
100
AcDbEntity
  8
AM_0
100
AcDbSpline
210
0.0
220
0.0
230
1.0
 70
     8
 71
     3
 72
     8
 73
     4
 74
     0
 42
0.0000000001
 43
0.0000000001
 40
1.090140354492627
 40
1.090140354492627
 40
1.090140354492627
 40
1.090140354492627
 40
14.36247867694493
 40
14.36247867694493
 40
14.36247867694493
 40
14.36247867694493
 10
-30.62560278421547
 20
6.409972329334697
 30
0.0
 10
-24.42048518630095
 20
5.973759949471024
 30
0.0
 10
-18.89269430060982
 20
2.986879974735547
 30
0.0
 10
-13.36490341491865
 20
0.000000000000063
 30
0.0
  0
SPLINE
  5
224F
330
1F
100
AcDbEntity
  8
AM_0
100
AcDbSpline
210
0.0
220
0.0
230
1.0
 70
     8
 71
     3
 72
     8
 73
     4
 74
     0
 42
0.0000000001
 43
0.0000000001
 40
1.870660592686466
 40
1.870660592686466
 40
1.870660592686466
 40
1.870660592686466
 40
14.43901837670146
 40
14.43901837670146
 40
14.43901837670146
 40
14.43901837670146
 10
-0.142545454545683
 20
-6.62681762067048
 30
0.0
 10
-5.709915566274531
 20
-5.910660856942073
 30
0.0
 10
-10.90168345838955
 20
-2.955330428471011
 30
0.0
 10
-16.09345135050457
 20
0.000000000000063
 30
0.0
  0
SPLINE
  5
2250
330
1F
100
AcDbEntity
  8
AM_0
100
AcDbSpline
210
0.0
220
0.0
230
1.0
 70
     8
 71
     3
 72
     8
 73
     4
 74
     0
 42
0.0000000001
 43
0.0000000001
 40
0.0
 40
0.0
 40
0.0
 40
0.0
 40
2.764560748519282
 40
2.764560748519282
 40
2.764560748519282
 40
2.764560748519282
 10
-16.0934513505048
 20
-6.790397138469558
 30
0.0
 10
-14.84241779965973
 20
-6.790397138469558
 30
0.0
 10
-13.61226194091762
 20
-6.665933607914092
 30
0.0
 10
-12.39898643549816
 20
-6.440836905780366
 30
0.0
  0
LINE
  5
22CD
330
1F
100
AcDbEntity
  8
AM_0
100
AcDbLine
 10
-90.00000000000026
 20
6.999999999999996
 30
0.0
 11
-90.00000000000026
 21
-7.000000000000007
 31
0.0
  0
LINE
  5
22CE
330
1F
100
AcDbEntity
  8
AM_0
100
AcDbLine
 10
-89.00000000000027
 20
-8.000000000000007
 30
0.0
 11
-44.00000000000027
 21
-8.000000000000001
 31
0.0
  0
LINE
  5
22CF
330
1F
100
AcDbEntity
  8
AM_0
100
AcDbLine
 10
-89.00000000000027
 20
7.999999999999996
 30
0.0
 11
-44.00000000000027
 21
7.999999999999996
 31
0.0
  0
LINE
  5
22D4
330
1F
100
AcDbEntity
  8
AM_0
100
AcDbLine
 10
-89.00000000000027
 20
7.999999999999996
 30
0.0
 11
-90.00000000000026
 21
6.999999999999996
 31
0.0
1001
GENIUS_GENFIL_13
1070
     0
1040
1.0
1040
1.0
1040
20.0
1040
0.0
1002
{
1002
}
1001
GENIUS_GENODEF_13
1002
{
1000
HIER
1070
     0
1002
}
1002
{
1000
MANEDIT
1070
     0
1002
}
1002
{
1000
NOSEL
1070
     0
1002
}
1002
{
1000
BEHIND
1070
     0
1002
}
1002
{
1000
REACTOR
1002
}
1001
GENIUS_GENOBJ-N-CHA_13
1002
{
1000
OWNER
1000
GEN
1002
}
  0
LINE
  5
22D7
330
1F
100
AcDbEntity
  8
AM_0
100
AcDbLine
 10
-90.00000000000026
 20
-7.000000000000007
 30
0.0
 11
-89.00000000000027
 21
-8.000000000000007
 31
0.0
1001
GENIUS_GENFIL_13
1070
     0
1040
1.0
1040
1.0
1040
20.0
1040
0.0
1002
{
1002
}
1001
GENIUS_GENODEF_13
1002
{
1000
HIER
1070
     0
1002
}
1002
{
1000
MANEDIT
1070
     0
1002
}
1002
{
1000
NOSEL
1070
     0
1002
}
1002
{
1000
BEHIND
1070
     0
1002
}
1002
{
1000
REACTOR
1002
}
1001
GENIUS_GENOBJ-N-CHA_13
1002
{
1000
OWNER
1000
GEN
1002
}
  0
LINE
  5
22D8
330
1F
100
AcDbEntity
  8
AM_0
100
AcDbLine
 10
-89.00000000000027
 20
7.999999999999996
 30
0.0
 11
-89.00000000000027
 21
-8.000000000000007
 31
0.0
  0
LINE
  5
22E0
330
1F
100
AcDbEntity
  8
AM_0
100
AcDbLine
 10
-44.00000000000027
 20
7.999999999999995
 30
0.0
 11
-44.00000000000027
 21
-8.000000000000003
 31
0.0
  0
LINE
  5
22F9
330
1F
100
AcDbEntity
  8
AM_0
100
AcDbLine
 10
-34.97504401997821
 20
6.99999999999997
 30
0.0
 11
-41.25252258054554
 21
6.999999999999962
 31
0.0
  0
LINE
  5
22FA
330
1F
100
AcDbEntity
  8
AM_0
100
AcDbLine
 10
-36.13668863488575
 20
-7.000000000000005
 30
0.0
 11
-41.25252258054554
 21
-7.000000000000007
 31
0.0
  0
LINE
  5
22FB
330
1F
100
AcDbEntity
  8
AM_0
100
AcDbLine
 10
-44.00000000000027
 20
7.999999999999995
 30
0.0
 11
-41.25252258054555
 21
6.999999999999961
 31
0.0
  0
LINE
  5
22FC
330
1F
100
AcDbEntity
  8
AM_0
100
AcDbLine
 10
-41.25252258054555
 20
6.999999999999963
 30
0.0
 11
-41.25252258054554
 21
-7.000000000000007
 31
0.0
  0
LINE
  5
22FD
330
1F
100
AcDbEntity
  8
AM_0
100
AcDbLine
 10
-41.25252258054566
 20
-7.000000000000007
 30
0.0
 11
-44.00000000000027
 21
-8.000000000000003
 31
0.0
  0
DIMENSION
  5
2307
330
1F
100
AcDbEntity
  8
AM_5
100
AcDbDimension
  2
*D5
 10
-107.2932451532983
 20
-8.000000000000015
 30
0.0
 11
-110.3932451532983
 21
-0.0000000000000241
 31
0.0
 70
    32
  1
%%c<>
  3
AM_JIS
100
AcDbAlignedDimension
 13
-89.00000000000027
 23
7.999999999999995
 33
0.0
 14
-89.00000000000025
 24
-8.000000000000021
 34
0.0
 50
270.0
100
AcDbRotatedDimension
1001
GENIUS_GENDTOL_13
1000

1000
h7
1000

1040
0.0
  0
DIMENSION
  5
2393
330
1F
100
AcDbEntity
  8
AM_5
100
AcDbDimension
  2
*D6
 10
-0.000000000000247
 20
-34.00000099999996
 30
0.0
 11
-45.00000000000025
 21
-30.90000099999996
 31
0.0
 70
    32
  1
<>
  3
AM_JIS
100
AcDbAlignedDimension
 13
-90.00000000000026
 23
-7.000000000000007
 33
0.0
 14
-0.0000000000002454
 24
-7.000000000000003
 34
0.0
 50
0.0000000000001132
100
AcDbRotatedDimension
1001
GENIUS_GENDTOL_13
1000

1000
h7
1000

1040
0.0
  0
DIMENSION
  5
2423
330
1F
100
AcDbEntity
  8
AM_5
100
AcDbDimension
  2
*D7
 10
-0.0000000000002463
 20
-22.00000099999988
 30
0.0
 11
-16.00000000000025
 21
-18.90000099999987
 31
0.0
 70
    32
  1
<>
  3
AM_JIS
100
AcDbAlignedDimension
 13
-32.00000000000025
 23
-7.000000000000035
 33
0.0
 14
-0.0000000000002454
 24
-7.000000000000003
 34
0.0
 50
0.0000000000001641
100
AcDbRotatedDimension
1001
GENIUS_GENDTOL_13
1000

1000
h7
1000

1040
0.0
  0
DIMENSION
  5
24B8
330
1F
100
AcDbEntity
  8
AM_5
100
AcDbDimension
  2
*D8
 10
20.83665304628214
 20
-7.000000000000008
 30
0.0
 11
17.73665304628214
 21
-0.0000000000000053
 31
0.0
 70
    32
  1
%%c<>
  3
AM_JIS
100
AcDbAlignedDimension
 13
-0.0000000000014147
 23
6.999999999999996
 33
0.0
 14
-0.0000000000002454
 24
-7.000000000000003
 34
0.0
 50
90.00000000000005
100
AcDbRotatedDimension
1001
GENIUS_GENDTOL_13
1000

1000
h7
1000

1040
0.0
  0
LINE
  5
26C7
330
1F
100
AcDbEntity
  8
AM_11
100
AcDbLine
 10
-32.00000000000025
 20
6.999999999999975
 30
0.0
 11
-32.00000000000025
 21
-7.000000000000024
 31
0.0
  0
VIEWPORT
  5
110
330
101
100
AcDbEntity
 67
     1
  8
0
100
AcDbViewport
 10
420.5
 20
297.0
 30
0.0
 40
948.9782706766916
 41
628.452
 68
     1
 69
     1
1001
ACAD
1000
MVIEW
1002
{
1070
    16
1010
0.0
1020
0.0
1030
0.0
1010
0.0
1020
0.0
1030
1.0
1040
0.0
1040
628.452
1040
420.5
1040
297.0
1040
50.0
1040
0.0
1040
0.0
1070
     0
1070
   100
1070
     1
1070
     1
1070
     0
1070
     0
1070
     0
1070
     0
1040
0.0
1040
0.0
1040
0.0
1040
10.0
1040
10.0
1040
10.0
1040
10.0
1070
     0
1002
{
1002
}
1002
}
  0
ENDSEC
  0
SECTION
  2
OBJECTS
  0
DICTIONARY
  5
C
330
0
100
AcDbDictionary
  3
ACAD_GROUP
350
D
  3
ACAD_LAYOUT
350
1A
  3
ACAD_MLINESTYLE
350
17
  3
ACAD_PLOTSETTINGS
350
19
  3
ACAD_PLOTSTYLENAME
350
E
  3
ACDBVARIABLEDICTIONARY
350
34
  3
ACMDICTIONARY
350
43
  3
AMG
350
2B
  3
AMGSNAPSETTINGS
350
6E
  3
DWGPROPS
350
28B9
  3
ACDBHEADERROUNDTRIPXREC
350
28C5
  0
DICTIONARY
  5
74
330
1F
100
AcDbDictionary
280
     1
  3
ACAD_INDEX
360
28BB
  3
ACAD_LAYOUTSELFREF
360
28E8
  0
DICTIONARY
  5
28ED
330
101
100
AcDbDictionary
280
     1
  3
ACAD_LAYOUTSELFREF
360
28EE
  0
DICTIONARY
  5
D
102
{ACAD_REACTORS
330
C
102
}
330
C
100
AcDbDictionary
  0
DICTIONARY
  5
1A
102
{ACAD_REACTORS
330
C
102
}
330
C
100
AcDbDictionary
  0
DICTIONARY
  5
17
102
{ACAD_REACTORS
330
C
102
}
330
C
100
AcDbDictionary
  3
STANDARD
350
18
  0
DICTIONARY
  5
19
102
{ACAD_REACTORS
330
C
102
}
330
C
100
AcDbDictionary
  0
ACDBDICTIONARYWDFLT
  5
E
102
{ACAD_REACTORS
330
C
102
}
330
C
100
AcDbDictionary
281
     1
  3
Normal
350
F
100
AcDbDictionaryWithDefault
340
F
  0
DICTIONARY
  5
34
102
{ACAD_REACTORS
330
C
102
}
330
C
100
AcDbDictionary
  3
INDEXCTL
350
35
  3
SORTENTS
350
B5E
  0
DICTIONARY
  5
43
102
{ACAD_REACTORS
330
C
102
}
330
C
100
AcDbDictionary
  3
ACMSTDDICTIONARY
350
260
  0
DICTIONARY
  5
2B
102
{ACAD_REACTORS
330
C
102
}
330
C
100
AcDbDictionary
  3
ACMGSETTINGS
350
2C
  0
DICTIONARY
  5
6E
102
{ACAD_REACTORS
330
C
102
}
330
C
100
AcDbDictionary
  0
XRECORD
  5
28B9
102
{ACAD_REACTORS
330
C
102
}
330
C
100
AcDbXrecord
  1
DWGPROPS COOKIE
  2

  3

  4

  6

  7

  8

  9

300
AmdtFileType=82
301
=
302
=
303
=
304
=
305
=
306
=
307
=
308
=
309
=
 40
0.0452179050925926
 41
2452836.771637361
 42
2452846.462789711
  1

 90
        1
  0
DICTIONARY
  5
28C5
102
{ACAD_REACTORS
330
C
102
}
330
C
100
AcDbDictionary
  3
TSTACKALIGN
350
28C6
  3
TSTACKSIZE
350
28C7
  3
HYPERLINKBASE
350
28C8
  3
STYLESHEET
350
28C9
  3
LAYOUTDICT
350
28CA
  3
PLOTSETDICT
350
28CB
  3
PLOTSTYLNAMDICT
350
28CC
  3
LWETCUNION
350
28CD
  3
INSUNITS
350
28CE
  3
CEPSNTYPE
350
28CF
  3
FINGERPRINTGUID
350
28D0
  3
VERSIONGUID
350
28D1
  3
PSVPSCALE
350
28D2
  3
DIMSTYLEDATA
350
28D3
  3
PUCSORTHOREF
350
28D4
  3
PUCSORTHOVIEW
350
28D5
  3
PUCSBASE
350
28D6
  3
PUCSORGTOP
350
28D7
  3
PUCSORGBOTTOM
350
28D8
  3
PUCSORGLEFT
350
28D9
  3
PUCSORGRIGHT
350
28DA
  3
PUCSORGFRONT
350
28DB
  3
PUCSORGBACK
350
28DC
  3
UCSORTHOREF
350
28DD
  3
UCSORTHOVIEW
350
28DE
  3
UCSBASE
350
28DF
  3
UCSORGTOP
350
28E0
  3
UCSORGBOTTOM
350
28E1
  3
UCSORGLEFT
350
28E2
  3
UCSORGRIGHT
350
28E3
  3
UCSORGFRONT
350
28E4
  3
UCSORGBACK
350
28E5
  0
DICTIONARY
  5
28BB
102
{ACAD_REACTORS
330
74
102
}
330
74
100
AcDbDictionary
  3
*A1
350
28BC
  0
XRECORD
  5
28E8
102
{ACAD_REACTORS
330
74
102
}
330
74
100
AcDbXrecord
340
1F
  0
XRECORD
  5
28EE
102
{ACAD_REACTORS
330
28ED
102
}
330
28ED
100
AcDbXrecord
340
101
  0
MLINESTYLE
  5
18
102
{ACAD_REACTORS
330
17
102
}
330
17
100
AcDbMlineStyle
  2
STANDARD
 70
     0
  3

 62
   256
 51
90.0
 52
90.0
 71
     2
 49
0.5
 62
   256
  6
BYLAYER
 49
-0.5
 62
   256
  6
BYLAYER
  0
ACDBPLACEHOLDER
  5
F
102
{ACAD_REACTORS
330
E
102
}
330
E
100
AcDbPlaceHolder
280
     0
  0
DICTIONARYVAR
  5
35
102
{ACAD_REACTORS
330
34
102
}
330
34
100
DictionaryVariables
280
     0
  1
1
  0
DICTIONARYVAR
  5
B5E
102
{ACAD_REACTORS
330
34
102
}
330
34
100
DictionaryVariables
280
     0
  1
96
  0
DICTIONARY
  5
260
102
{ACAD_REACTORS
330
43
102
}
330
43
100
AcDbDictionary
  0
DICTIONARY
  5
2C
102
{ACAD_REACTORS
330
2B
102
}
330
2B
100
AcDbDictionary
  3
DWGSETTINGS
350
2D
  0
XRECORD
  5
28C6
102
{ACAD_REACTORS
330
28C5
102
}
330
28C5
100
AcDbXrecord
 90
        1
  0
XRECORD
  5
28C7
102
{ACAD_REACTORS
330
28C5
102
}
330
28C5
100
AcDbXrecord
 90
       70
  0
XRECORD
  5
28C8
102
{ACAD_REACTORS
330
28C5
102
}
330
28C5
100
AcDbXrecord
  1

  0
XRECORD
  5
28C9
102
{ACAD_REACTORS
330
28C5
102
}
330
28C5
100
AcDbXrecord
  1
ASAMI.ctb
  0
XRECORD
  5
28CA
102
{ACAD_REACTORS
330
28C5
102
}
330
28C5
100
AcDbXrecord
340
1A
  0
XRECORD
  5
28CB
102
{ACAD_REACTORS
330
28C5
102
}
330
28C5
100
AcDbXrecord
340
19
  0
XRECORD
  5
28CC
102
{ACAD_REACTORS
330
28C5
102
}
330
28C5
100
AcDbXrecord
340
E
  0
XRECORD
  5
28CD
102
{ACAD_REACTORS
330
28C5
102
}
330
28C5
100
AcDbXrecord
 90
    10781
  0
XRECORD
  5
28CE
102
{ACAD_REACTORS
330
28C5
102
}
330
28C5
100
AcDbXrecord
 90
        4
  0
XRECORD
  5
28CF
102
{ACAD_REACTORS
330
28C5
102
}
330
28C5
100
AcDbXrecord
 90
        0
  0
XRECORD
  5
28D0
102
{ACAD_REACTORS
330
28C5
102
}
330
28C5
100
AcDbXrecord
  1
{AFB28963-8C59-40AE-9337-C84526B81ACE}
  0
XRECORD
  5
28D1
102
{ACAD_REACTORS
330
28C5
102
}
330
28C5
100
AcDbXrecord
  1
{EBB01534-43A3-476D-863C-BED584623438}
  0
XRECORD
  5
28D2
102
{ACAD_REACTORS
330
28C5
102
}
330
28C5
100
AcDbXrecord
 40
0.0
  0
XRECORD
  5
28D3
102
{ACAD_REACTORS
330
28C5
102
}
330
28C5
100
AcDbXrecord
1000
DSTYLE
1002
{
1070
    79
 70
     2
1070
   341
340
59
1070
   342
340
59
1070
   371
 70
    -1
1070
   372
 70
    -1
1002
}
  0
XRECORD
  5
28D4
102
{ACAD_REACTORS
330
28C5
102
}
330
28C5
100
AcDbXrecord
340
0
  0
XRECORD
  5
28D5
102
{ACAD_REACTORS
330
28C5
102
}
330
28C5
100
AcDbXrecord
 70
     0
  0
XRECORD
  5
28D6
102
{ACAD_REACTORS
330
28C5
102
}
330
28C5
100
AcDbXrecord
340
0
  0
XRECORD
  5
28D7
102
{ACAD_REACTORS
330
28C5
102
}
330
28C5
100
AcDbXrecord
 10
0.0
 20
0.0
 30
0.0
  0
XRECORD
  5
28D8
102
{ACAD_REACTORS
330
28C5
102
}
330
28C5
100
AcDbXrecord
 10
0.0
 20
0.0
 30
0.0
  0
XRECORD
  5
28D9
102
{ACAD_REACTORS
330
28C5
102
}
330
28C5
100
AcDbXrecord
 10
0.0
 20
0.0
 30
0.0
  0
XRECORD
  5
28DA
102
{ACAD_REACTORS
330
28C5
102
}
330
28C5
100
AcDbXrecord
 10
0.0
 20
0.0
 30
0.0
  0
XRECORD
  5
28DB
102
{ACAD_REACTORS
330
28C5
102
}
330
28C5
100
AcDbXrecord
 10
0.0
 20
0.0
 30
0.0
  0
XRECORD
  5
28DC
102
{ACAD_REACTORS
330
28C5
102
}
330
28C5
100
AcDbXrecord
 10
0.0
 20
0.0
 30
0.0
  0
XRECORD
  5
28DD
102
{ACAD_REACTORS
330
28C5
102
}
330
28C5
100
AcDbXrecord
340
0
  0
XRECORD
  5
28DE
102
{ACAD_REACTORS
330
28C5
102
}
330
28C5
100
AcDbXrecord
 70
     0
  0
XRECORD
  5
28DF
102
{ACAD_REACTORS
330
28C5
102
}
330
28C5
100
AcDbXrecord
340
0
  0
XRECORD
  5
28E0
102
{ACAD_REACTORS
330
28C5
102
}
330
28C5
100
AcDbXrecord
 10
0.0
 20
0.0
 30
0.0
  0
XRECORD
  5
28E1
102
{ACAD_REACTORS
330
28C5
102
}
330
28C5
100
AcDbXrecord
 10
0.0
 20
0.0
 30
0.0
  0
XRECORD
  5
28E2
102
{ACAD_REACTORS
330
28C5
102
}
330
28C5
100
AcDbXrecord
 10
0.0
 20
0.0
 30
0.0
  0
XRECORD
  5
28E3
102
{ACAD_REACTORS
330
28C5
102
}
330
28C5
100
AcDbXrecord
 10
0.0
 20
0.0
 30
0.0
  0
XRECORD
  5
28E4
102
{ACAD_REACTORS
330
28C5
102
}
330
28C5
100
AcDbXrecord
 10
0.0
 20
0.0
 30
0.0
  0
XRECORD
  5
28E5
102
{ACAD_REACTORS
330
28C5
102
}
330
28C5
100
AcDbXrecord
 10
0.0
 20
0.0
 30
0.0
  0
LAYER_INDEX
  5
28BC
102
{ACAD_REACTORS
330
28BB
102
}
330
28BB
100
AcDbIndex
 40
2453152.460575983
100
AcDbLayerIndex
  8
0
360
28BD
 90
        0
  8
AM_0
360
28BE
 90
       55
  8
AM_11
360
28BF
 90
        3
  8
AM_7
360
28C0
 90
        1
  8
AM_5
360
28C1
 90
        4
  8
Defpoints
360
28C2
 90
        0
  8
AM_6
360
28C3
 90
        1
  0
XRECORD
  5
2D
102
{ACAD_REACTORS
330
2C
102
}
330
2C
100
AcDbXrecord
  1
VERSION
140
15.0
  1
PRODUCT
  2
AutoCAD Mechanical 2000
  0
IDBUFFER
  5
28BD
330
0
100
AcDbIdBuffer
  0
IDBUFFER
  5
28BE
330
0
100
AcDbIdBuffer
330
22D8
330
22E0
330
22F9
330
22FA
330
22FB
330
22FC
330
22FD
330
2207
330
2208
330
2209
330
220A
330
220B
330
220C
330
220D
330
220E
330
220F
330
2210
330
2211
330
2212
330
2213
330
2214
330
2215
330
2216
330
2217
330
2218
330
2219
330
221A
330
2229
330
222A
330
223A
330
223B
330
223E
330
223F
330
2240
330
2241
330
2242
330
2243
330
2244
330
2245
330
2246
330
2247
330
2248
330
2249
330
224A
330
224B
330
224C
330
224D
330
224E
330
224F
330
2250
330
22CD
330
22CE
330
22CF
330
22D4
330
22D7
  0
IDBUFFER
  5
28BF
330
0
100
AcDbIdBuffer
330
223C
330
223D
330
26C7
  0
IDBUFFER
  5
28C0
330
0
100
AcDbIdBuffer
330
20AA
  0
IDBUFFER
  5
28C1
330
0
100
AcDbIdBuffer
330
2307
330
2393
330
2423
330
24B8
  0
IDBUFFER
  5
28C2
330
0
100
AcDbIdBuffer
  0
IDBUFFER
  5
28C3
330
0
100
AcDbIdBuffer
330
E5A
  0
ENDSEC
  0
EOF
