  0
SECTION
  2
HEADER
  9
$ACADVER
  1
AC1014
  9
$ACADMAINTVER
 70
     9
  9
$DWGCODEPAGE
  3
ANSI_932
  9
$INSBASE
 10
0.0
 20
0.0
 30
0.0
  9
$EXTMIN
 10
-111.9932451532983
 20
-56.50000099999997
 30
-0.00000001
  9
$EXTMAX
 10
21.83665304628215
 20
9.073937289935889
 30
0.00000001
  9
$LIMMIN
 10
-119.4103057978848
 20
-64.07088123960313
  9
$LIMMAX
 10
26.92028964567458
 20
27.94892642738636
  9
$ORTHOMODE
 70
     0
  9
$REGENMODE
 70
     1
  9
$FILLMODE
 70
     1
  9
$QTEXTMODE
 70
     0
  9
$MIRRTEXT
 70
     0
  9
$DRAGMODE
 70
     2
  9
$LTSCALE
 40
1.0
  9
$OSMODE
 70
    55
  9
$ATTMODE
 70
     1
  9
$TEXTSIZE
 40
2.5
  9
$TRACEWID
 40
1.0
  9
$TEXTSTYLE
  7
STANDARD
  9
$CLAYER
  8
AM_0
  9
$CELTYPE
  6
BYLAYER
  9
$CECOLOR
 62
   256
  9
$CELTSCALE
 40
1.0
  9
$DELOBJ
 70
     1
  9
$DISPSILH
 70
     0
  9
$DIMSCALE
 40
1.0
  9
$DIMASZ
 40
2.5
  9
$DIMEXO
 40
1.0
  9
$DIMDLI
 40
12.0
  9
$DIMRND
 40
0.0
  9
$DIMDLE
 40
0.0
  9
$DIMEXE
 40
1.0
  9
$DIMTP
 40
0.1
  9
$DIMTM
 40
0.1
  9
$DIMTXT
 40
3.2
  9
$DIMCEN
 40
0.0
  9
$DIMTSZ
 40
0.0
  9
$DIMTOL
 70
     0
  9
$DIMLIM
 70
     0
  9
$DIMTIH
 70
     0
  9
$DIMTOH
 70
     0
  9
$DIMSE1
 70
     0
  9
$DIMSE2
 70
     0
  9
$DIMTAD
 70
     3
  9
$DIMZIN
 70
     8
  9
$DIMBLK
  1
OPEN30
  9
$DIMASO
 70
     1
  9
$DIMSHO
 70
     1
  9
$DIMPOST
  1

  9
$DIMAPOST
  1
"
  9
$DIMALT
 70
     0
  9
$DIMALTD
 70
     2
  9
$DIMALTF
 40
0.0393701
  9
$DIMLFAC
 40
1.0
  9
$DIMTOFL
 70
     1
  9
$DIMTVP
 40
0.0
  9
$DIMTIX
 70
     0
  9
$DIMSOXD
 70
     0
  9
$DIMSAH
 70
     0
  9
$DIMBLK1
  1

  9
$DIMBLK2
  1

  9
$DIMSTYLE
  2
AM_JIS
  9
$DIMCLRD
 70
   256
  9
$DIMCLRE
 70
   256
  9
$DIMCLRT
 70
     2
  9
$DIMTFAC
 40
0.71
  9
$DIMGAP
 40
1.5
  9
$DIMJUST
 70
     0
  9
$DIMSD1
 70
     0
  9
$DIMSD2
 70
     0
  9
$DIMTOLJ
 70
     0
  9
$DIMTZIN
 70
     0
  9
$DIMALTZ
 70
     0
  9
$DIMALTTZ
 70
     0
  9
$DIMFIT
 70
     3
  9
$DIMUPT
 70
     0
  9
$DIMUNIT
 70
     2
  9
$DIMDEC
 70
     3
  9
$DIMTDEC
 70
     3
  9
$DIMALTU
 70
     2
  9
$DIMALTTD
 70
     2
  9
$DIMTXSTY
  7
ASAMI
  9
$DIMAUNIT
 70
     0
  9
$LUNITS
 70
     2
  9
$LUPREC
 70
     2
  9
$SKETCHINC
 40
1.0
  9
$FILLETRAD
 40
2.5
  9
$AUNITS
 70
     0
  9
$AUPREC
 70
     0
  9
$MENU
  1
.
  9
$ELEVATION
 40
0.0
  9
$PELEVATION
 40
0.0
  9
$THICKNESS
 40
0.0
  9
$LIMCHECK
 70
     0
  9
$BLIPMODE
 70
     0
  9
$CHAMFERA
 40
1.0
  9
$CHAMFERB
 40
1.0
  9
$CHAMFERC
 40
20.0
  9
$CHAMFERD
 40
0.0
  9
$SKPOLY
 70
     0
  9
$TDCREATE
 40
2452836.771637361
  9
$TDUPDATE
 40
2453152.460746343
  9
$TDINDWG
 40
0.0396308912
  9
$TDUSRTIMER
 40
0.0396308912
  9
$USRTIMER
 70
     1
  9
$ANGBASE
 50
0.0
  9
$ANGDIR
 70
     0
  9
$PDMODE
 70
     0
  9
$PDSIZE
 40
0.0
  9
$PLINEWID
 40
0.0
  9
$COORDS
 70
     1
  9
$SPLFRAME
 70
     0
  9
$SPLINETYPE
 70
     6
  9
$SPLINESEGS
 70
     8
  9
$ATTDIA
 70
     1
  9
$ATTREQ
 70
     1
  9
$HANDLING
 70
 12289
  9
$HANDSEED
  5
269F
  9
$SURFTAB1
 70
     6
  9
$SURFTAB2
 70
     6
  9
$SURFTYPE
 70
     6
  9
$SURFU
 70
     6
  9
$SURFV
 70
     6
  9
$UCSNAME
  2

  9
$UCSORG
 10
0.0
 20
0.0
 30
0.0
  9
$UCSXDIR
 10
1.0
 20
0.0
 30
0.0
  9
$UCSYDIR
 10
0.0
 20
1.0
 30
0.0
  9
$PUCSNAME
  2

  9
$PUCSORG
 10
0.0
 20
0.0
 30
0.0
  9
$PUCSXDIR
 10
1.0
 20
0.0
 30
0.0
  9
$PUCSYDIR
 10
0.0
 20
1.0
 30
0.0
  9
$USERI1
 70
     0
  9
$USERI2
 70
     0
  9
$USERI3
 70
     0
  9
$USERI4
 70
     0
  9
$USERI5
 70
     0
  9
$USERR1
 40
0.0
  9
$USERR2
 40
0.0
  9
$USERR3
 40
0.0
  9
$USERR4
 40
0.0
  9
$USERR5
 40
0.0
  9
$WORLDVIEW
 70
     1
  9
$SHADEDGE
 70
     3
  9
$SHADEDIF
 70
    70
  9
$TILEMODE
 70
     1
  9
$MAXACTVP
 70
    64
  9
$PINSBASE
 10
0.0
 20
0.0
 30
0.0
  9
$PLIMCHECK
 70
     0
  9
$PEXTMIN
 10
1.000000000000000E+20
 20
1.000000000000000E+20
 30
1.000000000000000E+20
  9
$PEXTMAX
 10
-1.000000000000000E+20
 20
-1.000000000000000E+20
 30
-1.000000000000000E+20
  9
$PLIMMIN
 10
0.0
 20
0.0
  9
$PLIMMAX
 10
841.0
 20
594.0
  9
$UNITMODE
 70
     0
  9
$VISRETAIN
 70
     1
  9
$PLINEGEN
 70
     0
  9
$PSLTSCALE
 70
     0
  9
$TREEDEPTH
 70
  3020
  9
$PICKSTYLE
 70
     0
  9
$CMLSTYLE
  2
STANDARD
  9
$CMLJUST
 70
     0
  9
$CMLSCALE
 40
20.0
  9
$PROXYGRAPHICS
 70
     1
  9
$MEASUREMENT
 70
     1
  0
ENDSEC
  0
SECTION
  2
CLASSES
  0
CLASS
  1
ACDBDICTIONARYWDFLT
  2
AcDbDictionaryWithDefault
  3
AutoCAD 2000
 90
        0
280
     0
281
     0
  0
CLASS
  1
ACDBPLACEHOLDER
  2
AcDbPlaceHolder
  3
AutoCAD 2000
 90
        0
280
     0
281
     0
  0
CLASS
  1
LAYOUT
  2
AcDbLayout
  3
AutoCAD 2000
 90
        0
280
     0
281
     0
  0
CLASS
  1
AMGSETTINGSOBJ
  2
AmgSettingsObj
  3
"AcadM|Product Description: AutoCAD Mechanical 2000|Company: Autodesk"
 90
        0
280
     0
281
     0
  0
CLASS
  1
ACME_DOCUMENT
  2
AcMeDbDoc
  3
AcMeServices
 90
        0
280
     0
281
     0
  0
CLASS
  1
ACMESCOPE
  2
AcMeScope
  3
AcMeServices
 90
        0
280
     0
281
     0
  0
CLASS
  1
ACMECOMMANDHISTORY
  2
AcMeCommandHistory
  3
AcMeServices
 90
        0
280
     0
281
     0
  0
CLASS
  1
DICTIONARYVAR
  2
AcDbDictionaryVar
  3
AutoCAD 2000
 90
        0
280
     0
281
     0
  0
CLASS
  1
ACIMSYSVARMAN
  2
AcImSysVarManager
  3
AcMeServices
 90
        0
280
     0
281
     0
  0
CLASS
  1
ACIMREALSYSVAR
  2
AcImRealSysVar
  3
AcMeServices
 90
        0
280
     0
281
     0
  0
CLASS
  1
ACIMINTSYSVAR
  2
AcImIntSysVar
  3
AcMeServices
 90
        0
280
     0
281
     0
  0
CLASS
  1
ACMEDRAWINGMAN
  2
AcMeDrawingMan
  3
AcMeServices
 90
        0
280
     0
281
     0
  0
CLASS
  1
ACMEVIEW
  2
AcMeView
  3
AcMeServices
 90
        0
280
     0
281
     0
  0
CLASS
  1
ACDBENTITYCACHE
  2
AcMeEntityCache
  3
AcMeServices
 90
        0
280
     0
281
     0
  0
CLASS
  1
GSMANAGER
  2
AcMeGSManager
  3
AcMeServices
 90
        0
280
     0
281
     0
  0
CLASS
  1
AmdtInternalReactor
  2
AmdtInternalReactor
  3
AcMeServices
 90
        0
280
     0
281
     0
  0
CLASS
  1
ACMESTATEMGR
  2
AcMeStateMgr
  3
AcMeServices
 90
        0
280
     0
281
     0
  0
CLASS
  1
ACME_DATABASE
  2
AcMeDbDatabase
  3
AcMeServices
 90
        0
280
     0
281
     0
  0
CLASS
  1
ACRFINSADJUSTERMGR
  2
AcRfInsAdjusterMgr
  3
AcMeServices
 90
        0
280
     0
281
     0
  0
CLASS
  1
ACMDATADICTIONARY
  2
AcmDataDictionary
  3
"AcmSymBB|Product Description: AutoCAD Mechanical 2000|Company: Autodesk"
 90
        0
280
     0
281
     0
  0
CLASS
  1
ACMDATAENTRYBLOCK
  2
AcmDataEntryBlock
  3
"AcmSymBB|Product Description: AutoCAD Mechanical 2000|Company: Autodesk"
 90
        0
280
     0
281
     0
  0
CLASS
  1
AMGOBJPROPCFG
  2
AmgObjPropCfg
  3
"AmgLay|Product Description: AutoCAD Mechanical 2000|Company: Autodesk"
 90
        1
280
     0
281
     0
  0
CLASS
  1
ACAMGFILTERDAT
  2
AcAmgFilterDat
  3
"AcadM|Product Description: AutoCAD Mechanical 2000|Company: Autodesk"
 90
        0
280
     0
281
     0
  0
CLASS
  1
LAYER_INDEX
  2
AcDbLayerIndex
  3
AutoCAD 2000
 90
        0
280
     0
281
     0
  0
CLASS
  1
IDBUFFER
  2
AcDbIdBuffer
  3
AutoCAD 2000
 90
        0
280
     0
281
     0
  0
CLASS
  1
ACIMSTRSYSVAR
  2
AcImStrSysVar
  3
AcMeServices
 90
        0
280
     0
281
     0
  0
CLASS
  1
ACMSTANDARDJIS
  2
AcmStandardJIS
  3
"AcmSymBB|Product Description: AutoCAD Mechanical 2000|Company: Autodesk"
 90
        0
280
     0
281
     0
  0
CLASS
  1
ACMSURFSTANDARDJIS
  2
AcmSurfTextStdJIS
  3
"AcmSymBB|Product Description: AutoCAD Mechanical 2000|Company: Autodesk"
 90
        0
280
     0
281
     0
  0
CLASS
  1
ACMFCFSTANDARDJIS
  2
AcmFCFStdJIS
  3
"AcmSymBB|Product Description: AutoCAD Mechanical 2000|Company: Autodesk"
 90
        0
280
     0
281
     0
  0
CLASS
  1
ACMWELDSTANDARDJIS
  2
AcmWeldingStdJIS
  3
"AcmSymBB|Product Description: AutoCAD Mechanical 2000|Company: Autodesk"
 90
        0
280
     0
281
     0
  0
CLASS
  1
ACMIDSTANDARDJIS
  2
AcmIdStdJIS
  3
"AcmSymBB|Product Description: AutoCAD Mechanical 2000|Company: Autodesk"
 90
        0
280
     0
281
     0
  0
CLASS
  1
ACMDATUMSTANDARDJIS
  2
AcmDatumStdJIS
  3
"AcmSymBB|Product Description: AutoCAD Mechanical 2000|Company: Autodesk"
 90
        0
280
     0
281
     0
  0
CLASS
  1
ACMBOMSTANDARDJIS
  2
AcmBOMStdJIS
  3
"AcmSymBB|Product Description: AutoCAD Mechanical 2000|Company: Autodesk"
 90
        0
280
     0
281
     0
  0
CLASS
  1
ACMSTANDARDANSI
  2
AcmStandardANSI
  3
"AcmSymBB|Product Description: AutoCAD Mechanical 2000|Company: Autodesk"
 90
        0
280
     0
281
     0
  0
CLASS
  1
ACMSURFSTANDARDANSI
  2
AcmSurfTextStdANSI
  3
"AcmSymBB|Product Description: AutoCAD Mechanical 2000|Company: Autodesk"
 90
        0
280
     0
281
     0
  0
CLASS
  1
ACMFCFSTANDARDANSI
  2
AcmFCFStdANSI
  3
"AcmSymBB|Product Description: AutoCAD Mechanical 2000|Company: Autodesk"
 90
        0
280
     0
281
     0
  0
CLASS
  1
ACMWELDSTANDARDANSI
  2
AcmWeldingStdANSI
  3
"AcmSymBB|Product Description: AutoCAD Mechanical 2000|Company: Autodesk"
 90
        0
280
     0
281
     0
  0
CLASS
  1
ACMIDSTANDARDANSI
  2
AcmIdStdANSI
  3
"AcmSymBB|Product Description: AutoCAD Mechanical 2000|Company: Autodesk"
 90
        0
280
     0
281
     0
  0
CLASS
  1
ACMDATUMSTANDARDANSI
  2
AcmDatumStdANSI
  3
"AcmSymBB|Product Description: AutoCAD Mechanical 2000|Company: Autodesk"
 90
        0
280
     0
281
     0
  0
CLASS
  1
ACMBOMSTANDARDANSI
  2
AcmBOMStdANSI
  3
"AcmSymBB|Product Description: AutoCAD Mechanical 2000|Company: Autodesk"
 90
        0
280
     0
281
     0
  0
CLASS
  1
ACMSTANDARDBSI
  2
AcmStandardBSI
  3
"AcmSymBB|Product Description: AutoCAD Mechanical 2000|Company: Autodesk"
 90
        0
280
     0
281
     0
  0
CLASS
  1
ACMSURFSTANDARDBSI
  2
AcmSurfTextStdBSI
  3
"AcmSymBB|Product Description: AutoCAD Mechanical 2000|Company: Autodesk"
 90
        0
280
     0
281
     0
  0
CLASS
  1
ACMFCFSTANDARDBSI
  2
AcmFCFStdBSI
  3
"AcmSymBB|Product Description: AutoCAD Mechanical 2000|Company: Autodesk"
 90
        0
280
     0
281
     0
  0
CLASS
  1
ACMWELDSTANDARDBSI
  2
AcmWeldingStdBSI
  3
"AcmSymBB|Product Description: AutoCAD Mechanical 2000|Company: Autodesk"
 90
        0
280
     0
281
     0
  0
CLASS
  1
ACMIDSTANDARDBSI
  2
AcmIdStdBSI
  3
"AcmSymBB|Product Description: AutoCAD Mechanical 2000|Company: Autodesk"
 90
        0
280
     0
281
     0
  0
CLASS
  1
ACMDATUMSTANDARDBSI
  2
AcmDatumStdBSI
  3
"AcmSymBB|Product Description: AutoCAD Mechanical 2000|Company: Autodesk"
 90
        0
280
     0
281
     0
  0
CLASS
  1
ACMBOMSTANDARDBSI
  2
AcmBOMStdBSI
  3
"AcmSymBB|Product Description: AutoCAD Mechanical 2000|Company: Autodesk"
 90
        0
280
     0
281
     0
  0
CLASS
  1
LONG_TRANSACTION
  2
AcDbLongTransaction
  3
AutoCAD 2000
 90
        0
280
     0
281
     0
  0
CLASS
  1
LWPOLYLINE
  2
AcDbPolyline
  3
AutoCAD 2000
 90
        0
280
     0
281
     1
  0
CLASS
  1
HATCH
  2
AcDbHatch
  3
AutoCAD 2000
 90
        0
280
     0
281
     1
  0
CLASS
  1
XRECORD
  2
AcDbXrecord
  3
AutoCAD 2000
 90
        0
280
     0
281
     0
  0
ENDSEC
  0
SECTION
  2
TABLES
  0
TABLE
  2
VPORT
  5
8
330
0
100
AcDbSymbolTable
 70
     3
  0
VPORT
  5
2674
330
8
100
AcDbSymbolTableRecord
100
AcDbViewportTableRecord
  2
*ACTIVE
 70
     0
 10
0.0
 20
0.0
 11
1.0
 21
1.0
 12
-45.07835526640443
 22
-23.71252330835603
 13
0.0
 23
0.0
 14
2.5
 24
2.5
 15
10.0
 25
10.0
 16
0.0
 26
0.0
 36
1.0
 17
0.0
 27
0.0
 37
0.0
 40
85.82244603396274
 41
1.56570841889117
 42
50.0
 43
0.0
 44
0.0
 50
0.0
 51
0.0
 71
     0
 72
   100
 73
     1
 74
     3
 75
     0
 76
     0
 77
     0
 78
     0
  0
ENDTAB
  0
TABLE
  2
LTYPE
  5
5
330
0
100
AcDbSymbolTable
 70
    10
  0
LTYPE
  5
14
330
5
100
AcDbSymbolTableRecord
100
AcDbLinetypeTableRecord
  2
BYBLOCK
 70
     0
  3

 72
    65
 73
     0
 40
0.0
  0
LTYPE
  5
15
330
5
100
AcDbSymbolTableRecord
100
AcDbLinetypeTableRecord
  2
BYLAYER
 70
     0
  3

 72
    65
 73
     0
 40
0.0
  0
LTYPE
  5
16
330
5
100
AcDbSymbolTableRecord
100
AcDbLinetypeTableRecord
  2
CONTINUOUS
 70
     0
  3
Solid line
 72
    65
 73
     0
 40
0.0
  0
LTYPE
  5
4B
330
5
100
AcDbSymbolTableRecord
100
AcDbLinetypeTableRecord
  2
AM_ISO02W050
 70
     0
  3
__ __ __ __ __ __ __ __ __ __ __ __ __ __ __
 72
    65
 73
     2
 40
7.5
 49
6.0
 74
     0
 49
-1.5
 74
     0
  0
LTYPE
  5
4C
330
5
100
AcDbSymbolTableRecord
100
AcDbLinetypeTableRecord
  2
AM_ISO08W050
 70
     0
  3
____ . ____ . ____ . ____ . ____ . ____ . ____
 72
    65
 73
     4
 40
18.0
 49
12.0
 74
     0
 49
-1.5
 74
     0
 49
3.0
 74
     0
 49
-1.5
 74
     0
  0
LTYPE
  5
4D
330
5
100
AcDbSymbolTableRecord
100
AcDbLinetypeTableRecord
  2
AM_ISO09W050
 70
     0
  3
_____ . . _____ . . _____ . . ____ .. ____
 72
    65
 73
     6
 40
22.5
 49
12.0
 74
     0
 49
-1.5
 74
     0
 49
3.0
 74
     0
 49
-1.5
 74
     0
 49
3.0
 74
     0
 49
-1.5
 74
     0
  0
LTYPE
  5
4E
330
5
100
AcDbSymbolTableRecord
100
AcDbLinetypeTableRecord
  2
AMCONSTR
 70
     0
  3
_______________________
 72
    65
 73
     2
 40
9999.0
 49
9999.0
 74
     0
 49
0.0
 74
     0
  0
LTYPE
  5
4F
330
5
100
AcDbSymbolTableRecord
100
AcDbLinetypeTableRecord
  2
AM_ISO02W050X2
 70
     0
  3
 _ _ _ _ _ _ _ _ _ _ _ _
 72
    65
 73
     2
 40
3.75
 49
3.0
 74
     0
 49
-0.75
 74
     0
  0
LTYPE
  5
50
330
5
100
AcDbSymbolTableRecord
100
AcDbLinetypeTableRecord
  2
AM_ISO08W050X2
 70
     0
  3
__ . __ . __ . __ . __ . __
 72
    65
 73
     4
 40
9.0
 49
6.0
 74
     0
 49
-0.75
 74
     0
 49
1.5
 74
     0
 49
-0.75
 74
     0
  0
LTYPE
  5
53
330
5
100
AcDbSymbolTableRecord
100
AcDbLinetypeTableRecord
  2
AMZIGZAG
 70
     0
  3
/\/-/\/-/\/-/\/-/\/-/\/
 72
    65
 73
     2
 40
11.00009999999999
 49
0.0001
 74
     4
 75
   135
340
52
 46
0.04
 50
0.0
 44
0.0
 45
0.0
 49
-11.0
 74
     0
  0
LTYPE
  5
166
330
5
100
AcDbSymbolTableRecord
100
AcDbLinetypeTableRecord
  2
ACJISTGL
 70
     0
  3
_ _ _ _ _
 72
    65
 73
     2
 40
3.0
 49
2.0
 74
     0
 49
-1.0
 74
     0
  0
LTYPE
  5
26A
330
5
100
AcDbSymbolTableRecord
100
AcDbLinetypeTableRecord
  2
ACJISTGB
 70
     0
  3
__ . . __ . .
 72
    65
 73
     6
 40
9.0
 49
4.0
 74
     0
 49
-1.0
 74
     0
 49
1.0
 74
     0
 49
-1.0
 74
     0
 49
1.0
 74
     0
 49
-1.0
 74
     0
  0
ENDTAB
  0
TABLE
  2
LAYER
  5
2
330
0
100
AcDbSymbolTable
 70
     7
  0
LAYER
  5
10
330
2
100
AcDbSymbolTableRecord
100
AcDbLayerTableRecord
  2
0
 70
     0
 62
     7
  6
CONTINUOUS
  0
LAYER
  5
3F9
330
2
100
AcDbSymbolTableRecord
100
AcDbLayerTableRecord
  2
AM_0
 70
     0
 62
     7
  6
CONTINUOUS
  0
LAYER
  5
BD4
330
2
100
AcDbSymbolTableRecord
100
AcDbLayerTableRecord
  2
AM_11
 70
     0
 62
     3
  6
AM_ISO09W050
  0
LAYER
  5
BD5
330
2
100
AcDbSymbolTableRecord
100
AcDbLayerTableRecord
  2
AM_7
 70
     0
 62
     4
  6
AM_ISO08W050
  0
LAYER
  5
BD6
330
2
100
AcDbSymbolTableRecord
100
AcDbLayerTableRecord
  2
AM_5
 70
     0
 62
     3
  6
CONTINUOUS
  0
LAYER
  5
BD7
330
2
100
AcDbSymbolTableRecord
100
AcDbLayerTableRecord
  2
DEFPOINTS
 70
     0
 62
     7
  6
CONTINUOUS
  0
LAYER
  5
E59
330
2
100
AcDbSymbolTableRecord
100
AcDbLayerTableRecord
  2
AM_6
 70
     0
 62
     2
  6
CONTINUOUS
  0
ENDTAB
  0
TABLE
  2
STYLE
  5
3
330
0
100
AcDbSymbolTable
 70
     5
  0
STYLE
  5
11
330
3
100
AcDbSymbolTableRecord
100
AcDbTextStyleTableRecord
  2
STANDARD
 70
     0
 40
0.0
 41
1.0
 50
0.0
 71
     0
 42
2.5
  3
simplex.shx
  4
EXTFONT.SHX
  0
STYLE
  5
52
330
3
100
AcDbSymbolTableRecord
100
AcDbTextStyleTableRecord
  2

 70
     1
 40
0.0
 41
1.0
 50
0.0
 71
     0
 42
2.5
  3
ltypeshp.shx
  4

  0
STYLE
  5
6B
330
3
100
AcDbSymbolTableRecord
100
AcDbTextStyleTableRecord
  2
ASAMI
 70
     0
 40
0.0
 41
1.0
 50
0.0
 71
     0
 42
2.5
  3
simplex.shx
  4
EXTFONT.SHX
  0
STYLE
  5
262
330
3
100
AcDbSymbolTableRecord
100
AcDbTextStyleTableRecord
  2
ACJISTS
 70
     0
 40
1.0
 41
1.0
 50
0.0
 71
     0
 42
2.5
  3
simplex.shx
  4
bigfont.shx
  0
STYLE
  5
269
330
3
100
AcDbSymbolTableRecord
100
AcDbTextStyleTableRecord
  2
ACJISGDT
 70
     0
 40
0.0
 41
1.0
 50
0.0
 71
     0
 42
2.5
  3
amgdtans.shx
  4

  0
ENDTAB
  0
TABLE
  2
VIEW
  5
6
330
0
100
AcDbSymbolTable
 70
     0
  0
ENDTAB
  0
TABLE
  2
UCS
  5
7
330
0
100
AcDbSymbolTable
 70
     0
  0
ENDTAB
  0
TABLE
  2
APPID
  5
9
330
0
100
AcDbSymbolTable
 70
    12
  0
APPID
  5
12
330
9
100
AcDbSymbolTableRecord
100
AcDbRegAppTableRecord
  2
ACAD
 70
     0
  0
APPID
  5
30
330
9
100
AcDbSymbolTableRecord
100
AcDbRegAppTableRecord
  2
MCAD_NO_VIS
 70
     0
  0
APPID
  5
31
330
9
100
AcDbSymbolTableRecord
100
AcDbRegAppTableRecord
  2
ACAD_TEMP_GRAPHIC
 70
     0
  0
APPID
  5
2C2
330
9
100
AcDbSymbolTableRecord
100
AcDbRegAppTableRecord
  2
GENIUS_GENDTOL_13
 70
     0
  0
APPID
  5
339
330
9
100
AcDbSymbolTableRecord
100
AcDbRegAppTableRecord
  2
GENIUS_GENODEF_13
 70
     0
  0
APPID
  5
33A
330
9
100
AcDbSymbolTableRecord
100
AcDbRegAppTableRecord
  2
GENIUS_GENOBJ-N-RSBK_13
 70
     0
  0
APPID
  5
33B
330
9
100
AcDbSymbolTableRecord
100
AcDbRegAppTableRecord
  2
GENIUS_GENOBJ-N-LIB_13
 70
     0
  0
APPID
  5
33C
330
9
100
AcDbSymbolTableRecord
100
AcDbRegAppTableRecord
  2
GENIUS_GENSCALE_13
 70
     0
  0
APPID
  5
378
330
9
100
AcDbSymbolTableRecord
100
AcDbRegAppTableRecord
  2
GENIUS_GENDIMSH_14
 70
     0
  0
APPID
  5
BD8
330
9
100
AcDbSymbolTableRecord
100
AcDbRegAppTableRecord
  2
GENIUS_GENOBJ-N-CEN_13
 70
     0
  0
APPID
  5
BD9
330
9
100
AcDbSymbolTableRecord
100
AcDbRegAppTableRecord
  2
GENIUS_GENFIL_13
 70
     0
  0
APPID
  5
BDA
330
9
100
AcDbSymbolTableRecord
100
AcDbRegAppTableRecord
  2
GENIUS_GENOBJ-N-CHA_13
 70
     0
  0
ENDTAB
  0
TABLE
  2
DIMSTYLE
  5
A
330
0
100
AcDbSymbolTable
 70
     8
  0
DIMSTYLE
105
58
102
{ACAD_REACTORS
330
2307
330
2393
330
2423
330
24B8
102
}
330
A
100
AcDbSymbolTableRecord
100
AcDbDimStyleTableRecord
  2
AM_JIS
 70
     0
  3

  4
"
  5
OPEN30
  6

  7

 40
1.0
 41
2.5
 42
1.0
 43
12.0
 44
1.0
 45
0.0
 46
0.0
 47
0.1
 48
0.1
140
3.2
141
0.0
142
0.0
143
0.0393701
144
1.0
145
0.0
146
0.71
147
1.5
 71
     0
 72
     0
 73
     0
 74
     0
 75
     0
 76
     0
 77
     3
 78
     8
170
     0
171
     2
172
     1
173
     0
174
     0
175
     0
176
   256
177
   256
178
     2
270
     2
271
     3
272
     3
273
     2
274
     2
340
6B
275
     0
280
     0
281
     0
282
     0
283
     0
284
     0
285
     0
286
     0
287
     3
288
     0
  0
DIMSTYLE
105
5F
330
A
100
AcDbSymbolTableRecord
100
AcDbDimStyleTableRecord
  2
AM_JIS$3
 70
     0
  3

  4
"
  5
OPEN30
  6

  7

 40
1.0
 41
2.5
 42
1.0
 43
10.0
 44
1.0
 45
0.0
 46
0.0
 47
0.1
 48
0.1
140
3.2
141
0.0
142
0.0
143
0.0393701
144
1.0
145
0.0
146
0.71
147
1.5
 71
     0
 72
     0
 73
     0
 74
     1
 75
     0
 76
     0
 77
     3
 78
     8
170
     0
171
     2
172
     0
173
     0
174
     0
175
     0
176
   256
177
   256
178
     2
270
     2
271
     2
272
     3
273
     2
274
     2
340
6B
275
     0
280
     0
281
     0
282
     0
283
     0
284
     0
285
     0
286
     0
287
     0
288
     1
  0
DIMSTYLE
105
60
330
A
100
AcDbSymbolTableRecord
100
AcDbDimStyleTableRecord
  2
AM_JIS$4
 70
     0
  3

  4
"
  5
OPEN30
  6

  7

 40
1.0
 41
2.5
 42
1.0
 43
10.0
 44
1.0
 45
0.0
 46
0.0
 47
0.1
 48
0.1
140
3.2
141
0.0
142
0.0
143
0.0393701
144
1.0
145
0.0
146
0.71
147
1.5
 71
     0
 72
     0
 73
     0
 74
     1
 75
     0
 76
     0
 77
     3
 78
     8
170
     0
171
     2
172
     0
173
     0
174
     0
175
     0
176
   256
177
   256
178
     2
270
     2
271
     2
272
     3
273
     2
274
     2
340
6B
275
     0
280
     0
281
     0
282
     0
283
     0
284
     0
285
     0
286
     0
287
     0
288
     1
  0
DIMSTYLE
105
61
330
A
100
AcDbSymbolTableRecord
100
AcDbDimStyleTableRecord
  2
AM_JIS$6
 70
     0
  3

  4
"
  5
OPEN30
  6

  7

 40
1.0
 41
2.5
 42
1.0
 43
10.0
 44
1.0
 45
0.0
 46
0.0
 47
0.1
 48
0.1
140
3.2
141
0.0
142
0.0
143
0.0393701
144
1.0
145
0.0
146
0.71
147
1.5
 71
     0
 72
     0
 73
     0
 74
     0
 75
     0
 76
     0
 77
     0
 78
     8
170
     0
171
     2
172
     1
173
     0
174
     0
175
     0
176
   256
177
   256
178
     2
270
     2
271
     2
272
     2
273
     2
274
     2
340
6B
275
     0
280
     0
281
     0
282
     0
283
     0
284
     0
285
     0
286
     0
287
     3
288
     0
  0
DIMSTYLE
105
62
330
A
100
AcDbSymbolTableRecord
100
AcDbDimStyleTableRecord
  2
AM_JIS$7
 70
     0
  3

  4
"
  5
OPEN30
  6

  7

 40
1.0
 41
2.5
 42
1.0
 43
10.0
 44
1.0
 45
0.0
 46
0.0
 47
0.1
 48
0.1
140
3.2
141
0.0
142
0.0
143
0.0393701
144
1.0
145
0.0
146
0.71
147
1.5
 71
     0
 72
     0
 73
     0
 74
     0
 75
     0
 76
     0
 77
     3
 78
     8
170
     0
171
     2
172
     1
173
     0
174
     0
175
     0
176
   256
177
   256
178
     2
270
     2
271
     2
272
     3
273
     2
274
     2
340
6B
275
     0
280
     0
281
     0
282
     0
283
     0
284
     0
285
     0
286
     0
287
     3
288
     0
  0
DIMSTYLE
105
63
330
A
100
AcDbSymbolTableRecord
100
AcDbDimStyleTableRecord
  2
AM_JIS$SF
 70
     0
  3

  4
"
  5
OPEN30
  6

  7

 40
1.0
 41
2.5
 42
1.0
 43
10.0
 44
1.0
 45
0.0
 46
0.0
 47
0.1
 48
0.1
140
3.2
141
0.0
142
0.0
143
0.0393701
144
1.0
145
0.0
146
0.71
147
1.5
 71
     0
 72
     0
 73
     0
 74
     0
 75
     1
 76
     1
 77
     3
 78
     8
170
     0
171
     2
172
     1
173
     0
174
     0
175
     0
176
   256
177
   256
178
     2
270
     2
271
     2
272
     2
273
     2
274
     2
340
6B
275
     0
280
     0
281
     0
282
     0
283
     0
284
     0
285
     0
286
     0
287
     3
288
     0
  0
DIMSTYLE
105
68
330
A
100
AcDbSymbolTableRecord
100
AcDbDimStyleTableRecord
  2
AM_JIS$SH
 70
     0
  3

  4
"
  5

  6
GENAXEH
  7
OPEN30
 40
1.0
 41
2.5
 42
1.0
 43
10.0
 44
1.0
 45
0.0
 46
0.0
 47
0.1
 48
0.1
140
3.2
141
0.0
142
0.0
143
0.0393701
144
2.0
145
0.0
146
0.71
147
1.5
 71
     0
 72
     0
 73
     0
 74
     0
 75
     1
 76
     1
 77
     3
 78
     8
170
     0
171
     2
172
     1
173
     1
174
     0
175
     0
176
   256
177
   256
178
     2
270
     2
271
     2
272
     2
273
     2
274
     2
340
6B
275
     0
280
     0
281
     0
282
     0
283
     0
284
     0
285
     0
286
     0
287
     3
288
     0
  0
DIMSTYLE
105
B34
330
A
100
AcDbSymbolTableRecord
100
AcDbDimStyleTableRecord
  2
AM_JIS$2
 70
     0
  3

  4
"
  5
OPEN30
  6

  7

 40
1.0
 41
2.5
 42
1.0
 43
12.0
 44
1.0
 45
0.0
 46
0.0
 47
0.1
 48
0.1
140
3.2
141
0.0
142
0.0
143
0.0393701
144
1.0
145
0.0
146
0.71
147
1.5
 71
     0
 72
     0
 73
     0
 74
     0
 75
     0
 76
     0
 77
     3
 78
     8
170
     0
171
     2
172
     1
173
     0
174
     0
175
     0
176
   256
177
   256
178
     2
270
     2
271
     3
272
     3
273
     2
274
     2
340
6B
275
     0
280
     0
281
     0
282
     0
283
     0
284
     0
285
     0
286
     0
287
     3
288
     0
  0
ENDTAB
  0
TABLE
  2
BLOCK_RECORD
  5
1
330
0
100
AcDbSymbolTable
 70
     9
  0
BLOCK_RECORD
  5
1F
102
{ACAD_XDICTIONARY
360
74
102
}
330
1
100
AcDbSymbolTableRecord
100
AcDbBlockTableRecord
  2
*MODEL_SPACE
  0
BLOCK_RECORD
  5
101
102
{ACAD_XDICTIONARY
360
269D
102
}
330
1
100
AcDbSymbolTableRecord
100
AcDbBlockTableRecord
  2
*PAPER_SPACE
  0
BLOCK_RECORD
  5
59
330
1
100
AcDbSymbolTableRecord
100
AcDbBlockTableRecord
  2
_OPEN30
  0
BLOCK_RECORD
  5
64
330
1
100
AcDbSymbolTableRecord
100
AcDbBlockTableRecord
  2
GENAXEH
  0
BLOCK_RECORD
  5
2308
330
1
100
AcDbSymbolTableRecord
100
AcDbBlockTableRecord
  2
*D5
  0
BLOCK_RECORD
  5
2394
330
1
100
AcDbSymbolTableRecord
100
AcDbBlockTableRecord
  2
*D6
  0
BLOCK_RECORD
  5
2424
330
1
100
AcDbSymbolTableRecord
100
AcDbBlockTableRecord
  2
*D7
  0
BLOCK_RECORD
  5
24B9
330
1
100
AcDbSymbolTableRecord
100
AcDbBlockTableRecord
  2
*D8
  0
ENDTAB
  0
ENDSEC
  0
SECTION
  2
BLOCKS
  0
BLOCK
  5
20
330
1F
100
AcDbEntity
  8
0
100
AcDbBlockBegin
  2
*MODEL_SPACE
 70
     0
 10
0.0
 20
0.0
 30
0.0
  3
*MODEL_SPACE
  1

  0
ENDBLK
  5
21
330
1F
100
AcDbEntity
  8
0
100
AcDbBlockEnd
  0
BLOCK
  5
103
330
101
100
AcDbEntity
 67
     1
  8
0
100
AcDbBlockBegin
  2
*PAPER_SPACE
 70
     0
 10
0.0
 20
0.0
 30
0.0
  3
*PAPER_SPACE
  1

  0
ENDBLK
  5
104
330
101
100
AcDbEntity
 67
     1
  8
0
100
AcDbBlockEnd
  0
BLOCK
  5
5D
330
59
100
AcDbEntity
  8
0
100
AcDbBlockBegin
  2
_OPEN30
 70
     0
 10
0.0
 20
0.0
 30
0.0
  3
_OPEN30
  1

  0
LINE
  5
5A
330
59
100
AcDbEntity
  8
0
 62
     0
100
AcDbLine
 10
-1.0
 20
0.26794919
 30
0.0
 11
0.0
 21
0.0
 31
0.0
  0
LINE
  5
5B
330
59
100
AcDbEntity
  8
0
 62
     0
100
AcDbLine
 10
0.0
 20
0.0
 30
0.0
 11
-1.0
 21
-0.26794919
 31
0.0
  0
LINE
  5
5C
330
59
100
AcDbEntity
  8
0
 62
     0
100
AcDbLine
 10
0.0
 20
0.0
 30
0.0
 11
-1.0
 21
0.0
 31
0.0
  0
ENDBLK
  5
5E
330
59
100
AcDbEntity
  8
0
100
AcDbBlockEnd
  0
BLOCK
  5
66
330
64
100
AcDbEntity
  8
0
100
AcDbBlockBegin
  2
GENAXEH
 70
     0
 10
0.0
 20
0.0
 30
0.0
  3
GENAXEH
  1

  0
LINE
  5
65
330
64
100
AcDbEntity
  8
0
100
AcDbLine
 10
-1.0
 20
0.0
 30
0.0
 11
1.0
 21
0.0
 31
0.0
  0
ENDBLK
  5
67
330
64
100
AcDbEntity
  8
0
100
AcDbBlockEnd
  0
BLOCK
  5
2312
330
2308
100
AcDbEntity
  8
0
100
AcDbBlockBegin
  2
*D5
 70
     1
 10
0.0
 20
0.0
 30
0.0
  3
*D5
  1

  0
LINE
  5
257E
330
2308
100
AcDbEntity
  8
AM_5
100
AcDbLine
 10
-90.00000000000026
 20
7.999999999999996
 30
0.0
 11
-108.2932451532983
 21
8.000000000000001
 31
0.0
  0
LINE
  5
257F
330
2308
100
AcDbEntity
  8
AM_5
100
AcDbLine
 10
-90.00000000000026
 20
-8.000000000000021
 30
0.0
 11
-108.2932451532983
 21
-8.000000000000014
 31
0.0
  0
LINE
  5
2580
330
2308
100
AcDbEntity
  8
AM_5
100
AcDbLine
 10
-107.2932451532983
 20
5.5
 30
0.0
 11
-107.2932451532983
 21
-5.500000000000015
 31
0.0
  0
INSERT
  5
2581
330
2308
100
AcDbEntity
  8
AM_5
100
AcDbBlockReference
  2
_OPEN30
 10
-107.2932451532983
 20
8.0
 30
0.0
 41
2.5
 42
2.5
 43
2.5
 50
90.0
  0
INSERT
  5
2582
330
2308
100
AcDbEntity
  8
AM_5
100
AcDbBlockReference
  2
_OPEN30
 10
-107.2932451532983
 20
-8.000000000000015
 30
0.0
 41
2.5
 42
2.5
 43
2.5
 50
270.0
  0
MTEXT
  5
2583
330
2308
100
AcDbEntity
  8
AM_5
 62
     2
100
AcDbMText
 10
-110.3932451532983
 20
-0.0000000000000241
 30
0.0
 40
3.2
 41
0.0
 71
     5
 72
     1
  1
%%c16
  7
ASAMI
 11
0.0000000000000001
 21
1.0
 31
0.0
1001
ACAD
1000
MTEXTBEGIN
1070
    73
1070
     1
1070
    44
1040
1.0
1070
    74
1070
     0
1000
MTEXTEND
  0
POINT
  5
2584
330
2308
100
AcDbEntity
  8
DEFPOINTS
 62
     0
100
AcDbPoint
 10
-89.00000000000027
 20
7.999999999999995
 30
0.0
  0
POINT
  5
2585
330
2308
100
AcDbEntity
  8
DEFPOINTS
 62
     0
100
AcDbPoint
 10
-89.00000000000025
 20
-8.000000000000021
 30
0.0
  0
POINT
  5
2586
330
2308
100
AcDbEntity
  8
DEFPOINTS
 62
     0
100
AcDbPoint
 10
-107.2932451532983
 20
-8.000000000000015
 30
0.0
  0
ENDBLK
  5
2313
330
2308
100
AcDbEntity
  8
0
100
AcDbBlockEnd
  0
BLOCK
  5
239E
330
2394
100
AcDbEntity
  8
0
100
AcDbBlockBegin
  2
*D6
 70
     1
 10
0.0
 20
0.0
 30
0.0
  3
*D6
  1

  0
LINE
  5
2575
330
2394
100
AcDbEntity
  8
AM_5
100
AcDbLine
 10
-90.00000000000026
 20
-8.000000000000007
 30
0.0
 11
-90.00000000000026
 21
-35.00000099999996
 31
0.0
  0
LINE
  5
2576
330
2394
100
AcDbEntity
  8
AM_5
100
AcDbLine
 10
-0.000000000000263
 20
-8.500000000000003
 30
0.0
 11
-0.0000000000002646
 21
-35.00000099999996
 31
0.0
  0
LINE
  5
2577
330
2394
100
AcDbEntity
  8
AM_5
100
AcDbLine
 10
-87.50000000000026
 20
-34.00000099999996
 30
0.0
 11
-2.500000000000264
 21
-34.00000099999996
 31
0.0
  0
INSERT
  5
2578
330
2394
100
AcDbEntity
  8
AM_5
100
AcDbBlockReference
  2
_OPEN30
 10
-90.00000000000026
 20
-34.00000099999996
 30
0.0
 41
2.5
 42
2.5
 43
2.5
 50
180.0
  0
INSERT
  5
2579
330
2394
100
AcDbEntity
  8
AM_5
100
AcDbBlockReference
  2
_OPEN30
 10
-0.0000000000002645
 20
-34.00000099999996
 30
0.0
 41
2.5
 42
2.5
 43
2.5
  0
MTEXT
  5
257A
330
2394
100
AcDbEntity
  8
AM_5
 62
     2
100
AcDbMText
 10
-45.00000000000027
 20
-30.90000099999996
 30
0.0
 40
3.2
 41
0.0
 71
     5
 72
     1
  1
90
  7
ASAMI
1001
ACAD
1000
MTEXTBEGIN
1070
    73
1070
     1
1070
    44
1040
1.0
1070
    74
1070
     0
1000
MTEXTEND
  0
POINT
  5
257B
330
2394
100
AcDbEntity
  8
DEFPOINTS
 62
     0
100
AcDbPoint
 10
-90.00000000000026
 20
-7.000000000000007
 30
0.0
  0
POINT
  5
257C
330
2394
100
AcDbEntity
  8
DEFPOINTS
 62
     0
100
AcDbPoint
 10
-0.0000000000002629
 20
-7.500000000000003
 30
0.0
  0
POINT
  5
257D
330
2394
100
AcDbEntity
  8
DEFPOINTS
 62
     0
100
AcDbPoint
 10
-0.0000000000002645
 20
-34.00000099999996
 30
0.0
  0
ENDBLK
  5
239F
330
2394
100
AcDbEntity
  8
0
100
AcDbBlockEnd
  0
BLOCK
  5
242E
330
2424
100
AcDbEntity
  8
0
100
AcDbBlockBegin
  2
*D7
 70
     1
 10
0.0
 20
0.0
 30
0.0
  3
*D7
  1

  0
LINE
  5
256C
330
2424
100
AcDbEntity
  8
AM_5
100
AcDbLine
 10
-32.00000000000017
 20
-8.500000000000035
 30
0.0
 11
-32.00000000000017
 21
-23.00000099999988
 31
0.0
  0
LINE
  5
256D
330
2424
100
AcDbEntity
  8
AM_5
100
AcDbLine
 10
-0.000000000000263
 20
-8.500000000000003
 30
0.0
 11
-0.0000000000002638
 21
-23.00000099999988
 31
0.0
  0
LINE
  5
256E
330
2424
100
AcDbEntity
  8
AM_5
100
AcDbLine
 10
-29.50000000000017
 20
-22.00000099999988
 30
0.0
 11
-2.500000000000263
 21
-22.00000099999988
 31
0.0
  0
INSERT
  5
256F
330
2424
100
AcDbEntity
  8
AM_5
100
AcDbBlockReference
  2
_OPEN30
 10
-32.00000000000017
 20
-22.00000099999988
 30
0.0
 41
2.5
 42
2.5
 43
2.5
 50
180.0
  0
INSERT
  5
2570
330
2424
100
AcDbEntity
  8
AM_5
100
AcDbBlockReference
  2
_OPEN30
 10
-0.0000000000002638
 20
-22.00000099999988
 30
0.0
 41
2.5
 42
2.5
 43
2.5
  0
MTEXT
  5
2571
330
2424
100
AcDbEntity
  8
AM_5
 62
     2
100
AcDbMText
 10
-16.00000000000021
 20
-18.90000099999987
 30
0.0
 40
3.2
 41
0.0
 71
     5
 72
     1
  1
32
  7
ASAMI
1001
ACAD
1000
MTEXTBEGIN
1070
    73
1070
     1
1070
    44
1040
1.0
1070
    74
1070
     0
1000
MTEXTEND
  0
POINT
  5
2572
330
2424
100
AcDbEntity
  8
DEFPOINTS
 62
     0
100
AcDbPoint
 10
-32.00000000000017
 20
-7.500000000000035
 30
0.0
  0
POINT
  5
2573
330
2424
100
AcDbEntity
  8
DEFPOINTS
 62
     0
100
AcDbPoint
 10
-0.0000000000002629
 20
-7.500000000000003
 30
0.0
  0
POINT
  5
2574
330
2424
100
AcDbEntity
  8
DEFPOINTS
 62
     0
100
AcDbPoint
 10
-0.0000000000002638
 20
-22.00000099999988
 30
0.0
  0
ENDBLK
  5
242F
330
2424
100
AcDbEntity
  8
0
100
AcDbBlockEnd
  0
BLOCK
  5
24C3
330
24B9
100
AcDbEntity
  8
0
100
AcDbBlockBegin
  2
*D8
 70
     1
 10
0.0
 20
0.0
 30
0.0
  3
*D8
  1

  0
LINE
  5
2587
330
24B9
100
AcDbEntity
  8
AM_5
100
AcDbLine
 10
0.9999999999984844
 20
7.499999999999996
 30
0.0
 11
21.83665304628215
 21
7.49999999999999
 31
0.0
  0
LINE
  5
2588
330
24B9
100
AcDbEntity
  8
AM_5
100
AcDbLine
 10
0.999999999999737
 20
-7.500000000000003
 30
0.0
 11
21.83665304628215
 21
-7.500000000000009
 31
0.0
  0
LINE
  5
2589
330
24B9
100
AcDbEntity
  8
AM_5
100
AcDbLine
 10
20.83665304628215
 20
4.999999999999991
 30
0.0
 11
20.83665304628215
 21
-5.000000000000008
 31
0.0
  0
INSERT
  5
258A
330
24B9
100
AcDbEntity
  8
AM_5
100
AcDbBlockReference
  2
_OPEN30
 10
20.83665304628215
 20
7.499999999999991
 30
0.0
 41
2.5
 42
2.5
 43
2.5
 50
90.0
  0
INSERT
  5
258B
330
24B9
100
AcDbEntity
  8
AM_5
100
AcDbBlockReference
  2
_OPEN30
 10
20.83665304628215
 20
-7.500000000000008
 30
0.0
 41
2.5
 42
2.5
 43
2.5
 50
270.0
  0
MTEXT
  5
258C
330
24B9
100
AcDbEntity
  8
AM_5
 62
     2
100
AcDbMText
 10
17.73665304628215
 20
-0.0000000000000053
 30
0.0
 40
3.2
 41
0.0
 71
     5
 72
     1
  1
%%c15
  7
ASAMI
 11
0.0000000000000001
 21
1.0
 31
0.0
1001
ACAD
1000
MTEXTBEGIN
1070
    73
1070
     1
1070
    44
1040
1.0
1070
    74
1070
     0
1000
MTEXTEND
  0
POINT
  5
258D
330
24B9
100
AcDbEntity
  8
DEFPOINTS
 62
     0
100
AcDbPoint
 10
-0.0000000000015157
 20
7.499999999999996
 30
0.0
  0
POINT
  5
258E
330
24B9
100
AcDbEntity
  8
DEFPOINTS
 62
     0
100
AcDbPoint
 10
-0.0000000000002629
 20
-7.500000000000003
 30
0.0
  0
POINT
  5
258F
330
24B9
100
AcDbEntity
  8
DEFPOINTS
 62
     0
100
AcDbPoint
 10
20.83665304628215
 20
-7.500000000000008
 30
0.0
  0
ENDBLK
  5
24C4
330
24B9
100
AcDbEntity
  8
0
100
AcDbBlockEnd
  0
ENDSEC
  0
SECTION
  2
ENTITIES
  0
TEXT
  5
E5A
330
1F
100
AcDbEntity
  8
AM_6
100
AcDbText
 10
-60.47619047619072
 20
-56.50000099999997
 30
0.0
 40
5.0
  1
JSM4150
 72
     4
 11
-45.00000000000024
 21
-54.00000099999997
 31
0.0
100
AcDbText
  0
LINE
  5
20AA
330
1F
100
AcDbEntity
  8
AM_7
  6
AM_ISO08W050X2
100
AcDbLine
 10
6.836652046282154
 20
0.0000000000000071
 30
0.0
 11
-93.29324415329843
 21
-0.0000000000000711
 31
0.0
1001
GENIUS_GENODEF_13
1002
{
1000
HIER
1070
     0
1002
}
1002
{
1000
MANEDIT
1070
     0
1002
}
1002
{
1000
NOSEL
1070
     0
1002
}
1002
{
1000
BEHIND
1070
     0
1002
}
1002
{
1000
REACTOR
1002
}
1001
GENIUS_GENOBJ-N-CEN_13
1002
{
1000
OWNER
1000
GEN
1002
}
  0
LINE
  5
2207
330
1F
100
AcDbEntity
  8
AM_0
100
AcDbLine
 10
-1.552762469448794
 20
4.000711221015588
 30
0.0
 11
-3.427741426941203
 21
4.512680133792112
 31
0.0
  0
LINE
  5
2208
330
1F
100
AcDbEntity
  8
AM_0
100
AcDbLine
 10
-0.0000000000002771
 20
-0.0000000000000036
 30
0.0
 11
-0.1527272727275317
 21
1.500000000000166
 31
0.0
  0
LINE
  5
2209
330
1F
100
AcDbEntity
  8
AM_0
100
AcDbLine
 10
-1.251575251914701
 20
-2.210482147749818
 30
0.0
 11
-0.1527272727275317
 21
-1.990346781844781
 31
0.0
  0
LINE
  5
220A
330
1F
100
AcDbEntity
  8
AM_0
100
AcDbLine
 10
-0.1527272727275317
 20
-1.990346781844781
 30
0.0
 11
-0.0000000000002771
 21
-1.500000000000003
 31
0.0
  0
LINE
  5
220B
330
1F
100
AcDbEntity
  8
AM_0
100
AcDbLine
 10
-0.0000000000002771
 20
-0.0000000000000036
 30
0.0
 11
-0.1292256133005907
 21
-1.26918013062863
 31
0.0
  0
LINE
  5
220C
330
1F
100
AcDbEntity
  8
AM_0
100
AcDbLine
 10
-0.0000000000002771
 20
-1.500000000000003
 30
0.0
 11
-0.8397822097306786
 21
0.0000000000000817
 31
0.0
  0
LINE
  5
220D
330
1F
100
AcDbEntity
  8
AM_0
100
AcDbLine
 10
-3.427741426941203
 20
-0.0000000000000036
 30
0.0
 11
-3.427741426941203
 21
-1.20000000000002
 31
0.0
  0
LINE
  5
220E
330
1F
100
AcDbEntity
  8
AM_0
100
AcDbLine
 10
-3.427741426941203
 20
-1.20000000000002
 30
0.0
 11
-1.251575251914701
 21
-2.210482147749818
 31
0.0
  0
LINE
  5
220F
330
1F
100
AcDbEntity
  8
AM_0
100
AcDbLine
 10
-3.427741426941203
 20
-1.20000000000002
 30
0.0
 11
-0.1679564419463446
 21
-1.20000000000002
 31
0.0
  0
LINE
  5
2210
330
1F
100
AcDbEntity
  8
AM_0
100
AcDbLine
 10
-0.0000000000002771
 20
-0.0000000000000036
 30
0.0
 11
-3.427741426941203
 21
-0.0000000000000036
 31
0.0
  0
LINE
  5
2211
330
1F
100
AcDbEntity
  8
AM_0
100
AcDbLine
 10
-0.1527272727275317
 20
1.500000000000166
 30
0.0
 11
-1.552762469448794
 21
4.000711221015588
 31
0.0
  0
LINE
  5
2212
330
1F
100
AcDbEntity
  8
AM_0
100
AcDbLine
 10
-0.0000000000002771
 20
-0.0000000000000036
 30
0.0
 11
-0.0000000000002771
 21
7.499999999999996
 31
0.0
  0
LINE
  5
2213
330
1F
100
AcDbEntity
  8
AM_0
100
AcDbLine
 10
-0.0000000000002629
 20
-7.500000000000003
 30
0.0
 11
-0.1527272727275175
 21
-7.100161736432742
 31
0.0
  0
LINE
  5
2214
330
1F
100
AcDbEntity
  8
AM_0
100
AcDbLine
 10
-0.1527272727275175
 20
-7.100161736432657
 30
0.0
 11
-0.9963636363639167
 21
-5.99642498319287
 31
0.0
  0
LINE
  5
2215
330
1F
100
AcDbEntity
  8
AM_0
100
AcDbLine
 10
-0.0000000000002629
 20
-7.500000000000003
 30
0.0
 11
-0.0000000000002771
 21
-1.500000000000003
 31
0.0
  0
LINE
  5
2216
330
1F
100
AcDbEntity
  8
AM_0
100
AcDbLine
 10
-0.1527272727275175
 20
-7.100161736432742
 30
0.0
 11
-0.1527272727275317
 21
-1.990346781844781
 31
0.0
  0
ELLIPSE
  5
2217
330
1F
100
AcDbEntity
  8
AM_0
100
AcDbEllipse
 10
2.88825190113021
 20
-3.81582024707686
 30
0.0
 11
-0.000000000000063
 21
4.561047173274079
 31
0.0
210
0.0
220
0.0
230
1.0
 40
0.9696969696969684
 41
1.21112458130381
 42
2.069278538290304
  0
LINE
  5
2218
330
1F
100
AcDbEntity
  8
AM_0
100
AcDbLine
 10
-32.00000000000035
 20
6.150358382480309
 30
0.0
 11
-32.38313164085899
 21
6.834699458808305
 31
0.0
  0
LINE
  5
2219
330
1F
100
AcDbEntity
  8
AM_0
100
AcDbLine
 10
-32.00000000000015
 20
-1.130538243957797
 30
0.0
 11
-33.05881357970973
 21
-2.222439748033306
 31
0.0
  0
POLYLINE
  5
221A
330
1F
100
AcDbEntity
  8
AM_0
100
AcDb2dPolyline
 66
     1
 10
0.0
 20
0.0
 30
0.0
 70
     2
  0
VERTEX
  5
221B
330
221A
100
AcDbEntity
  8
AM_0
100
AcDbVertex
100
AcDb2dVertex
 10
-32.00000000000027
 20
6.150358382480302
 30
0.0
 42
0.0113495642762015
  0
VERTEX
  5
221C
330
221A
100
AcDbEntity
  8
AM_0
100
AcDbVertex
100
AcDb2dVertex
 10
-33.69559264574546
 20
6.412171767669359
 30
0.0
 42
0.0187918863228812
 70
     1
  0
VERTEX
  5
221D
330
221A
100
AcDbEntity
  8
AM_0
100
AcDbVertex
100
AcDb2dVertex
 10
-34.72727272727299
 20
6.506411812006117
 30
0.0
 42
0.0075788461628208
  0
VERTEX
  5
221E
330
221A
100
AcDbEntity
  8
AM_0
100
AcDbVertex
100
AcDb2dVertex
 10
-37.46980679296582
 20
6.607170212268894
 30
0.0
 42
0.0232722457202398
 70
     1
  0
VERTEX
  5
221F
330
221A
100
AcDbEntity
  8
AM_0
100
AcDbVertex
100
AcDb2dVertex
 10
-38.36363636363664
 20
6.583122722642936
 30
0.0
 42
0.0542958387243925
  0
VERTEX
  5
2220
330
221A
100
AcDbEntity
  8
AM_0
100
AcDbVertex
100
AcDb2dVertex
 10
-39.21740036896595
 20
6.421904367988158
 30
0.0
 42
0.4413285869607302
 70
     1
  0
VERTEX
  5
2221
330
221A
100
AcDbEntity
  8
AM_0
100
AcDbVertex
100
AcDb2dVertex
 10
-39.27272727272755
 20
6.303780203753941
 30
0.0
 42
0.0678159998049314
  0
VERTEX
  5
2222
330
221A
100
AcDbEntity
  8
AM_0
100
AcDbVertex
100
AcDb2dVertex
 10
-39.20461238997656
 20
6.180151683023151
 30
0.0
 42
0.006836731909696
 70
     1
  0
VERTEX
  5
2223
330
221A
100
AcDbEntity
  8
AM_0
100
AcDbVertex
100
AcDb2dVertex
 10
-38.36363636363664
 20
5.075970151241815
 30
0.0
 42
0.0061465077983929
  0
VERTEX
  5
2224
330
221A
100
AcDbEntity
  8
AM_0
100
AcDbVertex
100
AcDb2dVertex
 10
-37.09598873985891
 20
3.49771942122242
 30
0.0
 42
0.0040253861954876
 70
     1
  0
VERTEX
  5
2225
330
221A
100
AcDbEntity
  8
AM_0
100
AcDbVertex
100
AcDb2dVertex
 10
-35.11327816274878
 20
1.128986199615304
 30
0.0
 42
0.0594163782683759
  0
VERTEX
  5
2226
330
221A
100
AcDbEntity
  8
AM_0
100
AcDbVertex
100
AcDb2dVertex
 10
-34.21687727270536
 20
0.2984610168890604
 30
0.0
 42
0.0273113651513278
 70
     1
  0
VERTEX
  5
2227
330
221A
100
AcDbEntity
  8
AM_0
100
AcDbVertex
100
AcDb2dVertex
 10
-32.00000000000027
 20
-1.130538243957804
 30
0.0
  0
SEQEND
  5
2228
330
221A
100
AcDbEntity
  8
AM_0
  0
ELLIPSE
  5
2229
330
1F
100
AcDbEntity
  8
AM_0
100
AcDbEllipse
 10
-39.5485761039378
 20
6.791728146971674
 30
0.0
 11
0.0000000000000612
 21
14.31737932116294
 31
0.0
210
0.0
220
0.0
230
1.0
 40
0.9696969696969716
 41
3.201461614289992
 42
3.427250019213448
  0
POLYLINE
  5
222A
330
1F
100
AcDbEntity
  8
AM_0
100
AcDb2dPolyline
 66
     1
 10
0.0
 20
0.0
 30
0.0
 70
     2
  0
VERTEX
  5
222B
330
222A
100
AcDbEntity
  8
AM_0
100
AcDbVertex
100
AcDb2dVertex
 10
-35.63636363636389
 20
-6.945462601111792
 30
0.0
 42
-0.0230918143391583
  0
VERTEX
  5
222C
330
222A
100
AcDbEntity
  8
AM_0
100
AcDbVertex
100
AcDb2dVertex
 10
-36.47493490225831
 20
-6.726301885724446
 30
0.0
 42
-0.0355587143075394
 70
     1
  0
VERTEX
  5
222D
330
222A
100
AcDbEntity
  8
AM_0
100
AcDbVertex
100
AcDb2dVertex
 10
-37.00000000000027
 20
-6.519102751137303
 30
0.0
 42
-0.0216088548285507
  0
VERTEX
  5
222E
330
222A
100
AcDbEntity
  8
AM_0
100
AcDbVertex
100
AcDb2dVertex
 10
-38.22505341504393
 20
-5.86177176552605
 30
0.0
 42
-0.0414110700152503
 70
     1
  0
VERTEX
  5
222F
330
222A
100
AcDbEntity
  8
AM_0
100
AcDbVertex
100
AcDb2dVertex
 10
-38.81818181818208
 20
-5.438124777508697
 30
0.0
 42
-0.0653031023268945
  0
VERTEX
  5
2230
330
222A
100
AcDbEntity
  8
AM_0
100
AcDbVertex
100
AcDb2dVertex
 10
-39.20025499630394
 20
-5.016745468221706
 30
0.0
 42
-0.1569363594221426
 70
     1
  0
VERTEX
  5
2231
330
222A
100
AcDbEntity
  8
AM_0
100
AcDbVertex
100
AcDb2dVertex
 10
-39.27272727272753
 20
-4.783506653854537
 30
0.0
 42
-0.1617045000652558
  0
VERTEX
  5
2232
330
222A
100
AcDbEntity
  8
AM_0
100
AcDbVertex
100
AcDb2dVertex
 10
-39.19900315608377
 20
-4.555515489725344
 30
0.0
 42
-0.0680210806811403
 70
     1
  0
VERTEX
  5
2233
330
222A
100
AcDbEntity
  8
AM_0
100
AcDbVertex
100
AcDb2dVertex
 10
-38.81818181818208
 20
-4.157209522616973
 30
0.0
 42
-0.0450747416233525
  0
VERTEX
  5
2234
330
222A
100
AcDbEntity
  8
AM_0
100
AcDbVertex
100
AcDb2dVertex
 10
-38.23063635350838
 20
-3.771797495515052
 30
0.0
 42
-0.0231467319857815
 70
     1
  0
VERTEX
  5
2235
330
222A
100
AcDbEntity
  8
AM_0
100
AcDbVertex
100
AcDb2dVertex
 10
-37.00000000000027
 20
-3.189515518654964
 30
0.0
 42
-0.0364444523572374
  0
VERTEX
  5
2236
330
222A
100
AcDbEntity
  8
AM_0
100
AcDbVertex
100
AcDb2dVertex
 10
-36.46554005245345
 20
-3.012343047778905
 30
0.0
 42
-0.0242139410122645
 70
     1
  0
VERTEX
  5
2237
330
222A
100
AcDbEntity
  8
AM_0
100
AcDbVertex
100
AcDb2dVertex
 10
-35.63636363636389
 20
-2.848118645930391
 30
0.0
  0
SEQEND
  5
2238
330
222A
100
AcDbEntity
  8
AM_0
  0
LINE
  5
2239
330
1F
100
AcDbEntity
  8
AM_11
100
AcDbLine
 10
-32.00000000000018
 20
7.499999999999975
 30
0.0
 11
-32.00000000000018
 21
-7.500000000000024
 31
0.0
  0
ELLIPSE
  5
223A
330
1F
100
AcDbEntity
  8
AM_0
100
AcDbEllipse
 10
-39.53754136864032
 20
-19.93350953392306
 30
0.0
 11
-0.0000000000012953
 21
17.55265880752757
 31
0.0
210
0.0
220
0.0
230
1.0
 40
0.969696969696977
 41
-0.4587681791450243
 42
-0.2312569029271945
  0
LINE
  5
223B
330
1F
100
AcDbEntity
  8
AM_0
100
AcDbLine
 10
-33.05881357970973
 20
-2.222439748033306
 30
0.0
 11
-32.00000000000027
 21
-4.19581877979942
 31
0.0
  0
LINE
  5
223C
330
1F
100
AcDbEntity
  8
AM_11
100
AcDbLine
 10
-0.0000000000013927
 20
7.499999999999996
 30
0.0
 11
-32.00000000000018
 21
7.499999999999975
 31
0.0
  0
LINE
  5
223D
330
1F
100
AcDbEntity
  8
AM_11
100
AcDbLine
 10
-32.00000000000017
 20
-7.500000000000035
 30
0.0
 11
-0.0000000000002629
 21
-7.500000000000003
 31
0.0
  0
SPLINE
  5
223E
330
1F
100
AcDbEntity
  8
AM_0
100
AcDbSpline
210
0.0
220
0.0
230
1.0
 70
     8
 71
     3
 72
     8
 73
     4
 74
     0
 42
0.0000000001
 43
0.0000000001
 40
0.0
 40
0.0
 40
0.0
 40
0.0
 40
4.451443990518192
 40
4.451443990518192
 40
4.451443990518192
 40
4.451443990518192
 10
-35.63636363636391
 20
-6.945462601111781
 30
0.0
 10
-31.94308168075493
 20
-6.926166755704056
 30
0.0
 10
-29.83807400851304
 20
-6.593502621371182
 30
0.0
 10
-27.76982482406933
 20
-6.031278823385232
 30
0.0
  0
SPLINE
  5
223F
330
1F
100
AcDbEntity
  8
AM_0
100
AcDbSpline
210
0.0
220
0.0
230
1.0
 70
     8
 71
     3
 72
     8
 73
     4
 74
     0
 42
0.0000000001
 43
0.0000000001
 40
0.0
 40
0.0
 40
0.0
 40
0.0
 40
2.130230809022907
 40
2.130230809022907
 40
2.130230809022907
 40
2.130230809022907
 10
-19.78181818181873
 20
-7.500000000000017
 30
0.0
 10
-18.7489790016864
 20
-7.500000000000017
 30
0.0
 10
-17.73012932770439
 20
-7.418950931730268
 30
0.0
 10
-16.7232125081059
 20
-7.268768134278861
 30
0.0
  0
SPLINE
  5
2240
330
1F
100
AcDbEntity
  8
AM_0
100
AcDbSpline
210
0.0
220
0.0
230
1.0
 70
     8
 71
     3
 72
     8
 73
     4
 74
     0
 42
0.0000000001
 43
0.0000000001
 40
0.0
 40
0.0
 40
0.0
 40
0.0
 40
5.635889483499305
 40
5.635889483499305
 40
5.635889483499305
 40
5.635889483499305
 10
-19.78181818181873
 20
7.500000000000152
 30
0.0
 10
-22.51437065866692
 20
7.500000000000152
 30
0.0
 10
-25.14900255103507
 20
6.932691043468853
 30
0.0
 10
-27.72380010624633
 20
6.018728157556925
 30
0.0
  0
SPLINE
  5
2241
330
1F
100
AcDbEntity
  8
AM_0
100
AcDbSpline
210
0.0
220
0.0
230
1.0
 70
     8
 71
     3
 72
     8
 73
     4
 74
     0
 42
0.0000000001
 43
0.0000000001
 40
0.3581103616548037
 40
0.3581103616548037
 40
0.3581103616548037
 40
0.3581103616548037
 40
14.43901837670146
 40
14.43901837670146
 40
14.43901837670146
 40
14.43901837670146
 10
-36.89339950423398
 20
7.499999999999968
 30
0.0
 10
-29.70707465667803
 20
7.09498351207981
 30
0.0
 10
-23.47502912325215
 20
3.547491756039935
 30
0.0
 10
-17.24298358982633
 20
0.0000000000000675
 30
0.0
  0
SPLINE
  5
2242
330
1F
100
AcDbEntity
  8
AM_0
100
AcDbSpline
210
0.0
220
0.0
230
1.0
 70
     8
 71
     3
 72
     8
 73
     4
 74
     0
 42
0.0000000001
 43
0.0000000001
 40
0.0
 40
0.0
 40
0.0
 40
0.0
 40
11.45610476152127
 40
11.45610476152127
 40
11.45610476152127
 40
11.45610476152127
 10
-17.24298358982657
 20
-7.275425505502926
 30
0.0
 10
-22.79745862571569
 20
-7.275425505502933
 30
0.0
 10
-27.96781324646221
 20
-4.985470141124206
 30
0.0
 10
-33.0588135796593
 20
-2.222439747934483
 30
0.0
  0
SPLINE
  5
2243
330
1F
100
AcDbEntity
  8
AM_0
100
AcDbSpline
210
0.0
220
0.0
230
1.0
 70
     8
 71
     3
 72
     8
 73
     4
 74
     0
 42
0.0000000001
 43
0.0000000001
 40
5.360156850992435
 40
5.360156850992435
 40
5.360156850992435
 40
5.360156850992435
 40
14.48999654934396
 40
14.48999654934396
 40
14.48999654934396
 40
14.48999654934396
 10
-32.00000000000035
 20
6.150358382480309
 30
0.0
 10
-27.81933358162643
 20
4.725591031333895
 30
0.0
 10
-23.80057588172243
 20
2.36279551566702
 30
0.0
 10
-19.78181818181845
 20
0.0000000000001528
 30
0.0
  0
SPLINE
  5
2244
330
1F
100
AcDbEntity
  8
AM_0
100
AcDbSpline
210
0.0
220
0.0
230
1.0
 70
     8
 71
     3
 72
     8
 73
     4
 74
     0
 42
0.0000000001
 43
0.0000000001
 40
0.0
 40
0.0
 40
0.0
 40
0.0
 40
9.068166399416787
 40
9.068166399416787
 40
9.068166399416787
 40
9.068166399416787
 10
-19.78181818181873
 20
-7.499999999999847
 30
0.0
 10
-24.17850492092991
 20
-7.499999999999854
 30
0.0
 10
-28.32168578882349
 20
-6.03129807140311
 30
0.0
 10
-32.37001047293041
 20
-4.013040981036393
 30
0.0
  0
SPLINE
  5
2245
330
1F
100
AcDbEntity
  8
AM_0
100
AcDbSpline
210
0.0
220
0.0
230
1.0
 70
     8
 71
     3
 72
     8
 73
     4
 74
     0
 42
0.0000000001
 43
0.0000000001
 40
0.0
 40
0.0
 40
0.0
 40
0.0
 40
4.451443990518192
 40
4.451443990518192
 40
4.451443990518192
 40
4.451443990518192
 10
-14.31953937312742
 20
-6.926166755704048
 30
0.0
 10
-12.16126349893675
 20
-6.926166755704048
 30
0.0
 10
-10.05625582669487
 20
-6.593502621371175
 30
0.0
 10
-7.988006642251164
 20
-6.031278823385211
 30
0.0
  0
SPLINE
  5
2246
330
1F
100
AcDbEntity
  8
AM_0
100
AcDbSpline
210
0.0
220
0.0
230
1.0
 70
     8
 71
     3
 72
     8
 73
     4
 74
     0
 42
0.0000000001
 43
0.0000000001
 40
0.7142832446738512
 40
0.7142832446738512
 40
0.7142832446738512
 40
0.7142832446738512
 40
9.361146747480315
 40
9.361146747480315
 40
9.361146747480315
 40
9.361146747480315
 10
-13.28462832359453
 20
6.900896684736419
 30
0.0
 10
-9.124590594744226
 20
6.698675158457373
 30
0.0
 10
-5.155551056651951
 20
5.303654824199437
 30
0.0
 10
-1.256502115825682
 20
3.471537674221419
 30
0.0
  0
SPLINE
  5
2247
330
1F
100
AcDbEntity
  8
AM_0
100
AcDbSpline
210
0.0
220
0.0
230
1.0
 70
     8
 71
     3
 72
     8
 73
     4
 74
     0
 42
0.0000000001
 43
0.0000000001
 40
0.0
 40
0.0
 40
0.0
 40
0.0
 40
3.87984798542507
 40
3.87984798542507
 40
3.87984798542507
 40
3.87984798542507
 10
-0.0000000000002771
 20
6.112054030025941
 30
0.0
 10
-0.8047525534591031
 20
5.120164794226507
 30
0.0
 10
-2.186064734132628
 20
4.694210695386523
 30
0.0
 10
-3.427741426941203
 20
4.512680133792112
 30
0.0
  0
SPLINE
  5
2248
330
1F
100
AcDbEntity
  8
AM_0
100
AcDbSpline
210
0.0
220
0.0
230
1.0
 70
     8
 71
     3
 72
     8
 73
     4
 74
     0
 42
0.0000000001
 43
0.0000000001
 40
0.0
 40
0.0
 40
0.0
 40
0.0
 40
5.635889483499127
 40
5.635889483499127
 40
5.635889483499127
 40
5.635889483499127
 10
-0.0000000000002771
 20
7.499999999999996
 30
0.0
 10
-2.732552476848333
 20
7.499999999999996
 30
0.0
 10
-5.367184369216445
 20
6.932691043468704
 30
0.0
 10
-7.941981924427665
 20
6.018728157556861
 30
0.0
  0
SPLINE
  5
2249
330
1F
100
AcDbEntity
  8
AM_0
100
AcDbSpline
210
0.0
220
0.0
230
1.0
 70
     8
 71
     3
 72
     8
 73
     4
 74
     0
 42
0.0000000001
 43
0.0000000001
 40
4.542668862435135
 40
4.542668862435135
 40
4.542668862435135
 40
4.542668862435135
 40
14.36247867694493
 40
14.36247867694493
 40
14.36247867694493
 40
14.36247867694493
 10
-0.9963636363618917
 20
-5.99642498318494
 30
0.0
 10
-5.55557794451743
 20
-4.735508529859291
 30
0.0
 10
-9.937558658822275
 20
-2.367754264929619
 30
0.0
 10
-14.31953937312712
 20
0.0000000000000675
 30
0.0
  0
SPLINE
  5
224A
330
1F
100
AcDbEntity
  8
AM_0
100
AcDbSpline
210
0.0
220
0.0
230
1.0
 70
     8
 71
     3
 72
     8
 73
     4
 74
     0
 42
0.0000000001
 43
0.0000000001
 40
0.3581103616548037
 40
0.3581103616548037
 40
0.3581103616548037
 40
0.3581103616548037
 40
12.40023413887867
 40
12.40023413887867
 40
12.40023413887867
 40
12.40023413887867
 10
-16.72321250810532
 20
7.268768134278996
 30
0.0
 10
-10.90953714732663
 20
7.120145905594238
 30
0.0
 10
-5.509759095491212
 20
4.504051692727497
 30
0.0
 10
-0.1699095162123783
 20
1.530690534913443
 30
0.0
  0
SPLINE
  5
224B
330
1F
100
AcDbEntity
  8
AM_0
100
AcDbSpline
210
0.0
220
0.0
230
1.0
 70
     8
 71
     3
 72
     8
 73
     4
 74
     0
 42
0.0000000001
 43
0.0000000001
 40
0.0
 40
0.0
 40
0.0
 40
0.0
 40
21.73499482401593
 40
21.73499482401593
 40
21.73499482401593
 40
21.73499482401593
 10
-19.78181818181845
 20
7.500000000000152
 30
0.0
 10
-12.75636530940926
 20
7.500000000000159
 30
0.0
 10
-6.378182654704765
 20
3.750000000000166
 30
0.0
 10
-0.0000000000002771
 20
0.000000000000167
 30
0.0
  0
SPLINE
  5
224C
330
1F
100
AcDbEntity
  8
AM_0
100
AcDbSpline
210
0.0
220
0.0
230
1.0
 70
     8
 71
     3
 72
     8
 73
     4
 74
     0
 42
0.0000000001
 43
0.0000000001
 40
0.0
 40
0.0
 40
0.0
 40
0.0
 40
21.73499482401595
 40
21.73499482401595
 40
21.73499482401595
 40
21.73499482401595
 10
-0.0000000000002629
 20
-7.500000000000003
 30
0.0
 10
-7.025452872409459
 20
-7.50000000000001
 30
0.0
 10
-13.40363552711394
 20
-3.750000000000014
 30
0.0
 10
-19.78181818181845
 20
-0.0000000000000178
 30
0.0
  0
SPLINE
  5
224D
330
1F
100
AcDbEntity
  8
AM_0
100
AcDbSpline
210
0.0
220
0.0
230
1.0
 70
     8
 71
     3
 72
     8
 73
     4
 74
     0
 42
0.0000000001
 43
0.0000000001
 40
0.0
 40
0.0
 40
0.0
 40
0.0
 40
12.79333816032526
 40
12.79333816032526
 40
12.79333816032526
 40
12.79333816032526
 10
-14.31953937312742
 20
-6.926166755703878
 30
0.0
 10
-20.52236999631543
 20
-6.926166755703878
 30
0.0
 10
-26.28521957132483
 20
-4.178450310234833
 30
0.0
 10
-32.00000000000015
 20
-1.130538243957797
 30
0.0
  0
SPLINE
  5
224E
330
1F
100
AcDbEntity
  8
AM_0
100
AcDbSpline
210
0.0
220
0.0
230
1.0
 70
     8
 71
     3
 72
     8
 73
     4
 74
     0
 42
0.0000000001
 43
0.0000000001
 40
1.090140354492627
 40
1.090140354492627
 40
1.090140354492627
 40
1.090140354492627
 40
14.36247867694493
 40
14.36247867694493
 40
14.36247867694493
 40
14.36247867694493
 10
-32.52504049419111
 20
6.867827495715747
 30
0.0
 10
-26.16480555675102
 20
6.400457088718955
 30
0.0
 10
-20.24217246493909
 20
3.200228544359514
 30
0.0
 10
-14.31953937312712
 20
0.0000000000000675
 30
0.0
  0
SPLINE
  5
224F
330
1F
100
AcDbEntity
  8
AM_0
100
AcDbSpline
210
0.0
220
0.0
230
1.0
 70
     8
 71
     3
 72
     8
 73
     4
 74
     0
 42
0.0000000001
 43
0.0000000001
 40
1.870660592686466
 40
1.870660592686466
 40
1.870660592686466
 40
1.870660592686466
 40
14.43901837670146
 40
14.43901837670146
 40
14.43901837670146
 40
14.43901837670146
 10
-0.1527272727275175
 20
-7.100161736432657
 30
0.0
 10
-6.117766678151284
 20
-6.332850918152221
 30
0.0
 10
-11.68037513398881
 20
-3.166425459076084
 30
0.0
 10
-17.24298358982633
 20
0.0000000000000675
 30
0.0
  0
SPLINE
  5
2250
330
1F
100
AcDbEntity
  8
AM_0
100
AcDbSpline
210
0.0
220
0.0
230
1.0
 70
     8
 71
     3
 72
     8
 73
     4
 74
     0
 42
0.0000000001
 43
0.0000000001
 40
0.0
 40
0.0
 40
0.0
 40
0.0
 40
2.764560748519282
 40
2.764560748519282
 40
2.764560748519282
 40
2.764560748519282
 10
-17.24298358982657
 20
-7.275425505503097
 30
0.0
 10
-15.90259049963543
 20
-7.275425505503097
 30
0.0
 10
-14.58456636526888
 20
-7.142071722765098
 30
0.0
 10
-13.28462832374803
 20
-6.900896684764678
 30
0.0
  0
LINE
  5
22CD
330
1F
100
AcDbEntity
  8
AM_0
100
AcDbLine
 10
-90.00000000000026
 20
6.999999999999996
 30
0.0
 11
-90.00000000000026
 21
-7.000000000000007
 31
0.0
  0
LINE
  5
22CE
330
1F
100
AcDbEntity
  8
AM_0
100
AcDbLine
 10
-89.00000000000027
 20
-8.000000000000007
 30
0.0
 11
-43.00000000000027
 21
-8.0
 31
0.0
  0
LINE
  5
22CF
330
1F
100
AcDbEntity
  8
AM_0
100
AcDbLine
 10
-89.00000000000027
 20
7.999999999999996
 30
0.0
 11
-43.00000000000027
 21
7.999999999999996
 31
0.0
  0
LINE
  5
22D4
330
1F
100
AcDbEntity
  8
AM_0
100
AcDbLine
 10
-89.00000000000027
 20
7.999999999999996
 30
0.0
 11
-90.00000000000026
 21
6.999999999999996
 31
0.0
1001
GENIUS_GENFIL_13
1070
     0
1040
1.0
1040
1.0
1040
20.0
1040
0.0
1002
{
1002
}
1001
GENIUS_GENODEF_13
1002
{
1000
HIER
1070
     0
1002
}
1002
{
1000
MANEDIT
1070
     0
1002
}
1002
{
1000
NOSEL
1070
     0
1002
}
1002
{
1000
BEHIND
1070
     0
1002
}
1002
{
1000
REACTOR
1002
}
1001
GENIUS_GENOBJ-N-CHA_13
1002
{
1000
OWNER
1000
GEN
1002
}
  0
LINE
  5
22D7
330
1F
100
AcDbEntity
  8
AM_0
100
AcDbLine
 10
-90.00000000000026
 20
-7.000000000000007
 30
0.0
 11
-89.00000000000027
 21
-8.000000000000007
 31
0.0
1001
GENIUS_GENFIL_13
1070
     0
1040
1.0
1040
1.0
1040
20.0
1040
0.0
1002
{
1002
}
1001
GENIUS_GENODEF_13
1002
{
1000
HIER
1070
     0
1002
}
1002
{
1000
MANEDIT
1070
     0
1002
}
1002
{
1000
NOSEL
1070
     0
1002
}
1002
{
1000
BEHIND
1070
     0
1002
}
1002
{
1000
REACTOR
1002
}
1001
GENIUS_GENOBJ-N-CHA_13
1002
{
1000
OWNER
1000
GEN
1002
}
  0
LINE
  5
22D8
330
1F
100
AcDbEntity
  8
AM_0
100
AcDbLine
 10
-89.00000000000027
 20
7.999999999999996
 30
0.0
 11
-89.00000000000027
 21
-8.000000000000007
 31
0.0
  0
LINE
  5
22E0
330
1F
100
AcDbEntity
  8
AM_0
100
AcDbLine
 10
-43.00000000000027
 20
7.999999999999996
 30
0.0
 11
-43.00000000000027
 21
-8.000000000000003
 31
0.0
  0
LINE
  5
22F9
330
1F
100
AcDbEntity
  8
AM_0
100
AcDbLine
 10
-36.89339950423398
 20
7.499999999999968
 30
0.0
 11
-41.6262612902729
 21
7.49999999999996
 31
0.0
  0
LINE
  5
22FA
330
1F
100
AcDbEntity
  8
AM_0
100
AcDbLine
 10
-38.71788068023524
 20
-7.500000000000035
 30
0.0
 11
-41.62626129027287
 21
-7.500000000000035
 31
0.0
  0
LINE
  5
22FB
330
1F
100
AcDbEntity
  8
AM_0
100
AcDbLine
 10
-43.00000000000027
 20
7.999999999999996
 30
0.0
 11
-41.62626129027287
 21
7.499999999999968
 31
0.0
  0
LINE
  5
22FC
330
1F
100
AcDbEntity
  8
AM_0
100
AcDbLine
 10
-41.62626129027287
 20
7.499999999999968
 30
0.0
 11
-41.62626129027287
 21
-7.499999999999968
 31
0.0
  0
LINE
  5
22FD
330
1F
100
AcDbEntity
  8
AM_0
100
AcDbLine
 10
-41.62626129027287
 20
-7.499999999999968
 30
0.0
 11
-43.00000000000027
 21
-8.000000000000003
 31
0.0
  0
DIMENSION
  5
2307
330
1F
100
AcDbEntity
  8
AM_5
100
AcDbDimension
  2
*D5
 10
-107.2932451532983
 20
-8.000000000000015
 30
0.0
 11
-110.3932451532983
 21
-0.0000000000000241
 31
0.0
 70
    32
  1
%%c<>
  3
AM_JIS
100
AcDbAlignedDimension
 13
-89.00000000000027
 23
7.999999999999995
 33
0.0
 14
-89.00000000000025
 24
-8.000000000000021
 34
0.0
 50
270.0
100
AcDbRotatedDimension
1001
GENIUS_GENDTOL_13
1000

1000
h7
1000

1040
0.0
  0
DIMENSION
  5
2393
330
1F
100
AcDbEntity
  8
AM_5
100
AcDbDimension
  2
*D6
 10
-0.0000000000002645
 20
-34.00000099999996
 30
0.0
 11
-45.00000000000027
 21
-30.90000099999996
 31
0.0
 70
    32
  1
<>
  3
AM_JIS
100
AcDbAlignedDimension
 13
-90.00000000000026
 23
-7.000000000000007
 33
0.0
 14
-0.0000000000002629
 24
-7.500000000000003
 34
0.0
 50
0.0000000000001132
100
AcDbRotatedDimension
1001
GENIUS_GENDTOL_13
1000

1000
h7
1000

1040
0.0
  0
DIMENSION
  5
2423
330
1F
100
AcDbEntity
  8
AM_5
100
AcDbDimension
  2
*D7
 10
-0.0000000000002638
 20
-22.00000099999988
 30
0.0
 11
-16.00000000000021
 21
-18.90000099999987
 31
0.0
 70
    32
  1
<>
  3
AM_JIS
100
AcDbAlignedDimension
 13
-32.00000000000017
 23
-7.500000000000035
 33
0.0
 14
-0.0000000000002629
 24
-7.500000000000003
 34
0.0
 50
0.0000000000001641
100
AcDbRotatedDimension
1001
GENIUS_GENDTOL_13
1000

1000
h7
1000

1040
0.0
  0
DIMENSION
  5
24B8
330
1F
100
AcDbEntity
  8
AM_5
100
AcDbDimension
  2
*D8
 10
20.83665304628215
 20
-7.500000000000008
 30
0.0
 11
17.73665304628215
 21
-0.0000000000000053
 31
0.0
 70
    32
  1
%%c<>
  3
AM_JIS
100
AcDbAlignedDimension
 13
-0.0000000000015157
 23
7.499999999999996
 33
0.0
 14
-0.0000000000002629
 24
-7.500000000000003
 34
0.0
 50
90.00000000000005
100
AcDbRotatedDimension
1001
GENIUS_GENDTOL_13
1000

1000
h7
1000

1040
0.0
  0
VIEWPORT
  5
110
330
101
100
AcDbEntity
 67
     1
  8
0
100
AcDbViewport
 10
420.5
 20
297.0
 30
0.0
 40
948.9782706766916
 41
628.452
 68
     1
 69
     1
1001
ACAD
1000
MVIEW
1002
{
1070
    16
1010
0.0
1020
0.0
1030
0.0
1010
0.0
1020
0.0
1030
1.0
1040
0.0
1040
628.452
1040
420.5
1040
297.0
1040
50.0
1040
0.0
1040
0.0
1070
     0
1070
   100
1070
     1
1070
     1
1070
     0
1070
     0
1070
     0
1070
     0
1040
0.0
1040
0.0
1040
0.0
1040
10.0
1040
10.0
1040
10.0
1040
10.0
1070
     0
1002
{
1002
}
1002
}
  0
ENDSEC
  0
SECTION
  2
OBJECTS
  0
DICTIONARY
  5
C
330
0
100
AcDbDictionary
  3
ACAD_GROUP
350
D
  3
ACAD_LAYOUT
350
1A
  3
ACAD_MLINESTYLE
350
17
  3
ACAD_PLOTSETTINGS
350
19
  3
ACAD_PLOTSTYLENAME
350
E
  3
ACDBVARIABLEDICTIONARY
350
34
  3
ACMDICTIONARY
350
43
  3
AMG
350
2B
  3
AMGSNAPSETTINGS
350
6E
  3
DWGPROPS
350
2669
  3
ACDBHEADERROUNDTRIPXREC
350
2675
  0
DICTIONARY
  5
74
330
1F
100
AcDbDictionary
280
     1
  3
ACAD_INDEX
360
266B
  3
ACAD_LAYOUTSELFREF
360
2698
  0
DICTIONARY
  5
269D
330
101
100
AcDbDictionary
280
     1
  3
ACAD_LAYOUTSELFREF
360
269E
  0
DICTIONARY
  5
D
102
{ACAD_REACTORS
330
C
102
}
330
C
100
AcDbDictionary
  0
DICTIONARY
  5
1A
102
{ACAD_REACTORS
330
C
102
}
330
C
100
AcDbDictionary
  0
DICTIONARY
  5
17
102
{ACAD_REACTORS
330
C
102
}
330
C
100
AcDbDictionary
  3
STANDARD
350
18
  0
DICTIONARY
  5
19
102
{ACAD_REACTORS
330
C
102
}
330
C
100
AcDbDictionary
  0
ACDBDICTIONARYWDFLT
  5
E
102
{ACAD_REACTORS
330
C
102
}
330
C
100
AcDbDictionary
281
     1
  3
Normal
350
F
100
AcDbDictionaryWithDefault
340
F
  0
DICTIONARY
  5
34
102
{ACAD_REACTORS
330
C
102
}
330
C
100
AcDbDictionary
  3
INDEXCTL
350
35
  3
SORTENTS
350
B5E
  0
DICTIONARY
  5
43
102
{ACAD_REACTORS
330
C
102
}
330
C
100
AcDbDictionary
  3
ACMSTDDICTIONARY
350
260
  0
DICTIONARY
  5
2B
102
{ACAD_REACTORS
330
C
102
}
330
C
100
AcDbDictionary
  3
ACMGSETTINGS
350
2C
  0
DICTIONARY
  5
6E
102
{ACAD_REACTORS
330
C
102
}
330
C
100
AcDbDictionary
  0
XRECORD
  5
2669
102
{ACAD_REACTORS
330
C
102
}
330
C
100
AcDbXrecord
  1
DWGPROPS COOKIE
  2

  3

  4

  6

  7

  8

  9

300
AmdtFileType=82
301
=
302
=
303
=
304
=
305
=
306
=
307
=
308
=
309
=
 40
0.0394992361111111
 41
2452836.771637361
 42
2452846.462761864
  1

 90
        1
  0
DICTIONARY
  5
2675
102
{ACAD_REACTORS
330
C
102
}
330
C
100
AcDbDictionary
  3
TSTACKALIGN
350
2676
  3
TSTACKSIZE
350
2677
  3
HYPERLINKBASE
350
2678
  3
STYLESHEET
350
2679
  3
LAYOUTDICT
350
267A
  3
PLOTSETDICT
350
267B
  3
PLOTSTYLNAMDICT
350
267C
  3
LWETCUNION
350
267D
  3
INSUNITS
350
267E
  3
CEPSNTYPE
350
267F
  3
FINGERPRINTGUID
350
2680
  3
VERSIONGUID
350
2681
  3
PSVPSCALE
350
2682
  3
DIMSTYLEDATA
350
2683
  3
PUCSORTHOREF
350
2684
  3
PUCSORTHOVIEW
350
2685
  3
PUCSBASE
350
2686
  3
PUCSORGTOP
350
2687
  3
PUCSORGBOTTOM
350
2688
  3
PUCSORGLEFT
350
2689
  3
PUCSORGRIGHT
350
268A
  3
PUCSORGFRONT
350
268B
  3
PUCSORGBACK
350
268C
  3
UCSORTHOREF
350
268D
  3
UCSORTHOVIEW
350
268E
  3
UCSBASE
350
268F
  3
UCSORGTOP
350
2690
  3
UCSORGBOTTOM
350
2691
  3
UCSORGLEFT
350
2692
  3
UCSORGRIGHT
350
2693
  3
UCSORGFRONT
350
2694
  3
UCSORGBACK
350
2695
  0
DICTIONARY
  5
266B
102
{ACAD_REACTORS
330
74
102
}
330
74
100
AcDbDictionary
  3
*A1
350
266C
  0
XRECORD
  5
2698
102
{ACAD_REACTORS
330
74
102
}
330
74
100
AcDbXrecord
340
1F
  0
XRECORD
  5
269E
102
{ACAD_REACTORS
330
269D
102
}
330
269D
100
AcDbXrecord
340
101
  0
MLINESTYLE
  5
18
102
{ACAD_REACTORS
330
17
102
}
330
17
100
AcDbMlineStyle
  2
STANDARD
 70
     0
  3

 62
   256
 51
90.0
 52
90.0
 71
     2
 49
0.5
 62
   256
  6
BYLAYER
 49
-0.5
 62
   256
  6
BYLAYER
  0
ACDBPLACEHOLDER
  5
F
102
{ACAD_REACTORS
330
E
102
}
330
E
100
AcDbPlaceHolder
280
     0
  0
DICTIONARYVAR
  5
35
102
{ACAD_REACTORS
330
34
102
}
330
34
100
DictionaryVariables
280
     0
  1
1
  0
DICTIONARYVAR
  5
B5E
102
{ACAD_REACTORS
330
34
102
}
330
34
100
DictionaryVariables
280
     0
  1
96
  0
DICTIONARY
  5
260
102
{ACAD_REACTORS
330
43
102
}
330
43
100
AcDbDictionary
  0
DICTIONARY
  5
2C
102
{ACAD_REACTORS
330
2B
102
}
330
2B
100
AcDbDictionary
  3
DWGSETTINGS
350
2D
  0
XRECORD
  5
2676
102
{ACAD_REACTORS
330
2675
102
}
330
2675
100
AcDbXrecord
 90
        1
  0
XRECORD
  5
2677
102
{ACAD_REACTORS
330
2675
102
}
330
2675
100
AcDbXrecord
 90
       70
  0
XRECORD
  5
2678
102
{ACAD_REACTORS
330
2675
102
}
330
2675
100
AcDbXrecord
  1

  0
XRECORD
  5
2679
102
{ACAD_REACTORS
330
2675
102
}
330
2675
100
AcDbXrecord
  1
ASAMI.ctb
  0
XRECORD
  5
267A
102
{ACAD_REACTORS
330
2675
102
}
330
2675
100
AcDbXrecord
340
1A
  0
XRECORD
  5
267B
102
{ACAD_REACTORS
330
2675
102
}
330
2675
100
AcDbXrecord
340
19
  0
XRECORD
  5
267C
102
{ACAD_REACTORS
330
2675
102
}
330
2675
100
AcDbXrecord
340
E
  0
XRECORD
  5
267D
102
{ACAD_REACTORS
330
2675
102
}
330
2675
100
AcDbXrecord
 90
    10781
  0
XRECORD
  5
267E
102
{ACAD_REACTORS
330
2675
102
}
330
2675
100
AcDbXrecord
 90
        4
  0
XRECORD
  5
267F
102
{ACAD_REACTORS
330
2675
102
}
330
2675
100
AcDbXrecord
 90
        0
  0
XRECORD
  5
2680
102
{ACAD_REACTORS
330
2675
102
}
330
2675
100
AcDbXrecord
  1
{AFB28963-8C59-40AE-9337-C84526B81ACE}
  0
XRECORD
  5
2681
102
{ACAD_REACTORS
330
2675
102
}
330
2675
100
AcDbXrecord
  1
{EB7F2A48-3982-4AAE-A952-3A18EB5C36E5}
  0
XRECORD
  5
2682
102
{ACAD_REACTORS
330
2675
102
}
330
2675
100
AcDbXrecord
 40
0.0
  0
XRECORD
  5
2683
102
{ACAD_REACTORS
330
2675
102
}
330
2675
100
AcDbXrecord
1000
DSTYLE
1002
{
1070
    79
 70
     2
1070
   341
340
59
1070
   342
340
59
1070
   371
 70
    -1
1070
   372
 70
    -1
1002
}
  0
XRECORD
  5
2684
102
{ACAD_REACTORS
330
2675
102
}
330
2675
100
AcDbXrecord
340
0
  0
XRECORD
  5
2685
102
{ACAD_REACTORS
330
2675
102
}
330
2675
100
AcDbXrecord
 70
     0
  0
XRECORD
  5
2686
102
{ACAD_REACTORS
330
2675
102
}
330
2675
100
AcDbXrecord
340
0
  0
XRECORD
  5
2687
102
{ACAD_REACTORS
330
2675
102
}
330
2675
100
AcDbXrecord
 10
0.0
 20
0.0
 30
0.0
  0
XRECORD
  5
2688
102
{ACAD_REACTORS
330
2675
102
}
330
2675
100
AcDbXrecord
 10
0.0
 20
0.0
 30
0.0
  0
XRECORD
  5
2689
102
{ACAD_REACTORS
330
2675
102
}
330
2675
100
AcDbXrecord
 10
0.0
 20
0.0
 30
0.0
  0
XRECORD
  5
268A
102
{ACAD_REACTORS
330
2675
102
}
330
2675
100
AcDbXrecord
 10
0.0
 20
0.0
 30
0.0
  0
XRECORD
  5
268B
102
{ACAD_REACTORS
330
2675
102
}
330
2675
100
AcDbXrecord
 10
0.0
 20
0.0
 30
0.0
  0
XRECORD
  5
268C
102
{ACAD_REACTORS
330
2675
102
}
330
2675
100
AcDbXrecord
 10
0.0
 20
0.0
 30
0.0
  0
XRECORD
  5
268D
102
{ACAD_REACTORS
330
2675
102
}
330
2675
100
AcDbXrecord
340
0
  0
XRECORD
  5
268E
102
{ACAD_REACTORS
330
2675
102
}
330
2675
100
AcDbXrecord
 70
     0
  0
XRECORD
  5
268F
102
{ACAD_REACTORS
330
2675
102
}
330
2675
100
AcDbXrecord
340
0
  0
XRECORD
  5
2690
102
{ACAD_REACTORS
330
2675
102
}
330
2675
100
AcDbXrecord
 10
0.0
 20
0.0
 30
0.0
  0
XRECORD
  5
2691
102
{ACAD_REACTORS
330
2675
102
}
330
2675
100
AcDbXrecord
 10
0.0
 20
0.0
 30
0.0
  0
XRECORD
  5
2692
102
{ACAD_REACTORS
330
2675
102
}
330
2675
100
AcDbXrecord
 10
0.0
 20
0.0
 30
0.0
  0
XRECORD
  5
2693
102
{ACAD_REACTORS
330
2675
102
}
330
2675
100
AcDbXrecord
 10
0.0
 20
0.0
 30
0.0
  0
XRECORD
  5
2694
102
{ACAD_REACTORS
330
2675
102
}
330
2675
100
AcDbXrecord
 10
0.0
 20
0.0
 30
0.0
  0
XRECORD
  5
2695
102
{ACAD_REACTORS
330
2675
102
}
330
2675
100
AcDbXrecord
 10
0.0
 20
0.0
 30
0.0
  0
LAYER_INDEX
  5
266C
102
{ACAD_REACTORS
330
266B
102
}
330
266B
100
AcDbIndex
 40
2453152.460746343
100
AcDbLayerIndex
  8
0
360
266D
 90
        0
  8
AM_0
360
266E
 90
       55
  8
AM_11
360
266F
 90
        3
  8
AM_7
360
2670
 90
        1
  8
AM_5
360
2671
 90
        4
  8
Defpoints
360
2672
 90
        0
  8
AM_6
360
2673
 90
        1
  0
XRECORD
  5
2D
102
{ACAD_REACTORS
330
2C
102
}
330
2C
100
AcDbXrecord
  1
VERSION
140
15.0
  1
PRODUCT
  2
AutoCAD Mechanical 2000
  0
IDBUFFER
  5
266D
330
0
100
AcDbIdBuffer
  0
IDBUFFER
  5
266E
330
0
100
AcDbIdBuffer
330
22D8
330
22E0
330
22F9
330
22FA
330
22FB
330
22FC
330
22FD
330
2207
330
2208
330
2209
330
220A
330
220B
330
220C
330
220D
330
220E
330
220F
330
2210
330
2211
330
2212
330
2213
330
2214
330
2215
330
2216
330
2217
330
2218
330
2219
330
221A
330
2229
330
222A
330
223A
330
223B
330
223E
330
223F
330
2240
330
2241
330
2242
330
2243
330
2244
330
2245
330
2246
330
2247
330
2248
330
2249
330
224A
330
224B
330
224C
330
224D
330
224E
330
224F
330
2250
330
22CD
330
22CE
330
22CF
330
22D4
330
22D7
  0
IDBUFFER
  5
266F
330
0
100
AcDbIdBuffer
330
2239
330
223C
330
223D
  0
IDBUFFER
  5
2670
330
0
100
AcDbIdBuffer
330
20AA
  0
IDBUFFER
  5
2671
330
0
100
AcDbIdBuffer
330
2307
330
2393
330
2423
330
24B8
  0
IDBUFFER
  5
2672
330
0
100
AcDbIdBuffer
  0
IDBUFFER
  5
2673
330
0
100
AcDbIdBuffer
330
E5A
  0
ENDSEC
  0
EOF
