  0
SECTION
  2
HEADER
  9
$ACADVER
  1
AC1014
  9
$ACADMAINTVER
 70
     9
  9
$DWGCODEPAGE
  3
ANSI_932
  9
$INSBASE
 10
0.0
 20
0.0
 30
0.0
  9
$EXTMIN
 10
-69.35000000000008
 20
-27.25000099999999
 30
-0.00000001
  9
$EXTMAX
 10
7.500000000000002
 20
5.5
 30
0.00000001
  9
$LIMMIN
 10
-75.39320468207454
 20
-40.73039478042001
  9
$LIMMAX
 10
32.76373417768513
 20
35.72733941427884
  9
$ORTHOMODE
 70
     0
  9
$REGENMODE
 70
     1
  9
$FILLMODE
 70
     1
  9
$QTEXTMODE
 70
     0
  9
$MIRRTEXT
 70
     0
  9
$DRAGMODE
 70
     2
  9
$LTSCALE
 40
0.3
  9
$OSMODE
 70
    55
  9
$ATTMODE
 70
     1
  9
$TEXTSIZE
 40
2.5
  9
$TRACEWID
 40
1.0
  9
$TEXTSTYLE
  7
STANDARD
  9
$CLAYER
  8
AM_0
  9
$CELTYPE
  6
BYLAYER
  9
$CECOLOR
 62
   256
  9
$CELTSCALE
 40
1.0
  9
$DELOBJ
 70
     1
  9
$DISPSILH
 70
     0
  9
$DIMSCALE
 40
0.5
  9
$DIMASZ
 40
2.5
  9
$DIMEXO
 40
1.0
  9
$DIMDLI
 40
12.0
  9
$DIMRND
 40
0.0
  9
$DIMDLE
 40
0.0
  9
$DIMEXE
 40
1.0
  9
$DIMTP
 40
0.1
  9
$DIMTM
 40
0.1
  9
$DIMTXT
 40
3.2
  9
$DIMCEN
 40
0.0
  9
$DIMTSZ
 40
0.0
  9
$DIMTOL
 70
     0
  9
$DIMLIM
 70
     0
  9
$DIMTIH
 70
     0
  9
$DIMTOH
 70
     0
  9
$DIMSE1
 70
     0
  9
$DIMSE2
 70
     0
  9
$DIMTAD
 70
     3
  9
$DIMZIN
 70
     8
  9
$DIMBLK
  1
OPEN30
  9
$DIMASO
 70
     1
  9
$DIMSHO
 70
     1
  9
$DIMPOST
  1

  9
$DIMAPOST
  1
"
  9
$DIMALT
 70
     0
  9
$DIMALTD
 70
     2
  9
$DIMALTF
 40
0.0393701
  9
$DIMLFAC
 40
1.0
  9
$DIMTOFL
 70
     1
  9
$DIMTVP
 40
0.0
  9
$DIMTIX
 70
     0
  9
$DIMSOXD
 70
     0
  9
$DIMSAH
 70
     0
  9
$DIMBLK1
  1

  9
$DIMBLK2
  1

  9
$DIMSTYLE
  2
AM_JIS
  9
$DIMCLRD
 70
   256
  9
$DIMCLRE
 70
   256
  9
$DIMCLRT
 70
     2
  9
$DIMTFAC
 40
0.71
  9
$DIMGAP
 40
1.5
  9
$DIMJUST
 70
     0
  9
$DIMSD1
 70
     0
  9
$DIMSD2
 70
     0
  9
$DIMTOLJ
 70
     0
  9
$DIMTZIN
 70
     0
  9
$DIMALTZ
 70
     0
  9
$DIMALTTZ
 70
     0
  9
$DIMFIT
 70
     3
  9
$DIMUPT
 70
     0
  9
$DIMUNIT
 70
     2
  9
$DIMDEC
 70
     3
  9
$DIMTDEC
 70
     3
  9
$DIMALTU
 70
     2
  9
$DIMALTTD
 70
     2
  9
$DIMTXSTY
  7
ASAMI
  9
$DIMAUNIT
 70
     0
  9
$LUNITS
 70
     2
  9
$LUPREC
 70
     2
  9
$SKETCHINC
 40
1.0
  9
$FILLETRAD
 40
2.5
  9
$AUNITS
 70
     0
  9
$AUPREC
 70
     0
  9
$MENU
  1
.
  9
$ELEVATION
 40
0.0
  9
$PELEVATION
 40
0.0
  9
$THICKNESS
 40
0.0
  9
$LIMCHECK
 70
     0
  9
$BLIPMODE
 70
     0
  9
$CHAMFERA
 40
2.5
  9
$CHAMFERB
 40
2.5
  9
$CHAMFERC
 40
20.0
  9
$CHAMFERD
 40
0.0
  9
$SKPOLY
 70
     0
  9
$TDCREATE
 40
2452838.620506898
  9
$TDUPDATE
 40
2453152.453862303
  9
$TDINDWG
 40
0.0748909491
  9
$TDUSRTIMER
 40
0.0748909491
  9
$USRTIMER
 70
     1
  9
$ANGBASE
 50
0.0
  9
$ANGDIR
 70
     0
  9
$PDMODE
 70
     0
  9
$PDSIZE
 40
0.0
  9
$PLINEWID
 40
0.0
  9
$COORDS
 70
     1
  9
$SPLFRAME
 70
     0
  9
$SPLINETYPE
 70
     6
  9
$SPLINESEGS
 70
     8
  9
$ATTDIA
 70
     1
  9
$ATTREQ
 70
     1
  9
$HANDLING
 70
 12289
  9
$HANDSEED
  5
1B78
  9
$SURFTAB1
 70
     6
  9
$SURFTAB2
 70
     6
  9
$SURFTYPE
 70
     6
  9
$SURFU
 70
     6
  9
$SURFV
 70
     6
  9
$UCSNAME
  2

  9
$UCSORG
 10
-0.0000000000000567
 20
-0.0000000000000036
 30
0.0
  9
$UCSXDIR
 10
1.0
 20
0.0
 30
0.0
  9
$UCSYDIR
 10
0.0
 20
1.0
 30
0.0
  9
$PUCSNAME
  2

  9
$PUCSORG
 10
0.0
 20
0.0
 30
0.0
  9
$PUCSXDIR
 10
1.0
 20
0.0
 30
0.0
  9
$PUCSYDIR
 10
0.0
 20
1.0
 30
0.0
  9
$USERI1
 70
     0
  9
$USERI2
 70
     0
  9
$USERI3
 70
     0
  9
$USERI4
 70
     0
  9
$USERI5
 70
     0
  9
$USERR1
 40
0.0
  9
$USERR2
 40
0.0
  9
$USERR3
 40
0.0
  9
$USERR4
 40
0.0
  9
$USERR5
 40
0.0
  9
$WORLDVIEW
 70
     1
  9
$SHADEDGE
 70
     3
  9
$SHADEDIF
 70
    70
  9
$TILEMODE
 70
     1
  9
$MAXACTVP
 70
    64
  9
$PINSBASE
 10
0.0
 20
0.0
 30
0.0
  9
$PLIMCHECK
 70
     0
  9
$PEXTMIN
 10
1.000000000000000E+20
 20
1.000000000000000E+20
 30
1.000000000000000E+20
  9
$PEXTMAX
 10
-1.000000000000000E+20
 20
-1.000000000000000E+20
 30
-1.000000000000000E+20
  9
$PLIMMIN
 10
0.0
 20
0.0
  9
$PLIMMAX
 10
841.0
 20
594.0
  9
$UNITMODE
 70
     0
  9
$VISRETAIN
 70
     1
  9
$PLINEGEN
 70
     0
  9
$PSLTSCALE
 70
     0
  9
$TREEDEPTH
 70
  3020
  9
$PICKSTYLE
 70
     0
  9
$CMLSTYLE
  2
STANDARD
  9
$CMLJUST
 70
     0
  9
$CMLSCALE
 40
20.0
  9
$PROXYGRAPHICS
 70
     1
  9
$MEASUREMENT
 70
     1
  0
ENDSEC
  0
SECTION
  2
CLASSES
  0
CLASS
  1
ACDBDICTIONARYWDFLT
  2
AcDbDictionaryWithDefault
  3
AutoCAD 2000
 90
        0
280
     0
281
     0
  0
CLASS
  1
ACDBPLACEHOLDER
  2
AcDbPlaceHolder
  3
AutoCAD 2000
 90
        0
280
     0
281
     0
  0
CLASS
  1
LAYOUT
  2
AcDbLayout
  3
AutoCAD 2000
 90
        0
280
     0
281
     0
  0
CLASS
  1
AMGSETTINGSOBJ
  2
AmgSettingsObj
  3
"AcadM|Product Description: AutoCAD Mechanical 2000|Company: Autodesk"
 90
        0
280
     0
281
     0
  0
CLASS
  1
ACME_DOCUMENT
  2
AcMeDbDoc
  3
AcMeServices
 90
        0
280
     0
281
     0
  0
CLASS
  1
ACMESCOPE
  2
AcMeScope
  3
AcMeServices
 90
        0
280
     0
281
     0
  0
CLASS
  1
ACMECOMMANDHISTORY
  2
AcMeCommandHistory
  3
AcMeServices
 90
        0
280
     0
281
     0
  0
CLASS
  1
DICTIONARYVAR
  2
AcDbDictionaryVar
  3
AutoCAD 2000
 90
        0
280
     0
281
     0
  0
CLASS
  1
ACIMSYSVARMAN
  2
AcImSysVarManager
  3
AcMeServices
 90
        0
280
     0
281
     0
  0
CLASS
  1
ACIMREALSYSVAR
  2
AcImRealSysVar
  3
AcMeServices
 90
        0
280
     0
281
     0
  0
CLASS
  1
ACIMINTSYSVAR
  2
AcImIntSysVar
  3
AcMeServices
 90
        0
280
     0
281
     0
  0
CLASS
  1
ACMEDRAWINGMAN
  2
AcMeDrawingMan
  3
AcMeServices
 90
        0
280
     0
281
     0
  0
CLASS
  1
ACMEVIEW
  2
AcMeView
  3
AcMeServices
 90
        0
280
     0
281
     0
  0
CLASS
  1
ACDBENTITYCACHE
  2
AcMeEntityCache
  3
AcMeServices
 90
        0
280
     0
281
     0
  0
CLASS
  1
GSMANAGER
  2
AcMeGSManager
  3
AcMeServices
 90
        0
280
     0
281
     0
  0
CLASS
  1
AmdtInternalReactor
  2
AmdtInternalReactor
  3
AcMeServices
 90
        0
280
     0
281
     0
  0
CLASS
  1
ACMESTATEMGR
  2
AcMeStateMgr
  3
AcMeServices
 90
        0
280
     0
281
     0
  0
CLASS
  1
ACME_DATABASE
  2
AcMeDbDatabase
  3
AcMeServices
 90
        0
280
     0
281
     0
  0
CLASS
  1
ACRFINSADJUSTERMGR
  2
AcRfInsAdjusterMgr
  3
AcMeServices
 90
        0
280
     0
281
     0
  0
CLASS
  1
ACMDATADICTIONARY
  2
AcmDataDictionary
  3
"AcmSymBB|Product Description: AutoCAD Mechanical 2000|Company: Autodesk"
 90
        0
280
     0
281
     0
  0
CLASS
  1
ACMDATAENTRYBLOCK
  2
AcmDataEntryBlock
  3
"AcmSymBB|Product Description: AutoCAD Mechanical 2000|Company: Autodesk"
 90
        0
280
     0
281
     0
  0
CLASS
  1
AMGOBJPROPCFG
  2
AmgObjPropCfg
  3
"AmgLay|Product Description: AutoCAD Mechanical 2000|Company: Autodesk"
 90
        1
280
     0
281
     0
  0
CLASS
  1
ACAMGFILTERDAT
  2
AcAmgFilterDat
  3
"AcadM|Product Description: AutoCAD Mechanical 2000|Company: Autodesk"
 90
        0
280
     0
281
     0
  0
CLASS
  1
LAYER_INDEX
  2
AcDbLayerIndex
  3
AutoCAD 2000
 90
        0
280
     0
281
     0
  0
CLASS
  1
IDBUFFER
  2
AcDbIdBuffer
  3
AutoCAD 2000
 90
        0
280
     0
281
     0
  0
CLASS
  1
ACIMSTRSYSVAR
  2
AcImStrSysVar
  3
AcMeServices
 90
        0
280
     0
281
     0
  0
CLASS
  1
ACMSTANDARDJIS
  2
AcmStandardJIS
  3
"AcmSymBB|Product Description: AutoCAD Mechanical 2000|Company: Autodesk"
 90
        0
280
     0
281
     0
  0
CLASS
  1
ACMSURFSTANDARDJIS
  2
AcmSurfTextStdJIS
  3
"AcmSymBB|Product Description: AutoCAD Mechanical 2000|Company: Autodesk"
 90
        0
280
     0
281
     0
  0
CLASS
  1
ACMFCFSTANDARDJIS
  2
AcmFCFStdJIS
  3
"AcmSymBB|Product Description: AutoCAD Mechanical 2000|Company: Autodesk"
 90
        0
280
     0
281
     0
  0
CLASS
  1
ACMWELDSTANDARDJIS
  2
AcmWeldingStdJIS
  3
"AcmSymBB|Product Description: AutoCAD Mechanical 2000|Company: Autodesk"
 90
        0
280
     0
281
     0
  0
CLASS
  1
ACMIDSTANDARDJIS
  2
AcmIdStdJIS
  3
"AcmSymBB|Product Description: AutoCAD Mechanical 2000|Company: Autodesk"
 90
        0
280
     0
281
     0
  0
CLASS
  1
ACMDATUMSTANDARDJIS
  2
AcmDatumStdJIS
  3
"AcmSymBB|Product Description: AutoCAD Mechanical 2000|Company: Autodesk"
 90
        0
280
     0
281
     0
  0
CLASS
  1
ACMBOMSTANDARDJIS
  2
AcmBOMStdJIS
  3
"AcmSymBB|Product Description: AutoCAD Mechanical 2000|Company: Autodesk"
 90
        0
280
     0
281
     0
  0
CLASS
  1
ACMSTANDARDANSI
  2
AcmStandardANSI
  3
"AcmSymBB|Product Description: AutoCAD Mechanical 2000|Company: Autodesk"
 90
        0
280
     0
281
     0
  0
CLASS
  1
ACMSURFSTANDARDANSI
  2
AcmSurfTextStdANSI
  3
"AcmSymBB|Product Description: AutoCAD Mechanical 2000|Company: Autodesk"
 90
        0
280
     0
281
     0
  0
CLASS
  1
ACMFCFSTANDARDANSI
  2
AcmFCFStdANSI
  3
"AcmSymBB|Product Description: AutoCAD Mechanical 2000|Company: Autodesk"
 90
        0
280
     0
281
     0
  0
CLASS
  1
ACMWELDSTANDARDANSI
  2
AcmWeldingStdANSI
  3
"AcmSymBB|Product Description: AutoCAD Mechanical 2000|Company: Autodesk"
 90
        0
280
     0
281
     0
  0
CLASS
  1
ACMIDSTANDARDANSI
  2
AcmIdStdANSI
  3
"AcmSymBB|Product Description: AutoCAD Mechanical 2000|Company: Autodesk"
 90
        0
280
     0
281
     0
  0
CLASS
  1
ACMDATUMSTANDARDANSI
  2
AcmDatumStdANSI
  3
"AcmSymBB|Product Description: AutoCAD Mechanical 2000|Company: Autodesk"
 90
        0
280
     0
281
     0
  0
CLASS
  1
ACMBOMSTANDARDANSI
  2
AcmBOMStdANSI
  3
"AcmSymBB|Product Description: AutoCAD Mechanical 2000|Company: Autodesk"
 90
        0
280
     0
281
     0
  0
CLASS
  1
ACMSTANDARDBSI
  2
AcmStandardBSI
  3
"AcmSymBB|Product Description: AutoCAD Mechanical 2000|Company: Autodesk"
 90
        0
280
     0
281
     0
  0
CLASS
  1
ACMSURFSTANDARDBSI
  2
AcmSurfTextStdBSI
  3
"AcmSymBB|Product Description: AutoCAD Mechanical 2000|Company: Autodesk"
 90
        0
280
     0
281
     0
  0
CLASS
  1
ACMFCFSTANDARDBSI
  2
AcmFCFStdBSI
  3
"AcmSymBB|Product Description: AutoCAD Mechanical 2000|Company: Autodesk"
 90
        0
280
     0
281
     0
  0
CLASS
  1
ACMWELDSTANDARDBSI
  2
AcmWeldingStdBSI
  3
"AcmSymBB|Product Description: AutoCAD Mechanical 2000|Company: Autodesk"
 90
        0
280
     0
281
     0
  0
CLASS
  1
ACMIDSTANDARDBSI
  2
AcmIdStdBSI
  3
"AcmSymBB|Product Description: AutoCAD Mechanical 2000|Company: Autodesk"
 90
        0
280
     0
281
     0
  0
CLASS
  1
ACMDATUMSTANDARDBSI
  2
AcmDatumStdBSI
  3
"AcmSymBB|Product Description: AutoCAD Mechanical 2000|Company: Autodesk"
 90
        0
280
     0
281
     0
  0
CLASS
  1
ACMBOMSTANDARDBSI
  2
AcmBOMStdBSI
  3
"AcmSymBB|Product Description: AutoCAD Mechanical 2000|Company: Autodesk"
 90
        0
280
     0
281
     0
  0
CLASS
  1
LONG_TRANSACTION
  2
AcDbLongTransaction
  3
AutoCAD 2000
 90
        0
280
     0
281
     0
  0
CLASS
  1
LWPOLYLINE
  2
AcDbPolyline
  3
AutoCAD 2000
 90
        0
280
     0
281
     1
  0
CLASS
  1
HATCH
  2
AcDbHatch
  3
AutoCAD 2000
 90
        0
280
     0
281
     1
  0
CLASS
  1
XRECORD
  2
AcDbXrecord
  3
AutoCAD 2000
 90
        0
280
     0
281
     0
  0
ENDSEC
  0
SECTION
  2
TABLES
  0
TABLE
  2
VPORT
  5
8
330
0
100
AcDbSymbolTable
 70
     3
  0
VPORT
  5
1B4D
330
8
100
AcDbSymbolTableRecord
100
AcDbViewportTableRecord
  2
*ACTIVE
 70
     0
 10
0.0
 20
0.0
 11
1.0
 21
1.0
 12
-20.89744244832131
 22
16.75859990358952
 13
0.0
 23
0.0
 14
2.5
 24
2.5
 15
10.0
 25
10.0
 16
0.0
 26
0.0
 36
1.0
 17
0.0
 27
0.0
 37
0.0
 40
100.0080944379255
 41
1.56570841889117
 42
50.0
 43
0.0
 44
0.0
 50
0.0
 51
0.0
 71
     0
 72
   100
 73
     1
 74
     3
 75
     0
 76
     0
 77
     0
 78
     0
  0
ENDTAB
  0
TABLE
  2
LTYPE
  5
5
330
0
100
AcDbSymbolTable
 70
    10
  0
LTYPE
  5
14
330
5
100
AcDbSymbolTableRecord
100
AcDbLinetypeTableRecord
  2
BYBLOCK
 70
     0
  3

 72
    65
 73
     0
 40
0.0
  0
LTYPE
  5
15
330
5
100
AcDbSymbolTableRecord
100
AcDbLinetypeTableRecord
  2
BYLAYER
 70
     0
  3

 72
    65
 73
     0
 40
0.0
  0
LTYPE
  5
16
330
5
100
AcDbSymbolTableRecord
100
AcDbLinetypeTableRecord
  2
CONTINUOUS
 70
     0
  3
Solid line
 72
    65
 73
     0
 40
0.0
  0
LTYPE
  5
4B
330
5
100
AcDbSymbolTableRecord
100
AcDbLinetypeTableRecord
  2
AM_ISO02W050
 70
     0
  3
__ __ __ __ __ __ __ __ __ __ __ __ __ __ __
 72
    65
 73
     2
 40
7.5
 49
6.0
 74
     0
 49
-1.5
 74
     0
  0
LTYPE
  5
4C
330
5
100
AcDbSymbolTableRecord
100
AcDbLinetypeTableRecord
  2
AM_ISO08W050
 70
     0
  3
____ . ____ . ____ . ____ . ____ . ____ . ____
 72
    65
 73
     4
 40
18.0
 49
12.0
 74
     0
 49
-1.5
 74
     0
 49
3.0
 74
     0
 49
-1.5
 74
     0
  0
LTYPE
  5
4D
330
5
100
AcDbSymbolTableRecord
100
AcDbLinetypeTableRecord
  2
AM_ISO09W050
 70
     0
  3
_____ . . _____ . . _____ . . ____ .. ____
 72
    65
 73
     6
 40
22.5
 49
12.0
 74
     0
 49
-1.5
 74
     0
 49
3.0
 74
     0
 49
-1.5
 74
     0
 49
3.0
 74
     0
 49
-1.5
 74
     0
  0
LTYPE
  5
4E
330
5
100
AcDbSymbolTableRecord
100
AcDbLinetypeTableRecord
  2
AMCONSTR
 70
     0
  3
_______________________
 72
    65
 73
     2
 40
9999.0
 49
9999.0
 74
     0
 49
0.0
 74
     0
  0
LTYPE
  5
4F
330
5
100
AcDbSymbolTableRecord
100
AcDbLinetypeTableRecord
  2
AM_ISO02W050X2
 70
     0
  3
 _ _ _ _ _ _ _ _ _ _ _ _
 72
    65
 73
     2
 40
3.75
 49
3.0
 74
     0
 49
-0.75
 74
     0
  0
LTYPE
  5
50
330
5
100
AcDbSymbolTableRecord
100
AcDbLinetypeTableRecord
  2
AM_ISO08W050X2
 70
     0
  3
__ . __ . __ . __ . __ . __
 72
    65
 73
     4
 40
9.0
 49
6.0
 74
     0
 49
-0.75
 74
     0
 49
1.5
 74
     0
 49
-0.75
 74
     0
  0
LTYPE
  5
53
330
5
100
AcDbSymbolTableRecord
100
AcDbLinetypeTableRecord
  2
AMZIGZAG
 70
     0
  3
/\/-/\/-/\/-/\/-/\/-/\/
 72
    65
 73
     2
 40
11.00009999999999
 49
0.0001
 74
     4
 75
   135
340
52
 46
0.04
 50
0.0
 44
0.0
 45
0.0
 49
-11.0
 74
     0
  0
LTYPE
  5
166
330
5
100
AcDbSymbolTableRecord
100
AcDbLinetypeTableRecord
  2
ACJISTGL
 70
     0
  3
_ _ _ _ _
 72
    65
 73
     2
 40
3.0
 49
2.0
 74
     0
 49
-1.0
 74
     0
  0
LTYPE
  5
26A
330
5
100
AcDbSymbolTableRecord
100
AcDbLinetypeTableRecord
  2
ACJISTGB
 70
     0
  3
__ . . __ . .
 72
    65
 73
     6
 40
9.0
 49
4.0
 74
     0
 49
-1.0
 74
     0
 49
1.0
 74
     0
 49
-1.0
 74
     0
 49
1.0
 74
     0
 49
-1.0
 74
     0
  0
ENDTAB
  0
TABLE
  2
LAYER
  5
2
330
0
100
AcDbSymbolTable
 70
     8
  0
LAYER
  5
10
330
2
100
AcDbSymbolTableRecord
100
AcDbLayerTableRecord
  2
0
 70
     0
 62
     7
  6
CONTINUOUS
  0
LAYER
  5
3F9
330
2
100
AcDbSymbolTableRecord
100
AcDbLayerTableRecord
  2
AM_0
 70
     0
 62
     7
  6
CONTINUOUS
  0
LAYER
  5
BD6
330
2
100
AcDbSymbolTableRecord
100
AcDbLayerTableRecord
  2
AM_11
 70
     0
 62
     3
  6
AM_ISO09W050
  0
LAYER
  5
BD7
330
2
100
AcDbSymbolTableRecord
100
AcDbLayerTableRecord
  2
AM_7
 70
     0
 62
     4
  6
AM_ISO08W050
  0
LAYER
  5
BD8
330
2
100
AcDbSymbolTableRecord
100
AcDbLayerTableRecord
  2
AM_5
 70
     0
 62
     3
  6
CONTINUOUS
  0
LAYER
  5
BD9
330
2
100
AcDbSymbolTableRecord
100
AcDbLayerTableRecord
  2
DEFPOINTS
 70
     0
 62
     7
  6
CONTINUOUS
  0
LAYER
  5
BDA
330
2
100
AcDbSymbolTableRecord
100
AcDbLayerTableRecord
  2
AM_6
 70
     0
 62
     2
  6
CONTINUOUS
  0
LAYER
  5
1A09
330
2
100
AcDbSymbolTableRecord
100
AcDbLayerTableRecord
  2
AM_CL
 70
     0
 62
     1
  6
AMCONSTR
  0
ENDTAB
  0
TABLE
  2
STYLE
  5
3
330
0
100
AcDbSymbolTable
 70
     5
  0
STYLE
  5
11
330
3
100
AcDbSymbolTableRecord
100
AcDbTextStyleTableRecord
  2
STANDARD
 70
     0
 40
0.0
 41
1.0
 50
0.0
 71
     0
 42
2.5
  3
simplex.shx
  4
EXTFONT.SHX
  0
STYLE
  5
52
330
3
100
AcDbSymbolTableRecord
100
AcDbTextStyleTableRecord
  2

 70
     1
 40
0.0
 41
1.0
 50
0.0
 71
     0
 42
2.5
  3
ltypeshp.shx
  4

  0
STYLE
  5
6B
330
3
100
AcDbSymbolTableRecord
100
AcDbTextStyleTableRecord
  2
ASAMI
 70
     0
 40
0.0
 41
1.0
 50
0.0
 71
     0
 42
2.5
  3
simplex.shx
  4
EXTFONT.SHX
  0
STYLE
  5
262
330
3
100
AcDbSymbolTableRecord
100
AcDbTextStyleTableRecord
  2
ACJISTS
 70
     0
 40
1.0
 41
1.0
 50
0.0
 71
     0
 42
2.5
  3
simplex.shx
  4
bigfont.shx
  0
STYLE
  5
269
330
3
100
AcDbSymbolTableRecord
100
AcDbTextStyleTableRecord
  2
ACJISGDT
 70
     0
 40
0.0
 41
1.0
 50
0.0
 71
     0
 42
2.5
  3
amgdtans.shx
  4

  0
ENDTAB
  0
TABLE
  2
VIEW
  5
6
330
0
100
AcDbSymbolTable
 70
     0
  0
ENDTAB
  0
TABLE
  2
UCS
  5
7
330
0
100
AcDbSymbolTable
 70
     0
  0
ENDTAB
  0
TABLE
  2
APPID
  5
9
330
0
100
AcDbSymbolTable
 70
    13
  0
APPID
  5
12
330
9
100
AcDbSymbolTableRecord
100
AcDbRegAppTableRecord
  2
ACAD
 70
     0
  0
APPID
  5
30
330
9
100
AcDbSymbolTableRecord
100
AcDbRegAppTableRecord
  2
MCAD_NO_VIS
 70
     0
  0
APPID
  5
31
330
9
100
AcDbSymbolTableRecord
100
AcDbRegAppTableRecord
  2
ACAD_TEMP_GRAPHIC
 70
     0
  0
APPID
  5
2C2
330
9
100
AcDbSymbolTableRecord
100
AcDbRegAppTableRecord
  2
GENIUS_GENDTOL_13
 70
     0
  0
APPID
  5
339
330
9
100
AcDbSymbolTableRecord
100
AcDbRegAppTableRecord
  2
GENIUS_GENODEF_13
 70
     0
  0
APPID
  5
33A
330
9
100
AcDbSymbolTableRecord
100
AcDbRegAppTableRecord
  2
GENIUS_GENOBJ-N-RSBK_13
 70
     0
  0
APPID
  5
33B
330
9
100
AcDbSymbolTableRecord
100
AcDbRegAppTableRecord
  2
GENIUS_GENOBJ-N-LIB_13
 70
     0
  0
APPID
  5
33C
330
9
100
AcDbSymbolTableRecord
100
AcDbRegAppTableRecord
  2
GENIUS_GENSCALE_13
 70
     0
  0
APPID
  5
378
330
9
100
AcDbSymbolTableRecord
100
AcDbRegAppTableRecord
  2
GENIUS_GENDIMSH_14
 70
     0
  0
APPID
  5
BDB
330
9
100
AcDbSymbolTableRecord
100
AcDbRegAppTableRecord
  2
GENIUS_GENOBJ-N-CEN_13
 70
     0
  0
APPID
  5
BDC
330
9
100
AcDbSymbolTableRecord
100
AcDbRegAppTableRecord
  2
GENIUS_GENFIL_13
 70
     0
  0
APPID
  5
BDD
330
9
100
AcDbSymbolTableRecord
100
AcDbRegAppTableRecord
  2
GENIUS_GENOBJ-N-FIL_13
 70
     0
  0
APPID
  5
12AD
330
9
100
AcDbSymbolTableRecord
100
AcDbRegAppTableRecord
  2
GENIUS_GENOREF_13
 70
     0
  0
ENDTAB
  0
TABLE
  2
DIMSTYLE
  5
A
330
0
100
AcDbSymbolTable
 70
     8
  0
DIMSTYLE
105
58
102
{ACAD_REACTORS
330
C4F
330
C53
330
16F7
330
1704
102
}
330
A
100
AcDbSymbolTableRecord
100
AcDbDimStyleTableRecord
  2
AM_JIS
 70
     0
  3

  4
"
  5
OPEN30
  6

  7

 40
0.5
 41
2.5
 42
1.0
 43
12.0
 44
1.0
 45
0.0
 46
0.0
 47
0.1
 48
0.1
140
3.2
141
0.0
142
0.0
143
0.0393701
144
1.0
145
0.0
146
0.71
147
1.5
 71
     0
 72
     0
 73
     0
 74
     0
 75
     0
 76
     0
 77
     3
 78
     8
170
     0
171
     2
172
     1
173
     0
174
     0
175
     0
176
   256
177
   256
178
     2
270
     2
271
     3
272
     3
273
     2
274
     2
340
6B
275
     0
280
     0
281
     0
282
     0
283
     0
284
     0
285
     0
286
     0
287
     3
288
     0
  0
DIMSTYLE
105
5F
330
A
100
AcDbSymbolTableRecord
100
AcDbDimStyleTableRecord
  2
AM_JIS$3
 70
     0
  3

  4
"
  5
OPEN30
  6

  7

 40
0.5
 41
2.5
 42
1.0
 43
10.0
 44
1.0
 45
0.0
 46
0.0
 47
0.1
 48
0.1
140
3.2
141
0.0
142
0.0
143
0.0393701
144
1.0
145
0.0
146
0.71
147
1.5
 71
     0
 72
     0
 73
     0
 74
     1
 75
     0
 76
     0
 77
     3
 78
     8
170
     0
171
     2
172
     0
173
     0
174
     0
175
     0
176
   256
177
   256
178
     2
270
     2
271
     2
272
     3
273
     2
274
     2
340
6B
275
     0
280
     0
281
     0
282
     0
283
     0
284
     0
285
     0
286
     0
287
     0
288
     1
  0
DIMSTYLE
105
60
330
A
100
AcDbSymbolTableRecord
100
AcDbDimStyleTableRecord
  2
AM_JIS$4
 70
     0
  3

  4
"
  5
OPEN30
  6

  7

 40
0.5
 41
2.5
 42
1.0
 43
10.0
 44
1.0
 45
0.0
 46
0.0
 47
0.1
 48
0.1
140
3.2
141
0.0
142
0.0
143
0.0393701
144
1.0
145
0.0
146
0.71
147
1.5
 71
     0
 72
     0
 73
     0
 74
     1
 75
     0
 76
     0
 77
     3
 78
     8
170
     0
171
     2
172
     0
173
     0
174
     0
175
     0
176
   256
177
   256
178
     2
270
     2
271
     2
272
     3
273
     2
274
     2
340
6B
275
     0
280
     0
281
     0
282
     0
283
     0
284
     0
285
     0
286
     0
287
     0
288
     1
  0
DIMSTYLE
105
61
330
A
100
AcDbSymbolTableRecord
100
AcDbDimStyleTableRecord
  2
AM_JIS$6
 70
     0
  3

  4
"
  5
OPEN30
  6

  7

 40
0.5
 41
2.5
 42
1.0
 43
10.0
 44
1.0
 45
0.0
 46
0.0
 47
0.1
 48
0.1
140
3.2
141
0.0
142
0.0
143
0.0393701
144
1.0
145
0.0
146
0.71
147
1.5
 71
     0
 72
     0
 73
     0
 74
     0
 75
     0
 76
     0
 77
     0
 78
     8
170
     0
171
     2
172
     1
173
     0
174
     0
175
     0
176
   256
177
   256
178
     2
270
     2
271
     2
272
     2
273
     2
274
     2
340
6B
275
     0
280
     0
281
     0
282
     0
283
     0
284
     0
285
     0
286
     0
287
     3
288
     0
  0
DIMSTYLE
105
62
330
A
100
AcDbSymbolTableRecord
100
AcDbDimStyleTableRecord
  2
AM_JIS$7
 70
     0
  3

  4
"
  5
OPEN30
  6

  7

 40
0.5
 41
2.5
 42
1.0
 43
10.0
 44
1.0
 45
0.0
 46
0.0
 47
0.1
 48
0.1
140
3.2
141
0.0
142
0.0
143
0.0393701
144
1.0
145
0.0
146
0.71
147
1.5
 71
     0
 72
     0
 73
     0
 74
     0
 75
     0
 76
     0
 77
     3
 78
     8
170
     0
171
     2
172
     1
173
     0
174
     0
175
     0
176
   256
177
   256
178
     2
270
     2
271
     2
272
     3
273
     2
274
     2
340
6B
275
     0
280
     0
281
     0
282
     0
283
     0
284
     0
285
     0
286
     0
287
     3
288
     0
  0
DIMSTYLE
105
63
330
A
100
AcDbSymbolTableRecord
100
AcDbDimStyleTableRecord
  2
AM_JIS$SF
 70
     0
  3

  4
"
  5
OPEN30
  6

  7

 40
0.5
 41
2.5
 42
1.0
 43
10.0
 44
1.0
 45
0.0
 46
0.0
 47
0.1
 48
0.1
140
3.2
141
0.0
142
0.0
143
0.0393701
144
1.0
145
0.0
146
0.71
147
1.5
 71
     0
 72
     0
 73
     0
 74
     0
 75
     1
 76
     1
 77
     3
 78
     8
170
     0
171
     2
172
     1
173
     0
174
     0
175
     0
176
   256
177
   256
178
     2
270
     2
271
     2
272
     2
273
     2
274
     2
340
6B
275
     0
280
     0
281
     0
282
     0
283
     0
284
     0
285
     0
286
     0
287
     3
288
     0
  0
DIMSTYLE
105
68
330
A
100
AcDbSymbolTableRecord
100
AcDbDimStyleTableRecord
  2
AM_JIS$SH
 70
     0
  3

  4
"
  5

  6
GENAXEH
  7
OPEN30
 40
0.5
 41
2.5
 42
1.0
 43
10.0
 44
1.0
 45
0.0
 46
0.0
 47
0.1
 48
0.1
140
3.2
141
0.0
142
0.0
143
0.0393701
144
2.0
145
0.0
146
0.71
147
1.5
 71
     0
 72
     0
 73
     0
 74
     0
 75
     1
 76
     1
 77
     3
 78
     8
170
     0
171
     2
172
     1
173
     1
174
     0
175
     0
176
   256
177
   256
178
     2
270
     2
271
     2
272
     2
273
     2
274
     2
340
6B
275
     0
280
     0
281
     0
282
     0
283
     0
284
     0
285
     0
286
     0
287
     3
288
     0
  0
DIMSTYLE
105
B34
330
A
100
AcDbSymbolTableRecord
100
AcDbDimStyleTableRecord
  2
AM_JIS$2
 70
     0
  3

  4
"
  5
OPEN30
  6

  7

 40
0.5
 41
2.5
 42
1.0
 43
12.0
 44
1.0
 45
0.0
 46
0.0
 47
0.1
 48
0.1
140
3.2
141
0.0
142
0.0
143
0.0393701
144
1.0
145
0.0
146
0.71
147
1.5
 71
     0
 72
     0
 73
     0
 74
     0
 75
     0
 76
     0
 77
     3
 78
     8
170
     0
171
     2
172
     1
173
     0
174
     0
175
     0
176
   256
177
   256
178
     2
270
     2
271
     3
272
     3
273
     2
274
     2
340
6B
275
     0
280
     0
281
     0
282
     0
283
     0
284
     0
285
     0
286
     0
287
     3
288
     0
  0
ENDTAB
  0
TABLE
  2
BLOCK_RECORD
  5
1
330
0
100
AcDbSymbolTable
 70
     9
  0
BLOCK_RECORD
  5
1F
102
{ACAD_XDICTIONARY
360
74
102
}
330
1
100
AcDbSymbolTableRecord
100
AcDbBlockTableRecord
  2
*MODEL_SPACE
  0
BLOCK_RECORD
  5
101
102
{ACAD_XDICTIONARY
360
1B76
102
}
330
1
100
AcDbSymbolTableRecord
100
AcDbBlockTableRecord
  2
*PAPER_SPACE
  0
BLOCK_RECORD
  5
59
330
1
100
AcDbSymbolTableRecord
100
AcDbBlockTableRecord
  2
_OPEN30
  0
BLOCK_RECORD
  5
64
330
1
100
AcDbSymbolTableRecord
100
AcDbBlockTableRecord
  2
GENAXEH
  0
BLOCK_RECORD
  5
C75
330
1
100
AcDbSymbolTableRecord
100
AcDbBlockTableRecord
  2
*D5
  0
BLOCK_RECORD
  5
C81
330
1
100
AcDbSymbolTableRecord
100
AcDbBlockTableRecord
  2
*D6
  0
BLOCK_RECORD
  5
16F8
330
1
100
AcDbSymbolTableRecord
100
AcDbBlockTableRecord
  2
*D7
  0
BLOCK_RECORD
  5
1705
330
1
100
AcDbSymbolTableRecord
100
AcDbBlockTableRecord
  2
*D8
  0
ENDTAB
  0
ENDSEC
  0
SECTION
  2
BLOCKS
  0
BLOCK
  5
20
330
1F
100
AcDbEntity
  8
0
100
AcDbBlockBegin
  2
*MODEL_SPACE
 70
     0
 10
0.0
 20
0.0
 30
0.0
  3
*MODEL_SPACE
  1

  0
ENDBLK
  5
21
330
1F
100
AcDbEntity
  8
0
100
AcDbBlockEnd
  0
BLOCK
  5
103
330
101
100
AcDbEntity
 67
     1
  8
0
100
AcDbBlockBegin
  2
*PAPER_SPACE
 70
     0
 10
0.0
 20
0.0
 30
0.0
  3
*PAPER_SPACE
  1

  0
ENDBLK
  5
104
330
101
100
AcDbEntity
 67
     1
  8
0
100
AcDbBlockEnd
  0
BLOCK
  5
5D
330
59
100
AcDbEntity
  8
0
100
AcDbBlockBegin
  2
_OPEN30
 70
     0
 10
0.0
 20
0.0
 30
0.0
  3
_OPEN30
  1

  0
LINE
  5
5A
330
59
100
AcDbEntity
  8
0
 62
     0
100
AcDbLine
 10
-1.0
 20
0.26794919
 30
0.0
 11
0.0
 21
0.0
 31
0.0
  0
LINE
  5
5B
330
59
100
AcDbEntity
  8
0
 62
     0
100
AcDbLine
 10
0.0
 20
0.0
 30
0.0
 11
-1.0
 21
-0.26794919
 31
0.0
  0
LINE
  5
5C
330
59
100
AcDbEntity
  8
0
 62
     0
100
AcDbLine
 10
0.0
 20
0.0
 30
0.0
 11
-1.0
 21
0.0
 31
0.0
  0
ENDBLK
  5
5E
330
59
100
AcDbEntity
  8
0
100
AcDbBlockEnd
  0
BLOCK
  5
66
330
64
100
AcDbEntity
  8
0
100
AcDbBlockBegin
  2
GENAXEH
 70
     0
 10
0.0
 20
0.0
 30
0.0
  3
GENAXEH
  1

  0
LINE
  5
65
330
64
100
AcDbEntity
  8
0
100
AcDbLine
 10
-1.0
 20
0.0
 30
0.0
 11
1.0
 21
0.0
 31
0.0
  0
ENDBLK
  5
67
330
64
100
AcDbEntity
  8
0
100
AcDbBlockEnd
  0
BLOCK
  5
C7F
330
C75
100
AcDbEntity
  8
0
100
AcDbBlockBegin
  2
*D5
 70
     1
 10
0.0
 20
0.0
 30
0.0
  3
*D5
  1

  0
LINE
  5
1B1F
330
C75
100
AcDbEntity
  8
AM_5
100
AcDbLine
 10
-60.00000000000007
 20
-2.750000000000006
 30
0.0
 11
-60.00000000000007
 21
-16.50000099999994
 31
0.0
  0
LINE
  5
1B20
330
C75
100
AcDbEntity
  8
AM_5
100
AcDbLine
 10
-0.0000000000000569
 20
-2.500000000000003
 30
0.0
 11
-0.0000000000000577
 21
-16.50000099999994
 31
0.0
  0
LINE
  5
1B21
330
C75
100
AcDbEntity
  8
AM_5
100
AcDbLine
 10
-58.75000000000007
 20
-16.00000099999994
 30
0.0
 11
-1.250000000000057
 21
-16.00000099999994
 31
0.0
  0
INSERT
  5
1B22
330
C75
100
AcDbEntity
  8
AM_5
100
AcDbBlockReference
  2
_OPEN30
 10
-60.00000000000007
 20
-16.00000099999994
 30
0.0
 41
1.25
 42
1.25
 43
1.25
 50
180.0
  0
INSERT
  5
1B23
330
C75
100
AcDbEntity
  8
AM_5
100
AcDbBlockReference
  2
_OPEN30
 10
-0.0000000000000577
 20
-16.00000099999994
 30
0.0
 41
1.25
 42
1.25
 43
1.25
  0
MTEXT
  5
1B24
330
C75
100
AcDbEntity
  8
AM_5
 62
     2
100
AcDbMText
 10
-30.00000000000006
 20
-14.45000099999994
 30
0.0
 40
1.6
 41
0.0
 71
     5
 72
     1
  1
60
  7
ASAMI
1001
ACAD
1000
MTEXTBEGIN
1070
    73
1070
     1
1070
    44
1040
1.0
1070
    74
1070
     0
1000
MTEXTEND
  0
POINT
  5
1B25
330
C75
100
AcDbEntity
  8
DEFPOINTS
 62
     0
100
AcDbPoint
 10
-60.00000000000007
 20
-2.250000000000006
 30
0.0
  0
POINT
  5
1B26
330
C75
100
AcDbEntity
  8
DEFPOINTS
 62
     0
100
AcDbPoint
 10
-0.0000000000000569
 20
-2.000000000000003
 30
0.0
  0
POINT
  5
1B27
330
C75
100
AcDbEntity
  8
DEFPOINTS
 62
     0
100
AcDbPoint
 10
-0.0000000000000577
 20
-16.00000099999994
 30
0.0
  0
ENDBLK
  5
C80
330
C75
100
AcDbEntity
  8
0
100
AcDbBlockEnd
  0
BLOCK
  5
C8B
330
C81
100
AcDbEntity
  8
0
100
AcDbBlockBegin
  2
*D6
 70
     1
 10
0.0
 20
0.0
 30
0.0
  3
*D6
  1

  0
LINE
  5
1AF0
330
C81
100
AcDbEntity
  8
AM_5
100
AcDbLine
 10
-60.00000000000007
 20
-3.000000000000006
 30
0.0
 11
-67.50000000000008
 21
-3.000000000000003
 31
0.0
  0
LINE
  5
1AF1
330
C81
100
AcDbEntity
  8
AM_5
100
AcDbLine
 10
-60.00000000000007
 20
2.999999999999998
 30
0.0
 11
-67.50000000000008
 21
3.0
 31
0.0
  0
LINE
  5
1AF2
330
C81
100
AcDbEntity
  8
AM_5
100
AcDbLine
 10
-67.00000000000009
 20
-4.250000000000004
 30
0.0
 11
-67.00000000000009
 21
-5.500000000000004
 31
0.0
  0
LINE
  5
1AF3
330
C81
100
AcDbEntity
  8
AM_5
100
AcDbLine
 10
-67.00000000000009
 20
4.25
 30
0.0
 11
-67.00000000000009
 21
5.5
 31
0.0
  0
LINE
  5
1AF4
330
C81
100
AcDbEntity
  8
AM_5
100
AcDbLine
 10
-67.00000000000009
 20
-3.000000000000003
 30
0.0
 11
-67.00000000000009
 21
3.0
 31
0.0
  0
INSERT
  5
1AF5
330
C81
100
AcDbEntity
  8
AM_5
100
AcDbBlockReference
  2
_OPEN30
 10
-67.00000000000009
 20
-3.000000000000003
 30
0.0
 41
1.25
 42
1.25
 43
1.25
 50
90.0
  0
INSERT
  5
1AF6
330
C81
100
AcDbEntity
  8
AM_5
100
AcDbBlockReference
  2
_OPEN30
 10
-67.00000000000009
 20
3.0
 30
0.0
 41
1.25
 42
1.25
 43
1.25
 50
270.0
  0
MTEXT
  5
1AF7
330
C81
100
AcDbEntity
  8
AM_5
 62
     2
100
AcDbMText
 10
-68.55000000000008
 20
-0.0000000000000079
 30
0.0
 40
1.6
 41
0.0
 71
     5
 72
     1
  1
%%c6
  7
ASAMI
 11
0.0000000000000001
 21
1.0
 31
0.0
1001
ACAD
1000
MTEXTBEGIN
1070
    73
1070
     1
1070
    44
1040
1.0
1070
    74
1070
     0
1000
MTEXTEND
  0
POINT
  5
1AF8
330
C81
100
AcDbEntity
  8
DEFPOINTS
 62
     0
100
AcDbPoint
 10
-59.50000000000007
 20
-3.000000000000006
 30
0.0
  0
POINT
  5
1AF9
330
C81
100
AcDbEntity
  8
DEFPOINTS
 62
     0
100
AcDbPoint
 10
-59.50000000000007
 20
2.999999999999998
 30
0.0
  0
POINT
  5
1AFA
330
C81
100
AcDbEntity
  8
DEFPOINTS
 62
     0
100
AcDbPoint
 10
-67.00000000000009
 20
3.0
 30
0.0
  0
ENDBLK
  5
C8C
330
C81
100
AcDbEntity
  8
0
100
AcDbBlockEnd
  0
BLOCK
  5
1702
330
16F8
100
AcDbEntity
  8
0
100
AcDbBlockBegin
  2
*D7
 70
     1
 10
0.0
 20
0.0
 30
0.0
  3
*D7
  1

  0
LINE
  5
19FB
330
16F8
100
AcDbEntity
  8
AM_5
100
AcDbLine
 10
-15.00000000000006
 20
-2.50000000000001
 30
0.0
 11
-15.00000000000006
 21
-10.5000010000001
 31
0.0
  0
LINE
  5
19FC
330
16F8
100
AcDbEntity
  8
AM_5
100
AcDbLine
 10
-0.0000000000000569
 20
-2.500000000000003
 30
0.0
 11
-0.0000000000000574
 21
-10.5000010000001
 31
0.0
  0
LINE
  5
19FD
330
16F8
100
AcDbEntity
  8
AM_5
100
AcDbLine
 10
-13.75000000000006
 20
-10.0000010000001
 30
0.0
 11
-1.250000000000057
 21
-10.0000010000001
 31
0.0
  0
INSERT
  5
19FE
330
16F8
100
AcDbEntity
  8
AM_5
100
AcDbBlockReference
  2
_OPEN30
 10
-15.00000000000006
 20
-10.0000010000001
 30
0.0
 41
1.25
 42
1.25
 43
1.25
 50
180.0
  0
INSERT
  5
19FF
330
16F8
100
AcDbEntity
  8
AM_5
100
AcDbBlockReference
  2
_OPEN30
 10
-0.0000000000000573
 20
-10.0000010000001
 30
0.0
 41
1.25
 42
1.25
 43
1.25
  0
MTEXT
  5
1A00
330
16F8
100
AcDbEntity
  8
AM_5
 62
     2
100
AcDbMText
 10
-7.500000000000058
 20
-8.450001000000099
 30
0.0
 40
1.6
 41
0.0
 71
     5
 72
     1
  1
15
  7
ASAMI
1001
ACAD
1000
MTEXTBEGIN
1070
    73
1070
     1
1070
    44
1040
1.0
1070
    74
1070
     0
1000
MTEXTEND
  0
POINT
  5
1A01
330
16F8
100
AcDbEntity
  8
DEFPOINTS
 62
     0
100
AcDbPoint
 10
-15.00000000000006
 20
-2.00000000000001
 30
0.0
  0
POINT
  5
1A02
330
16F8
100
AcDbEntity
  8
DEFPOINTS
 62
     0
100
AcDbPoint
 10
-0.0000000000000569
 20
-2.000000000000003
 30
0.0
  0
POINT
  5
1A03
330
16F8
100
AcDbEntity
  8
DEFPOINTS
 62
     0
100
AcDbPoint
 10
-0.0000000000000573
 20
-10.0000010000001
 30
0.0
  0
ENDBLK
  5
1703
330
16F8
100
AcDbEntity
  8
0
100
AcDbBlockEnd
  0
BLOCK
  5
1710
330
1705
100
AcDbEntity
  8
0
100
AcDbBlockBegin
  2
*D8
 70
     1
 10
0.0
 20
0.0
 30
0.0
  3
*D8
  1

  0
LINE
  5
1AFB
330
1705
100
AcDbEntity
  8
AM_5
100
AcDbLine
 10
0.4999999999999432
 20
-2.000000000000003
 30
0.0
 11
7.5
 21
-2.000000000000005
 31
0.0
  0
LINE
  5
1AFC
330
1705
100
AcDbEntity
  8
AM_5
100
AcDbLine
 10
0.2980486836125273
 20
2.00000000001091
 30
0.0
 11
7.500000000000002
 21
2.000000000010908
 31
0.0
  0
LINE
  5
1AFD
330
1705
100
AcDbEntity
  8
AM_5
100
AcDbLine
 10
7.000000000000001
 20
-0.7500000000000052
 30
0.0
 11
7.000000000000001
 21
0.7500000000109088
 31
0.0
  0
INSERT
  5
1AFE
330
1705
100
AcDbEntity
  8
AM_5
100
AcDbBlockReference
  2
_OPEN30
 10
7.0
 20
-2.000000000000005
 30
0.0
 41
1.25
 42
1.25
 43
1.25
 50
270.0
  0
INSERT
  5
1AFF
330
1705
100
AcDbEntity
  8
AM_5
100
AcDbBlockReference
  2
_OPEN30
 10
7.000000000000002
 20
2.000000000010908
 30
0.0
 41
1.25
 42
1.25
 43
1.25
 50
90.0
  0
MTEXT
  5
1B00
330
1705
100
AcDbEntity
  8
AM_5
 62
     2
100
AcDbMText
 10
5.450000000000001
 20
0.0000000000054532
 30
0.0
 40
1.6
 41
0.0
 71
     5
 72
     1
  1
%%c4
  7
ASAMI
 11
0.0000000000000001
 21
1.0
 31
0.0
1001
ACAD
1000
MTEXTBEGIN
1070
    73
1070
     1
1070
    44
1040
1.0
1070
    74
1070
     0
1000
MTEXTEND
  0
POINT
  5
1B01
330
1705
100
AcDbEntity
  8
DEFPOINTS
 62
     0
100
AcDbPoint
 10
-0.0000000000000569
 20
-2.000000000000003
 30
0.0
  0
POINT
  5
1B02
330
1705
100
AcDbEntity
  8
DEFPOINTS
 62
     0
100
AcDbPoint
 10
-0.2019513163874727
 20
2.00000000001091
 30
0.0
  0
POINT
  5
1B03
330
1705
100
AcDbEntity
  8
DEFPOINTS
 62
     0
100
AcDbPoint
 10
7.000000000000002
 20
2.000000000010908
 30
0.0
  0
ENDBLK
  5
1711
330
1705
100
AcDbEntity
  8
0
100
AcDbBlockEnd
  0
ENDSEC
  0
SECTION
  2
ENTITIES
  0
DIMENSION
  5
C4F
330
1F
100
AcDbEntity
  8
AM_5
100
AcDbDimension
  2
*D5
 10
-0.0000000000000577
 20
-16.00000099999994
 30
0.0
 11
-30.00000000000006
 21
-14.45000099999994
 31
0.0
 70
    32
  1
<>
  3
AM_JIS
100
AcDbAlignedDimension
 13
-60.00000000000007
 23
-2.250000000000006
 33
0.0
 14
-0.0000000000000569
 24
-2.000000000000003
 34
0.0
 50
0.0000000000002036
100
AcDbRotatedDimension
1001
GENIUS_GENDTOL_13
1000

1000
H7
1000

1040
0.0
  0
LINE
  5
C50
330
1F
100
AcDbEntity
  8
AM_7
100
AcDbLine
 10
-62.38487321524641
 20
-0.0000000000000036
 30
0.0
 11
1.32952988907452
 21
-0.0000000000000036
 31
0.0
1001
GENIUS_GENODEF_13
1002
{
1000
HIER
1070
     0
1002
}
1002
{
1000
MANEDIT
1070
     0
1002
}
1002
{
1000
NOSEL
1070
     0
1002
}
1002
{
1000
BEHIND
1070
     0
1002
}
1002
{
1000
REACTOR
1002
}
1001
GENIUS_GENOBJ-N-CEN_13
1002
{
1000
OWNER
1000
GEN
1002
}
  0
DIMENSION
  5
C53
330
1F
100
AcDbEntity
  8
AM_5
100
AcDbDimension
  2
*D6
 10
-67.00000000000009
 20
3.0
 30
0.0
 11
-67.00000000000009
 21
-0.0000000000000081
 31
0.0
 70
   160
  1
%%c<>
  3
AM_JIS
100
AcDbAlignedDimension
 13
-59.50000000000007
 23
-3.000000000000006
 33
0.0
 14
-59.50000000000007
 24
2.999999999999998
 34
0.0
 50
270.0
100
AcDbRotatedDimension
1001
ACAD
1000
DSTYLE
1002
{
1070
    48
1040
0.1
1070
    47
1040
0.1
1070
   274
1070
     2
1070
   272
1070
     3
1002
}
1001
GENIUS_GENDTOL_13
1000

1000
h6
1000

1040
0.0
  0
TEXT
  5
C58
330
1F
100
AcDbEntity
  8
AM_6
100
AcDbText
 10
-41.84523809523816
 20
-27.25000099999999
 30
0.0
 40
2.5
  1
LHHM4040ZX
 50
0.0000000000002036
 72
     4
 11
-30.00000000000007
 21
-26.00000099999995
 31
0.0
100
AcDbText
  0
LINE
  5
DFA
330
1F
100
AcDbEntity
  8
AM_0
100
AcDbLine
 10
-21.70000000000007
 20
-3.000000000000006
 30
0.0
 11
-21.70000000000007
 21
2.999999999999992
 31
0.0
  0
LINE
  5
DFB
330
1F
100
AcDbEntity
  8
AM_0
100
AcDbLine
 10
-60.00000000000007
 20
2.249999999999993
 30
0.0
 11
-59.50000000000007
 21
2.999999999999993
 31
0.0
1001
GENIUS_GENFIL_13
1070
     0
1040
0.5
1040
0.5
1040
0.4999999999999716
1040
45.0
1002
{
1002
}
  0
LINE
  5
DFC
330
1F
100
AcDbEntity
  8
AM_0
100
AcDbLine
 10
-60.00000000000007
 20
-2.250000000000006
 30
0.0
 11
-59.50000000000007
 21
-3.000000000000006
 31
0.0
1001
GENIUS_GENFIL_13
1070
     0
1040
0.5
1040
0.5
1040
0.4999999999999716
1040
45.00000000000036
1002
{
1002
}
  0
LINE
  5
DFD
330
1F
100
AcDbEntity
  8
0
100
AcDbLine
 10
-59.50000000000007
 20
-3.000000000000006
 30
0.0
 11
-59.50000000000007
 21
2.999999999999993
 31
0.0
  0
LINE
  5
DFE
330
1F
100
AcDbEntity
  8
AM_0
100
AcDbLine
 10
-60.00000000000007
 20
-2.250000000000006
 30
0.0
 11
-60.00000000000007
 21
2.249999999999993
 31
0.0
  0
LINE
  5
DFF
330
1F
100
AcDbEntity
  8
AM_0
100
AcDbLine
 10
-59.50000000000007
 20
2.999999999999993
 30
0.0
 11
-21.70000000000007
 21
2.999999999999993
 31
0.0
1001
GENIUS_GENODEF_13
1002
{
1000
HIER
1070
     0
1002
}
1002
{
1000
MANEDIT
1070
     0
1002
}
1002
{
1000
NOSEL
1070
     0
1002
}
1002
{
1000
BEHIND
1070
     0
1002
}
1002
{
1000
REACTOR
1002
}
1001
GENIUS_GENOBJ-N-CEN_13
1002
{
1000
OWNER
1000
GEN
1002
}
  0
LINE
  5
E00
330
1F
100
AcDbEntity
  8
AM_0
100
AcDbLine
 10
-59.50000000000007
 20
-3.000000000000006
 30
0.0
 11
-21.70000000000007
 21
-3.000000000000006
 31
0.0
1001
GENIUS_GENODEF_13
1002
{
1000
HIER
1070
     0
1002
}
1002
{
1000
MANEDIT
1070
     0
1002
}
1002
{
1000
NOSEL
1070
     0
1002
}
1002
{
1000
BEHIND
1070
     0
1002
}
1002
{
1000
REACTOR
1002
}
1001
GENIUS_GENOBJ-N-CEN_13
1002
{
1000
OWNER
1000
GEN
1002
}
  0
LINE
  5
E32
330
1F
100
AcDbEntity
  8
AM_0
100
AcDbLine
 10
-21.70000000000007
 20
2.999999999999992
 30
0.0
 11
-17.96794919243122
 21
1.999999999999997
 31
0.0
  0
LINE
  5
1174
330
1F
100
AcDbEntity
  8
AM_0
100
AcDbLine
 10
-21.70000000000007
 20
-3.000000000000006
 30
0.0
 11
-17.96794919243122
 21
-2.000000000000009
 31
0.0
  0
LINE
  5
16BD
330
1F
100
AcDbEntity
  8
AM_11
100
AcDbLine
 10
-0.0000000000000611
 20
-2.000000000000003
 30
0.0
 11
-0.0000000000000608
 21
1.999999999999996
 31
0.0
  0
LINE
  5
16DD
330
1F
100
AcDbEntity
  8
AM_11
 48
0.4
100
AcDbLine
 10
-15.00000000000006
 20
1.999999999999996
 30
0.0
 11
-15.00000000000006
 21
-2.000000000000003
 31
0.0
  0
LINE
  5
16F0
330
1F
100
AcDbEntity
  8
AM_11
100
AcDbLine
 10
-15.00000000000006
 20
1.999999999999996
 30
0.0
 11
-0.0000000000000569
 21
1.999999999999996
 31
0.0
1001
GENIUS_GENODEF_13
1002
{
1000
HIER
1070
     0
1002
}
1002
{
1000
MANEDIT
1070
     0
1002
}
1002
{
1000
NOSEL
1070
     0
1002
}
1002
{
1000
BEHIND
1070
     0
1002
}
1002
{
1000
REACTOR
1002
}
1001
GENIUS_GENOBJ-N-CEN_13
1002
{
1000
OWNER
1000
GEN
1002
}
  0
LINE
  5
16F1
330
1F
100
AcDbEntity
  8
AM_11
100
AcDbLine
 10
-15.00000000000006
 20
-2.000000000000003
 30
0.0
 11
-0.0000000000000569
 21
-2.000000000000003
 31
0.0
1001
GENIUS_GENODEF_13
1002
{
1000
HIER
1070
     0
1002
}
1002
{
1000
MANEDIT
1070
     0
1002
}
1002
{
1000
NOSEL
1070
     0
1002
}
1002
{
1000
BEHIND
1070
     0
1002
}
1002
{
1000
REACTOR
1002
}
1001
GENIUS_GENOBJ-N-CEN_13
1002
{
1000
OWNER
1000
GEN
1002
}
  0
DIMENSION
  5
16F7
330
1F
100
AcDbEntity
  8
AM_5
100
AcDbDimension
  2
*D7
 10
-0.0000000000000573
 20
-10.0000010000001
 30
0.0
 11
-7.500000000000058
 21
-8.450001000000099
 31
0.0
 70
    32
  1
<>
  3
AM_JIS
100
AcDbAlignedDimension
 13
-15.00000000000006
 23
-2.00000000000001
 33
0.0
 14
-0.0000000000000569
 24
-2.000000000000003
 34
0.0
 50
359.9999999999993
100
AcDbRotatedDimension
1001
GENIUS_GENDTOL_13
1000

1000
H7
1000

1040
0.0
  0
DIMENSION
  5
1704
330
1F
100
AcDbEntity
  8
AM_5
100
AcDbDimension
  2
*D8
 10
7.000000000000002
 20
2.000000000010908
 30
0.0
 11
7.000000000000001
 21
0.000000000005453
 31
0.0
 70
   160
  1
%%c<>
  3
AM_JIS
100
AcDbAlignedDimension
 13
-0.0000000000000569
 23
-2.000000000000003
 33
0.0
 14
-0.2019513163874727
 24
2.00000000001091
 34
0.0
 50
90.00000000000005
100
AcDbRotatedDimension
1001
ACAD
1000
DSTYLE
1002
{
1070
    48
1040
0.05
1070
    47
1040
0.0
1070
   274
1070
     1
1070
   272
1070
     2
1002
}
1001
GENIUS_GENDTOL_13
1000

1000
H7
1000

1040
0.0
  0
LINE
  5
17FD
330
1F
100
AcDbEntity
  8
AM_0
100
AcDbLine
 10
-17.96794919243122
 20
1.999999999999996
 30
0.0
 11
-17.96794919243122
 21
-2.000000000000009
 31
0.0
  0
LINE
  5
1A72
330
1F
100
AcDbEntity
  8
AM_0
100
AcDbLine
 10
-17.96794919243122
 20
-2.00000000000001
 30
0.0
 11
-16.14961616805927
 21
-2.00000000000001
 31
0.0
  0
SPLINE
  5
1A73
330
1F
100
AcDbEntity
  8
AM_0
100
AcDbSpline
210
0.0
220
0.0
230
1.0
 70
     8
 71
     3
 72
     8
 73
     4
 74
     0
 42
0.0000000001
 43
0.0000000001
 40
0.0
 40
0.0
 40
0.0
 40
0.0
 40
1.837983976000965
 40
1.837983976000965
 40
1.837983976000965
 40
1.837983976000965
 10
-15.70387257372389
 20
-1.954733416506317
 30
0.0
 10
-16.53777440643835
 20
-1.954733416506317
 30
0.0
 10
-17.24648272090149
 20
-1.525677534904271
 30
0.0
 10
-17.91294629721557
 20
-0.9518429648943243
 30
0.0
  0
LINE
  5
1A74
330
1F
100
AcDbEntity
  8
AM_0
100
AcDbLine
 10
-14.01334479411719
 20
-1.75639648455531
 30
0.0
 11
-15.00001492377078
 21
-1.851081708080667
 31
0.0
  0
SPLINE
  5
1A75
330
1F
100
AcDbEntity
  8
AM_0
100
AcDbSpline
210
0.0
220
0.0
230
1.0
 70
     8
 71
     3
 72
     8
 73
     4
 74
     0
 42
0.0000000001
 43
0.0000000001
 40
0.0
 40
0.0
 40
0.0
 40
0.0
 40
1.168827779870509
 40
1.168827779870509
 40
1.168827779870509
 40
1.168827779870509
 10
-16.14961616805927
 20
-1.99999999999982
 30
0.0
 10
-15.99052539678678
 20
-1.99999999999982
 30
0.0
 10
-15.83612655691776
 20
-1.98422859673856
 30
0.0
 10
-15.6858304157766
 20
-1.95466643002924
 30
0.0
  0
SPLINE
  5
1A76
330
1F
100
AcDbEntity
  8
AM_0
100
AcDbSpline
210
0.0
220
0.0
230
1.0
 70
     8
 71
     3
 72
     8
 73
     4
 74
     0
 42
0.0000000001
 43
0.0000000001
 40
0.0
 40
0.0
 40
0.0
 40
0.0
 40
2.522908762662146
 40
2.522908762662146
 40
2.522908762662146
 40
2.522908762662146
 10
-12.94419298425707
 20
-1.999999999999821
 30
0.0
 10
-14.08884836124943
 20
-1.99999999999982
 30
0.0
 10
-14.99061287137971
 20
-1.183549485190346
 30
0.0
 10
-15.86895699716188
 20
-0.2883739647638392
 30
0.0
  0
SPLINE
  5
1A77
330
1F
100
AcDbEntity
  8
AM_0
100
AcDbSpline
210
0.0
220
0.0
230
1.0
 70
     8
 71
     3
 72
     8
 73
     4
 74
     0
 42
0.0000000001
 43
0.0000000001
 40
0.0
 40
0.0
 40
0.0
 40
0.0
 40
1.797797194454997
 40
1.797797194454997
 40
1.797797194454997
 40
1.797797194454997
 10
-15.70387257372706
 20
-1.954733416506272
 30
0.0
 10
-15.45917190252203
 20
-1.954733416506272
 30
0.0
 10
-15.22525131938801
 20
-1.917788531055069
 30
0.0
 10
-15.00001492363662
 20
-1.851081708040968
 30
0.0
  0
SPLINE
  5
1A78
330
1F
100
AcDbEntity
  8
AM_0
100
AcDbSpline
210
0.0
220
0.0
230
1.0
 70
     8
 71
     3
 72
     8
 73
     4
 74
     0
 42
0.0000000001
 43
0.0000000001
 40
0.0
 40
0.0
 40
0.0
 40
0.0
 40
2.774045382722535
 40
2.774045382722535
 40
2.774045382722535
 40
2.774045382722535
 10
-12.49844938992477
 20
-1.954733416506318
 30
0.0
 10
-13.75704661323601
 20
-1.954733416506317
 30
0.0
 10
-14.73045959348074
 20
-0.9773667082530689
 30
0.0
 10
-15.70387257372547
 20
0.0000000000001792
 30
0.0
  0
SPLINE
  5
1A79
330
1F
100
AcDbEntity
  8
AM_0
100
AcDbSpline
210
0.0
220
0.0
230
1.0
 70
     8
 71
     3
 72
     8
 73
     4
 74
     0
 42
0.0000000001
 43
0.0000000001
 40
0.0
 40
0.0
 40
0.0
 40
0.0
 40
1.797797194454997
 40
1.797797194454997
 40
1.797797194454997
 40
1.797797194454997
 10
-12.49844938992801
 20
-1.954733416506272
 30
0.0
 10
-12.25374871872299
 20
-1.954733416506272
 30
0.0
 10
-12.01982813558897
 20
-1.917788531055069
 30
0.0
 10
-11.79459173983758
 20
-1.851081708040968
 30
0.0
  0
LINE
  5
1A7A
330
1F
100
AcDbEntity
  8
AM_0
100
AcDbLine
 10
-10.80792161031815
 20
-1.75639648455531
 30
0.0
 11
-11.79459173997175
 21
-1.851081708080667
 31
0.0
  0
SPLINE
  5
1A7B
330
1F
100
AcDbEntity
  8
AM_0
100
AcDbSpline
210
0.0
220
0.0
230
1.0
 70
     8
 71
     3
 72
     8
 73
     4
 74
     0
 42
0.0000000001
 43
0.0000000001
 40
0.0
 40
0.0
 40
0.0
 40
0.0
 40
2.774045382722535
 40
2.774045382722535
 40
2.774045382722535
 40
2.774045382722535
 10
-9.293026206125734
 20
-1.954733416506318
 30
0.0
 10
-10.55162342943698
 20
-1.954733416506318
 30
0.0
 10
-11.52503640968171
 20
-0.9773667082530694
 30
0.0
 10
-12.49844938992644
 20
0.0000000000001788
 30
0.0
  0
SPLINE
  5
1A7C
330
1F
100
AcDbEntity
  8
AM_0
100
AcDbSpline
210
0.0
220
0.0
230
1.0
 70
     8
 71
     3
 72
     8
 73
     4
 74
     0
 42
0.0000000001
 43
0.0000000001
 40
0.0
 40
0.0
 40
0.0
 40
0.0
 40
2.792136278909016
 40
2.792136278909016
 40
2.792136278909016
 40
2.792136278909016
 10
-9.738769800457944
 20
-1.999999999999821
 30
0.0
 10
-11.00557494706033
 20
-1.999999999999821
 30
0.0
 10
-11.97488396565945
 20
-0.9999999999998212
 30
0.0
 10
-12.94419298425856
 20
0.0000000000001788
 30
0.0
  0
SPLINE
  5
1A7D
330
1F
100
AcDbEntity
  8
AM_0
100
AcDbSpline
210
0.0
220
0.0
230
1.0
 70
     8
 71
     3
 72
     8
 73
     4
 74
     0
 42
0.0000000001
 43
0.0000000001
 40
0.0
 40
0.0
 40
0.0
 40
0.0
 40
1.168827779870509
 40
1.168827779870509
 40
1.168827779870509
 40
1.168827779870509
 10
-12.94419298426023
 20
-1.999999999999821
 30
0.0
 10
-12.78510221298774
 20
-1.999999999999821
 30
0.0
 10
-12.63070337311863
 20
-1.98422859673856
 30
0.0
 10
-12.48040723197756
 20
-1.95466643002924
 30
0.0
  0
SPLINE
  5
1A7E
330
1F
100
AcDbEntity
  8
AM_0
100
AcDbSpline
210
0.0
220
0.0
230
1.0
 70
     8
 71
     3
 72
     8
 73
     4
 74
     0
 42
0.0000000001
 43
0.0000000001
 40
0.0
 40
0.0
 40
0.0
 40
0.0
 40
1.797797194454997
 40
1.797797194454997
 40
1.797797194454997
 40
1.797797194454997
 10
-6.087603022330035
 20
-1.954733416506272
 30
0.0
 10
-5.842902351125014
 20
-1.954733416506272
 30
0.0
 10
-5.608981767990901
 20
-1.917788531055069
 30
0.0
 10
-5.383745372239511
 20
-1.851081708040968
 30
0.0
  0
SPLINE
  5
1A7F
330
1F
100
AcDbEntity
  8
AM_0
100
AcDbSpline
210
0.0
220
0.0
230
1.0
 70
     8
 71
     3
 72
     8
 73
     4
 74
     0
 42
0.0000000001
 43
0.0000000001
 40
0.0
 40
0.0
 40
0.0
 40
0.0
 40
1.168827779870509
 40
1.168827779870509
 40
1.168827779870509
 40
1.168827779870509
 10
-6.533346616662159
 20
-1.99999999999982
 30
0.0
 10
-6.374255845389755
 20
-1.99999999999982
 30
0.0
 10
-6.21985700552064
 20
-1.98422859673856
 30
0.0
 10
-6.069560864379582
 20
-1.95466643002924
 30
0.0
  0
LINE
  5
1A80
330
1F
100
AcDbEntity
  8
AM_0
100
AcDbLine
 10
-4.397075242720081
 20
-1.75639648455531
 30
0.0
 11
-5.383745372373757
 21
-1.851081708080667
 31
0.0
  0
SPLINE
  5
1A81
330
1F
100
AcDbEntity
  8
AM_0
100
AcDbSpline
210
0.0
220
0.0
230
1.0
 70
     8
 71
     3
 72
     8
 73
     4
 74
     0
 42
0.0000000001
 43
0.0000000001
 40
0.0
 40
0.0
 40
0.0
 40
0.0
 40
2.792136278909016
 40
2.792136278909016
 40
2.792136278909016
 40
2.792136278909016
 10
-3.327923432859963
 20
-1.999999999999821
 30
0.0
 10
-4.594728579462348
 20
-1.99999999999982
 30
0.0
 10
-5.564037598061466
 20
-0.9999999999998207
 30
0.0
 10
-6.533346616660582
 20
0.0000000000001791
 30
0.0
  0
SPLINE
  5
1A82
330
1F
100
AcDbEntity
  8
AM_0
100
AcDbSpline
210
0.0
220
0.0
230
1.0
 70
     8
 71
     3
 72
     8
 73
     4
 74
     0
 42
0.0000000001
 43
0.0000000001
 40
0.0
 40
0.0
 40
0.0
 40
0.0
 40
2.77404538272248
 40
2.77404538272248
 40
2.77404538272248
 40
2.77404538272248
 10
-2.882179838527742
 20
-1.954733416506318
 30
0.0
 10
-4.140777061838964
 20
-1.954733416506317
 30
0.0
 10
-5.114190042083664
 20
-0.9773667082530693
 30
0.0
 10
-6.087603022328361
 20
0.0000000000001791
 30
0.0
  0
SPLINE
  5
1A83
330
1F
100
AcDbEntity
  8
AM_0
100
AcDbSpline
210
0.0
220
0.0
230
1.0
 70
     8
 71
     3
 72
     8
 73
     4
 74
     0
 42
0.0000000001
 43
0.0000000001
 40
0.0
 40
0.0
 40
0.0
 40
0.0
 40
1.797797194454997
 40
1.797797194454997
 40
1.797797194454997
 40
1.797797194454997
 10
-9.293026206129079
 20
-1.954733416506272
 30
0.0
 10
-9.048325534924057
 20
-1.954733416506272
 30
0.0
 10
-8.814404951789944
 20
-1.917788531055069
 30
0.0
 10
-8.589168556038554
 20
-1.851081708040968
 30
0.0
  0
LINE
  5
1A84
330
1F
100
AcDbEntity
  8
AM_0
100
AcDbLine
 10
-7.602498426519124
 20
-1.75639648455531
 30
0.0
 11
-8.589168556172801
 21
-1.851081708080667
 31
0.0
  0
SPLINE
  5
1A85
330
1F
100
AcDbEntity
  8
AM_0
100
AcDbSpline
210
0.0
220
0.0
230
1.0
 70
     8
 71
     3
 72
     8
 73
     4
 74
     0
 42
0.0000000001
 43
0.0000000001
 40
0.0
 40
0.0
 40
0.0
 40
0.0
 40
1.168827779870509
 40
1.168827779870509
 40
1.168827779870509
 40
1.168827779870509
 10
-9.738769800461202
 20
-1.99999999999982
 30
0.0
 10
-9.579679029188797
 20
-1.99999999999982
 30
0.0
 10
-9.425280189319682
 20
-1.98422859673856
 30
0.0
 10
-9.274984048178623
 20
-1.95466643002924
 30
0.0
  0
SPLINE
  5
1A86
330
1F
100
AcDbEntity
  8
AM_0
100
AcDbSpline
210
0.0
220
0.0
230
1.0
 70
     8
 71
     3
 72
     8
 73
     4
 74
     0
 42
0.0000000001
 43
0.0000000001
 40
0.0
 40
0.0
 40
0.0
 40
0.0
 40
2.77404538272248
 40
2.77404538272248
 40
2.77404538272248
 40
2.77404538272248
 10
-6.087603022326785
 20
-1.954733416506318
 30
0.0
 10
-7.346200245638007
 20
-1.954733416506317
 30
0.0
 10
-8.319613225882706
 20
-0.9773667082530693
 30
0.0
 10
-9.293026206127406
 20
0.0000000000001791
 30
0.0
  0
SPLINE
  5
1A87
330
1F
100
AcDbEntity
  8
AM_0
100
AcDbSpline
210
0.0
220
0.0
230
1.0
 70
     8
 71
     3
 72
     8
 73
     4
 74
     0
 42
0.0000000001
 43
0.0000000001
 40
0.0
 40
0.0
 40
0.0
 40
0.0
 40
2.792136278909016
 40
2.792136278909016
 40
2.792136278909016
 40
2.792136278909016
 10
-6.533346616659006
 20
-1.999999999999821
 30
0.0
 10
-7.80015176326139
 20
-1.99999999999982
 30
0.0
 10
-8.769460781860509
 20
-0.9999999999998207
 30
0.0
 10
-9.738769800459627
 20
0.0000000000001791
 30
0.0
  0
ELLIPSE
  5
1A88
330
1F
100
AcDbEntity
  8
AM_0
100
AcDbEllipse
 10
2.108020071234241
 20
-0.8019910823626144
 30
0.0
 11
2.438272000516374
 21
0.0000000000000245
 31
0.0
210
0.0
220
0.0
230
1.0
 40
0.9795898450690433
 41
3.290477547113861
 42
3.631967056263524
  0
LINE
  5
1A89
330
1F
100
AcDbEntity
  8
AM_0
100
AcDbLine
 10
-0.0429176499920055
 20
-1.92687303021194
 30
0.0
 11
-0.0000000000000762
 21
-1.978840762315079
 31
0.0
  0
LINE
  5
1A8A
330
1F
100
AcDbEntity
  8
AM_0
100
AcDbLine
 10
-0.0000000000000762
 20
-1.978840762315079
 30
0.0
 11
-0.1225002490609304
 21
-1.999999999999821
 31
0.0
  0
LINE
  5
1A8B
330
1F
100
AcDbEntity
  8
AM_0
100
AcDbLine
 10
-0.0429176499920055
 20
-0.8148089656310311
 30
0.0
 11
-0.3032775762607446
 21
-1.156291278934262
 31
0.0
  0
LINE
  5
1A8C
330
1F
100
AcDbEntity
  8
AM_0
100
AcDbLine
 10
-0.3032775762607446
 20
-1.156291278934262
 30
0.0
 11
-0.6039708489442078
 21
-0.3999999999998216
 31
0.0
  0
LINE
  5
1A8D
330
1F
100
AcDbEntity
  8
AM_0
100
AcDbLine
 10
-0.0429176499920055
 20
-1.92687303021194
 30
0.0
 11
-0.0429176499920055
 21
-0.8148089656310311
 31
0.0
  0
LINE
  5
1A8E
330
1F
100
AcDbEntity
  8
AM_0
100
AcDbLine
 10
-0.0000000000000762
 20
-1.978840762315079
 30
0.0
 11
-0.0000000000000762
 21
-0.5838688579552162
 31
0.0
  0
LINE
  5
1A8F
330
1F
100
AcDbEntity
  8
AM_0
100
AcDbLine
 10
-1.191652058921135
 20
-1.75639648455531
 30
0.0
 11
-2.178322188574628
 21
-1.851081708080667
 31
0.0
  0
SPLINE
  5
1A90
330
1F
100
AcDbEntity
  8
AM_0
100
AcDbSpline
210
0.0
220
0.0
230
1.0
 70
     8
 71
     3
 72
     8
 73
     4
 74
     0
 42
0.0000000001
 43
0.0000000001
 40
0.0
 40
0.0
 40
0.0
 40
0.0
 40
1.168827779870509
 40
1.168827779870509
 40
1.168827779870509
 40
1.168827779870509
 10
-3.327923432863213
 20
-1.999999999999821
 30
0.0
 10
-3.16883266159072
 20
-1.999999999999821
 30
0.0
 10
-3.014433821721606
 20
-1.984228596738561
 30
0.0
 10
-2.864137680580538
 20
-1.954666430029241
 30
0.0
  0
SPLINE
  5
1A91
330
1F
100
AcDbEntity
  8
AM_0
100
AcDbSpline
210
0.0
220
0.0
230
1.0
 70
     8
 71
     3
 72
     8
 73
     4
 74
     0
 42
0.0000000001
 43
0.0000000001
 40
0.0
 40
0.0
 40
0.0
 40
0.0
 40
1.797797194454997
 40
1.797797194454997
 40
1.797797194454997
 40
1.797797194454997
 10
-2.882179838530904
 20
-1.954733416506272
 30
0.0
 10
-2.63747916732597
 20
-1.954733416506272
 30
0.0
 10
-2.403558584191954
 20
-1.917788531055069
 30
0.0
 10
-2.178322188440564
 20
-1.851081708040968
 30
0.0
  0
SPLINE
  5
1A92
330
1F
100
AcDbEntity
  8
AM_0
100
AcDbSpline
210
0.0
220
0.0
230
1.0
 70
     8
 71
     3
 72
     8
 73
     4
 74
     0
 42
0.0000000001
 43
0.0000000001
 40
0.9166275210629445
 40
0.9166275210629445
 40
0.9166275210629445
 40
0.9166275210629445
 40
9.246817942408316
 40
9.246817942408316
 40
9.246817942408316
 40
9.246817942408316
 10
-0.0429176499920055
 20
-1.92687303021194
 30
0.0
 10
-1.128340726620587
 20
-1.760962709970184
 30
0.0
 10
-2.005260282574953
 20
-0.8804813549850257
 30
0.0
 10
-2.882179838529415
 20
0.0000000000001787
 30
0.0
  0
SPLINE
  5
1A93
330
1F
100
AcDbEntity
  8
AM_0
100
AcDbSpline
210
0.0
220
0.0
230
1.0
 70
     8
 71
     3
 72
     8
 73
     4
 74
     0
 42
0.0000000001
 43
0.0000000001
 40
0.0
 40
0.0
 40
0.0
 40
0.0
 40
2.792136278909009
 40
2.792136278909009
 40
2.792136278909009
 40
2.792136278909009
 10
-0.1225002490609304
 20
-1.999999999999821
 30
0.0
 10
-1.389305395663311
 20
-1.999999999999821
 30
0.0
 10
-2.358614414262426
 20
-0.9999999999998211
 30
0.0
 10
-3.32792343286154
 20
0.0000000000001787
 30
0.0
  0
LINE
  5
1A94
330
1F
100
AcDbEntity
  8
AM_0
100
AcDbLine
 10
-0.1225002490629711
 20
2.000000000000178
 30
0.0
 11
-0.0000000000000762
 21
1.978840762315117
 31
0.0
  0
LINE
  5
1A95
330
1F
100
AcDbEntity
  8
AM_0
100
AcDbLine
 10
-0.3032775762607446
 20
1.351844405731431
 30
0.0
 11
-0.6039708489442078
 21
1.700000000000178
 31
0.0
  0
SPLINE
  5
1A96
330
1F
100
AcDbEntity
  8
AM_0
100
AcDbSpline
210
0.0
220
0.0
230
1.0
 70
     8
 71
     3
 72
     8
 73
     4
 74
     0
 42
0.0000000001
 43
0.0000000001
 40
0.0
 40
0.0
 40
0.0
 40
0.0
 40
0.4192277204543643
 40
0.4192277204543643
 40
0.4192277204543643
 40
0.4192277204543643
 10
-0.1225002490625939
 20
2.000000000000178
 30
0.0
 10
-0.1561251563018375
 20
1.81661115485941
 30
0.0
 10
-0.4137652927607232
 20
1.700000000000185
 30
0.0
 10
-0.6039708489442078
 20
1.700000000000177
 30
0.0
  0
LINE
  5
1A97
330
1F
100
AcDbEntity
  8
AM_0
100
AcDbLine
 10
-0.0000000000000762
 20
0.5838688579555501
 30
0.0
 11
-0.0000000000000762
 21
1.978840762315094
 31
0.0
  0
LINE
  5
1A98
330
1F
100
AcDbEntity
  8
AM_0
100
AcDbLine
 10
-0.0563099522360318
 20
-0.3999999999998216
 30
0.0
 11
-0.6039708489442078
 21
-0.3999999999998216
 31
0.0
  0
LINE
  5
1A99
330
1F
100
AcDbEntity
  8
AM_0
100
AcDbLine
 10
-0.6039708489442078
 20
0.0000000000001784
 30
0.0
 11
-0.0000000000000762
 21
-0.0000000000000036
 31
0.0
  0
LINE
  5
1A9A
330
1F
100
AcDbEntity
  8
AM_0
100
AcDbLine
 10
-0.6039708489442078
 20
-0.3999999999998216
 30
0.0
 11
-0.6039708489442078
 21
0.0000000000001784
 31
0.0
  0
LINE
  5
1A9B
330
1F
100
AcDbEntity
  8
AM_0
100
AcDbLine
 10
-0.0000000000000762
 20
0.0000000000001783
 30
0.0
 11
-0.0429176499920055
 21
0.4000000000001782
 31
0.0
  0
LINE
  5
1A9C
330
1F
100
AcDbEntity
  8
AM_0
100
AcDbLine
 10
-0.0429176499920055
 20
-0.3999999999998216
 30
0.0
 11
-0.0492359203916783
 21
-0.423098832527743
 31
0.0
  0
LINE
  5
1A9D
330
1F
100
AcDbEntity
  8
AM_0
100
AcDbLine
 10
-0.0000000000000762
 20
-0.5838688579551708
 30
0.0
 11
-0.1788102012984527
 21
0.0000000000001784
 31
0.0
  0
LINE
  5
1A9E
330
1F
100
AcDbEntity
  8
AM_0
100
AcDbLine
 10
-0.0429176499920055
 20
-0.8148089656310311
 30
0.0
 11
-0.0000000000000762
 21
-0.5838688579551708
 31
0.0
  0
LINE
  5
1A9F
330
1F
100
AcDbEntity
  8
AM_0
100
AcDbLine
 10
-0.0000000000000762
 20
0.0000000000001783
 30
0.0
 11
-0.0429176499920055
 21
-0.3999999999998216
 31
0.0
  0
LINE
  5
1AA0
330
1F
100
AcDbEntity
  8
AM_0
100
AcDbLine
 10
-0.0429176499920055
 20
0.4000000000001782
 30
0.0
 11
-0.3032775762607446
 21
1.351844405731431
 31
0.0
  0
LINE
  5
1AA1
330
1F
100
AcDbEntity
  8
AM_0
100
AcDbLine
 10
-0.0000000000000762
 20
0.5838688579555501
 30
0.0
 11
-0.0492359203916783
 21
0.4230988325280997
 31
0.0
  0
LINE
  5
1AA2
330
1F
100
AcDbEntity
  8
AM_0
100
AcDbLine
 10
-3.80939403274324
 20
1.700000000000178
 30
0.0
 11
-5.383745372373757
 21
1.851081708081048
 31
0.0
  0
SPLINE
  5
1AA3
330
1F
100
AcDbEntity
  8
AM_0
100
AcDbSpline
210
0.0
220
0.0
230
1.0
 70
     8
 71
     3
 72
     8
 73
     4
 74
     0
 42
0.0000000001
 43
0.0000000001
 40
0.0
 40
0.0
 40
0.0
 40
0.0
 40
2.795805529891336
 40
2.795805529891336
 40
2.795805529891336
 40
2.795805529891336
 10
-3.327923432859963
 20
2.000000000000178
 30
0.0
 10
-3.708464403684277
 20
2.000000000000178
 30
0.0
 10
-4.062160305602454
 20
1.909763299824449
 30
0.0
 10
-4.397075242719898
 20
1.756396484555167
 30
0.0
  0
SPLINE
  5
1AA4
330
1F
100
AcDbEntity
  8
AM_0
100
AcDbSpline
210
0.0
220
0.0
230
1.0
 70
     8
 71
     3
 72
     8
 73
     4
 74
     0
 42
0.0000000001
 43
0.0000000001
 40
0.0
 40
0.0
 40
0.0
 40
0.0
 40
2.774045382722525
 40
2.774045382722525
 40
2.774045382722525
 40
2.774045382722525
 10
-6.087603022330035
 20
1.954733416506652
 30
0.0
 10
-4.829005799018791
 20
1.954733416506652
 30
0.0
 10
-3.85559281877406
 20
0.9773667082534156
 30
0.0
 10
-2.882179838529328
 20
0.0000000000001787
 30
0.0
  0
SPLINE
  5
1AA5
330
1F
100
AcDbEntity
  8
AM_0
100
AcDbSpline
210
0.0
220
0.0
230
1.0
 70
     8
 71
     3
 72
     8
 73
     4
 74
     0
 42
0.0000000001
 43
0.0000000001
 40
0.0
 40
0.0
 40
0.0
 40
0.0
 40
2.792136278909015
 40
2.792136278909015
 40
2.792136278909015
 40
2.792136278909015
 10
-6.533346616662159
 20
2.000000000000178
 30
0.0
 10
-5.266541470059776
 20
2.000000000000178
 30
0.0
 10
-4.297232451460659
 20
1.000000000000178
 30
0.0
 10
-3.32792343286154
 20
0.0000000000001787
 30
0.0
  0
SPLINE
  5
1AA6
330
1F
100
AcDbEntity
  8
AM_0
100
AcDbSpline
210
0.0
220
0.0
230
1.0
 70
     8
 71
     3
 72
     8
 73
     4
 74
     0
 42
0.0000000001
 43
0.0000000001
 40
0.0
 40
0.0
 40
0.0
 40
0.0
 40
2.774045382722471
 40
2.774045382722471
 40
2.774045382722471
 40
2.774045382722471
 10
-9.293026206128981
 20
1.954733416506653
 30
0.0
 10
-8.034428982817761
 20
1.954733416506652
 30
0.0
 10
-7.061016002573062
 20
0.977366708253416
 30
0.0
 10
-6.087603022328361
 20
0.0000000000001791
 30
0.0
  0
SPLINE
  5
1AA7
330
1F
100
AcDbEntity
  8
AM_0
100
AcDbSpline
210
0.0
220
0.0
230
1.0
 70
     8
 71
     3
 72
     8
 73
     4
 74
     0
 42
0.0000000001
 43
0.0000000001
 40
0.0
 40
0.0
 40
0.0
 40
0.0
 40
2.795805529891336
 40
2.795805529891336
 40
2.795805529891336
 40
2.795805529891336
 10
-0.1225002490609304
 20
2.000000000000178
 30
0.0
 10
-0.5030412198851475
 20
2.000000000000178
 30
0.0
 10
-0.8567371218034111
 20
1.909763299824449
 30
0.0
 10
-1.191652058920855
 20
1.756396484555167
 30
0.0
  0
SPLINE
  5
1AA8
330
1F
100
AcDbEntity
  8
AM_0
100
AcDbSpline
210
0.0
220
0.0
230
1.0
 70
     8
 71
     3
 72
     8
 73
     4
 74
     0
 42
0.0000000001
 43
0.0000000001
 40
0.0
 40
0.0
 40
0.0
 40
0.0
 40
8.102326919110769
 40
8.102326919110769
 40
8.102326919110769
 40
8.102326919110769
 10
-2.882179838530904
 20
1.954733416506652
 30
0.0
 10
-1.779360876779421
 20
1.954733416506651
 30
0.0
 10
-0.8954997232738282
 20
1.204334060670517
 30
0.0
 10
-0.0387392705259045
 20
0.3610567729888963
 30
0.0
  0
SPLINE
  5
1AA9
330
1F
100
AcDbEntity
  8
AM_0
100
AcDbSpline
210
0.0
220
0.0
230
1.0
 70
     8
 71
     3
 72
     8
 73
     4
 74
     0
 42
0.0000000001
 43
0.0000000001
 40
0.0
 40
0.0
 40
0.0
 40
0.0
 40
2.792136278909016
 40
2.792136278909016
 40
2.792136278909016
 40
2.792136278909016
 10
-3.327923432863213
 20
2.000000000000178
 30
0.0
 10
-2.061118286260829
 20
2.000000000000178
 30
0.0
 10
-1.091809267661711
 20
1.000000000000178
 30
0.0
 10
-0.1225002490625939
 20
0.0000000000001784
 30
0.0
  0
LINE
  5
1AAA
330
1F
100
AcDbEntity
  8
AM_0
100
AcDbLine
 10
-0.6039708489442078
 20
1.700000000000178
 30
0.0
 11
-2.178322188574628
 21
1.851081708081047
 31
0.0
  0
LINE
  5
1AAB
330
1F
100
AcDbEntity
  8
AM_0
100
AcDbLine
 10
-7.014817216542371
 20
1.700000000000178
 30
0.0
 11
-8.589168556172802
 21
1.851081708081048
 31
0.0
  0
LINE
  5
1AAC
330
1F
100
AcDbEntity
  8
AM_0
100
AcDbLine
 10
-10.22024040034131
 20
1.700000000000179
 30
0.0
 11
-11.79459173997183
 21
1.851081708081048
 31
0.0
  0
SPLINE
  5
1AAD
330
1F
100
AcDbEntity
  8
AM_0
100
AcDbSpline
210
0.0
220
0.0
230
1.0
 70
     8
 71
     3
 72
     8
 73
     4
 74
     0
 42
0.0000000001
 43
0.0000000001
 40
0.0
 40
0.0
 40
0.0
 40
0.0
 40
2.795805529891336
 40
2.795805529891336
 40
2.795805529891336
 40
2.795805529891336
 10
-9.738769800458127
 20
2.000000000000178
 30
0.0
 10
-10.11931077128235
 20
2.000000000000178
 30
0.0
 10
-10.47300667320053
 20
1.90976329982445
 30
0.0
 10
-10.80792161031797
 20
1.756396484555168
 30
0.0
  0
SPLINE
  5
1AAE
330
1F
100
AcDbEntity
  8
AM_0
100
AcDbSpline
210
0.0
220
0.0
230
1.0
 70
     8
 71
     3
 72
     8
 73
     4
 74
     0
 42
0.0000000001
 43
0.0000000001
 40
0.0
 40
0.0
 40
0.0
 40
0.0
 40
2.774045382722471
 40
2.774045382722471
 40
2.774045382722471
 40
2.774045382722471
 10
-12.49844938992802
 20
1.954733416506653
 30
0.0
 10
-11.2398521666168
 20
1.954733416506652
 30
0.0
 10
-10.2664391863721
 20
0.977366708253416
 30
0.0
 10
-9.293026206127406
 20
0.0000000000001791
 30
0.0
  0
SPLINE
  5
1AAF
330
1F
100
AcDbEntity
  8
AM_0
100
AcDbSpline
210
0.0
220
0.0
230
1.0
 70
     8
 71
     3
 72
     8
 73
     4
 74
     0
 42
0.0000000001
 43
0.0000000001
 40
0.0
 40
0.0
 40
0.0
 40
0.0
 40
2.792136278909015
 40
2.792136278909015
 40
2.792136278909015
 40
2.792136278909015
 10
-9.738769800461289
 20
2.000000000000178
 30
0.0
 10
-8.471964653858906
 20
2.000000000000178
 30
0.0
 10
-7.502655635259787
 20
1.000000000000178
 30
0.0
 10
-6.533346616660669
 20
0.0000000000001791
 30
0.0
  0
SPLINE
  5
1AB0
330
1F
100
AcDbEntity
  8
AM_0
100
AcDbSpline
210
0.0
220
0.0
230
1.0
 70
     8
 71
     3
 72
     8
 73
     4
 74
     0
 42
0.0000000001
 43
0.0000000001
 40
0.0
 40
0.0
 40
0.0
 40
0.0
 40
2.795805529891336
 40
2.795805529891336
 40
2.795805529891336
 40
2.795805529891336
 10
-6.533346616658997
 20
2.000000000000178
 30
0.0
 10
-6.913887587483223
 20
2.000000000000178
 30
0.0
 10
-7.267583489401497
 20
1.90976329982445
 30
0.0
 10
-7.602498426519027
 20
1.756396484555167
 30
0.0
  0
LINE
  5
1AB1
330
1F
100
AcDbEntity
  8
AM_0
100
AcDbLine
 10
-13.42566358414035
 20
1.700000000000179
 30
0.0
 11
-15.00001492377087
 21
1.851081708081048
 31
0.0
  0
SPLINE
  5
1AB2
330
1F
100
AcDbEntity
  8
AM_0
100
AcDbSpline
210
0.0
220
0.0
230
1.0
 70
     8
 71
     3
 72
     8
 73
     4
 74
     0
 42
0.0000000001
 43
0.0000000001
 40
0.0
 40
0.0
 40
0.0
 40
0.0
 40
2.795805529891336
 40
2.795805529891336
 40
2.795805529891336
 40
2.795805529891336
 10
-12.94419298425717
 20
2.000000000000178
 30
0.0
 10
-13.32473395508139
 20
2.000000000000178
 30
0.0
 10
-13.67842985699957
 20
1.90976329982445
 30
0.0
 10
-14.01334479411701
 20
1.756396484555168
 30
0.0
  0
LINE
  5
1AB3
330
1F
100
AcDbEntity
  8
AM_0
100
AcDbLine
 10
-16.63108676793939
 20
1.700000000000178
 30
0.0
 11
-17.67080433400038
 21
1.799775889820962
 31
0.0
  0
SPLINE
  5
1AB4
330
1F
100
AcDbEntity
  8
AM_0
100
AcDbSpline
210
0.0
220
0.0
230
1.0
 70
     8
 71
     3
 72
     8
 73
     4
 74
     0
 42
0.0000000001
 43
0.0000000001
 40
0.0
 40
0.0
 40
0.0
 40
0.0
 40
2.795805529891336
 40
2.795805529891336
 40
2.795805529891336
 40
2.795805529891336
 10
-16.14961616805602
 20
2.000000000000178
 30
0.0
 10
-16.53015713888033
 20
2.000000000000178
 30
0.0
 10
-16.88385304079861
 20
1.90976329982445
 30
0.0
 10
-17.21876797791605
 20
1.756396484555168
 30
0.0
  0
ELLIPSE
  5
1AB5
330
1F
100
AcDbEntity
  8
AM_0
100
AcDbEllipse
 10
-14.18896035541396
 20
-5.357824203457933
 30
0.0
 11
-5.839358795913222
 21
0.0000000000031394
 31
0.0
210
0.0
220
0.0
230
0.9999999999999998
 40
0.9795898450690534
 41
-1.122616825506366
 42
-0.8760867123342666
  0
ELLIPSE
  5
1AB6
330
1F
100
AcDbEntity
  8
AM_0
100
AcDbEllipse
 10
-16.36542047254365
 20
-0.9235767418327744
 30
0.0
 11
0.816668327082969
 21
0.0000000000000706
 31
0.0
210
0.0
220
0.0
230
1.0
 40
0.9795898450690422
 41
0.8794182442272187
 42
2.018975828082802
1001
GENIUS_GENODEF_13
1002
{
1000
HIER
1070
     0
1002
}
1002
{
1000
MANEDIT
1070
     0
1002
}
1002
{
1000
NOSEL
1070
     0
1002
}
1002
{
1000
BEHIND
1070
     0
1002
}
1002
{
1000
REACTOR
1002
}
1001
GENIUS_GENOBJ-N-FIL_13
1002
{
1000
OWNER
1000
GEN
1002
}
  0
SPLINE
  5
1AB7
330
1F
100
AcDbEntity
  8
AM_0
100
AcDbSpline
210
0.0
220
0.0
230
1.0
 70
     8
 71
     3
 72
     8
 73
     4
 74
     0
 42
0.0000000001
 43
0.0000000001
 40
0.5594372577521371
 40
0.5594372577521371
 40
0.5594372577521371
 40
0.5594372577521371
 40
2.774045382722525
 40
2.774045382722525
 40
2.774045382722525
 40
2.774045382722525
 10
-17.96794919243122
 20
1.999999999999996
 30
0.0
 10
-17.25808528302572
 20
1.560525481417426
 30
0.0
 10
-16.48097892837555
 20
0.7802627407088031
 30
0.0
 10
-15.70387257372538
 20
0.0000000000001792
 30
0.0
  0
SPLINE
  5
1AB8
330
1F
100
AcDbEntity
  8
AM_0
100
AcDbSpline
210
0.0
220
0.0
230
1.0
 70
     8
 71
     3
 72
     8
 73
     4
 74
     0
 42
0.0000000001
 43
0.0000000001
 40
0.0
 40
0.0
 40
0.0
 40
0.0
 40
2.792136278909069
 40
2.792136278909069
 40
2.792136278909069
 40
2.792136278909069
 10
-16.14961616805927
 20
2.000000000000178
 30
0.0
 10
-14.88281102145686
 20
2.000000000000178
 30
0.0
 10
-13.91350200285771
 20
1.000000000000178
 30
0.0
 10
-12.94419298425856
 20
0.0000000000001788
 30
0.0
  0
SPLINE
  5
1AB9
330
1F
100
AcDbEntity
  8
AM_0
100
AcDbSpline
210
0.0
220
0.0
230
1.0
 70
     8
 71
     3
 72
     8
 73
     4
 74
     0
 42
0.0000000001
 43
0.0000000001
 40
0.0
 40
0.0
 40
0.0
 40
0.0
 40
2.774045382722471
 40
2.774045382722471
 40
2.774045382722471
 40
2.774045382722471
 10
-15.70387257372706
 20
1.954733416506652
 30
0.0
 10
-14.44527535041584
 20
1.954733416506652
 30
0.0
 10
-13.47186237017114
 20
0.9773667082534156
 30
0.0
 10
-12.49844938992644
 20
0.0000000000001788
 30
0.0
  0
SPLINE
  5
1ABA
330
1F
100
AcDbEntity
  8
AM_0
100
AcDbSpline
210
0.0
220
0.0
230
1.0
 70
     8
 71
     3
 72
     8
 73
     4
 74
     0
 42
0.0000000001
 43
0.0000000001
 40
0.0
 40
0.0
 40
0.0
 40
0.0
 40
2.792136278909015
 40
2.792136278909015
 40
2.792136278909015
 40
2.792136278909015
 10
-12.94419298426033
 20
2.000000000000178
 30
0.0
 10
-11.67738783765794
 20
2.000000000000178
 30
0.0
 10
-10.70807881905883
 20
1.000000000000178
 30
0.0
 10
-9.738769800459712
 20
0.0000000000001791
 30
0.0
  0
VIEWPORT
  5
110
330
101
100
AcDbEntity
 67
     1
  8
0
100
AcDbViewport
 10
420.5
 20
297.0
 30
0.0
 40
948.9782706766916
 41
628.452
 68
     1
 69
     1
1001
ACAD
1000
MVIEW
1002
{
1070
    16
1010
0.0
1020
0.0
1030
0.0
1010
0.0
1020
0.0
1030
1.0
1040
0.0
1040
628.452
1040
420.5
1040
297.0
1040
50.0
1040
0.0
1040
0.0
1070
     0
1070
   100
1070
     1
1070
     1
1070
     0
1070
     0
1070
     0
1070
     0
1040
0.0
1040
0.0
1040
0.0
1040
10.0
1040
10.0
1040
10.0
1040
10.0
1070
     0
1002
{
1002
}
1002
}
  0
ENDSEC
  0
SECTION
  2
OBJECTS
  0
DICTIONARY
  5
C
330
0
100
AcDbDictionary
  3
ACAD_GROUP
350
D
  3
ACAD_LAYOUT
350
1A
  3
ACAD_MLINESTYLE
350
17
  3
ACAD_PLOTSETTINGS
350
19
  3
ACAD_PLOTSTYLENAME
350
E
  3
ACDBVARIABLEDICTIONARY
350
34
  3
ACMDICTIONARY
350
43
  3
AMG
350
2B
  3
AMGSNAPSETTINGS
350
6E
  3
DWGPROPS
350
1B41
  3
ACDBHEADERROUNDTRIPXREC
350
1B4E
  0
DICTIONARY
  5
74
330
1F
100
AcDbDictionary
280
     1
  3
ACAD_INDEX
360
1B43
  3
ACAD_LAYOUTSELFREF
360
1B71
  0
DICTIONARY
  5
1B76
330
101
100
AcDbDictionary
280
     1
  3
ACAD_LAYOUTSELFREF
360
1B77
  0
DICTIONARY
  5
D
102
{ACAD_REACTORS
330
C
102
}
330
C
100
AcDbDictionary
  0
DICTIONARY
  5
1A
102
{ACAD_REACTORS
330
C
102
}
330
C
100
AcDbDictionary
  0
DICTIONARY
  5
17
102
{ACAD_REACTORS
330
C
102
}
330
C
100
AcDbDictionary
  3
STANDARD
350
18
  0
DICTIONARY
  5
19
102
{ACAD_REACTORS
330
C
102
}
330
C
100
AcDbDictionary
  0
ACDBDICTIONARYWDFLT
  5
E
102
{ACAD_REACTORS
330
C
102
}
330
C
100
AcDbDictionary
281
     1
  3
Normal
350
F
100
AcDbDictionaryWithDefault
340
F
  0
DICTIONARY
  5
34
102
{ACAD_REACTORS
330
C
102
}
330
C
100
AcDbDictionary
  3
INDEXCTL
350
35
  3
SORTENTS
350
B5E
  0
DICTIONARY
  5
43
102
{ACAD_REACTORS
330
C
102
}
330
C
100
AcDbDictionary
  3
ACMSTDDICTIONARY
350
260
  0
DICTIONARY
  5
2B
102
{ACAD_REACTORS
330
C
102
}
330
C
100
AcDbDictionary
  3
ACMGSETTINGS
350
2C
  0
DICTIONARY
  5
6E
102
{ACAD_REACTORS
330
C
102
}
330
C
100
AcDbDictionary
  0
XRECORD
  5
1B41
102
{ACAD_REACTORS
330
C
102
}
330
C
100
AcDbXrecord
  1
DWGPROPS COOKIE
  2

  3

  4

  6

  7

  8

  9

300
AmdtFileType=82
301
=
302
=
303
=
304
=
305
=
306
=
307
=
308
=
309
=
 40
0.07475875
 41
2452838.620506898
 42
2452841.604003183
  1

 90
        1
  0
DICTIONARY
  5
1B4E
102
{ACAD_REACTORS
330
C
102
}
330
C
100
AcDbDictionary
  3
TSTACKALIGN
350
1B4F
  3
TSTACKSIZE
350
1B50
  3
HYPERLINKBASE
350
1B51
  3
STYLESHEET
350
1B52
  3
LAYOUTDICT
350
1B53
  3
PLOTSETDICT
350
1B54
  3
PLOTSTYLNAMDICT
350
1B55
  3
LWETCUNION
350
1B56
  3
INSUNITS
350
1B57
  3
CEPSNTYPE
350
1B58
  3
FINGERPRINTGUID
350
1B59
  3
VERSIONGUID
350
1B5A
  3
PSVPSCALE
350
1B5B
  3
DIMSTYLEDATA
350
1B5C
  3
PUCSORTHOREF
350
1B5D
  3
PUCSORTHOVIEW
350
1B5E
  3
PUCSBASE
350
1B5F
  3
PUCSORGTOP
350
1B60
  3
PUCSORGBOTTOM
350
1B61
  3
PUCSORGLEFT
350
1B62
  3
PUCSORGRIGHT
350
1B63
  3
PUCSORGFRONT
350
1B64
  3
PUCSORGBACK
350
1B65
  3
UCSORTHOREF
350
1B66
  3
UCSORTHOVIEW
350
1B67
  3
UCSBASE
350
1B68
  3
UCSORGTOP
350
1B69
  3
UCSORGBOTTOM
350
1B6A
  3
UCSORGLEFT
350
1B6B
  3
UCSORGRIGHT
350
1B6C
  3
UCSORGFRONT
350
1B6D
  3
UCSORGBACK
350
1B6E
  0
DICTIONARY
  5
1B43
102
{ACAD_REACTORS
330
74
102
}
330
74
100
AcDbDictionary
  3
*A1
350
1B44
  0
XRECORD
  5
1B71
102
{ACAD_REACTORS
330
74
102
}
330
74
100
AcDbXrecord
340
1F
  0
XRECORD
  5
1B77
102
{ACAD_REACTORS
330
1B76
102
}
330
1B76
100
AcDbXrecord
340
101
  0
MLINESTYLE
  5
18
102
{ACAD_REACTORS
330
17
102
}
330
17
100
AcDbMlineStyle
  2
STANDARD
 70
     0
  3

 62
   256
 51
90.0
 52
90.0
 71
     2
 49
0.5
 62
   256
  6
BYLAYER
 49
-0.5
 62
   256
  6
BYLAYER
  0
ACDBPLACEHOLDER
  5
F
102
{ACAD_REACTORS
330
E
102
}
330
E
100
AcDbPlaceHolder
280
     0
  0
DICTIONARYVAR
  5
35
102
{ACAD_REACTORS
330
34
102
}
330
34
100
DictionaryVariables
280
     0
  1
1
  0
DICTIONARYVAR
  5
B5E
102
{ACAD_REACTORS
330
34
102
}
330
34
100
DictionaryVariables
280
     0
  1
96
  0
DICTIONARY
  5
260
102
{ACAD_REACTORS
330
43
102
}
330
43
100
AcDbDictionary
  0
DICTIONARY
  5
2C
102
{ACAD_REACTORS
330
2B
102
}
330
2B
100
AcDbDictionary
  3
DWGSETTINGS
350
2D
  0
XRECORD
  5
1B4F
102
{ACAD_REACTORS
330
1B4E
102
}
330
1B4E
100
AcDbXrecord
 90
        1
  0
XRECORD
  5
1B50
102
{ACAD_REACTORS
330
1B4E
102
}
330
1B4E
100
AcDbXrecord
 90
       70
  0
XRECORD
  5
1B51
102
{ACAD_REACTORS
330
1B4E
102
}
330
1B4E
100
AcDbXrecord
  1

  0
XRECORD
  5
1B52
102
{ACAD_REACTORS
330
1B4E
102
}
330
1B4E
100
AcDbXrecord
  1
ACAD_M_9400.ctb
  0
XRECORD
  5
1B53
102
{ACAD_REACTORS
330
1B4E
102
}
330
1B4E
100
AcDbXrecord
340
1A
  0
XRECORD
  5
1B54
102
{ACAD_REACTORS
330
1B4E
102
}
330
1B4E
100
AcDbXrecord
340
19
  0
XRECORD
  5
1B55
102
{ACAD_REACTORS
330
1B4E
102
}
330
1B4E
100
AcDbXrecord
340
E
  0
XRECORD
  5
1B56
102
{ACAD_REACTORS
330
1B4E
102
}
330
1B4E
100
AcDbXrecord
 90
    10781
  0
XRECORD
  5
1B57
102
{ACAD_REACTORS
330
1B4E
102
}
330
1B4E
100
AcDbXrecord
 90
        4
  0
XRECORD
  5
1B58
102
{ACAD_REACTORS
330
1B4E
102
}
330
1B4E
100
AcDbXrecord
 90
        0
  0
XRECORD
  5
1B59
102
{ACAD_REACTORS
330
1B4E
102
}
330
1B4E
100
AcDbXrecord
  1
{AFB28963-8C59-40AE-9337-C84526B81ACE}
  0
XRECORD
  5
1B5A
102
{ACAD_REACTORS
330
1B4E
102
}
330
1B4E
100
AcDbXrecord
  1
{E4C8BC8D-73D5-4CFA-9A9B-FCEE567FAE49}
  0
XRECORD
  5
1B5B
102
{ACAD_REACTORS
330
1B4E
102
}
330
1B4E
100
AcDbXrecord
 40
0.0
  0
XRECORD
  5
1B5C
102
{ACAD_REACTORS
330
1B4E
102
}
330
1B4E
100
AcDbXrecord
1000
DSTYLE
1002
{
1070
    79
 70
     2
1070
   341
340
59
1070
   342
340
59
1070
   371
 70
    -1
1070
   372
 70
    -1
1002
}
  0
XRECORD
  5
1B5D
102
{ACAD_REACTORS
330
1B4E
102
}
330
1B4E
100
AcDbXrecord
340
0
  0
XRECORD
  5
1B5E
102
{ACAD_REACTORS
330
1B4E
102
}
330
1B4E
100
AcDbXrecord
 70
     0
  0
XRECORD
  5
1B5F
102
{ACAD_REACTORS
330
1B4E
102
}
330
1B4E
100
AcDbXrecord
340
0
  0
XRECORD
  5
1B60
102
{ACAD_REACTORS
330
1B4E
102
}
330
1B4E
100
AcDbXrecord
 10
0.0
 20
0.0
 30
0.0
  0
XRECORD
  5
1B61
102
{ACAD_REACTORS
330
1B4E
102
}
330
1B4E
100
AcDbXrecord
 10
0.0
 20
0.0
 30
0.0
  0
XRECORD
  5
1B62
102
{ACAD_REACTORS
330
1B4E
102
}
330
1B4E
100
AcDbXrecord
 10
0.0
 20
0.0
 30
0.0
  0
XRECORD
  5
1B63
102
{ACAD_REACTORS
330
1B4E
102
}
330
1B4E
100
AcDbXrecord
 10
0.0
 20
0.0
 30
0.0
  0
XRECORD
  5
1B64
102
{ACAD_REACTORS
330
1B4E
102
}
330
1B4E
100
AcDbXrecord
 10
0.0
 20
0.0
 30
0.0
  0
XRECORD
  5
1B65
102
{ACAD_REACTORS
330
1B4E
102
}
330
1B4E
100
AcDbXrecord
 10
0.0
 20
0.0
 30
0.0
  0
XRECORD
  5
1B66
102
{ACAD_REACTORS
330
1B4E
102
}
330
1B4E
100
AcDbXrecord
340
0
  0
XRECORD
  5
1B67
102
{ACAD_REACTORS
330
1B4E
102
}
330
1B4E
100
AcDbXrecord
 70
     0
  0
XRECORD
  5
1B68
102
{ACAD_REACTORS
330
1B4E
102
}
330
1B4E
100
AcDbXrecord
340
0
  0
XRECORD
  5
1B69
102
{ACAD_REACTORS
330
1B4E
102
}
330
1B4E
100
AcDbXrecord
 10
0.0
 20
0.0
 30
0.0
  0
XRECORD
  5
1B6A
102
{ACAD_REACTORS
330
1B4E
102
}
330
1B4E
100
AcDbXrecord
 10
0.0
 20
0.0
 30
0.0
  0
XRECORD
  5
1B6B
102
{ACAD_REACTORS
330
1B4E
102
}
330
1B4E
100
AcDbXrecord
 10
0.0
 20
0.0
 30
0.0
  0
XRECORD
  5
1B6C
102
{ACAD_REACTORS
330
1B4E
102
}
330
1B4E
100
AcDbXrecord
 10
0.0
 20
0.0
 30
0.0
  0
XRECORD
  5
1B6D
102
{ACAD_REACTORS
330
1B4E
102
}
330
1B4E
100
AcDbXrecord
 10
0.0
 20
0.0
 30
0.0
  0
XRECORD
  5
1B6E
102
{ACAD_REACTORS
330
1B4E
102
}
330
1B4E
100
AcDbXrecord
 10
0.0
 20
0.0
 30
0.0
  0
LAYER_INDEX
  5
1B44
102
{ACAD_REACTORS
330
1B43
102
}
330
1B43
100
AcDbIndex
 40
2453152.453862303
100
AcDbLayerIndex
  8
0
360
1B45
 90
        1
  8
AM_0
360
1B46
 90
       82
  8
AM_11
360
1B47
 90
        4
  8
AM_7
360
1B48
 90
        1
  8
AM_5
360
1B49
 90
        4
  8
Defpoints
360
1B4A
 90
        0
  8
AM_6
360
1B4B
 90
        1
  8
AM_CL
360
1B4C
 90
        0
  0
XRECORD
  5
2D
102
{ACAD_REACTORS
330
2C
102
}
330
2C
100
AcDbXrecord
  1
VERSION
140
15.0
  1
PRODUCT
  2
AutoCAD Mechanical 2000
  0
IDBUFFER
  5
1B45
330
0
100
AcDbIdBuffer
330
DFD
  0
IDBUFFER
  5
1B46
330
0
100
AcDbIdBuffer
330
1A99
330
1A9A
330
1A9B
330
1A9C
330
1A9D
330
1A9E
330
1A9F
330
1AA0
330
1AA1
330
1AA2
330
1AA3
330
1AA4
330
1AA5
330
1AA6
330
1AA7
330
1AA8
330
1AA9
330
1AAA
330
1AAB
330
1AAC
330
1AAD
330
1AAE
330
1AAF
330
1AB0
330
1AB1
330
1AB2
330
1AB3
330
1AB4
330
1AB5
330
1AB6
330
1AB7
330
1AB8
330
1AB9
330
1ABA
330
DFA
330
DFB
330
DFC
330
DFE
330
DFF
330
E00
330
E32
330
1174
330
17FD
330
1A72
330
1A73
330
1A74
330
1A75
330
1A76
330
1A77
330
1A78
330
1A79
330
1A7A
330
1A7B
330
1A7C
330
1A7D
330
1A7E
330
1A7F
330
1A80
330
1A81
330
1A82
330
1A83
330
1A84
330
1A85
330
1A86
330
1A87
330
1A88
330
1A89
330
1A8A
330
1A8B
330
1A8C
330
1A8D
330
1A8E
330
1A8F
330
1A90
330
1A91
330
1A92
330
1A93
330
1A94
330
1A95
330
1A96
330
1A97
330
1A98
  0
IDBUFFER
  5
1B47
330
0
100
AcDbIdBuffer
330
16BD
330
16DD
330
16F0
330
16F1
  0
IDBUFFER
  5
1B48
330
0
100
AcDbIdBuffer
330
C50
  0
IDBUFFER
  5
1B49
330
0
100
AcDbIdBuffer
330
C4F
330
C53
330
16F7
330
1704
  0
IDBUFFER
  5
1B4A
330
0
100
AcDbIdBuffer
  0
IDBUFFER
  5
1B4B
330
0
100
AcDbIdBuffer
330
C58
  0
IDBUFFER
  5
1B4C
330
0
100
AcDbIdBuffer
  0
ENDSEC
  0
EOF
