  0
SECTION
  2
HEADER
  9
$ACADVER
  1
AC1014
  9
$ACADMAINTVER
 70
     9
  9
$DWGCODEPAGE
  3
ANSI_932
  9
$INSBASE
 10
0.0
 20
0.0
 30
0.0
  9
$EXTMIN
 10
-164.826509109435
 20
-61.00000099999937
 30
-0.00000001
  9
$EXTMAX
 10
20.22705670878344
 20
14.98730988013031
 30
0.00000001
  9
$LIMMIN
 10
-172.3993596335785
 20
-87.58424417536602
  9
$LIMMAX
 10
46.34551392547291
 20
38.29441105930078
  9
$ORTHOMODE
 70
     0
  9
$REGENMODE
 70
     1
  9
$FILLMODE
 70
     1
  9
$QTEXTMODE
 70
     0
  9
$MIRRTEXT
 70
     0
  9
$DRAGMODE
 70
     2
  9
$LTSCALE
 40
1.0
  9
$OSMODE
 70
    55
  9
$ATTMODE
 70
     1
  9
$TEXTSIZE
 40
2.5
  9
$TRACEWID
 40
1.0
  9
$TEXTSTYLE
  7
STANDARD
  9
$CLAYER
  8
AM_0
  9
$CELTYPE
  6
BYLAYER
  9
$CECOLOR
 62
   256
  9
$CELTSCALE
 40
1.0
  9
$DELOBJ
 70
     1
  9
$DISPSILH
 70
     0
  9
$DIMSCALE
 40
1.0
  9
$DIMASZ
 40
2.5
  9
$DIMEXO
 40
1.0
  9
$DIMDLI
 40
12.0
  9
$DIMRND
 40
0.0
  9
$DIMDLE
 40
0.0
  9
$DIMEXE
 40
1.0
  9
$DIMTP
 40
0.1
  9
$DIMTM
 40
0.1
  9
$DIMTXT
 40
3.2
  9
$DIMCEN
 40
0.0
  9
$DIMTSZ
 40
0.0
  9
$DIMTOL
 70
     0
  9
$DIMLIM
 70
     0
  9
$DIMTIH
 70
     0
  9
$DIMTOH
 70
     0
  9
$DIMSE1
 70
     0
  9
$DIMSE2
 70
     0
  9
$DIMTAD
 70
     3
  9
$DIMZIN
 70
     8
  9
$DIMBLK
  1
OPEN30
  9
$DIMASO
 70
     1
  9
$DIMSHO
 70
     1
  9
$DIMPOST
  1

  9
$DIMAPOST
  1
"
  9
$DIMALT
 70
     0
  9
$DIMALTD
 70
     2
  9
$DIMALTF
 40
0.0393701
  9
$DIMLFAC
 40
1.0
  9
$DIMTOFL
 70
     1
  9
$DIMTVP
 40
0.0
  9
$DIMTIX
 70
     0
  9
$DIMSOXD
 70
     0
  9
$DIMSAH
 70
     0
  9
$DIMBLK1
  1

  9
$DIMBLK2
  1

  9
$DIMSTYLE
  2
AM_JIS
  9
$DIMCLRD
 70
   256
  9
$DIMCLRE
 70
   256
  9
$DIMCLRT
 70
     2
  9
$DIMTFAC
 40
0.71
  9
$DIMGAP
 40
1.5
  9
$DIMJUST
 70
     0
  9
$DIMSD1
 70
     0
  9
$DIMSD2
 70
     0
  9
$DIMTOLJ
 70
     0
  9
$DIMTZIN
 70
     0
  9
$DIMALTZ
 70
     0
  9
$DIMALTTZ
 70
     0
  9
$DIMFIT
 70
     3
  9
$DIMUPT
 70
     0
  9
$DIMUNIT
 70
     2
  9
$DIMDEC
 70
     3
  9
$DIMTDEC
 70
     3
  9
$DIMALTU
 70
     2
  9
$DIMALTTD
 70
     2
  9
$DIMTXSTY
  7
ASAMI
  9
$DIMAUNIT
 70
     0
  9
$LUNITS
 70
     2
  9
$LUPREC
 70
     2
  9
$SKETCHINC
 40
1.0
  9
$FILLETRAD
 40
2.5
  9
$AUNITS
 70
     0
  9
$AUPREC
 70
     0
  9
$MENU
  1
.
  9
$ELEVATION
 40
0.0
  9
$PELEVATION
 40
0.0
  9
$THICKNESS
 40
0.0
  9
$LIMCHECK
 70
     0
  9
$BLIPMODE
 70
     0
  9
$CHAMFERA
 40
2.5
  9
$CHAMFERB
 40
2.5
  9
$CHAMFERC
 40
20.0
  9
$CHAMFERD
 40
0.0
  9
$SKPOLY
 70
     0
  9
$TDCREATE
 40
2452838.620506898
  9
$TDUPDATE
 40
2453152.452571585
  9
$TDINDWG
 40
0.1701845949
  9
$TDUSRTIMER
 40
0.1701845949
  9
$USRTIMER
 70
     1
  9
$ANGBASE
 50
0.0
  9
$ANGDIR
 70
     0
  9
$PDMODE
 70
     0
  9
$PDSIZE
 40
0.0
  9
$PLINEWID
 40
0.0
  9
$COORDS
 70
     1
  9
$SPLFRAME
 70
     0
  9
$SPLINETYPE
 70
     6
  9
$SPLINESEGS
 70
     8
  9
$ATTDIA
 70
     1
  9
$ATTREQ
 70
     1
  9
$HANDLING
 70
 12289
  9
$HANDSEED
  5
2FA5
  9
$SURFTAB1
 70
     6
  9
$SURFTAB2
 70
     6
  9
$SURFTYPE
 70
     6
  9
$SURFU
 70
     6
  9
$SURFV
 70
     6
  9
$UCSNAME
  2

  9
$UCSORG
 10
-0.0000000000000711
 20
-0.0000000000000036
 30
0.0
  9
$UCSXDIR
 10
1.0
 20
0.0
 30
0.0
  9
$UCSYDIR
 10
0.0
 20
1.0
 30
0.0
  9
$PUCSNAME
  2

  9
$PUCSORG
 10
0.0
 20
0.0
 30
0.0
  9
$PUCSXDIR
 10
1.0
 20
0.0
 30
0.0
  9
$PUCSYDIR
 10
0.0
 20
1.0
 30
0.0
  9
$USERI1
 70
     0
  9
$USERI2
 70
     0
  9
$USERI3
 70
     0
  9
$USERI4
 70
     0
  9
$USERI5
 70
     0
  9
$USERR1
 40
0.0
  9
$USERR2
 40
0.0
  9
$USERR3
 40
0.0
  9
$USERR4
 40
0.0
  9
$USERR5
 40
0.0
  9
$WORLDVIEW
 70
     1
  9
$SHADEDGE
 70
     3
  9
$SHADEDIF
 70
    70
  9
$TILEMODE
 70
     1
  9
$MAXACTVP
 70
    64
  9
$PINSBASE
 10
0.0
 20
0.0
 30
0.0
  9
$PLIMCHECK
 70
     0
  9
$PEXTMIN
 10
1.000000000000000E+20
 20
1.000000000000000E+20
 30
1.000000000000000E+20
  9
$PEXTMAX
 10
-1.000000000000000E+20
 20
-1.000000000000000E+20
 30
-1.000000000000000E+20
  9
$PLIMMIN
 10
0.0
 20
0.0
  9
$PLIMMAX
 10
841.0
 20
594.0
  9
$UNITMODE
 70
     0
  9
$VISRETAIN
 70
     1
  9
$PLINEGEN
 70
     0
  9
$PSLTSCALE
 70
     0
  9
$TREEDEPTH
 70
  3020
  9
$PICKSTYLE
 70
     0
  9
$CMLSTYLE
  2
STANDARD
  9
$CMLJUST
 70
     0
  9
$CMLSCALE
 40
20.0
  9
$PROXYGRAPHICS
 70
     1
  9
$MEASUREMENT
 70
     1
  0
ENDSEC
  0
SECTION
  2
CLASSES
  0
CLASS
  1
ACDBDICTIONARYWDFLT
  2
AcDbDictionaryWithDefault
  3
AutoCAD 2000
 90
        0
280
     0
281
     0
  0
CLASS
  1
ACDBPLACEHOLDER
  2
AcDbPlaceHolder
  3
AutoCAD 2000
 90
        0
280
     0
281
     0
  0
CLASS
  1
LAYOUT
  2
AcDbLayout
  3
AutoCAD 2000
 90
        0
280
     0
281
     0
  0
CLASS
  1
AMGSETTINGSOBJ
  2
AmgSettingsObj
  3
"AcadM|Product Description: AutoCAD Mechanical 2000|Company: Autodesk"
 90
        0
280
     0
281
     0
  0
CLASS
  1
ACME_DOCUMENT
  2
AcMeDbDoc
  3
AcMeServices
 90
        0
280
     0
281
     0
  0
CLASS
  1
ACMESCOPE
  2
AcMeScope
  3
AcMeServices
 90
        0
280
     0
281
     0
  0
CLASS
  1
ACMECOMMANDHISTORY
  2
AcMeCommandHistory
  3
AcMeServices
 90
        0
280
     0
281
     0
  0
CLASS
  1
DICTIONARYVAR
  2
AcDbDictionaryVar
  3
AutoCAD 2000
 90
        0
280
     0
281
     0
  0
CLASS
  1
ACIMSYSVARMAN
  2
AcImSysVarManager
  3
AcMeServices
 90
        0
280
     0
281
     0
  0
CLASS
  1
ACIMREALSYSVAR
  2
AcImRealSysVar
  3
AcMeServices
 90
        0
280
     0
281
     0
  0
CLASS
  1
ACIMINTSYSVAR
  2
AcImIntSysVar
  3
AcMeServices
 90
        0
280
     0
281
     0
  0
CLASS
  1
ACMEDRAWINGMAN
  2
AcMeDrawingMan
  3
AcMeServices
 90
        0
280
     0
281
     0
  0
CLASS
  1
ACMEVIEW
  2
AcMeView
  3
AcMeServices
 90
        0
280
     0
281
     0
  0
CLASS
  1
ACDBENTITYCACHE
  2
AcMeEntityCache
  3
AcMeServices
 90
        0
280
     0
281
     0
  0
CLASS
  1
GSMANAGER
  2
AcMeGSManager
  3
AcMeServices
 90
        0
280
     0
281
     0
  0
CLASS
  1
AmdtInternalReactor
  2
AmdtInternalReactor
  3
AcMeServices
 90
        0
280
     0
281
     0
  0
CLASS
  1
ACMESTATEMGR
  2
AcMeStateMgr
  3
AcMeServices
 90
        0
280
     0
281
     0
  0
CLASS
  1
ACME_DATABASE
  2
AcMeDbDatabase
  3
AcMeServices
 90
        0
280
     0
281
     0
  0
CLASS
  1
ACRFINSADJUSTERMGR
  2
AcRfInsAdjusterMgr
  3
AcMeServices
 90
        0
280
     0
281
     0
  0
CLASS
  1
ACMDATADICTIONARY
  2
AcmDataDictionary
  3
"AcmSymBB|Product Description: AutoCAD Mechanical 2000|Company: Autodesk"
 90
        0
280
     0
281
     0
  0
CLASS
  1
ACMDATAENTRYBLOCK
  2
AcmDataEntryBlock
  3
"AcmSymBB|Product Description: AutoCAD Mechanical 2000|Company: Autodesk"
 90
        0
280
     0
281
     0
  0
CLASS
  1
AMGOBJPROPCFG
  2
AmgObjPropCfg
  3
"AmgLay|Product Description: AutoCAD Mechanical 2000|Company: Autodesk"
 90
        1
280
     0
281
     0
  0
CLASS
  1
ACAMGFILTERDAT
  2
AcAmgFilterDat
  3
"AcadM|Product Description: AutoCAD Mechanical 2000|Company: Autodesk"
 90
        0
280
     0
281
     0
  0
CLASS
  1
LAYER_INDEX
  2
AcDbLayerIndex
  3
AutoCAD 2000
 90
        0
280
     0
281
     0
  0
CLASS
  1
IDBUFFER
  2
AcDbIdBuffer
  3
AutoCAD 2000
 90
        0
280
     0
281
     0
  0
CLASS
  1
ACIMSTRSYSVAR
  2
AcImStrSysVar
  3
AcMeServices
 90
        0
280
     0
281
     0
  0
CLASS
  1
ACMSTANDARDJIS
  2
AcmStandardJIS
  3
"AcmSymBB|Product Description: AutoCAD Mechanical 2000|Company: Autodesk"
 90
        0
280
     0
281
     0
  0
CLASS
  1
ACMSURFSTANDARDJIS
  2
AcmSurfTextStdJIS
  3
"AcmSymBB|Product Description: AutoCAD Mechanical 2000|Company: Autodesk"
 90
        0
280
     0
281
     0
  0
CLASS
  1
ACMFCFSTANDARDJIS
  2
AcmFCFStdJIS
  3
"AcmSymBB|Product Description: AutoCAD Mechanical 2000|Company: Autodesk"
 90
        0
280
     0
281
     0
  0
CLASS
  1
ACMWELDSTANDARDJIS
  2
AcmWeldingStdJIS
  3
"AcmSymBB|Product Description: AutoCAD Mechanical 2000|Company: Autodesk"
 90
        0
280
     0
281
     0
  0
CLASS
  1
ACMIDSTANDARDJIS
  2
AcmIdStdJIS
  3
"AcmSymBB|Product Description: AutoCAD Mechanical 2000|Company: Autodesk"
 90
        0
280
     0
281
     0
  0
CLASS
  1
ACMDATUMSTANDARDJIS
  2
AcmDatumStdJIS
  3
"AcmSymBB|Product Description: AutoCAD Mechanical 2000|Company: Autodesk"
 90
        0
280
     0
281
     0
  0
CLASS
  1
ACMBOMSTANDARDJIS
  2
AcmBOMStdJIS
  3
"AcmSymBB|Product Description: AutoCAD Mechanical 2000|Company: Autodesk"
 90
        0
280
     0
281
     0
  0
CLASS
  1
ACMSTANDARDANSI
  2
AcmStandardANSI
  3
"AcmSymBB|Product Description: AutoCAD Mechanical 2000|Company: Autodesk"
 90
        0
280
     0
281
     0
  0
CLASS
  1
ACMSURFSTANDARDANSI
  2
AcmSurfTextStdANSI
  3
"AcmSymBB|Product Description: AutoCAD Mechanical 2000|Company: Autodesk"
 90
        0
280
     0
281
     0
  0
CLASS
  1
ACMFCFSTANDARDANSI
  2
AcmFCFStdANSI
  3
"AcmSymBB|Product Description: AutoCAD Mechanical 2000|Company: Autodesk"
 90
        0
280
     0
281
     0
  0
CLASS
  1
ACMWELDSTANDARDANSI
  2
AcmWeldingStdANSI
  3
"AcmSymBB|Product Description: AutoCAD Mechanical 2000|Company: Autodesk"
 90
        0
280
     0
281
     0
  0
CLASS
  1
ACMIDSTANDARDANSI
  2
AcmIdStdANSI
  3
"AcmSymBB|Product Description: AutoCAD Mechanical 2000|Company: Autodesk"
 90
        0
280
     0
281
     0
  0
CLASS
  1
ACMDATUMSTANDARDANSI
  2
AcmDatumStdANSI
  3
"AcmSymBB|Product Description: AutoCAD Mechanical 2000|Company: Autodesk"
 90
        0
280
     0
281
     0
  0
CLASS
  1
ACMBOMSTANDARDANSI
  2
AcmBOMStdANSI
  3
"AcmSymBB|Product Description: AutoCAD Mechanical 2000|Company: Autodesk"
 90
        0
280
     0
281
     0
  0
CLASS
  1
ACMSTANDARDBSI
  2
AcmStandardBSI
  3
"AcmSymBB|Product Description: AutoCAD Mechanical 2000|Company: Autodesk"
 90
        0
280
     0
281
     0
  0
CLASS
  1
ACMSURFSTANDARDBSI
  2
AcmSurfTextStdBSI
  3
"AcmSymBB|Product Description: AutoCAD Mechanical 2000|Company: Autodesk"
 90
        0
280
     0
281
     0
  0
CLASS
  1
ACMFCFSTANDARDBSI
  2
AcmFCFStdBSI
  3
"AcmSymBB|Product Description: AutoCAD Mechanical 2000|Company: Autodesk"
 90
        0
280
     0
281
     0
  0
CLASS
  1
ACMWELDSTANDARDBSI
  2
AcmWeldingStdBSI
  3
"AcmSymBB|Product Description: AutoCAD Mechanical 2000|Company: Autodesk"
 90
        0
280
     0
281
     0
  0
CLASS
  1
ACMIDSTANDARDBSI
  2
AcmIdStdBSI
  3
"AcmSymBB|Product Description: AutoCAD Mechanical 2000|Company: Autodesk"
 90
        0
280
     0
281
     0
  0
CLASS
  1
ACMDATUMSTANDARDBSI
  2
AcmDatumStdBSI
  3
"AcmSymBB|Product Description: AutoCAD Mechanical 2000|Company: Autodesk"
 90
        0
280
     0
281
     0
  0
CLASS
  1
ACMBOMSTANDARDBSI
  2
AcmBOMStdBSI
  3
"AcmSymBB|Product Description: AutoCAD Mechanical 2000|Company: Autodesk"
 90
        0
280
     0
281
     0
  0
CLASS
  1
LONG_TRANSACTION
  2
AcDbLongTransaction
  3
AutoCAD 2000
 90
        0
280
     0
281
     0
  0
CLASS
  1
LWPOLYLINE
  2
AcDbPolyline
  3
AutoCAD 2000
 90
        0
280
     0
281
     1
  0
CLASS
  1
HATCH
  2
AcDbHatch
  3
AutoCAD 2000
 90
        0
280
     0
281
     1
  0
CLASS
  1
XRECORD
  2
AcDbXrecord
  3
AutoCAD 2000
 90
        0
280
     0
281
     0
  0
ENDSEC
  0
SECTION
  2
TABLES
  0
TABLE
  2
VPORT
  5
8
330
0
100
AcDbSymbolTable
 70
     3
  0
VPORT
  5
2F7A
330
8
100
AcDbSymbolTableRecord
100
AcDbViewportTableRecord
  2
*ACTIVE
 70
     0
 10
0.0
 20
0.0
 11
1.0
 21
1.0
 12
-46.42370760087942
 22
-9.411828269885859
 13
0.0
 23
0.0
 14
2.5
 24
2.5
 15
10.0
 25
10.0
 16
0.0
 26
0.0
 36
1.0
 17
0.0
 27
0.0
 37
0.0
 40
175.397429193208
 41
1.56570841889117
 42
50.0
 43
0.0
 44
0.0
 50
0.0
 51
0.0
 71
     0
 72
   100
 73
     1
 74
     3
 75
     0
 76
     0
 77
     0
 78
     0
  0
ENDTAB
  0
TABLE
  2
LTYPE
  5
5
330
0
100
AcDbSymbolTable
 70
    10
  0
LTYPE
  5
14
330
5
100
AcDbSymbolTableRecord
100
AcDbLinetypeTableRecord
  2
BYBLOCK
 70
     0
  3

 72
    65
 73
     0
 40
0.0
  0
LTYPE
  5
15
330
5
100
AcDbSymbolTableRecord
100
AcDbLinetypeTableRecord
  2
BYLAYER
 70
     0
  3

 72
    65
 73
     0
 40
0.0
  0
LTYPE
  5
16
330
5
100
AcDbSymbolTableRecord
100
AcDbLinetypeTableRecord
  2
CONTINUOUS
 70
     0
  3
Solid line
 72
    65
 73
     0
 40
0.0
  0
LTYPE
  5
4B
330
5
100
AcDbSymbolTableRecord
100
AcDbLinetypeTableRecord
  2
AM_ISO02W050
 70
     0
  3
__ __ __ __ __ __ __ __ __ __ __ __ __ __ __
 72
    65
 73
     2
 40
7.5
 49
6.0
 74
     0
 49
-1.5
 74
     0
  0
LTYPE
  5
4C
330
5
100
AcDbSymbolTableRecord
100
AcDbLinetypeTableRecord
  2
AM_ISO08W050
 70
     0
  3
____ . ____ . ____ . ____ . ____ . ____ . ____
 72
    65
 73
     4
 40
18.0
 49
12.0
 74
     0
 49
-1.5
 74
     0
 49
3.0
 74
     0
 49
-1.5
 74
     0
  0
LTYPE
  5
4D
330
5
100
AcDbSymbolTableRecord
100
AcDbLinetypeTableRecord
  2
AM_ISO09W050
 70
     0
  3
_____ . . _____ . . _____ . . ____ .. ____
 72
    65
 73
     6
 40
22.5
 49
12.0
 74
     0
 49
-1.5
 74
     0
 49
3.0
 74
     0
 49
-1.5
 74
     0
 49
3.0
 74
     0
 49
-1.5
 74
     0
  0
LTYPE
  5
4E
330
5
100
AcDbSymbolTableRecord
100
AcDbLinetypeTableRecord
  2
AMCONSTR
 70
     0
  3
_______________________
 72
    65
 73
     2
 40
9999.0
 49
9999.0
 74
     0
 49
0.0
 74
     0
  0
LTYPE
  5
4F
330
5
100
AcDbSymbolTableRecord
100
AcDbLinetypeTableRecord
  2
AM_ISO02W050X2
 70
     0
  3
 _ _ _ _ _ _ _ _ _ _ _ _
 72
    65
 73
     2
 40
3.75
 49
3.0
 74
     0
 49
-0.75
 74
     0
  0
LTYPE
  5
50
330
5
100
AcDbSymbolTableRecord
100
AcDbLinetypeTableRecord
  2
AM_ISO08W050X2
 70
     0
  3
__ . __ . __ . __ . __ . __
 72
    65
 73
     4
 40
9.0
 49
6.0
 74
     0
 49
-0.75
 74
     0
 49
1.5
 74
     0
 49
-0.75
 74
     0
  0
LTYPE
  5
53
330
5
100
AcDbSymbolTableRecord
100
AcDbLinetypeTableRecord
  2
AMZIGZAG
 70
     0
  3
/\/-/\/-/\/-/\/-/\/-/\/
 72
    65
 73
     2
 40
11.00009999999999
 49
0.0001
 74
     4
 75
   135
340
52
 46
0.04
 50
0.0
 44
0.0
 45
0.0
 49
-11.0
 74
     0
  0
LTYPE
  5
166
330
5
100
AcDbSymbolTableRecord
100
AcDbLinetypeTableRecord
  2
ACJISTGL
 70
     0
  3
_ _ _ _ _
 72
    65
 73
     2
 40
3.0
 49
2.0
 74
     0
 49
-1.0
 74
     0
  0
LTYPE
  5
26A
330
5
100
AcDbSymbolTableRecord
100
AcDbLinetypeTableRecord
  2
ACJISTGB
 70
     0
  3
__ . . __ . .
 72
    65
 73
     6
 40
9.0
 49
4.0
 74
     0
 49
-1.0
 74
     0
 49
1.0
 74
     0
 49
-1.0
 74
     0
 49
1.0
 74
     0
 49
-1.0
 74
     0
  0
ENDTAB
  0
TABLE
  2
LAYER
  5
2
330
0
100
AcDbSymbolTable
 70
     8
  0
LAYER
  5
10
330
2
100
AcDbSymbolTableRecord
100
AcDbLayerTableRecord
  2
0
 70
     0
 62
     7
  6
CONTINUOUS
  0
LAYER
  5
3F9
330
2
100
AcDbSymbolTableRecord
100
AcDbLayerTableRecord
  2
AM_0
 70
     0
 62
     7
  6
CONTINUOUS
  0
LAYER
  5
BD6
330
2
100
AcDbSymbolTableRecord
100
AcDbLayerTableRecord
  2
AM_11
 70
     0
 62
     3
  6
AM_ISO09W050
  0
LAYER
  5
BD7
330
2
100
AcDbSymbolTableRecord
100
AcDbLayerTableRecord
  2
AM_7
 70
     0
 62
     4
  6
AM_ISO08W050
  0
LAYER
  5
BD8
330
2
100
AcDbSymbolTableRecord
100
AcDbLayerTableRecord
  2
AM_5
 70
     0
 62
     3
  6
CONTINUOUS
  0
LAYER
  5
BD9
330
2
100
AcDbSymbolTableRecord
100
AcDbLayerTableRecord
  2
DEFPOINTS
 70
     0
 62
     7
  6
CONTINUOUS
  0
LAYER
  5
BDA
330
2
100
AcDbSymbolTableRecord
100
AcDbLayerTableRecord
  2
AM_6
 70
     0
 62
     2
  6
CONTINUOUS
  0
LAYER
  5
26DC
330
2
100
AcDbSymbolTableRecord
100
AcDbLayerTableRecord
  2
AM_CL
 70
     0
 62
     1
  6
AMCONSTR
  0
ENDTAB
  0
TABLE
  2
STYLE
  5
3
330
0
100
AcDbSymbolTable
 70
     5
  0
STYLE
  5
11
330
3
100
AcDbSymbolTableRecord
100
AcDbTextStyleTableRecord
  2
STANDARD
 70
     0
 40
0.0
 41
1.0
 50
0.0
 71
     0
 42
2.5
  3
simplex.shx
  4
EXTFONT.SHX
  0
STYLE
  5
52
330
3
100
AcDbSymbolTableRecord
100
AcDbTextStyleTableRecord
  2

 70
     1
 40
0.0
 41
1.0
 50
0.0
 71
     0
 42
2.5
  3
ltypeshp.shx
  4

  0
STYLE
  5
6B
330
3
100
AcDbSymbolTableRecord
100
AcDbTextStyleTableRecord
  2
ASAMI
 70
     0
 40
0.0
 41
1.0
 50
0.0
 71
     0
 42
2.5
  3
simplex.shx
  4
EXTFONT.SHX
  0
STYLE
  5
262
330
3
100
AcDbSymbolTableRecord
100
AcDbTextStyleTableRecord
  2
ACJISTS
 70
     0
 40
1.0
 41
1.0
 50
0.0
 71
     0
 42
2.5
  3
simplex.shx
  4
bigfont.shx
  0
STYLE
  5
269
330
3
100
AcDbSymbolTableRecord
100
AcDbTextStyleTableRecord
  2
ACJISGDT
 70
     0
 40
0.0
 41
1.0
 50
0.0
 71
     0
 42
2.5
  3
amgdtans.shx
  4

  0
ENDTAB
  0
TABLE
  2
VIEW
  5
6
330
0
100
AcDbSymbolTable
 70
     0
  0
ENDTAB
  0
TABLE
  2
UCS
  5
7
330
0
100
AcDbSymbolTable
 70
     0
  0
ENDTAB
  0
TABLE
  2
APPID
  5
9
330
0
100
AcDbSymbolTable
 70
    13
  0
APPID
  5
12
330
9
100
AcDbSymbolTableRecord
100
AcDbRegAppTableRecord
  2
ACAD
 70
     0
  0
APPID
  5
30
330
9
100
AcDbSymbolTableRecord
100
AcDbRegAppTableRecord
  2
MCAD_NO_VIS
 70
     0
  0
APPID
  5
31
330
9
100
AcDbSymbolTableRecord
100
AcDbRegAppTableRecord
  2
ACAD_TEMP_GRAPHIC
 70
     0
  0
APPID
  5
2C2
330
9
100
AcDbSymbolTableRecord
100
AcDbRegAppTableRecord
  2
GENIUS_GENDTOL_13
 70
     0
  0
APPID
  5
339
330
9
100
AcDbSymbolTableRecord
100
AcDbRegAppTableRecord
  2
GENIUS_GENODEF_13
 70
     0
  0
APPID
  5
33A
330
9
100
AcDbSymbolTableRecord
100
AcDbRegAppTableRecord
  2
GENIUS_GENOBJ-N-RSBK_13
 70
     0
  0
APPID
  5
33B
330
9
100
AcDbSymbolTableRecord
100
AcDbRegAppTableRecord
  2
GENIUS_GENOBJ-N-LIB_13
 70
     0
  0
APPID
  5
33C
330
9
100
AcDbSymbolTableRecord
100
AcDbRegAppTableRecord
  2
GENIUS_GENSCALE_13
 70
     0
  0
APPID
  5
378
330
9
100
AcDbSymbolTableRecord
100
AcDbRegAppTableRecord
  2
GENIUS_GENDIMSH_14
 70
     0
  0
APPID
  5
BDB
330
9
100
AcDbSymbolTableRecord
100
AcDbRegAppTableRecord
  2
GENIUS_GENOBJ-N-CEN_13
 70
     0
  0
APPID
  5
BDC
330
9
100
AcDbSymbolTableRecord
100
AcDbRegAppTableRecord
  2
GENIUS_GENFIL_13
 70
     0
  0
APPID
  5
BDD
330
9
100
AcDbSymbolTableRecord
100
AcDbRegAppTableRecord
  2
GENIUS_GENOBJ-N-FIL_13
 70
     0
  0
APPID
  5
12AD
330
9
100
AcDbSymbolTableRecord
100
AcDbRegAppTableRecord
  2
GENIUS_GENOREF_13
 70
     0
  0
ENDTAB
  0
TABLE
  2
DIMSTYLE
  5
A
330
0
100
AcDbSymbolTable
 70
     8
  0
DIMSTYLE
105
58
102
{ACAD_REACTORS
330
2ADC
330
2B37
330
2B45
330
2DC3
102
}
330
A
100
AcDbSymbolTableRecord
100
AcDbDimStyleTableRecord
  2
AM_JIS
 70
     0
  3

  4
"
  5
OPEN30
  6

  7

 40
1.0
 41
2.5
 42
1.0
 43
12.0
 44
1.0
 45
0.0
 46
0.0
 47
0.1
 48
0.1
140
3.2
141
0.0
142
0.0
143
0.0393701
144
1.0
145
0.0
146
0.71
147
1.5
 71
     0
 72
     0
 73
     0
 74
     0
 75
     0
 76
     0
 77
     3
 78
     8
170
     0
171
     2
172
     1
173
     0
174
     0
175
     0
176
   256
177
   256
178
     2
270
     2
271
     3
272
     3
273
     2
274
     2
340
6B
275
     0
280
     0
281
     0
282
     0
283
     0
284
     0
285
     0
286
     0
287
     3
288
     0
  0
DIMSTYLE
105
5F
330
A
100
AcDbSymbolTableRecord
100
AcDbDimStyleTableRecord
  2
AM_JIS$3
 70
     0
  3

  4
"
  5
OPEN30
  6

  7

 40
1.0
 41
2.5
 42
1.0
 43
10.0
 44
1.0
 45
0.0
 46
0.0
 47
0.1
 48
0.1
140
3.2
141
0.0
142
0.0
143
0.0393701
144
1.0
145
0.0
146
0.71
147
1.5
 71
     0
 72
     0
 73
     0
 74
     1
 75
     0
 76
     0
 77
     3
 78
     8
170
     0
171
     2
172
     0
173
     0
174
     0
175
     0
176
   256
177
   256
178
     2
270
     2
271
     2
272
     3
273
     2
274
     2
340
6B
275
     0
280
     0
281
     0
282
     0
283
     0
284
     0
285
     0
286
     0
287
     0
288
     1
  0
DIMSTYLE
105
60
330
A
100
AcDbSymbolTableRecord
100
AcDbDimStyleTableRecord
  2
AM_JIS$4
 70
     0
  3

  4
"
  5
OPEN30
  6

  7

 40
1.0
 41
2.5
 42
1.0
 43
10.0
 44
1.0
 45
0.0
 46
0.0
 47
0.1
 48
0.1
140
3.2
141
0.0
142
0.0
143
0.0393701
144
1.0
145
0.0
146
0.71
147
1.5
 71
     0
 72
     0
 73
     0
 74
     1
 75
     0
 76
     0
 77
     3
 78
     8
170
     0
171
     2
172
     0
173
     0
174
     0
175
     0
176
   256
177
   256
178
     2
270
     2
271
     2
272
     3
273
     2
274
     2
340
6B
275
     0
280
     0
281
     0
282
     0
283
     0
284
     0
285
     0
286
     0
287
     0
288
     1
  0
DIMSTYLE
105
61
330
A
100
AcDbSymbolTableRecord
100
AcDbDimStyleTableRecord
  2
AM_JIS$6
 70
     0
  3

  4
"
  5
OPEN30
  6

  7

 40
1.0
 41
2.5
 42
1.0
 43
10.0
 44
1.0
 45
0.0
 46
0.0
 47
0.1
 48
0.1
140
3.2
141
0.0
142
0.0
143
0.0393701
144
1.0
145
0.0
146
0.71
147
1.5
 71
     0
 72
     0
 73
     0
 74
     0
 75
     0
 76
     0
 77
     0
 78
     8
170
     0
171
     2
172
     1
173
     0
174
     0
175
     0
176
   256
177
   256
178
     2
270
     2
271
     2
272
     2
273
     2
274
     2
340
6B
275
     0
280
     0
281
     0
282
     0
283
     0
284
     0
285
     0
286
     0
287
     3
288
     0
  0
DIMSTYLE
105
62
330
A
100
AcDbSymbolTableRecord
100
AcDbDimStyleTableRecord
  2
AM_JIS$7
 70
     0
  3

  4
"
  5
OPEN30
  6

  7

 40
1.0
 41
2.5
 42
1.0
 43
10.0
 44
1.0
 45
0.0
 46
0.0
 47
0.1
 48
0.1
140
3.2
141
0.0
142
0.0
143
0.0393701
144
1.0
145
0.0
146
0.71
147
1.5
 71
     0
 72
     0
 73
     0
 74
     0
 75
     0
 76
     0
 77
     3
 78
     8
170
     0
171
     2
172
     1
173
     0
174
     0
175
     0
176
   256
177
   256
178
     2
270
     2
271
     2
272
     3
273
     2
274
     2
340
6B
275
     0
280
     0
281
     0
282
     0
283
     0
284
     0
285
     0
286
     0
287
     3
288
     0
  0
DIMSTYLE
105
63
330
A
100
AcDbSymbolTableRecord
100
AcDbDimStyleTableRecord
  2
AM_JIS$SF
 70
     0
  3

  4
"
  5
OPEN30
  6

  7

 40
1.0
 41
2.5
 42
1.0
 43
10.0
 44
1.0
 45
0.0
 46
0.0
 47
0.1
 48
0.1
140
3.2
141
0.0
142
0.0
143
0.0393701
144
1.0
145
0.0
146
0.71
147
1.5
 71
     0
 72
     0
 73
     0
 74
     0
 75
     1
 76
     1
 77
     3
 78
     8
170
     0
171
     2
172
     1
173
     0
174
     0
175
     0
176
   256
177
   256
178
     2
270
     2
271
     2
272
     2
273
     2
274
     2
340
6B
275
     0
280
     0
281
     0
282
     0
283
     0
284
     0
285
     0
286
     0
287
     3
288
     0
  0
DIMSTYLE
105
68
330
A
100
AcDbSymbolTableRecord
100
AcDbDimStyleTableRecord
  2
AM_JIS$SH
 70
     0
  3

  4
"
  5

  6
GENAXEH
  7
OPEN30
 40
1.0
 41
2.5
 42
1.0
 43
10.0
 44
1.0
 45
0.0
 46
0.0
 47
0.1
 48
0.1
140
3.2
141
0.0
142
0.0
143
0.0393701
144
2.0
145
0.0
146
0.71
147
1.5
 71
     0
 72
     0
 73
     0
 74
     0
 75
     1
 76
     1
 77
     3
 78
     8
170
     0
171
     2
172
     1
173
     1
174
     0
175
     0
176
   256
177
   256
178
     2
270
     2
271
     2
272
     2
273
     2
274
     2
340
6B
275
     0
280
     0
281
     0
282
     0
283
     0
284
     0
285
     0
286
     0
287
     3
288
     0
  0
DIMSTYLE
105
B34
330
A
100
AcDbSymbolTableRecord
100
AcDbDimStyleTableRecord
  2
AM_JIS$2
 70
     0
  3

  4
"
  5
OPEN30
  6

  7

 40
1.0
 41
2.5
 42
1.0
 43
12.0
 44
1.0
 45
0.0
 46
0.0
 47
0.1
 48
0.1
140
3.2
141
0.0
142
0.0
143
0.0393701
144
1.0
145
0.0
146
0.71
147
1.5
 71
     0
 72
     0
 73
     0
 74
     0
 75
     0
 76
     0
 77
     3
 78
     8
170
     0
171
     2
172
     1
173
     0
174
     0
175
     0
176
   256
177
   256
178
     2
270
     2
271
     3
272
     3
273
     2
274
     2
340
6B
275
     0
280
     0
281
     0
282
     0
283
     0
284
     0
285
     0
286
     0
287
     3
288
     0
  0
ENDTAB
  0
TABLE
  2
BLOCK_RECORD
  5
1
330
0
100
AcDbSymbolTable
 70
    27
  0
BLOCK_RECORD
  5
1F
102
{ACAD_XDICTIONARY
360
74
102
}
330
1
100
AcDbSymbolTableRecord
100
AcDbBlockTableRecord
  2
*MODEL_SPACE
  0
BLOCK_RECORD
  5
101
102
{ACAD_XDICTIONARY
360
2FA3
102
}
330
1
100
AcDbSymbolTableRecord
100
AcDbBlockTableRecord
  2
*PAPER_SPACE
  0
BLOCK_RECORD
  5
59
330
1
100
AcDbSymbolTableRecord
100
AcDbBlockTableRecord
  2
_OPEN30
  0
BLOCK_RECORD
  5
64
330
1
100
AcDbSymbolTableRecord
100
AcDbBlockTableRecord
  2
GENAXEH
  0
BLOCK_RECORD
  5
2ADD
330
1
100
AcDbSymbolTableRecord
100
AcDbBlockTableRecord
  2
*D20
  0
BLOCK_RECORD
  5
2B38
330
1
100
AcDbSymbolTableRecord
100
AcDbBlockTableRecord
  2
*D21
  0
BLOCK_RECORD
  5
2B46
330
1
100
AcDbSymbolTableRecord
100
AcDbBlockTableRecord
  2
*D22
  0
BLOCK_RECORD
  5
2DC4
330
1
100
AcDbSymbolTableRecord
100
AcDbBlockTableRecord
  2
*D25
  0
ENDTAB
  0
ENDSEC
  0
SECTION
  2
BLOCKS
  0
BLOCK
  5
20
330
1F
100
AcDbEntity
  8
0
100
AcDbBlockBegin
  2
*MODEL_SPACE
 70
     0
 10
0.0
 20
0.0
 30
0.0
  3
*MODEL_SPACE
  1

  0
ENDBLK
  5
21
330
1F
100
AcDbEntity
  8
0
100
AcDbBlockEnd
  0
BLOCK
  5
103
330
101
100
AcDbEntity
 67
     1
  8
0
100
AcDbBlockBegin
  2
*PAPER_SPACE
 70
     0
 10
0.0
 20
0.0
 30
0.0
  3
*PAPER_SPACE
  1

  0
ENDBLK
  5
104
330
101
100
AcDbEntity
 67
     1
  8
0
100
AcDbBlockEnd
  0
BLOCK
  5
5D
330
59
100
AcDbEntity
  8
0
100
AcDbBlockBegin
  2
_OPEN30
 70
     0
 10
0.0
 20
0.0
 30
0.0
  3
_OPEN30
  1

  0
LINE
  5
5A
330
59
100
AcDbEntity
  8
0
 62
     0
100
AcDbLine
 10
-1.0
 20
0.26794919
 30
0.0
 11
0.0
 21
0.0
 31
0.0
  0
LINE
  5
5B
330
59
100
AcDbEntity
  8
0
 62
     0
100
AcDbLine
 10
0.0
 20
0.0
 30
0.0
 11
-1.0
 21
-0.26794919
 31
0.0
  0
LINE
  5
5C
330
59
100
AcDbEntity
  8
0
 62
     0
100
AcDbLine
 10
0.0
 20
0.0
 30
0.0
 11
-1.0
 21
0.0
 31
0.0
  0
ENDBLK
  5
5E
330
59
100
AcDbEntity
  8
0
100
AcDbBlockEnd
  0
BLOCK
  5
66
330
64
100
AcDbEntity
  8
0
100
AcDbBlockBegin
  2
GENAXEH
 70
     0
 10
0.0
 20
0.0
 30
0.0
  3
GENAXEH
  1

  0
LINE
  5
65
330
64
100
AcDbEntity
  8
0
100
AcDbLine
 10
-1.0
 20
0.0
 30
0.0
 11
1.0
 21
0.0
 31
0.0
  0
ENDBLK
  5
67
330
64
100
AcDbEntity
  8
0
100
AcDbBlockEnd
  0
BLOCK
  5
2AE7
330
2ADD
100
AcDbEntity
  8
0
100
AcDbBlockBegin
  2
*D20
 70
     1
 10
0.0
 20
0.0
 30
0.0
  3
*D20
  1

  0
LINE
  5
2DF5
330
2ADD
100
AcDbEntity
  8
AM_5
100
AcDbLine
 10
1.000050247130283
 20
12.49999999999999
 30
0.0
 11
20.22705670878344
 21
12.49999999999999
 31
0.0
  0
LINE
  5
2DF6
330
2ADD
100
AcDbEntity
  8
AM_5
100
AcDbLine
 10
1.000050247129941
 20
-12.50000000003114
 30
0.0
 11
20.22705670878343
 21
-12.50000000003115
 31
0.0
  0
LINE
  5
2DF7
330
2ADD
100
AcDbEntity
  8
AM_5
100
AcDbLine
 10
19.22705670878344
 20
9.999999999999991
 30
0.0
 11
19.22705670878343
 21
-10.00000000003115
 31
0.0
  0
INSERT
  5
2DF8
330
2ADD
100
AcDbEntity
  8
AM_5
100
AcDbBlockReference
  2
_OPEN30
 10
19.22705670878344
 20
12.49999999999999
 30
0.0
 41
2.5
 42
2.5
 43
2.5
 50
90.0
  0
INSERT
  5
2DF9
330
2ADD
100
AcDbEntity
  8
AM_5
100
AcDbBlockReference
  2
_OPEN30
 10
19.22705670878343
 20
-12.50000000003115
 30
0.0
 41
2.5
 42
2.5
 43
2.5
 50
270.0
  0
MTEXT
  5
2DFA
330
2ADD
100
AcDbEntity
  8
AM_5
 62
     2
100
AcDbMText
 10
16.12705670878343
 20
-0.0000000000155777
 30
0.0
 40
3.2
 41
0.0
 71
     5
 72
     1
  1
%%c25
  7
ASAMI
 11
0.0000000000000001
 21
1.0
 31
0.0
1001
ACAD
1000
MTEXTBEGIN
1070
    73
1070
     1
1070
    44
1040
1.0
1070
    74
1070
     0
1000
MTEXTEND
  0
POINT
  5
2DFB
330
2ADD
100
AcDbEntity
  8
DEFPOINTS
 62
     0
100
AcDbPoint
 10
0.0000502471302832
 20
12.49999999999999
 30
0.0
  0
POINT
  5
2DFC
330
2ADD
100
AcDbEntity
  8
DEFPOINTS
 62
     0
100
AcDbPoint
 10
0.0000502471299421
 20
-12.50000000003114
 30
0.0
  0
POINT
  5
2DFD
330
2ADD
100
AcDbEntity
  8
DEFPOINTS
 62
     0
100
AcDbPoint
 10
19.22705670878343
 20
-12.50000000003115
 30
0.0
  0
ENDBLK
  5
2AE8
330
2ADD
100
AcDbEntity
  8
0
100
AcDbBlockEnd
  0
BLOCK
  5
2B42
330
2B38
100
AcDbEntity
  8
0
100
AcDbBlockBegin
  2
*D21
 70
     1
 10
0.0
 20
0.0
 30
0.0
  3
*D21
  1

  0
LINE
  5
2E1A
330
2B38
100
AcDbEntity
  8
AM_5
100
AcDbLine
 10
-139.7999497528697
 20
-12.5
 30
0.0
 11
-161.126509109435
 21
-12.49999999999999
 31
0.0
  0
LINE
  5
2E1B
330
2B38
100
AcDbEntity
  8
AM_5
100
AcDbLine
 10
-139.7999497528697
 20
12.5
 30
0.0
 11
-161.126509109435
 21
12.5
 31
0.0
  0
LINE
  5
2E1C
330
2B38
100
AcDbEntity
  8
AM_5
100
AcDbLine
 10
-160.126509109435
 20
-9.999999999999992
 30
0.0
 11
-160.126509109435
 21
10.0
 31
0.0
  0
INSERT
  5
2E1D
330
2B38
100
AcDbEntity
  8
AM_5
100
AcDbBlockReference
  2
_OPEN30
 10
-160.126509109435
 20
-12.49999999999999
 30
0.0
 41
2.5
 42
2.5
 43
2.5
 50
270.0
  0
INSERT
  5
2E1E
330
2B38
100
AcDbEntity
  8
AM_5
100
AcDbBlockReference
  2
_OPEN30
 10
-160.126509109435
 20
12.5
 30
0.0
 41
2.5
 42
2.5
 43
2.5
 50
90.0
  0
MTEXT
  5
2E1F
330
2B38
100
AcDbEntity
  8
AM_5
 62
     2
100
AcDbMText
 10
-163.226509109435
 20
-0.0000000000000223
 30
0.0
 40
3.2
 41
0.0
 71
     5
 72
     1
  1
%%c25
  7
ASAMI
 11
0.0000000000000001
 21
1.0
 31
0.0
1001
ACAD
1000
MTEXTBEGIN
1070
    73
1070
     1
1070
    44
1040
1.0
1070
    74
1070
     0
1000
MTEXTEND
  0
POINT
  5
2E20
330
2B38
100
AcDbEntity
  8
DEFPOINTS
 62
     0
100
AcDbPoint
 10
-138.7999497528697
 20
-12.5
 30
0.0
  0
POINT
  5
2E21
330
2B38
100
AcDbEntity
  8
DEFPOINTS
 62
     0
100
AcDbPoint
 10
-138.7999497528697
 20
12.5
 30
0.0
  0
POINT
  5
2E22
330
2B38
100
AcDbEntity
  8
DEFPOINTS
 62
     0
100
AcDbPoint
 10
-160.126509109435
 20
12.5
 30
0.0
  0
ENDBLK
  5
2B43
330
2B38
100
AcDbEntity
  8
0
100
AcDbBlockEnd
  0
BLOCK
  5
2B50
330
2B46
100
AcDbEntity
  8
0
100
AcDbBlockBegin
  2
*D22
 70
     1
 10
0.0
 20
0.0
 30
0.0
  3
*D22
  1

  0
LINE
  5
2E23
330
2B46
100
AcDbEntity
  8
AM_5
100
AcDbLine
 10
-139.9999497528697
 20
-10.37499999999998
 30
0.0
 11
-139.9999497528697
 21
-39.50000099999929
 31
0.0
  0
LINE
  5
2E24
330
2B46
100
AcDbEntity
  8
AM_5
100
AcDbLine
 10
0.000050247130283
 20
-13.50000000003295
 30
0.0
 11
0.0000502471302814
 21
-39.50000099999929
 31
0.0
  0
LINE
  5
2E25
330
2B46
100
AcDbEntity
  8
AM_5
100
AcDbLine
 10
-137.4999497528697
 20
-38.50000099999928
 30
0.0
 11
-2.499949752869718
 21
-38.50000099999928
 31
0.0
  0
INSERT
  5
2E26
330
2B46
100
AcDbEntity
  8
AM_5
100
AcDbBlockReference
  2
_OPEN30
 10
-139.9999497528697
 20
-38.50000099999928
 30
0.0
 41
2.5
 42
2.5
 43
2.5
 50
180.0
  0
INSERT
  5
2E27
330
2B46
100
AcDbEntity
  8
AM_5
100
AcDbBlockReference
  2
_OPEN30
 10
0.0000502471302815
 20
-38.50000099999928
 30
0.0
 41
2.5
 42
2.5
 43
2.5
  0
MTEXT
  5
2E28
330
2B46
100
AcDbEntity
  8
AM_5
 62
     2
100
AcDbMText
 10
-69.99994975286973
 20
-35.40000099999928
 30
0.0
 40
3.2
 41
0.0
 71
     5
 72
     1
  1
140
  7
ASAMI
1001
ACAD
1000
MTEXTBEGIN
1070
    73
1070
     1
1070
    44
1040
1.0
1070
    74
1070
     0
1000
MTEXTEND
  0
POINT
  5
2E29
330
2B46
100
AcDbEntity
  8
DEFPOINTS
 62
     0
100
AcDbPoint
 10
-139.9999497528697
 20
-9.374999999999987
 30
0.0
  0
POINT
  5
2E2A
330
2B46
100
AcDbEntity
  8
DEFPOINTS
 62
     0
100
AcDbPoint
 10
0.000050247130283
 20
-12.50000000003295
 30
0.0
  0
POINT
  5
2E2B
330
2B46
100
AcDbEntity
  8
DEFPOINTS
 62
     0
100
AcDbPoint
 10
0.0000502471302815
 20
-38.50000099999928
 30
0.0
  0
ENDBLK
  5
2B51
330
2B46
100
AcDbEntity
  8
0
100
AcDbBlockEnd
  0
BLOCK
  5
2DCE
330
2DC4
100
AcDbEntity
  8
0
100
AcDbBlockBegin
  2
*D25
 70
     1
 10
0.0
 20
0.0
 30
0.0
  3
*D25
  1

  0
LINE
  5
2E3A
330
2DC4
100
AcDbEntity
  8
AM_5
100
AcDbLine
 10
-65.00084257213163
 20
-13.50000000000002
 30
0.0
 11
-65.00084257213163
 21
-27.50000100000165
 31
0.0
  0
LINE
  5
2E3B
330
2DC4
100
AcDbEntity
  8
AM_5
100
AcDbLine
 10
-0.0003804425583113
 20
-13.50000000003295
 30
0.0
 11
-0.0003804425583121
 21
-27.50000100000165
 31
0.0
  0
LINE
  5
2E3C
330
2DC4
100
AcDbEntity
  8
AM_5
100
AcDbLine
 10
-62.50084257213163
 20
-26.50000100000164
 30
0.0
 11
-2.500380442558312
 21
-26.50000100000164
 31
0.0
  0
INSERT
  5
2E3D
330
2DC4
100
AcDbEntity
  8
AM_5
100
AcDbBlockReference
  2
_OPEN30
 10
-65.00084257213163
 20
-26.50000100000164
 30
0.0
 41
2.5
 42
2.5
 43
2.5
 50
180.0
  0
INSERT
  5
2E3E
330
2DC4
100
AcDbEntity
  8
AM_5
100
AcDbBlockReference
  2
_OPEN30
 10
-0.0003804425583121
 20
-26.50000100000164
 30
0.0
 41
2.5
 42
2.5
 43
2.5
  0
MTEXT
  5
2E3F
330
2DC4
100
AcDbEntity
  8
AM_5
 62
     2
100
AcDbMText
 10
-32.50061150734497
 20
-23.40000100000164
 30
0.0
 40
3.2
 41
0.0
 71
     5
 72
     1
  1
65
  7
ASAMI
1001
ACAD
1000
MTEXTBEGIN
1070
    73
1070
     1
1070
    44
1040
1.0
1070
    74
1070
     0
1000
MTEXTEND
  0
POINT
  5
2E40
330
2DC4
100
AcDbEntity
  8
DEFPOINTS
 62
     0
100
AcDbPoint
 10
-65.00084257213163
 20
-12.50000000000002
 30
0.0
  0
POINT
  5
2E41
330
2DC4
100
AcDbEntity
  8
DEFPOINTS
 62
     0
100
AcDbPoint
 10
-0.0003804425583112
 20
-12.50000000003295
 30
0.0
  0
POINT
  5
2E42
330
2DC4
100
AcDbEntity
  8
DEFPOINTS
 62
     0
100
AcDbPoint
 10
-0.0003804425583121
 20
-26.50000100000164
 30
0.0
  0
ENDBLK
  5
2DCF
330
2DC4
100
AcDbEntity
  8
0
100
AcDbBlockEnd
  0
ENDSEC
  0
SECTION
  2
ENTITIES
  0
TEXT
  5
C58
330
1F
100
AcDbEntity
  8
AM_6
100
AcDbText
 10
-83.69042594334588
 20
-61.00000099999937
 30
0.0
 40
5.0
  1
LHHM8250ZX
 50
0.0000000000002036
 72
     4
 11
-59.99994975286972
 21
-58.50000099999928
 31
0.0
100
AcDbText
  0
DIMENSION
  5
2ADC
330
1F
100
AcDbEntity
  8
AM_5
100
AcDbDimension
  2
*D20
 10
19.22705670878343
 20
-12.50000000003115
 30
0.0
 11
16.12705670878343
 21
-0.0000000000155777
 31
0.0
 70
    32
  1
%%c<>
  3
AM_JIS
100
AcDbAlignedDimension
 13
0.0000502471302832
 23
12.49999999999999
 33
0.0
 14
0.0000502471299421
 24
-12.50000000003114
 34
0.0
 50
90.0
100
AcDbRotatedDimension
1001
GENIUS_GENDTOL_13
1000

1000
h7
1000

1040
0.0
  0
LINE
  5
2B2F
330
1F
100
AcDbEntity
  8
AM_0
100
AcDbLine
 10
-118.5165144773569
 20
12.49999999999986
 30
0.0
 11
-121.0214943769869
 21
12.49999999999986
 31
0.0
  0
LINE
  5
2B30
330
1F
100
AcDbEntity
  8
AM_0
100
AcDbLine
 10
-117.615923733389
 20
-12.50000000000028
 30
0.0
 11
-121.0214943769869
 21
-12.50000000000028
 31
0.0
  0
LINE
  5
2B31
330
1F
100
AcDbEntity
  8
AM_0
100
AcDbLine
 10
-139.9999497528697
 20
9.37500000000001
 30
0.0
 11
-138.7999497528697
 21
12.49999999999999
 31
0.0
1001
GENIUS_GENFIL_13
1070
     0
1040
0.5
1040
0.5
1040
0.4999999999999716
1040
45.0
1002
{
1002
}
  0
LINE
  5
2B32
330
1F
100
AcDbEntity
  8
AM_0
100
AcDbLine
 10
-139.9999497528697
 20
-9.374999999999987
 30
0.0
 11
-138.7999497528697
 21
-12.49999999999998
 31
0.0
1001
GENIUS_GENFIL_13
1070
     0
1040
0.5
1040
0.5
1040
0.4999999999999716
1040
45.00000000000036
1002
{
1002
}
  0
LINE
  5
2B33
330
1F
100
AcDbEntity
  8
0
100
AcDbLine
 10
-138.7999497528697
 20
-12.49999999999998
 30
0.0
 11
-138.7999497528697
 21
12.49999999999999
 31
0.0
  0
LINE
  5
2B34
330
1F
100
AcDbEntity
  8
AM_0
100
AcDbLine
 10
-139.9999497528697
 20
-9.374999999999987
 30
0.0
 11
-139.9999497528697
 21
9.37500000000001
 31
0.0
  0
LINE
  5
2B35
330
1F
100
AcDbEntity
  8
AM_0
100
AcDbLine
 10
-138.7999497528697
 20
12.49999999999999
 30
0.0
 11
-84.12568602171173
 21
12.49999999999999
 31
0.0
1001
GENIUS_GENODEF_13
1002
{
1000
HIER
1070
     0
1002
}
1002
{
1000
MANEDIT
1070
     0
1002
}
1002
{
1000
NOSEL
1070
     0
1002
}
1002
{
1000
BEHIND
1070
     0
1002
}
1002
{
1000
REACTOR
1002
}
1001
GENIUS_GENOBJ-N-CEN_13
1002
{
1000
OWNER
1000
GEN
1002
}
  0
LINE
  5
2B36
330
1F
100
AcDbEntity
  8
AM_0
100
AcDbLine
 10
-138.7999497528697
 20
-12.49999999999998
 30
0.0
 11
-67.66033399766818
 21
-12.49999999999998
 31
0.0
1001
GENIUS_GENODEF_13
1002
{
1000
HIER
1070
     0
1002
}
1002
{
1000
MANEDIT
1070
     0
1002
}
1002
{
1000
NOSEL
1070
     0
1002
}
1002
{
1000
BEHIND
1070
     0
1002
}
1002
{
1000
REACTOR
1002
}
1001
GENIUS_GENOBJ-N-CEN_13
1002
{
1000
OWNER
1000
GEN
1002
}
  0
DIMENSION
  5
2B37
330
1F
100
AcDbEntity
  8
AM_5
100
AcDbDimension
  2
*D21
 10
-160.126509109435
 20
12.5
 30
0.0
 11
-160.126509109435
 21
-0.0000000000000227
 31
0.0
 70
   160
  1
%%c<>
  3
AM_JIS
100
AcDbAlignedDimension
 13
-138.7999497528697
 23
-12.5
 33
0.0
 14
-138.7999497528697
 24
12.5
 34
0.0
 50
270.0
100
AcDbRotatedDimension
1001
ACAD
1000
DSTYLE
1002
{
1070
    48
1040
0.1
1070
    47
1040
0.1
1070
   274
1070
     2
1070
   272
1070
     3
1002
}
1001
GENIUS_GENDTOL_13
1000

1000
h6
1000

1040
0.0
  0
LINE
  5
2B44
330
1F
100
AcDbEntity
  8
AM_7
100
AcDbLine
 10
-146.1265081094349
 20
-0.0000000000000036
 30
0.0
 11
5.227055708783262
 21
-0.0000000000000036
 31
0.0
1001
GENIUS_GENODEF_13
1002
{
1000
HIER
1070
     0
1002
}
1002
{
1000
MANEDIT
1070
     0
1002
}
1002
{
1000
NOSEL
1070
     0
1002
}
1002
{
1000
BEHIND
1070
     0
1002
}
1002
{
1000
REACTOR
1002
}
1001
GENIUS_GENOBJ-N-CEN_13
1002
{
1000
OWNER
1000
GEN
1002
}
  0
DIMENSION
  5
2B45
330
1F
100
AcDbEntity
  8
AM_5
100
AcDbDimension
  2
*D22
 10
0.0000502471302815
 20
-38.50000099999928
 30
0.0
 11
-69.99994975286973
 21
-35.40000099999928
 31
0.0
 70
    32
  1
<>
  3
AM_JIS
100
AcDbAlignedDimension
 13
-139.9999497528697
 23
-9.374999999999987
 33
0.0
 14
0.000050247130283
 24
-12.50000000003295
 34
0.0
 50
0.0000000000003534
100
AcDbRotatedDimension
1001
GENIUS_GENDTOL_13
1000

1000
H7
1000

1040
0.0
  0
DIMENSION
  5
2DC3
330
1F
100
AcDbEntity
  8
AM_5
100
AcDbDimension
  2
*D25
 10
-0.0003804425583121
 20
-26.50000100000164
 30
0.0
 11
-32.50061150734497
 21
-23.40000100000164
 31
0.0
 70
    32
  1
<>
  3
AM_JIS
100
AcDbAlignedDimension
 13
-65.00084257213163
 23
-12.50000000000002
 33
0.0
 14
-0.0003804425583112
 24
-12.50000000003295
 34
0.0
 50
359.9999999999992
100
AcDbRotatedDimension
1001
GENIUS_GENDTOL_13
1000

1000
H7
1000

1040
0.0
  0
SPLINE
  5
2EE3
330
1F
100
AcDbEntity
  8
AM_0
100
AcDbSpline
210
0.0
220
0.0
230
1.0
 70
     8
 71
     3
 72
     8
 73
     4
 74
     0
 42
0.0000000001
 43
0.0000000001
 40
0.0
 40
0.0
 40
0.0
 40
0.0
 40
1.707928658540872
 40
1.707928658540872
 40
1.707928658540872
 40
1.707928658540872
 10
-0.7312659161881196
 20
12.50826692347191
 30
0.0
 10
-2.118266190125072
 20
12.50826692347191
 30
0.0
 10
-3.445493827287408
 20
12.29779762402133
 30
0.0
 10
-4.723917568718603
 20
11.91548176903739
 30
0.0
  0
SPLINE
  5
2EE4
330
1F
100
AcDbEntity
  8
AM_0
100
AcDbSpline
210
0.0
220
0.0
230
1.0
 70
     8
 71
     3
 72
     8
 73
     4
 74
     0
 42
0.0000000001
 43
0.0000000001
 40
0.0
 40
0.0
 40
0.0
 40
0.0
 40
0.5596836519003795
 40
0.5596836519003795
 40
0.5596836519003795
 40
0.5596836519003795
 10
-0.7312659161881196
 20
12.50826692347191
 30
0.0
 10
-0.7743643602914531
 20
12.04396540835847
 30
0.0
 10
-1.267442526835354
 20
11.42979024450556
 30
0.0
 10
-1.808751657972513
 20
10.97474697885064
 30
0.0
  0
LINE
  5
2EE5
330
1F
100
AcDbEntity
  8
AM_0
100
AcDbLine
 10
-0.7312659161991985
 20
12.50826692347404
 30
0.0
 11
-0.0003804425583108
 21
12.37602168794256
 31
0.0
  0
SPLINE
  5
2EE6
330
1F
100
AcDbEntity
  8
AM_0
100
AcDbSpline
210
0.0
220
0.0
230
1.0
 70
     8
 71
     3
 72
     8
 73
     4
 74
     0
 42
0.0000000001
 43
0.0000000001
 40
0.0
 40
0.0
 40
0.0
 40
0.0
 40
1.132300688333841
 40
1.132300688333841
 40
1.132300688333841
 40
1.132300688333841
 10
-0.7312659161991985
 20
9.088435772037852
 30
0.0
 10
-0.9698390367082724
 20
8.17716332691601
 30
0.0
 10
-2.255816103166069
 20
7.775779570719858
 30
0.0
 10
-3.175351797496663
 20
7.775779570719858
 30
0.0
  0
LINE
  5
2EE7
330
1F
100
AcDbEntity
  8
AM_0
100
AcDbLine
 10
-3.175351797496663
 20
6.423172453587707
 30
0.0
 11
-3.175351797496663
 21
7.775779570719858
 31
0.0
  0
LINE
  5
2EE8
330
1F
100
AcDbEntity
  8
AM_0
100
AcDbLine
 10
-0.7312659161991985
 20
9.088435772037852
 30
0.0
 11
-0.0003804425583108
 21
9.088435772037852
 31
0.0
  0
LINE
  5
2EE9
330
1F
100
AcDbEntity
  8
AM_0
100
AcDbLine
 10
-0.0003804425583108
 20
9.088435772037852
 30
0.0
 11
-0.3602162037099324
 21
10.27381874381421
 31
0.0
  0
SPLINE
  5
2EEA
330
1F
100
AcDbEntity
  8
AM_0
100
AcDbSpline
210
0.0
220
0.0
230
1.0
 70
     8
 71
     3
 72
     8
 73
     4
 74
     0
 42
0.0000000001
 43
0.0000000001
 40
0.0
 40
0.0
 40
0.0
 40
0.0
 40
1.707928658540872
 40
1.707928658540872
 40
1.707928658540872
 40
1.707928658540872
 10
-10.29368419632555
 20
12.50826692347192
 30
0.0
 10
-11.68068447026251
 20
12.50826692347192
 30
0.0
 10
-13.00791210742484
 20
12.29779762402134
 30
0.0
 10
-14.28633584885604
 20
11.91548176903739
 30
0.0
  0
SPLINE
  5
2EEB
330
1F
100
AcDbEntity
  8
AM_0
100
AcDbSpline
210
0.0
220
0.0
230
1.0
 70
     8
 71
     3
 72
     8
 73
     4
 74
     0
 42
0.0000000001
 43
0.0000000001
 40
0.0
 40
0.0
 40
0.0
 40
0.0
 40
3.208811545131809
 40
3.208811545131809
 40
3.208811545131809
 40
3.208811545131809
 10
-7.63419966011587
 20
12.22535077663752
 30
0.0
 10
-5.028339942349077
 20
12.22535077663752
 30
0.0
 10
-2.627380099839698
 20
11.48975137367915
 30
0.0
 10
-0.3602162037099324
 20
10.27381874381421
 30
0.0
  0
SPLINE
  5
2EEC
330
1F
100
AcDbEntity
  8
AM_0
100
AcDbSpline
210
0.0
220
0.0
230
1.0
 70
     8
 71
     3
 72
     8
 73
     4
 74
     0
 42
0.0000000001
 43
0.0000000001
 40
0.0
 40
0.0
 40
0.0
 40
0.0
 40
4.323648603744882
 40
4.323648603744882
 40
4.323648603744882
 40
4.323648603744882
 10
-10.29368419634827
 20
12.50826692347192
 30
0.0
 10
-6.782470910117265
 20
12.50826692347191
 30
0.0
 10
-3.654314923845353
 20
11.15945907557846
 30
0.0
 10
-0.7312659161991985
 20
9.088435772037852
 30
0.0
  0
LINE
  5
2EED
330
1F
100
AcDbEntity
  8
AM_0
100
AcDbLine
 10
-0.0003804425583108
 20
2.938743916337099
 30
0.0
 11
-0.2111056299890257
 21
2.131739466644002
 31
0.0
  0
LINE
  5
2EEE
330
1F
100
AcDbEntity
  8
AM_0
100
AcDbLine
 10
-0.0003804425583108
 20
0.0743895412375884
 30
0.0
 11
-0.3295020313756598
 21
3.287665962810303
 31
0.0
  0
LINE
  5
2EEF
330
1F
100
AcDbEntity
  8
AM_0
100
AcDbLine
 10
-0.0003804425583108
 20
0.0082669234719174
 30
0.0
 11
-3.281984366951825
 21
0.0082669234719174
 31
0.0
  0
LINE
  5
2EF0
330
1F
100
AcDbEntity
  8
AM_0
100
AcDbLine
 10
-0.0003804425583108
 20
0.0000000000001658
 30
0.0
 11
-0.2111056299890257
 21
-2.057349925406105
 31
0.0
  0
LINE
  5
2EF1
330
1F
100
AcDbEntity
  8
AM_0
100
AcDbLine
 10
-3.281984366951825
 20
-1.491733076527285
 30
0.0
 11
-3.281984366951825
 21
0.0082669234719174
 31
0.0
  0
LINE
  5
2EF2
330
1F
100
AcDbEntity
  8
AM_0
100
AcDbLine
 10
-0.0003804425583108
 20
-2.864354375099343
 30
0.0
 11
-0.758033622541711
 21
0.0371947706189486
 31
0.0
  0
LINE
  5
2EF3
330
1F
100
AcDbEntity
  8
AM_0
100
AcDbLine
 10
-0.3295020313756598
 20
3.287665962810303
 30
0.0
 11
-3.175351797496663
 21
6.423172453587707
 31
0.0
  0
LINE
  5
2EF4
330
1F
100
AcDbEntity
  8
AM_0
100
AcDbLine
 10
-3.175351797496663
 20
7.775779570719858
 30
0.0
 11
-1.1816633411657
 21
4.226562087913118
 31
0.0
  0
LINE
  5
2EF5
330
1F
100
AcDbEntity
  8
AM_0
100
AcDbLine
 10
-0.0003804425583108
 20
2.938743916336813
 30
0.0
 11
-0.0003804425583108
 21
12.37602168794256
 31
0.0
  0
SPLINE
  5
2EF6
330
1F
100
AcDbEntity
  8
AM_0
100
AcDbSpline
210
0.0
220
0.0
230
1.0
 70
     8
 71
     3
 72
     8
 73
     4
 74
     0
 42
0.0000000001
 43
0.0000000001
 40
0.0
 40
0.0
 40
0.0
 40
0.0
 40
1.707928658540872
 40
1.707928658540872
 40
1.707928658540872
 40
1.707928658540872
 10
-19.85610247646299
 20
12.50826692347192
 30
0.0
 10
-21.24310275039994
 20
12.50826692347192
 30
0.0
 10
-22.57033038756227
 20
12.29779762402134
 30
0.0
 10
-23.84875412899347
 20
11.91548176903739
 30
0.0
  0
SPLINE
  5
2EF7
330
1F
100
AcDbEntity
  8
AM_0
100
AcDbSpline
210
0.0
220
0.0
230
1.0
 70
     8
 71
     3
 72
     8
 73
     4
 74
     0
 42
0.0000000001
 43
0.0000000001
 40
0.0
 40
0.0
 40
0.0
 40
0.0
 40
1.707928658540872
 40
1.707928658540872
 40
1.707928658540872
 40
1.707928658540872
 10
-29.41852075660044
 20
12.50826692347192
 30
0.0
 10
-30.80552103053737
 20
12.50826692347192
 30
0.0
 10
-32.13274866769971
 20
12.29779762402134
 30
0.0
 10
-33.41117240913091
 20
11.91548176903739
 30
0.0
  0
SPLINE
  5
2EF8
330
1F
100
AcDbEntity
  8
AM_0
100
AcDbSpline
210
0.0
220
0.0
230
1.0
 70
     8
 71
     3
 72
     8
 73
     4
 74
     0
 42
0.0000000001
 43
0.0000000001
 40
0.0
 40
0.0
 40
0.0
 40
0.0
 40
9.246817942408423
 40
9.246817942408423
 40
9.246817942408423
 40
9.246817942408423
 10
-26.75903622039241
 20
12.22535077663738
 30
0.0
 10
-19.24974187426531
 20
12.22535077663738
 30
0.0
 10
-13.44197076718505
 20
6.116808850054649
 30
0.0
 10
-7.634199660104791
 20
0.0082669234719188
 30
0.0
  0
SPLINE
  5
2EF9
330
1F
100
AcDbEntity
  8
AM_0
100
AcDbSpline
210
0.0
220
0.0
230
1.0
 70
     8
 71
     3
 72
     8
 73
     4
 74
     0
 42
0.0000000001
 43
0.0000000001
 40
0.0
 40
0.0
 40
0.0
 40
0.0
 40
9.307120929696711
 40
9.307120929696711
 40
9.307120929696711
 40
9.307120929696711
 10
-29.41852075662481
 20
12.50826692347192
 30
0.0
 10
-21.86025465780192
 20
12.50826692347192
 30
0.0
 10
-16.07696942706983
 20
6.258266923471918
 30
0.0
 10
-10.29368419633774
 20
0.0082669234719188
 30
0.0
  0
SPLINE
  5
2EFA
330
1F
100
AcDbEntity
  8
AM_0
100
AcDbSpline
210
0.0
220
0.0
230
1.0
 70
     8
 71
     3
 72
     8
 73
     4
 74
     0
 42
0.0000000001
 43
0.0000000001
 40
0.0
 40
0.0
 40
0.0
 40
0.0
 40
8.106327806688073
 40
8.106327806688073
 40
8.106327806688073
 40
8.106327806688073
 10
-17.19661794025441
 20
12.22535077663738
 30
0.0
 10
-10.61350989749338
 20
12.22535077663738
 30
0.0
 10
-5.338082195534518
 20
7.530721867052416
 30
0.0
 10
-0.223942034722516
 20
2.257063717831494
 30
0.0
  0
SPLINE
  5
2EFB
330
1F
100
AcDbEntity
  8
AM_0
100
AcDbSpline
210
0.0
220
0.0
230
1.0
 70
     8
 71
     3
 72
     8
 73
     4
 74
     0
 42
0.0000000001
 43
0.0000000001
 40
0.0
 40
0.0
 40
0.0
 40
0.0
 40
9.307120929696711
 40
9.307120929696711
 40
9.307120929696711
 40
9.307120929696711
 10
-19.85610247648626
 20
12.50826692347192
 30
0.0
 10
-12.29783637766338
 20
12.50826692347191
 30
0.0
 10
-6.514551146931292
 20
6.258266923471918
 30
0.0
 10
-0.7312659161991985
 20
0.0082669234719174
 30
0.0
  0
ELLIPSE
  5
2EFC
330
1F
100
AcDbEntity
  8
AM_0
100
AcDbEllipse
 10
14.52910039503011
 20
-5.862082747693598
 30
0.0
 11
0.0000000000002118
 21
15.25106733077917
 31
0.0
210
0.0
220
0.0
230
1.0
 40
0.9745139648554024
 41
1.548255136437272
 42
1.782847136980358
  0
LINE
  5
2EFD
330
1F
100
AcDbEntity
  8
AM_0
100
AcDbLine
 10
-3.307701209505124
 20
-8.729780568912534
 30
0.0
 11
-3.307701209505124
 21
-8.178496216801368
 31
0.0
  0
LINE
  5
2EFE
330
1F
100
AcDbEntity
  8
AM_0
100
AcDbLine
 10
-3.307701209505124
 20
-8.178496216801368
 30
0.0
 11
-1.828989995084148
 21
-8.178496216801368
 31
0.0
  0
LINE
  5
2EFF
330
1F
100
AcDbEntity
  8
AM_0
100
AcDbLine
 10
-0.7312659162003062
 20
-9.071901925093447
 30
0.0
 11
-0.0003804425583108
 21
-9.071901925093447
 31
0.0
  0
ELLIPSE
  5
2F00
330
1F
100
AcDbEntity
  8
AM_0
100
AcDbEllipse
 10
1.548909507366591
 20
-11.117721125711
 30
0.0
 11
0.0000000000000012
 21
1.953594585177357
 31
0.0
210
0.0
220
0.0
230
1.0
 40
0.9745139648554058
 41
1.407284051194313
 42
2.19095549869394
  0
LINE
  5
2F01
330
1F
100
AcDbEntity
  8
AM_0
100
AcDbLine
 10
-0.7312659161881196
 20
-12.49173307652808
 30
0.0
 11
-0.0003804425583108
 21
-12.35948784099674
 31
0.0
  0
LINE
  5
2F02
330
1F
100
AcDbEntity
  8
AM_0
100
AcDbLine
 10
-0.3295020313756598
 20
-11.08692701150258
 30
0.0
 11
-0.2352012891448843
 21
-9.071901925093447
 31
0.0
  0
LINE
  5
2F03
330
1F
100
AcDbEntity
  8
AM_0
100
AcDbLine
 10
-0.3502759742222593
 20
-11.07273244919424
 30
0.0
 11
-3.307701209505124
 21
-8.729780568912534
 31
0.0
  0
SPLINE
  5
2F04
330
1F
100
AcDbEntity
  8
AM_0
100
AcDbSpline
210
0.0
220
0.0
230
1.0
 70
     8
 71
     3
 72
     8
 73
     4
 74
     0
 42
0.0000000001
 43
0.0000000001
 40
0.0
 40
0.0
 40
0.0
 40
0.0
 40
1.168827779827945
 40
1.168827779827945
 40
1.168827779827945
 40
1.168827779827945
 10
-10.29368419634827
 20
-12.49173307652808
 30
0.0
 10
-9.34448503472031
 20
-12.49173307652808
 30
0.0
 10
-8.423279812142229
 20
-12.39316180615259
 30
0.0
 10
-7.526552930839432
 20
-12.20839826423227
 30
0.0
  0
SPLINE
  5
2F05
330
1F
100
AcDbEntity
  8
AM_0
100
AcDbSpline
210
0.0
220
0.0
230
1.0
 70
     8
 71
     3
 72
     8
 73
     4
 74
     0
 42
0.0000000001
 43
0.0000000001
 40
0.0
 40
0.0
 40
0.0
 40
0.0
 40
1.229985673975173
 40
1.229985673975173
 40
1.229985673975173
 40
1.229985673975173
 10
-7.63419966011587
 20
-12.20881692969368
 30
0.0
 10
-6.63533448023187
 20
-12.20881692969368
 30
0.0
 10
-5.666575322518925
 20
-12.1007350096495
 30
0.0
 10
-4.723917568718603
 20
-11.8989479220937
 30
0.0
  0
SPLINE
  5
2F06
330
1F
100
AcDbEntity
  8
AM_0
100
AcDbSpline
210
0.0
220
0.0
230
1.0
 70
     8
 71
     3
 72
     8
 73
     4
 74
     0
 42
0.0000000001
 43
0.0000000001
 40
0.0
 40
0.0
 40
0.0
 40
0.0
 40
1.168827779827945
 40
1.168827779827945
 40
1.168827779827945
 40
1.168827779827945
 10
-19.84824259698097
 20
-12.50000000000001
 30
0.0
 10
-18.89904343535302
 20
-12.50000000000001
 30
0.0
 10
-17.97783821277493
 20
-12.40142872962452
 30
0.0
 10
-17.08111133147214
 20
-12.2166651877042
 30
0.0
  0
SPLINE
  5
2F07
330
1F
100
AcDbEntity
  8
AM_0
100
AcDbSpline
210
0.0
220
0.0
230
1.0
 70
     8
 71
     3
 72
     8
 73
     4
 74
     0
 42
0.0000000001
 43
0.0000000001
 40
0.0
 40
0.0
 40
0.0
 40
0.0
 40
1.168827779827945
 40
1.168827779827945
 40
1.168827779827945
 40
1.168827779827945
 10
-29.4106608771184
 20
-12.50000000000001
 30
0.0
 10
-28.46146171549044
 20
-12.50000000000001
 30
0.0
 10
-27.54025649291236
 20
-12.40142872962452
 30
0.0
 10
-26.64352961160956
 20
-12.2166651877042
 30
0.0
  0
SPLINE
  5
2F08
330
1F
100
AcDbEntity
  8
AM_0
100
AcDbSpline
210
0.0
220
0.0
230
1.0
 70
     8
 71
     3
 72
     8
 73
     4
 74
     0
 42
0.0000000001
 43
0.0000000001
 40
0.0
 40
0.0
 40
0.0
 40
0.0
 40
1.229985673975173
 40
1.229985673975173
 40
1.229985673975173
 40
1.229985673975173
 10
-26.751176340886
 20
-12.21708385316561
 30
0.0
 10
-25.752311161002
 20
-12.21708385316561
 30
0.0
 10
-24.78355200328905
 20
-12.10900193312143
 30
0.0
 10
-23.84089424948873
 20
-11.90721484556563
 30
0.0
  0
SPLINE
  5
2F09
330
1F
100
AcDbEntity
  8
AM_0
100
AcDbSpline
210
0.0
220
0.0
230
1.0
 70
     8
 71
     3
 72
     8
 73
     4
 74
     0
 42
0.0000000001
 43
0.0000000001
 40
0.0
 40
0.0
 40
0.0
 40
0.0
 40
1.229985673975173
 40
1.229985673975173
 40
1.229985673975173
 40
1.229985673975173
 10
-17.18875806074858
 20
-12.21708385316561
 30
0.0
 10
-16.18989288086457
 20
-12.21708385316561
 30
0.0
 10
-15.22113372315163
 20
-12.10900193312143
 30
0.0
 10
-14.27847596935131
 20
-11.90721484556563
 30
0.0
  0
LINE
  5
2F0A
330
1F
100
AcDbEntity
  8
AM_0
100
AcDbLine
 10
-0.0003804425583108
 20
-2.864354375099343
 30
0.0
 11
-0.3295020313756598
 21
-5.518334647595796
 31
0.0
  0
LINE
  5
2F0B
330
1F
100
AcDbEntity
  8
AM_0
100
AcDbLine
 10
-0.3295020313756598
 20
-5.518334647595796
 30
0.0
 11
-3.281984366951825
 21
-1.491733076527285
 31
0.0
  0
LINE
  5
2F0C
330
1F
100
AcDbEntity
  8
AM_0
100
AcDbLine
 10
-0.0003804425583108
 20
-12.25308133625004
 30
0.0
 11
-0.0003804425583108
 21
-2.864354375099343
 31
0.0
  0
LINE
  5
2F0D
330
1F
100
AcDbEntity
  8
AM_11
100
AcDbLine
 10
-0.0003804425583434
 20
12.50826692347191
 30
0.0
 11
-0.0003804425583109
 21
-12.49173307652808
 31
0.0
  0
SPLINE
  5
2F0E
330
1F
100
AcDbEntity
  8
AM_0
100
AcDbSpline
210
0.0
220
0.0
230
1.0
 70
     8
 71
     3
 72
     8
 73
     4
 74
     0
 42
0.0000000001
 43
0.0000000001
 40
0.0
 40
0.0
 40
0.0
 40
0.0
 40
9.307120929696711
 40
9.307120929696711
 40
9.307120929696711
 40
9.307120929696711
 10
-10.29368419632555
 20
-12.49173307652808
 30
0.0
 10
-17.85195029514842
 20
-12.49173307652808
 30
0.0
 10
-23.63523552588052
 20
-6.241733076528079
 30
0.0
 10
-29.41852075661262
 20
0.0082669234719216
 30
0.0
  0
SPLINE
  5
2F0F
330
1F
100
AcDbEntity
  8
AM_0
100
AcDbSpline
210
0.0
220
0.0
230
1.0
 70
     8
 71
     3
 72
     8
 73
     4
 74
     0
 42
0.0000000001
 43
0.0000000001
 40
0.0
 40
0.0
 40
0.0
 40
0.0
 40
9.246817942408453
 40
9.246817942408453
 40
9.246817942408453
 40
9.246817942408453
 10
-7.634199660093159
 20
-12.20881692969368
 30
0.0
 10
-15.14349400622027
 20
-12.20881692969368
 30
0.0
 10
-20.95126511330052
 20
-6.100275003110883
 30
0.0
 10
-26.75903622038077
 20
0.0082669234719202
 30
0.0
  0
SPLINE
  5
2F10
330
1F
100
AcDbEntity
  8
AM_0
100
AcDbSpline
210
0.0
220
0.0
230
1.0
 70
     8
 71
     3
 72
     8
 73
     4
 74
     0
 42
0.0000000001
 43
0.0000000001
 40
5.407991289528681
 40
5.407991289528681
 40
5.407991289528681
 40
5.407991289528681
 40
9.246817942408341
 40
9.246817942408341
 40
9.246817942408341
 40
9.246817942408341
 10
-0.2791454500959734
 20
-7.162561624972004
 30
0.0
 10
-2.811994516986663
 20
-5.063668893595098
 30
0.0
 10
-5.223097088545727
 20
-2.527700985061589
 30
0.0
 10
-7.634199660105345
 20
0.0082669234719188
 30
0.0
  0
SPLINE
  5
2F11
330
1F
100
AcDbEntity
  8
AM_0
100
AcDbSpline
210
0.0
220
0.0
230
1.0
 70
     8
 71
     3
 72
     8
 73
     4
 74
     0
 42
0.0000000001
 43
0.0000000001
 40
4.323648603745047
 40
4.323648603745047
 40
4.323648603745047
 40
4.323648603745047
 40
9.307120929696758
 40
9.307120929696758
 40
9.307120929696758
 40
9.307120929696758
 10
-0.7312659161991985
 20
-9.071901925093447
 30
0.0
 10
-4.100395827540459
 20
-6.684823726680921
 30
0.0
 10
-7.197040011939378
 20
-3.338278401604502
 30
0.0
 10
-10.29368419633774
 20
0.0082669234719188
 30
0.0
  0
SPLINE
  5
2F12
330
1F
100
AcDbEntity
  8
AM_0
100
AcDbSpline
210
0.0
220
0.0
230
1.0
 70
     8
 71
     3
 72
     8
 73
     4
 74
     0
 42
0.0000000001
 43
0.0000000001
 40
0.0
 40
0.0
 40
0.0
 40
0.0
 40
9.307120929696711
 40
9.307120929696711
 40
9.307120929696711
 40
9.307120929696711
 10
-0.7312659161881196
 20
-12.49173307652808
 30
0.0
 10
-8.289532015010991
 20
-12.49173307652808
 30
0.0
 10
-14.07281724574308
 20
-6.241733076528081
 30
0.0
 10
-19.85610247647518
 20
0.0082669234719202
 30
0.0
  0
SPLINE
  5
2F13
330
1F
100
AcDbEntity
  8
AM_0
100
AcDbSpline
210
0.0
220
0.0
230
1.0
 70
     8
 71
     3
 72
     8
 73
     4
 74
     0
 42
0.0000000001
 43
0.0000000001
 40
0.8586800831860527
 40
0.8586800831860527
 40
0.8586800831860527
 40
0.8586800831860527
 40
9.246817942408316
 40
9.246817942408316
 40
9.246817942408316
 40
9.246817942408316
 10
-0.1211145600144135
 20
-12.05567950518383
 30
0.0
 10
-6.659720814244405
 20
-11.07431134683634
 30
0.0
 10
-11.92816937724359
 20
-5.533022211682212
 30
0.0
 10
-17.19661794024278
 20
0.0082669234719202
 30
0.0
  0
SPLINE
  5
2F14
330
1F
100
AcDbEntity
  8
AM_0
100
AcDbSpline
210
0.0
220
0.0
230
1.0
 70
     8
 71
     3
 72
     8
 73
     4
 74
     0
 42
0.0000000001
 43
0.0000000001
 40
0.0
 40
0.0
 40
0.0
 40
0.0
 40
1.707928658540872
 40
1.707928658540872
 40
1.707928658540872
 40
1.707928658540872
 10
-38.98093903673786
 20
12.50826692347192
 30
0.0
 10
-40.36793931067482
 20
12.50826692347192
 30
0.0
 10
-41.69516694783715
 20
12.29779762402134
 30
0.0
 10
-42.97359068926836
 20
11.91548176903739
 30
0.0
  0
SPLINE
  5
2F15
330
1F
100
AcDbEntity
  8
AM_0
100
AcDbSpline
210
0.0
220
0.0
230
1.0
 70
     8
 71
     3
 72
     8
 73
     4
 74
     0
 42
0.0000000001
 43
0.0000000001
 40
0.0
 40
0.0
 40
0.0
 40
0.0
 40
1.707928658540872
 40
1.707928658540872
 40
1.707928658540872
 40
1.707928658540872
 10
-48.54335731687585
 20
12.50826692347192
 30
0.0
 10
-49.93035759081281
 20
12.50826692347192
 30
0.0
 10
-51.25758522797513
 20
12.29779762402134
 30
0.0
 10
-52.53600896940635
 20
11.91548176903739
 30
0.0
  0
LINE
  5
2F16
330
1F
100
AcDbEntity
  8
AM_0
100
AcDbLine
 10
-67.7141780917522
 20
12.50826692347192
 30
0.0
 11
-69.70602187478942
 21
12.50826692347192
 31
0.0
  0
SPLINE
  5
2F17
330
1F
100
AcDbEntity
  8
AM_0
100
AcDbSpline
210
0.0
220
0.0
230
1.0
 70
     8
 71
     3
 72
     8
 73
     4
 74
     0
 42
0.0000000001
 43
0.0000000001
 40
0.0
 40
0.0
 40
0.0
 40
0.0
 40
1.707928658540872
 40
1.707928658540872
 40
1.707928658540872
 40
1.707928658540872
 10
-67.66033399764492
 20
12.49999999999999
 30
0.0
 10
-69.04733427158184
 20
12.49999999999999
 30
0.0
 10
-70.37456190874419
 20
12.28953070054941
 30
0.0
 10
-71.65298565017538
 20
11.90721484556547
 30
0.0
  0
SPLINE
  5
2F18
330
1F
100
AcDbEntity
  8
AM_0
100
AcDbSpline
210
0.0
220
0.0
230
1.0
 70
     8
 71
     3
 72
     8
 73
     4
 74
     0
 42
0.0000000001
 43
0.0000000001
 40
0.0
 40
0.0
 40
0.0
 40
0.0
 40
9.307120929696711
 40
9.307120929696711
 40
9.307120929696711
 40
9.307120929696711
 10
-58.09791571753239
 20
12.49999999999999
 30
0.0
 10
-50.53964961870951
 20
12.49999999999999
 30
0.0
 10
-44.75636438797741
 20
6.249999999999992
 30
0.0
 10
-38.97307915724532
 20
-0.0000000000000074
 30
0.0
  0
SPLINE
  5
2F19
330
1F
100
AcDbEntity
  8
AM_0
100
AcDbSpline
210
0.0
220
0.0
230
1.0
 70
     8
 71
     3
 72
     8
 73
     4
 74
     0
 42
0.0000000001
 43
0.0000000001
 40
0.0
 40
0.0
 40
0.0
 40
0.0
 40
9.246817942408423
 40
9.246817942408423
 40
9.246817942408423
 40
9.246817942408423
 10
-55.43843118130054
 20
12.21708385316545
 30
0.0
 10
-47.92913683517344
 20
12.21708385316545
 30
0.0
 10
-42.12136572809318
 20
6.108541926582723
 30
0.0
 10
-36.31359462101293
 20
-0.0000000000000088
 30
0.0
  0
SPLINE
  5
2F1A
330
1F
100
AcDbEntity
  8
AM_0
100
AcDbSpline
210
0.0
220
0.0
230
1.0
 70
     8
 71
     3
 72
     8
 73
     4
 74
     0
 42
0.0000000001
 43
0.0000000001
 40
0.0
 40
0.0
 40
0.0
 40
0.0
 40
9.307120929696711
 40
9.307120929696711
 40
9.307120929696711
 40
9.307120929696711
 10
-67.66033399766981
 20
12.49999999999999
 30
0.0
 10
-60.10206789884693
 20
12.49999999999999
 30
0.0
 10
-54.31878266811484
 20
6.249999999999992
 30
0.0
 10
-48.53549743738275
 20
-0.0000000000000074
 30
0.0
  0
SPLINE
  5
2F1B
330
1F
100
AcDbEntity
  8
AM_0
100
AcDbSpline
210
0.0
220
0.0
230
1.0
 70
     8
 71
     3
 72
     8
 73
     4
 74
     0
 42
0.0000000001
 43
0.0000000001
 40
0.0
 40
0.0
 40
0.0
 40
0.0
 40
9.246817942408423
 40
9.246817942408423
 40
9.246817942408423
 40
9.246817942408423
 10
-65.00084946143797
 20
12.21708385316545
 30
0.0
 10
-57.49155511531086
 20
12.21708385316545
 30
0.0
 10
-51.6837840082306
 20
6.108541926582723
 30
0.0
 10
-45.87601290115035
 20
-0.0000000000000088
 30
0.0
  0
SPLINE
  5
2F1C
330
1F
100
AcDbEntity
  8
AM_0
100
AcDbSpline
210
0.0
220
0.0
230
1.0
 70
     8
 71
     3
 72
     8
 73
     4
 74
     0
 42
0.0000000001
 43
0.0000000001
 40
0.0
 40
0.0
 40
0.0
 40
0.0
 40
1.168827779827945
 40
1.168827779827945
 40
1.168827779827945
 40
1.168827779827945
 10
-38.97307915725587
 20
-12.50000000000001
 30
0.0
 10
-38.02387999562791
 20
-12.50000000000001
 30
0.0
 10
-37.10267477304983
 20
-12.40142872962452
 30
0.0
 10
-36.20594789174648
 20
-12.2166651877042
 30
0.0
  0
SPLINE
  5
2F1D
330
1F
100
AcDbEntity
  8
AM_0
100
AcDbSpline
210
0.0
220
0.0
230
1.0
 70
     8
 71
     3
 72
     8
 73
     4
 74
     0
 42
0.0000000001
 43
0.0000000001
 40
0.0
 40
0.0
 40
0.0
 40
0.0
 40
1.168827779827945
 40
1.168827779827945
 40
1.168827779827945
 40
1.168827779827945
 10
-48.53549743739275
 20
-12.5
 30
0.0
 10
-47.5862982757648
 20
-12.5
 30
0.0
 10
-46.66509305318672
 20
-12.40142872962452
 30
0.0
 10
-45.76836617188392
 20
-12.2166651877042
 30
0.0
  0
SPLINE
  5
2F1E
330
1F
100
AcDbEntity
  8
AM_0
100
AcDbSpline
210
0.0
220
0.0
230
1.0
 70
     8
 71
     3
 72
     8
 73
     4
 74
     0
 42
0.0000000001
 43
0.0000000001
 40
0.0
 40
0.0
 40
0.0
 40
0.0
 40
1.229985673975173
 40
1.229985673975173
 40
1.229985673975173
 40
1.229985673975173
 10
-45.87601290116036
 20
-12.21708385316561
 30
0.0
 10
-44.87714772127635
 20
-12.21708385316561
 30
0.0
 10
-43.90838856356341
 20
-12.10900193312143
 30
0.0
 10
-42.96573080976308
 20
-11.90721484556563
 30
0.0
  0
SPLINE
  5
2F1F
330
1F
100
AcDbEntity
  8
AM_0
100
AcDbSpline
210
0.0
220
0.0
230
1.0
 70
     8
 71
     3
 72
     8
 73
     4
 74
     0
 42
0.0000000001
 43
0.0000000001
 40
0.0
 40
0.0
 40
0.0
 40
0.0
 40
1.168827779827945
 40
1.168827779827945
 40
1.168827779827945
 40
1.168827779827945
 10
-58.0979157175302
 20
-12.5
 30
0.0
 10
-57.14871655590224
 20
-12.5
 30
0.0
 10
-56.22751133332416
 20
-12.40142872962452
 30
0.0
 10
-55.33078445202136
 20
-12.2166651877042
 30
0.0
  0
SPLINE
  5
2F20
330
1F
100
AcDbEntity
  8
AM_0
100
AcDbSpline
210
0.0
220
0.0
230
1.0
 70
     8
 71
     3
 72
     8
 73
     4
 74
     0
 42
0.0000000001
 43
0.0000000001
 40
0.0
 40
0.0
 40
0.0
 40
0.0
 40
1.168827779827945
 40
1.168827779827945
 40
1.168827779827945
 40
1.168827779827945
 10
-67.66033399766818
 20
-12.5
 30
0.0
 10
-66.71113483604023
 20
-12.5
 30
0.0
 10
-65.78992961346213
 20
-12.40142872962451
 30
0.0
 10
-64.89320273215881
 20
-12.2166651877042
 30
0.0
  0
SPLINE
  5
2F21
330
1F
100
AcDbEntity
  8
AM_0
100
AcDbSpline
210
0.0
220
0.0
230
1.0
 70
     8
 71
     3
 72
     8
 73
     4
 74
     0
 42
0.0000000001
 43
0.0000000001
 40
0.0
 40
0.0
 40
0.0
 40
0.0
 40
1.229985673975173
 40
1.229985673975173
 40
1.229985673975173
 40
1.229985673975173
 10
-65.00084946143523
 20
-12.21708385316561
 30
0.0
 10
-64.00198428155123
 20
-12.21708385316561
 30
0.0
 10
-63.03322512383883
 20
-12.10900193312142
 30
0.0
 10
-62.09056737003797
 20
-11.90721484556562
 30
0.0
  0
SPLINE
  5
2F22
330
1F
100
AcDbEntity
  8
AM_0
100
AcDbSpline
210
0.0
220
0.0
230
1.0
 70
     8
 71
     3
 72
     8
 73
     4
 74
     0
 42
0.0000000001
 43
0.0000000001
 40
0.0
 40
0.0
 40
0.0
 40
0.0
 40
1.229985673975173
 40
1.229985673975173
 40
1.229985673975173
 40
1.229985673975173
 10
-55.43843118129778
 20
-12.21708385316561
 30
0.0
 10
-54.4395660014138
 20
-12.21708385316561
 30
0.0
 10
-53.47080684370085
 20
-12.10900193312142
 30
0.0
 10
-52.52814908990052
 20
-11.90721484556562
 30
0.0
  0
SPLINE
  5
2F24
330
1F
100
AcDbEntity
  8
AM_0
100
AcDbSpline
210
0.0
220
0.0
230
1.0
 70
     8
 71
     3
 72
     8
 73
     4
 74
     0
 42
0.0000000001
 43
0.0000000001
 40
0.0
 40
0.0
 40
0.0
 40
0.0
 40
9.246817942408453
 40
9.246817942408453
 40
9.246817942408453
 40
9.246817942408453
 10
-45.87601290113709
 20
-12.21708385316561
 30
0.0
 10
-53.38530724726421
 20
-12.21708385316561
 30
0.0
 10
-59.19307835434445
 20
-6.108541926582809
 30
0.0
 10
-65.00084946142471
 20
-0.0000000000000061
 30
0.0
  0
SPLINE
  5
2F25
330
1F
100
AcDbEntity
  8
AM_0
100
AcDbSpline
210
0.0
220
0.0
230
1.0
 70
     8
 71
     3
 72
     8
 73
     4
 74
     0
 42
0.0000000001
 43
0.0000000001
 40
0.0
 40
0.0
 40
0.0
 40
0.0
 40
9.307120929696711
 40
9.307120929696711
 40
9.307120929696711
 40
9.307120929696711
 10
-48.53549743737005
 20
-12.5
 30
0.0
 10
-56.09376353619292
 20
-12.5
 30
0.0
 10
-61.877048766925
 20
-6.250000000000007
 30
0.0
 10
-67.6603339976571
 20
-0.0000000000000061
 30
0.0
  0
LINE
  5
2F26
330
1F
100
AcDbEntity
  8
AM_11
100
AcDbLine
 10
-65.00084257213166
 20
12.50826692347193
 30
0.0
 11
-65.00084257213163
 21
-12.49173307652806
 31
0.0
  0
SPLINE
  5
2F27
330
1F
100
AcDbEntity
  8
AM_0
100
AcDbSpline
210
0.0
220
0.0
230
1.0
 70
     8
 71
     3
 72
     8
 73
     4
 74
     0
 42
0.0000000001
 43
0.0000000001
 40
0.0
 40
0.0
 40
0.0
 40
0.0
 40
9.307120929696711
 40
9.307120929696711
 40
9.307120929696711
 40
9.307120929696711
 10
-38.97307915723261
 20
-12.50000000000001
 30
0.0
 10
-46.53134525605548
 20
-12.50000000000001
 30
0.0
 10
-52.31463048678755
 20
-6.250000000000008
 30
0.0
 10
-58.09791571751965
 20
-0.0000000000000061
 30
0.0
  0
SPLINE
  5
2F28
330
1F
100
AcDbEntity
  8
AM_0
100
AcDbSpline
210
0.0
220
0.0
230
1.0
 70
     8
 71
     3
 72
     8
 73
     4
 74
     0
 42
0.0000000001
 43
0.0000000001
 40
0.0
 40
0.0
 40
0.0
 40
0.0
 40
9.246817942408453
 40
9.246817942408453
 40
9.246817942408453
 40
9.246817942408453
 10
-36.31359462099964
 20
-12.21708385316561
 30
0.0
 10
-43.82288896712676
 20
-12.21708385316561
 30
0.0
 10
-49.63066007420703
 20
-6.10854192658281
 30
0.0
 10
-55.43843118128727
 20
-0.0000000000000074
 30
0.0
  0
SPLINE
  5
2F29
330
1F
100
AcDbEntity
  8
AM_0
100
AcDbSpline
210
0.0
220
0.0
230
1.0
 70
     8
 71
     3
 72
     8
 73
     4
 74
     0
 42
0.0000000001
 43
0.0000000001
 40
0.0
 40
0.0
 40
0.0
 40
0.0
 40
1.468225230606809
 40
1.468225230606809
 40
1.468225230606809
 40
1.468225230606809
 10
-77.2227522777818
 20
12.49999999999999
 30
0.0
 10
-78.41509060343125
 20
12.49999999999999
 30
0.0
 10
-79.56325680042522
 20
12.34446265925484
 30
0.0
 10
-80.6742191497473
 20
12.05792444287652
 30
0.0
  0
POLYLINE
  5
2F2A
330
1F
100
AcDbEntity
  8
AM_0
100
AcDb2dPolyline
 66
     1
 10
0.0
 20
0.0
 30
0.0
 70
     2
  0
VERTEX
  5
2F2B
330
2F2A
100
AcDbEntity
  8
AM_0
100
AcDbVertex
100
AcDb2dVertex
 10
-81.88484371915029
 20
7.143054889949663
 30
0.0
 42
-0.0153886058442494
  0
VERTEX
  5
2F2C
330
2F2A
100
AcDbEntity
  8
AM_0
100
AcDbVertex
100
AcDb2dVertex
 10
-82.61929925457542
 20
7.773114109325829
 30
0.0
 42
-0.0281494516019314
 70
     1
  0
VERTEX
  5
2F2D
330
2F2A
100
AcDbEntity
  8
AM_0
100
AcDbVertex
100
AcDb2dVertex
 10
-82.9903079977554
 20
8.152281591610799
 30
0.0
 42
-0.0114908448640856
  0
VERTEX
  5
2F2E
330
2F2A
100
AcDbEntity
  8
AM_0
100
AcDbVertex
100
AcDb2dVertex
 10
-83.96391906206194
 20
9.318954925721806
 30
0.0
 42
-0.0206431175108691
 70
     1
  0
VERTEX
  5
2F2F
330
2F2A
100
AcDbEntity
  8
AM_0
100
AcDbVertex
100
AcDb2dVertex
 10
-84.46426036932114
 20
10.00294873460205
 30
0.0
 42
-0.0451023741462838
  0
VERTEX
  5
2F30
330
2F2A
100
AcDbEntity
  8
AM_0
100
AcDbVertex
100
AcDb2dVertex
 10
-84.77513362918811
 20
10.56994522135056
 30
0.0
 42
-0.1054664772963733
 70
     1
  0
VERTEX
  5
2F31
330
2F2A
100
AcDbEntity
  8
AM_0
100
AcDbVertex
100
AcDb2dVertex
 10
-84.83274846228182
 20
10.84438917593217
 30
0.0
 42
-0.1705263347115351
  0
VERTEX
  5
2F32
330
2F2A
100
AcDbEntity
  8
AM_0
100
AcDbVertex
100
AcDb2dVertex
 10
-84.76542075374229
 20
11.04235365707182
 30
0.0
 42
-0.0844781481462491
 70
     1
  0
VERTEX
  5
2F33
330
2F2A
100
AcDbEntity
  8
AM_0
100
AcDbVertex
100
AcDb2dVertex
 10
-84.46426036932114
 20
11.31816997661502
 30
0.0
 42
-0.0786463695672426
  0
VERTEX
  5
2F34
330
2F2A
100
AcDbEntity
  8
AM_0
100
AcDbVertex
100
AcDb2dVertex
 10
-84.01082527070778
 20
11.51661329701169
 30
0.0
 42
-0.0372523989117619
 70
     1
  0
VERTEX
  5
2F35
330
2F2A
100
AcDbEntity
  8
AM_0
100
AcDbVertex
100
AcDb2dVertex
 10
-82.99030799747731
 20
11.69819855736647
 30
0.0
 42
-0.0449505637244585
  0
VERTEX
  5
2F36
330
2F2A
100
AcDbEntity
  8
AM_0
100
AcDbVertex
100
AcDb2dVertex
 10
-82.50597987120558
 20
11.70186717413031
 30
0.0
 42
-0.0346201416961743
 70
     1
  0
VERTEX
  5
2F37
330
2F2A
100
AcDbEntity
  8
AM_0
100
AcDbVertex
100
AcDb2dVertex
 10
-81.88484371859415
 20
11.60444633743494
 30
0.0
  0
SEQEND
  5
2F38
330
2F2A
100
AcDbEntity
  8
AM_0
  0
SPLINE
  5
2F39
330
1F
100
AcDbEntity
  8
AM_0
100
AcDbSpline
210
0.0
220
0.0
230
1.0
 70
     8
 71
     3
 72
     8
 73
     4
 74
     0
 42
0.0000000001
 43
0.0000000001
 40
8.753189425647919
 40
8.753189425647919
 40
8.753189425647919
 40
8.753189425647919
 40
9.307120929696711
 40
9.307120929696711
 40
9.307120929696711
 40
9.307120929696711
 10
-78.25573708075058
 20
1.114625263034408
 30
0.0
 10
-77.91115933952778
 20
0.7439619462252227
 30
0.0
 10
-77.56695580866116
 20
0.3719809731126103
 30
0.0
 10
-77.22275227779454
 20
-0.0000000000000047
 30
0.0
  0
SPLINE
  5
2F3A
330
1F
100
AcDbEntity
  8
AM_0
100
AcDbSpline
210
0.0
220
0.0
230
1.0
 70
     8
 71
     3
 72
     8
 73
     4
 74
     0
 42
0.0000000001
 43
0.0000000001
 40
5.424908244817789
 40
5.424908244817789
 40
5.424908244817789
 40
5.424908244817789
 40
9.246817942408325
 40
9.246817942408325
 40
9.246817942408325
 40
9.246817942408325
 10
-81.8848437285674
 20
7.14305489753428
 30
0.0
 10
-79.36422237347584
 20
5.049584791817661
 30
0.0
 10
-76.96374505751896
 20
2.524792395908826
 30
0.0
 10
-74.56326774156213
 20
-0.0000000000000047
 30
0.0
  0
POLYLINE
  5
2F3B
330
1F
100
AcDbEntity
  8
AM_0
100
AcDb2dPolyline
 66
     1
 10
0.0
 20
0.0
 30
0.0
 70
     2
  0
VERTEX
  5
2F3C
330
2F3B
100
AcDbEntity
  8
AM_0
100
AcDbVertex
100
AcDb2dVertex
 10
-78.25573708058995
 20
-5.881537641136423
 30
0.0
 42
-0.0119583190993231
  0
VERTEX
  5
2F3D
330
2F3B
100
AcDbEntity
  8
AM_0
100
AcDbVertex
100
AcDb2dVertex
 10
-79.94282265492012
 20
-3.986461176964158
 30
0.0
 42
-0.0231314362402824
 70
     1
  0
VERTEX
  5
2F3E
330
2F3B
100
AcDbEntity
  8
AM_0
100
AcDbVertex
100
AcDb2dVertex
 10
-80.74622933201631
 20
-2.946011999009389
 30
0.0
 42
-0.0075575501505489
  0
VERTEX
  5
2F3F
330
2F3B
100
AcDbEntity
  8
AM_0
100
AcDbVertex
100
AcDb2dVertex
 10
-82.89378860759876
 20
0.2157799440092806
 30
0.0
 42
-0.0130089343126809
 70
     1
  0
VERTEX
  5
2F40
330
2F3B
100
AcDbEntity
  8
AM_0
100
AcDbVertex
100
AcDb2dVertex
 10
-84.06688566725348
 20
2.103927040877802
 30
0.0
 42
-0.0396601587107602
  0
VERTEX
  5
2F41
330
2F3B
100
AcDbEntity
  8
AM_0
100
AcDbVertex
100
AcDb2dVertex
 10
-84.83152162183527
 20
3.678598542788617
 30
0.0
 42
-0.1302552165930482
 70
     1
  0
VERTEX
  5
2F42
330
2F3B
100
AcDbEntity
  8
AM_0
100
AcDbVertex
100
AcDb2dVertex
 10
-84.89704975106482
 20
4.218340438638105
 30
0.0
 42
-0.2386227764452401
  0
VERTEX
  5
2F43
330
2F3B
100
AcDbEntity
  8
AM_0
100
AcDbVertex
100
AcDb2dVertex
 10
-84.70037416617232
 20
4.511075657757855
 30
0.0
 42
-0.121168591673844
 70
     1
  0
VERTEX
  5
2F44
330
2F3B
100
AcDbEntity
  8
AM_0
100
AcDbVertex
100
AcDb2dVertex
 10
-84.06688566725348
 20
4.68230467946284
 30
0.0
 42
-0.1113949166525614
  0
VERTEX
  5
2F45
330
2F3B
100
AcDbEntity
  8
AM_0
100
AcDbVertex
100
AcDb2dVertex
 10
-83.32153082577482
 20
4.522893610338056
 30
0.0
 42
-0.0288027903717024
 70
     1
  0
VERTEX
  5
2F46
330
2F3B
100
AcDbEntity
  8
AM_0
100
AcDbVertex
100
AcDb2dVertex
 10
-80.74622933209495
 20
3.130447091658933
 30
0.0
 42
-0.031341807302757
  0
VERTEX
  5
2F47
330
2F3B
100
AcDbEntity
  8
AM_0
100
AcDbVertex
100
AcDb2dVertex
 10
-79.51404021416976
 20
2.255732066279843
 30
0.0
 42
-0.027958764183412
 70
     1
  0
VERTEX
  5
2F48
330
2F3B
100
AcDbEntity
  8
AM_0
100
AcDbVertex
100
AcDb2dVertex
 10
-78.25573708074727
 20
1.114625263030569
 30
0.0
  0
SEQEND
  5
2F49
330
2F3B
100
AcDbEntity
  8
AM_0
  0
SPLINE
  5
2F4A
330
1F
100
AcDbEntity
  8
AM_0
100
AcDbSpline
210
0.0
220
0.0
230
1.0
 70
     8
 71
     3
 72
     8
 73
     4
 74
     0
 42
0.0000000001
 43
0.0000000001
 40
0.0
 40
0.0
 40
0.0
 40
0.0
 40
9.307120929696704
 40
9.307120929696704
 40
9.307120929696704
 40
9.307120929696704
 10
-84.12568602171173
 20
12.5
 30
0.0
 10
-76.56741992288887
 20
12.49999999999999
 30
0.0
 10
-70.78413469215679
 20
6.249999999999995
 30
0.0
 10
-65.00084946142471
 20
-0.0000000000000061
 30
0.0
  0
SPLINE
  5
2F4B
330
1F
100
AcDbEntity
  8
AM_0
100
AcDbSpline
210
0.0
220
0.0
230
1.0
 70
     8
 71
     3
 72
     8
 73
     4
 74
     0
 42
0.0000000001
 43
0.0000000001
 40
2.115787571663744
 40
2.115787571663744
 40
2.115787571663744
 40
2.115787571663744
 40
9.307120929696807
 40
9.307120929696807
 40
9.307120929696807
 40
9.307120929696807
 10
-81.88484371859415
 20
11.6044463374348
 30
0.0
 10
-76.59747628106334
 20
9.658375307941891
 30
0.0
 10
-72.12890513936023
 20
4.829187653970871
 30
0.0
 10
-67.6603339976571
 20
-0.0000000000000061
 30
0.0
  0
SPLINE
  5
2F4C
330
1F
100
AcDbEntity
  8
AM_0
100
AcDbSpline
210
0.0
220
0.0
230
1.0
 70
     8
 71
     3
 72
     8
 73
     4
 74
     0
 42
0.0000000001
 43
0.0000000001
 40
0.0
 40
0.0
 40
0.0
 40
0.0
 40
9.307120929696711
 40
9.307120929696711
 40
9.307120929696711
 40
9.307120929696711
 10
-58.09791571750747
 20
-12.5
 30
0.0
 10
-65.65618181633036
 20
-12.5
 30
0.0
 10
-71.43946704706246
 20
-6.250000000000005
 30
0.0
 10
-77.22275227779454
 20
-0.0000000000000047
 30
0.0
  0
SPLINE
  5
2F4D
330
1F
100
AcDbEntity
  8
AM_0
100
AcDbSpline
210
0.0
220
0.0
230
1.0
 70
     8
 71
     3
 72
     8
 73
     4
 74
     0
 42
0.0000000001
 43
0.0000000001
 40
0.0
 40
0.0
 40
0.0
 40
0.0
 40
9.246817942408453
 40
9.246817942408453
 40
9.246817942408453
 40
9.246817942408453
 10
-55.43843118127509
 20
-12.21708385316561
 30
0.0
 10
-62.94772552740218
 20
-12.21708385316561
 30
0.0
 10
-68.75549663448243
 20
-6.108541926582807
 30
0.0
 10
-74.56326774156268
 20
-0.0000000000000047
 30
0.0
  0
SPLINE
  5
2F4E
330
1F
100
AcDbEntity
  8
AM_0
100
AcDbSpline
210
0.0
220
0.0
230
1.0
 70
     8
 71
     3
 72
     8
 73
     4
 74
     0
 42
0.0000000001
 43
0.0000000001
 40
0.0
 40
0.0
 40
0.0
 40
0.0
 40
6.164977837388276
 40
6.164977837388276
 40
6.164977837388276
 40
6.164977837388276
 10
-65.00084946141197
 20
-12.21708385316561
 30
0.0
 10
-70.00739695771144
 20
-12.21708385316561
 30
0.0
 10
-74.25760577573692
 20
-9.501795327621925
 30
0.0
 10
-78.25573708058995
 20
-5.881537641136564
 30
0.0
  0
SPLINE
  5
2F4F
330
1F
100
AcDbEntity
  8
AM_0
100
AcDbSpline
210
0.0
220
0.0
230
1.0
 70
     8
 71
     3
 72
     8
 73
     4
 74
     0
 42
0.0000000001
 43
0.0000000001
 40
0.0
 40
0.0
 40
0.0
 40
0.0
 40
9.307120929696711
 40
9.307120929696711
 40
9.307120929696711
 40
9.307120929696711
 10
-77.22275227780674
 20
12.49999999999999
 30
0.0
 10
-69.66448617898386
 20
12.49999999999999
 30
0.0
 10
-63.88120094825175
 20
6.249999999999992
 30
0.0
 10
-58.09791571751965
 20
-0.0000000000000061
 30
0.0
  0
SPLINE
  5
2F50
330
1F
100
AcDbEntity
  8
AM_0
100
AcDbSpline
210
0.0
220
0.0
230
1.0
 70
     8
 71
     3
 72
     8
 73
     4
 74
     0
 42
0.0000000001
 43
0.0000000001
 40
0.0
 40
0.0
 40
0.0
 40
0.0
 40
9.246817942408423
 40
9.246817942408423
 40
9.246817942408423
 40
9.246817942408423
 10
-74.56326774157432
 20
12.21708385316545
 30
0.0
 10
-67.05397339544724
 20
12.21708385316545
 30
0.0
 10
-61.24620228836697
 20
6.108541926582723
 30
0.0
 10
-55.43843118128671
 20
-0.0000000000000074
 30
0.0
  0
SPLINE
  5
2F51
330
1F
100
AcDbEntity
  8
AM_0
100
AcDbSpline
210
0.0
220
0.0
230
1.0
 70
     8
 71
     3
 72
     8
 73
     4
 74
     0
 42
0.0000000001
 43
0.0000000001
 40
0.0
 40
0.0
 40
0.0
 40
0.0
 40
9.246817942408229
 40
9.246817942408229
 40
9.246817942408229
 40
9.246817942408229
 10
-36.32145450052984
 20
12.22535077663738
 30
0.0
 10
-28.81216015440291
 20
12.22535077663738
 30
0.0
 10
-23.00438904732284
 20
6.116808850054649
 30
0.0
 10
-17.19661794024278
 20
0.0082669234719202
 30
0.0
  0
SPLINE
  5
2F52
330
1F
100
AcDbEntity
  8
AM_0
100
AcDbSpline
210
0.0
220
0.0
230
1.0
 70
     8
 71
     3
 72
     8
 73
     4
 74
     0
 42
0.0000000001
 43
0.0000000001
 40
0.0
 40
0.0
 40
0.0
 40
0.0
 40
9.246817942408423
 40
9.246817942408423
 40
9.246817942408423
 40
9.246817942408423
 10
-45.88387278066783
 20
12.22535077663738
 30
0.0
 10
-38.37457843454073
 20
12.22535077663738
 30
0.0
 10
-32.56680732746047
 20
6.116808850054652
 30
0.0
 10
-26.75903622038021
 20
0.0082669234719202
 30
0.0
  0
SPLINE
  5
2F53
330
1F
100
AcDbEntity
  8
AM_0
100
AcDbSpline
210
0.0
220
0.0
230
1.0
 70
     8
 71
     3
 72
     8
 73
     4
 74
     0
 42
0.0000000001
 43
0.0000000001
 40
0.0
 40
0.0
 40
0.0
 40
0.0
 40
9.307120929696711
 40
9.307120929696711
 40
9.307120929696711
 40
9.307120929696711
 10
-38.98093903676224
 20
12.50826692347192
 30
0.0
 10
-31.42267293793937
 20
12.50826692347192
 30
0.0
 10
-25.63938770720728
 20
6.258266923471918
 30
0.0
 10
-19.85610247647518
 20
0.0082669234719202
 30
0.0
  0
SPLINE
  5
2F54
330
1F
100
AcDbEntity
  8
AM_0
100
AcDbSpline
210
0.0
220
0.0
230
1.0
 70
     8
 71
     3
 72
     8
 73
     4
 74
     0
 42
0.0000000001
 43
0.0000000001
 40
0.0
 40
0.0
 40
0.0
 40
0.0
 40
9.307120929696711
 40
9.307120929696711
 40
9.307120929696711
 40
9.307120929696711
 10
-48.54335731689968
 20
12.50826692347192
 30
0.0
 10
-40.9850912180768
 20
12.50826692347192
 30
0.0
 10
-35.2018059873447
 20
6.258266923471921
 30
0.0
 10
-29.41852075661262
 20
0.0082669234719216
 30
0.0
  0
LINE
  5
2F55
330
1F
100
AcDbEntity
  8
AM_11
100
AcDbLine
 10
-0.0003804425583434
 20
12.50826692347191
 30
0.0
 11
-65.00084257213166
 21
12.50826692347193
 31
0.0
  0
LINE
  5
2F56
330
1F
100
AcDbEntity
  8
AM_11
100
AcDbLine
 10
-65.00084257213163
 20
-12.49173307652806
 30
0.0
 11
-0.0003804425583109
 21
-12.49173307652808
 31
0.0
  0
SPLINE
  5
2F57
330
1F
100
AcDbEntity
  8
AM_0
100
AcDbSpline
210
0.0
220
0.0
230
1.0
 70
     8
 71
     3
 72
     8
 73
     4
 74
     0
 42
0.0000000001
 43
0.0000000001
 40
0.0
 40
0.0
 40
0.0
 40
0.0
 40
1.229985673975173
 40
1.229985673975173
 40
1.229985673975173
 40
1.229985673975173
 10
-36.31359462102292
 20
-12.21708385316561
 30
0.0
 10
-35.31472944113891
 20
-12.21708385316561
 30
0.0
 10
-34.34597028342653
 20
-12.10900193312143
 30
0.0
 10
-33.40331252962565
 20
-11.90721484556563
 30
0.0
  0
SPLINE
  5
2F58
330
1F
100
AcDbEntity
  8
AM_0
100
AcDbSpline
210
0.0
220
0.0
230
1.0
 70
     8
 71
     3
 72
     8
 73
     4
 74
     0
 42
0.0000000001
 43
0.0000000001
 40
0.0
 40
0.0
 40
0.0
 40
0.0
 40
9.246817942408453
 40
9.246817942408453
 40
9.246817942408453
 40
9.246817942408453
 10
-17.18875806072586
 20
-12.21708385316561
 30
0.0
 10
-24.69805240685298
 20
-12.21708385316561
 30
0.0
 10
-30.50582351393323
 20
-6.108541926582812
 30
0.0
 10
-36.31359462101348
 20
-0.0000000000000088
 30
0.0
  0
SPLINE
  5
2F59
330
1F
100
AcDbEntity
  8
AM_0
100
AcDbSpline
210
0.0
220
0.0
230
1.0
 70
     8
 71
     3
 72
     8
 73
     4
 74
     0
 42
0.0000000001
 43
0.0000000001
 40
0.0
 40
0.0
 40
0.0
 40
0.0
 40
9.307120929696711
 40
9.307120929696711
 40
9.307120929696711
 40
9.307120929696711
 10
-19.84824259695826
 20
-12.50000000000001
 30
0.0
 10
-27.40650869578113
 20
-12.50000000000001
 30
0.0
 10
-33.18979392651323
 20
-6.250000000000008
 30
0.0
 10
-38.97307915724532
 20
-0.0000000000000074
 30
0.0
  0
SPLINE
  5
2F5A
330
1F
100
AcDbEntity
  8
AM_0
100
AcDbSpline
210
0.0
220
0.0
230
1.0
 70
     8
 71
     3
 72
     8
 73
     4
 74
     0
 42
0.0000000001
 43
0.0000000001
 40
0.0
 40
0.0
 40
0.0
 40
0.0
 40
9.246817942408453
 40
9.246817942408453
 40
9.246817942408453
 40
9.246817942408453
 10
-26.75117634086328
 20
-12.21708385316561
 30
0.0
 10
-34.26047068699041
 20
-12.21708385316561
 30
0.0
 10
-40.06824179407066
 20
-6.108541926582812
 30
0.0
 10
-45.87601290115091
 20
-0.0000000000000088
 30
0.0
  0
SPLINE
  5
2F5B
330
1F
100
AcDbEntity
  8
AM_0
100
AcDbSpline
210
0.0
220
0.0
230
1.0
 70
     8
 71
     3
 72
     8
 73
     4
 74
     0
 42
0.0000000001
 43
0.0000000001
 40
0.0
 40
0.0
 40
0.0
 40
0.0
 40
9.307120929696711
 40
9.307120929696711
 40
9.307120929696711
 40
9.307120929696711
 10
-29.41066087709568
 20
-12.50000000000001
 30
0.0
 10
-36.96892697591856
 20
-12.50000000000001
 30
0.0
 10
-42.75221220665065
 20
-6.250000000000008
 30
0.0
 10
-48.53549743738275
 20
-0.0000000000000074
 30
0.0
  0
SPLINE
  5
2F5C
330
1F
100
AcDbEntity
  8
AM_0
100
AcDbSpline
210
0.0
220
0.0
230
1.0
 70
     8
 71
     3
 72
     8
 73
     4
 74
     0
 42
0.0000000001
 43
0.0000000001
 40
0.0
 40
0.0
 40
0.0
 40
0.0
 40
1.707928658540872
 40
1.707928658540872
 40
1.707928658540872
 40
1.707928658540872
 10
-58.09791571750855
 20
12.49999999999999
 30
0.0
 10
-59.48491599144551
 20
12.49999999999999
 30
0.0
 10
-60.81214362860784
 20
12.28953070054941
 30
0.0
 10
-62.09056737003905
 20
11.90721484556547
 30
0.0
  0
VIEWPORT
  5
110
330
101
100
AcDbEntity
 67
     1
  8
0
100
AcDbViewport
 10
420.5
 20
297.0
 30
0.0
 40
948.9782706766916
 41
628.452
 68
     1
 69
     1
1001
ACAD
1000
MVIEW
1002
{
1070
    16
1010
0.0
1020
0.0
1030
0.0
1010
0.0
1020
0.0
1030
1.0
1040
0.0
1040
628.452
1040
420.5
1040
297.0
1040
50.0
1040
0.0
1040
0.0
1070
     0
1070
   100
1070
     1
1070
     1
1070
     0
1070
     0
1070
     0
1070
     0
1040
0.0
1040
0.0
1040
0.0
1040
10.0
1040
10.0
1040
10.0
1040
10.0
1070
     0
1002
{
1002
}
1002
}
  0
ENDSEC
  0
SECTION
  2
OBJECTS
  0
DICTIONARY
  5
C
330
0
100
AcDbDictionary
  3
ACAD_GROUP
350
D
  3
ACAD_LAYOUT
350
1A
  3
ACAD_MLINESTYLE
350
17
  3
ACAD_PLOTSETTINGS
350
19
  3
ACAD_PLOTSTYLENAME
350
E
  3
ACDBVARIABLEDICTIONARY
350
34
  3
ACMDICTIONARY
350
43
  3
AMG
350
2B
  3
AMGSNAPSETTINGS
350
6E
  3
DWGPROPS
350
2F6E
  3
ACDBHEADERROUNDTRIPXREC
350
2F7B
  0
DICTIONARY
  5
74
330
1F
100
AcDbDictionary
280
     1
  3
ACAD_INDEX
360
2F70
  3
ACAD_LAYOUTSELFREF
360
2F9E
  0
DICTIONARY
  5
2FA3
330
101
100
AcDbDictionary
280
     1
  3
ACAD_LAYOUTSELFREF
360
2FA4
  0
DICTIONARY
  5
D
102
{ACAD_REACTORS
330
C
102
}
330
C
100
AcDbDictionary
  0
DICTIONARY
  5
1A
102
{ACAD_REACTORS
330
C
102
}
330
C
100
AcDbDictionary
  0
DICTIONARY
  5
17
102
{ACAD_REACTORS
330
C
102
}
330
C
100
AcDbDictionary
  3
STANDARD
350
18
  0
DICTIONARY
  5
19
102
{ACAD_REACTORS
330
C
102
}
330
C
100
AcDbDictionary
  0
ACDBDICTIONARYWDFLT
  5
E
102
{ACAD_REACTORS
330
C
102
}
330
C
100
AcDbDictionary
281
     1
  3
Normal
350
F
100
AcDbDictionaryWithDefault
340
F
  0
DICTIONARY
  5
34
102
{ACAD_REACTORS
330
C
102
}
330
C
100
AcDbDictionary
  3
INDEXCTL
350
35
  3
SORTENTS
350
B5E
  0
DICTIONARY
  5
43
102
{ACAD_REACTORS
330
C
102
}
330
C
100
AcDbDictionary
  3
ACMSTDDICTIONARY
350
260
  0
DICTIONARY
  5
2B
102
{ACAD_REACTORS
330
C
102
}
330
C
100
AcDbDictionary
  3
ACMGSETTINGS
350
2C
  0
DICTIONARY
  5
6E
102
{ACAD_REACTORS
330
C
102
}
330
C
100
AcDbDictionary
  0
XRECORD
  5
2F6E
102
{ACAD_REACTORS
330
C
102
}
330
C
100
AcDbXrecord
  1
DWGPROPS COOKIE
  2

  3

  4

  6

  7

  8

  9

300
AmdtFileType=82
301
=
302
=
303
=
304
=
305
=
306
=
307
=
308
=
309
=
 40
0.1700587152777778
 41
2452838.620506898
 42
2452839.738850741
  1

 90
        1
  0
DICTIONARY
  5
2F7B
102
{ACAD_REACTORS
330
C
102
}
330
C
100
AcDbDictionary
  3
TSTACKALIGN
350
2F7C
  3
TSTACKSIZE
350
2F7D
  3
HYPERLINKBASE
350
2F7E
  3
STYLESHEET
350
2F7F
  3
LAYOUTDICT
350
2F80
  3
PLOTSETDICT
350
2F81
  3
PLOTSTYLNAMDICT
350
2F82
  3
LWETCUNION
350
2F83
  3
INSUNITS
350
2F84
  3
CEPSNTYPE
350
2F85
  3
FINGERPRINTGUID
350
2F86
  3
VERSIONGUID
350
2F87
  3
PSVPSCALE
350
2F88
  3
DIMSTYLEDATA
350
2F89
  3
PUCSORTHOREF
350
2F8A
  3
PUCSORTHOVIEW
350
2F8B
  3
PUCSBASE
350
2F8C
  3
PUCSORGTOP
350
2F8D
  3
PUCSORGBOTTOM
350
2F8E
  3
PUCSORGLEFT
350
2F8F
  3
PUCSORGRIGHT
350
2F90
  3
PUCSORGFRONT
350
2F91
  3
PUCSORGBACK
350
2F92
  3
UCSORTHOREF
350
2F93
  3
UCSORTHOVIEW
350
2F94
  3
UCSBASE
350
2F95
  3
UCSORGTOP
350
2F96
  3
UCSORGBOTTOM
350
2F97
  3
UCSORGLEFT
350
2F98
  3
UCSORGRIGHT
350
2F99
  3
UCSORGFRONT
350
2F9A
  3
UCSORGBACK
350
2F9B
  0
DICTIONARY
  5
2F70
102
{ACAD_REACTORS
330
74
102
}
330
74
100
AcDbDictionary
  3
*A1
350
2F71
  0
XRECORD
  5
2F9E
102
{ACAD_REACTORS
330
74
102
}
330
74
100
AcDbXrecord
340
1F
  0
XRECORD
  5
2FA4
102
{ACAD_REACTORS
330
2FA3
102
}
330
2FA3
100
AcDbXrecord
340
101
  0
MLINESTYLE
  5
18
102
{ACAD_REACTORS
330
17
102
}
330
17
100
AcDbMlineStyle
  2
STANDARD
 70
     0
  3

 62
   256
 51
90.0
 52
90.0
 71
     2
 49
0.5
 62
   256
  6
BYLAYER
 49
-0.5
 62
   256
  6
BYLAYER
  0
ACDBPLACEHOLDER
  5
F
102
{ACAD_REACTORS
330
E
102
}
330
E
100
AcDbPlaceHolder
280
     0
  0
DICTIONARYVAR
  5
35
102
{ACAD_REACTORS
330
34
102
}
330
34
100
DictionaryVariables
280
     0
  1
1
  0
DICTIONARYVAR
  5
B5E
102
{ACAD_REACTORS
330
34
102
}
330
34
100
DictionaryVariables
280
     0
  1
96
  0
DICTIONARY
  5
260
102
{ACAD_REACTORS
330
43
102
}
330
43
100
AcDbDictionary
  0
DICTIONARY
  5
2C
102
{ACAD_REACTORS
330
2B
102
}
330
2B
100
AcDbDictionary
  3
DWGSETTINGS
350
2D
  0
XRECORD
  5
2F7C
102
{ACAD_REACTORS
330
2F7B
102
}
330
2F7B
100
AcDbXrecord
 90
        1
  0
XRECORD
  5
2F7D
102
{ACAD_REACTORS
330
2F7B
102
}
330
2F7B
100
AcDbXrecord
 90
       70
  0
XRECORD
  5
2F7E
102
{ACAD_REACTORS
330
2F7B
102
}
330
2F7B
100
AcDbXrecord
  1

  0
XRECORD
  5
2F7F
102
{ACAD_REACTORS
330
2F7B
102
}
330
2F7B
100
AcDbXrecord
  1
ACAD_M_9400.ctb
  0
XRECORD
  5
2F80
102
{ACAD_REACTORS
330
2F7B
102
}
330
2F7B
100
AcDbXrecord
340
1A
  0
XRECORD
  5
2F81
102
{ACAD_REACTORS
330
2F7B
102
}
330
2F7B
100
AcDbXrecord
340
19
  0
XRECORD
  5
2F82
102
{ACAD_REACTORS
330
2F7B
102
}
330
2F7B
100
AcDbXrecord
340
E
  0
XRECORD
  5
2F83
102
{ACAD_REACTORS
330
2F7B
102
}
330
2F7B
100
AcDbXrecord
 90
    10781
  0
XRECORD
  5
2F84
102
{ACAD_REACTORS
330
2F7B
102
}
330
2F7B
100
AcDbXrecord
 90
        4
  0
XRECORD
  5
2F85
102
{ACAD_REACTORS
330
2F7B
102
}
330
2F7B
100
AcDbXrecord
 90
        0
  0
XRECORD
  5
2F86
102
{ACAD_REACTORS
330
2F7B
102
}
330
2F7B
100
AcDbXrecord
  1
{AFB28963-8C59-40AE-9337-C84526B81ACE}
  0
XRECORD
  5
2F87
102
{ACAD_REACTORS
330
2F7B
102
}
330
2F7B
100
AcDbXrecord
  1
{B44A1A47-1DDB-4A73-8484-4B7E9F6B9573}
  0
XRECORD
  5
2F88
102
{ACAD_REACTORS
330
2F7B
102
}
330
2F7B
100
AcDbXrecord
 40
0.0
  0
XRECORD
  5
2F89
102
{ACAD_REACTORS
330
2F7B
102
}
330
2F7B
100
AcDbXrecord
1000
DSTYLE
1002
{
1070
    79
 70
     2
1070
   341
340
59
1070
   342
340
59
1070
   371
 70
    -1
1070
   372
 70
    -1
1002
}
  0
XRECORD
  5
2F8A
102
{ACAD_REACTORS
330
2F7B
102
}
330
2F7B
100
AcDbXrecord
340
0
  0
XRECORD
  5
2F8B
102
{ACAD_REACTORS
330
2F7B
102
}
330
2F7B
100
AcDbXrecord
 70
     0
  0
XRECORD
  5
2F8C
102
{ACAD_REACTORS
330
2F7B
102
}
330
2F7B
100
AcDbXrecord
340
0
  0
XRECORD
  5
2F8D
102
{ACAD_REACTORS
330
2F7B
102
}
330
2F7B
100
AcDbXrecord
 10
0.0
 20
0.0
 30
0.0
  0
XRECORD
  5
2F8E
102
{ACAD_REACTORS
330
2F7B
102
}
330
2F7B
100
AcDbXrecord
 10
0.0
 20
0.0
 30
0.0
  0
XRECORD
  5
2F8F
102
{ACAD_REACTORS
330
2F7B
102
}
330
2F7B
100
AcDbXrecord
 10
0.0
 20
0.0
 30
0.0
  0
XRECORD
  5
2F90
102
{ACAD_REACTORS
330
2F7B
102
}
330
2F7B
100
AcDbXrecord
 10
0.0
 20
0.0
 30
0.0
  0
XRECORD
  5
2F91
102
{ACAD_REACTORS
330
2F7B
102
}
330
2F7B
100
AcDbXrecord
 10
0.0
 20
0.0
 30
0.0
  0
XRECORD
  5
2F92
102
{ACAD_REACTORS
330
2F7B
102
}
330
2F7B
100
AcDbXrecord
 10
0.0
 20
0.0
 30
0.0
  0
XRECORD
  5
2F93
102
{ACAD_REACTORS
330
2F7B
102
}
330
2F7B
100
AcDbXrecord
340
0
  0
XRECORD
  5
2F94
102
{ACAD_REACTORS
330
2F7B
102
}
330
2F7B
100
AcDbXrecord
 70
     0
  0
XRECORD
  5
2F95
102
{ACAD_REACTORS
330
2F7B
102
}
330
2F7B
100
AcDbXrecord
340
0
  0
XRECORD
  5
2F96
102
{ACAD_REACTORS
330
2F7B
102
}
330
2F7B
100
AcDbXrecord
 10
0.0
 20
0.0
 30
0.0
  0
XRECORD
  5
2F97
102
{ACAD_REACTORS
330
2F7B
102
}
330
2F7B
100
AcDbXrecord
 10
0.0
 20
0.0
 30
0.0
  0
XRECORD
  5
2F98
102
{ACAD_REACTORS
330
2F7B
102
}
330
2F7B
100
AcDbXrecord
 10
0.0
 20
0.0
 30
0.0
  0
XRECORD
  5
2F99
102
{ACAD_REACTORS
330
2F7B
102
}
330
2F7B
100
AcDbXrecord
 10
0.0
 20
0.0
 30
0.0
  0
XRECORD
  5
2F9A
102
{ACAD_REACTORS
330
2F7B
102
}
330
2F7B
100
AcDbXrecord
 10
0.0
 20
0.0
 30
0.0
  0
XRECORD
  5
2F9B
102
{ACAD_REACTORS
330
2F7B
102
}
330
2F7B
100
AcDbXrecord
 10
0.0
 20
0.0
 30
0.0
  0
LAYER_INDEX
  5
2F71
102
{ACAD_REACTORS
330
2F70
102
}
330
2F70
100
AcDbIndex
 40
2453152.452571585
100
AcDbLayerIndex
  8
0
360
2F72
 90
        1
  8
AM_0
360
2F73
 90
       96
  8
AM_11
360
2F74
 90
        4
  8
AM_7
360
2F75
 90
        1
  8
AM_5
360
2F76
 90
        4
  8
Defpoints
360
2F77
 90
        0
  8
AM_6
360
2F78
 90
        1
  8
AM_CL
360
2F79
 90
        0
  0
XRECORD
  5
2D
102
{ACAD_REACTORS
330
2C
102
}
330
2C
100
AcDbXrecord
  1
VERSION
140
15.0
  1
PRODUCT
  2
AutoCAD Mechanical 2000
  0
IDBUFFER
  5
2F72
330
0
100
AcDbIdBuffer
330
2B33
  0
IDBUFFER
  5
2F73
330
0
100
AcDbIdBuffer
330
2F0C
330
2F0E
330
2F0F
330
2F10
330
2F11
330
2F12
330
2F13
330
2F14
330
2F15
330
2F16
330
2F17
330
2F18
330
2F19
330
2F1A
330
2F1B
330
2F1C
330
2F1D
330
2F1E
330
2F1F
330
2F20
330
2F21
330
2F22
330
2F24
330
2F25
330
2F27
330
2F28
330
2F29
330
2F2A
330
2F39
330
2F3A
330
2F3B
330
2F4A
330
2F4B
330
2F4C
330
2F4D
330
2F4E
330
2F4F
330
2F50
330
2F51
330
2F52
330
2F53
330
2F54
330
2F57
330
2F58
330
2F59
330
2F5A
330
2F5B
330
2F5C
330
2B2F
330
2B30
330
2B31
330
2B32
330
2B34
330
2B35
330
2B36
330
2EE3
330
2EE4
330
2EE5
330
2EE6
330
2EE7
330
2EE8
330
2EE9
330
2EEA
330
2EEB
330
2EEC
330
2EED
330
2EEE
330
2EEF
330
2EF0
330
2EF1
330
2EF2
330
2EF3
330
2EF4
330
2EF5
330
2EF6
330
2EF7
330
2EF8
330
2EF9
330
2EFA
330
2EFB
330
2EFC
330
2EFD
330
2EFE
330
2EFF
330
2F00
330
2F01
330
2F02
330
2F03
330
2F04
330
2F05
330
2F06
330
2F07
330
2F08
330
2F09
330
2F0A
330
2F0B
  0
IDBUFFER
  5
2F74
330
0
100
AcDbIdBuffer
330
2F0D
330
2F26
330
2F55
330
2F56
  0
IDBUFFER
  5
2F75
330
0
100
AcDbIdBuffer
330
2B44
  0
IDBUFFER
  5
2F76
330
0
100
AcDbIdBuffer
330
2ADC
330
2B37
330
2B45
330
2DC3
  0
IDBUFFER
  5
2F77
330
0
100
AcDbIdBuffer
  0
IDBUFFER
  5
2F78
330
0
100
AcDbIdBuffer
330
C58
  0
IDBUFFER
  5
2F79
330
0
100
AcDbIdBuffer
  0
ENDSEC
  0
EOF
