  0
SECTION
  2
HEADER
  9
$ACADVER
  1
AC1014
  9
$ACADMAINTVER
 70
     9
  9
$DWGCODEPAGE
  3
ANSI_932
  9
$INSBASE
 10
0.0
 20
0.0
 30
0.0
  9
$EXTMIN
 10
-64.35000000000001
 20
-27.25000100000005
 30
-0.00000001
  9
$EXTMAX
 10
7.500000000000007
 20
3.028349673591798
 30
0.00000001
  9
$LIMMIN
 10
-74.03979304160009
 20
-38.13871927901544
  9
$LIMMAX
 10
17.12006691007366
 20
21.29225075332016
  9
$ORTHOMODE
 70
     0
  9
$REGENMODE
 70
     1
  9
$FILLMODE
 70
     1
  9
$QTEXTMODE
 70
     0
  9
$MIRRTEXT
 70
     0
  9
$DRAGMODE
 70
     2
  9
$LTSCALE
 40
1.0
  9
$OSMODE
 70
    55
  9
$ATTMODE
 70
     1
  9
$TEXTSIZE
 40
2.5
  9
$TRACEWID
 40
1.0
  9
$TEXTSTYLE
  7
STANDARD
  9
$CLAYER
  8
AM_0
  9
$CELTYPE
  6
BYLAYER
  9
$CECOLOR
 62
   256
  9
$CELTSCALE
 40
1.0
  9
$DELOBJ
 70
     1
  9
$DISPSILH
 70
     0
  9
$DIMSCALE
 40
0.5
  9
$DIMASZ
 40
2.5
  9
$DIMEXO
 40
1.0
  9
$DIMDLI
 40
12.0
  9
$DIMRND
 40
0.0
  9
$DIMDLE
 40
0.0
  9
$DIMEXE
 40
1.0
  9
$DIMTP
 40
0.1
  9
$DIMTM
 40
0.1
  9
$DIMTXT
 40
3.2
  9
$DIMCEN
 40
0.0
  9
$DIMTSZ
 40
0.0
  9
$DIMTOL
 70
     0
  9
$DIMLIM
 70
     0
  9
$DIMTIH
 70
     0
  9
$DIMTOH
 70
     0
  9
$DIMSE1
 70
     0
  9
$DIMSE2
 70
     0
  9
$DIMTAD
 70
     3
  9
$DIMZIN
 70
     8
  9
$DIMBLK
  1
OPEN30
  9
$DIMASO
 70
     1
  9
$DIMSHO
 70
     1
  9
$DIMPOST
  1

  9
$DIMAPOST
  1
"
  9
$DIMALT
 70
     0
  9
$DIMALTD
 70
     2
  9
$DIMALTF
 40
0.0393701
  9
$DIMLFAC
 40
1.0
  9
$DIMTOFL
 70
     1
  9
$DIMTVP
 40
0.0
  9
$DIMTIX
 70
     0
  9
$DIMSOXD
 70
     0
  9
$DIMSAH
 70
     0
  9
$DIMBLK1
  1

  9
$DIMBLK2
  1

  9
$DIMSTYLE
  2
AM_JIS
  9
$DIMCLRD
 70
   256
  9
$DIMCLRE
 70
   256
  9
$DIMCLRT
 70
     2
  9
$DIMTFAC
 40
0.71
  9
$DIMGAP
 40
1.5
  9
$DIMJUST
 70
     0
  9
$DIMSD1
 70
     0
  9
$DIMSD2
 70
     0
  9
$DIMTOLJ
 70
     0
  9
$DIMTZIN
 70
     0
  9
$DIMALTZ
 70
     0
  9
$DIMALTTZ
 70
     0
  9
$DIMFIT
 70
     3
  9
$DIMUPT
 70
     0
  9
$DIMUNIT
 70
     2
  9
$DIMDEC
 70
     3
  9
$DIMTDEC
 70
     3
  9
$DIMALTU
 70
     2
  9
$DIMALTTD
 70
     2
  9
$DIMTXSTY
  7
ASAMI
  9
$DIMAUNIT
 70
     0
  9
$LUNITS
 70
     2
  9
$LUPREC
 70
     2
  9
$SKETCHINC
 40
1.0
  9
$FILLETRAD
 40
2.5
  9
$AUNITS
 70
     0
  9
$AUPREC
 70
     0
  9
$MENU
  1
.
  9
$ELEVATION
 40
0.0
  9
$PELEVATION
 40
0.0
  9
$THICKNESS
 40
0.0
  9
$LIMCHECK
 70
     0
  9
$BLIPMODE
 70
     0
  9
$CHAMFERA
 40
0.5
  9
$CHAMFERB
 40
0.5
  9
$CHAMFERC
 40
20.0
  9
$CHAMFERD
 40
0.0
  9
$SKPOLY
 70
     0
  9
$TDCREATE
 40
2452836.771637361
  9
$TDUPDATE
 40
2453152.446246909
  9
$TDINDWG
 40
0.0602604167
  9
$TDUSRTIMER
 40
0.0602604167
  9
$USRTIMER
 70
     1
  9
$ANGBASE
 50
0.0
  9
$ANGDIR
 70
     0
  9
$PDMODE
 70
     0
  9
$PDSIZE
 40
0.0
  9
$PLINEWID
 40
0.0
  9
$COORDS
 70
     1
  9
$SPLFRAME
 70
     0
  9
$SPLINETYPE
 70
     6
  9
$SPLINESEGS
 70
     8
  9
$ATTDIA
 70
     1
  9
$ATTREQ
 70
     1
  9
$HANDLING
 70
 12289
  9
$HANDSEED
  5
17E8
  9
$SURFTAB1
 70
     6
  9
$SURFTAB2
 70
     6
  9
$SURFTYPE
 70
     6
  9
$SURFU
 70
     6
  9
$SURFV
 70
     6
  9
$UCSNAME
  2

  9
$UCSORG
 10
0.0
 20
0.0
 30
0.0
  9
$UCSXDIR
 10
1.0
 20
0.0
 30
0.0
  9
$UCSYDIR
 10
0.0
 20
1.0
 30
0.0
  9
$PUCSNAME
  2

  9
$PUCSORG
 10
0.0
 20
0.0
 30
0.0
  9
$PUCSXDIR
 10
1.0
 20
0.0
 30
0.0
  9
$PUCSYDIR
 10
0.0
 20
1.0
 30
0.0
  9
$USERI1
 70
     0
  9
$USERI2
 70
     0
  9
$USERI3
 70
     0
  9
$USERI4
 70
     0
  9
$USERI5
 70
     0
  9
$USERR1
 40
0.0
  9
$USERR2
 40
0.0
  9
$USERR3
 40
0.0
  9
$USERR4
 40
0.0
  9
$USERR5
 40
0.0
  9
$WORLDVIEW
 70
     1
  9
$SHADEDGE
 70
     3
  9
$SHADEDIF
 70
    70
  9
$TILEMODE
 70
     1
  9
$MAXACTVP
 70
    64
  9
$PINSBASE
 10
0.0
 20
0.0
 30
0.0
  9
$PLIMCHECK
 70
     0
  9
$PEXTMIN
 10
1.000000000000000E+20
 20
1.000000000000000E+20
 30
1.000000000000000E+20
  9
$PEXTMAX
 10
-1.000000000000000E+20
 20
-1.000000000000000E+20
 30
-1.000000000000000E+20
  9
$PLIMMIN
 10
0.0
 20
0.0
  9
$PLIMMAX
 10
841.0
 20
594.0
  9
$UNITMODE
 70
     0
  9
$VISRETAIN
 70
     1
  9
$PLINEGEN
 70
     0
  9
$PSLTSCALE
 70
     0
  9
$TREEDEPTH
 70
  3020
  9
$PICKSTYLE
 70
     0
  9
$CMLSTYLE
  2
STANDARD
  9
$CMLJUST
 70
     0
  9
$CMLSCALE
 40
20.0
  9
$PROXYGRAPHICS
 70
     1
  9
$MEASUREMENT
 70
     1
  0
ENDSEC
  0
SECTION
  2
CLASSES
  0
CLASS
  1
ACDBDICTIONARYWDFLT
  2
AcDbDictionaryWithDefault
  3
AutoCAD 2000
 90
        0
280
     0
281
     0
  0
CLASS
  1
ACDBPLACEHOLDER
  2
AcDbPlaceHolder
  3
AutoCAD 2000
 90
        0
280
     0
281
     0
  0
CLASS
  1
LAYOUT
  2
AcDbLayout
  3
AutoCAD 2000
 90
        0
280
     0
281
     0
  0
CLASS
  1
AMGSETTINGSOBJ
  2
AmgSettingsObj
  3
"AcadM|Product Description: AutoCAD Mechanical 2000|Company: Autodesk"
 90
        0
280
     0
281
     0
  0
CLASS
  1
ACME_DOCUMENT
  2
AcMeDbDoc
  3
AcMeServices
 90
        0
280
     0
281
     0
  0
CLASS
  1
ACMESCOPE
  2
AcMeScope
  3
AcMeServices
 90
        0
280
     0
281
     0
  0
CLASS
  1
ACMECOMMANDHISTORY
  2
AcMeCommandHistory
  3
AcMeServices
 90
        0
280
     0
281
     0
  0
CLASS
  1
DICTIONARYVAR
  2
AcDbDictionaryVar
  3
AutoCAD 2000
 90
        0
280
     0
281
     0
  0
CLASS
  1
ACIMSYSVARMAN
  2
AcImSysVarManager
  3
AcMeServices
 90
        0
280
     0
281
     0
  0
CLASS
  1
ACIMREALSYSVAR
  2
AcImRealSysVar
  3
AcMeServices
 90
        0
280
     0
281
     0
  0
CLASS
  1
ACIMINTSYSVAR
  2
AcImIntSysVar
  3
AcMeServices
 90
        0
280
     0
281
     0
  0
CLASS
  1
ACMEDRAWINGMAN
  2
AcMeDrawingMan
  3
AcMeServices
 90
        0
280
     0
281
     0
  0
CLASS
  1
ACMEVIEW
  2
AcMeView
  3
AcMeServices
 90
        0
280
     0
281
     0
  0
CLASS
  1
ACDBENTITYCACHE
  2
AcMeEntityCache
  3
AcMeServices
 90
        0
280
     0
281
     0
  0
CLASS
  1
GSMANAGER
  2
AcMeGSManager
  3
AcMeServices
 90
        0
280
     0
281
     0
  0
CLASS
  1
AmdtInternalReactor
  2
AmdtInternalReactor
  3
AcMeServices
 90
        0
280
     0
281
     0
  0
CLASS
  1
ACMESTATEMGR
  2
AcMeStateMgr
  3
AcMeServices
 90
        0
280
     0
281
     0
  0
CLASS
  1
ACME_DATABASE
  2
AcMeDbDatabase
  3
AcMeServices
 90
        0
280
     0
281
     0
  0
CLASS
  1
ACRFINSADJUSTERMGR
  2
AcRfInsAdjusterMgr
  3
AcMeServices
 90
        0
280
     0
281
     0
  0
CLASS
  1
ACMDATADICTIONARY
  2
AcmDataDictionary
  3
"AcmSymBB|Product Description: AutoCAD Mechanical 2000|Company: Autodesk"
 90
        0
280
     0
281
     0
  0
CLASS
  1
ACMDATAENTRYBLOCK
  2
AcmDataEntryBlock
  3
"AcmSymBB|Product Description: AutoCAD Mechanical 2000|Company: Autodesk"
 90
        0
280
     0
281
     0
  0
CLASS
  1
AMGOBJPROPCFG
  2
AmgObjPropCfg
  3
"AmgLay|Product Description: AutoCAD Mechanical 2000|Company: Autodesk"
 90
        1
280
     0
281
     0
  0
CLASS
  1
ACAMGFILTERDAT
  2
AcAmgFilterDat
  3
"AcadM|Product Description: AutoCAD Mechanical 2000|Company: Autodesk"
 90
        0
280
     0
281
     0
  0
CLASS
  1
LAYER_INDEX
  2
AcDbLayerIndex
  3
AutoCAD 2000
 90
        0
280
     0
281
     0
  0
CLASS
  1
IDBUFFER
  2
AcDbIdBuffer
  3
AutoCAD 2000
 90
        0
280
     0
281
     0
  0
CLASS
  1
ACIMSTRSYSVAR
  2
AcImStrSysVar
  3
AcMeServices
 90
        0
280
     0
281
     0
  0
CLASS
  1
ACMSTANDARDJIS
  2
AcmStandardJIS
  3
"AcmSymBB|Product Description: AutoCAD Mechanical 2000|Company: Autodesk"
 90
        0
280
     0
281
     0
  0
CLASS
  1
ACMSURFSTANDARDJIS
  2
AcmSurfTextStdJIS
  3
"AcmSymBB|Product Description: AutoCAD Mechanical 2000|Company: Autodesk"
 90
        0
280
     0
281
     0
  0
CLASS
  1
ACMFCFSTANDARDJIS
  2
AcmFCFStdJIS
  3
"AcmSymBB|Product Description: AutoCAD Mechanical 2000|Company: Autodesk"
 90
        0
280
     0
281
     0
  0
CLASS
  1
ACMWELDSTANDARDJIS
  2
AcmWeldingStdJIS
  3
"AcmSymBB|Product Description: AutoCAD Mechanical 2000|Company: Autodesk"
 90
        0
280
     0
281
     0
  0
CLASS
  1
ACMIDSTANDARDJIS
  2
AcmIdStdJIS
  3
"AcmSymBB|Product Description: AutoCAD Mechanical 2000|Company: Autodesk"
 90
        0
280
     0
281
     0
  0
CLASS
  1
ACMDATUMSTANDARDJIS
  2
AcmDatumStdJIS
  3
"AcmSymBB|Product Description: AutoCAD Mechanical 2000|Company: Autodesk"
 90
        0
280
     0
281
     0
  0
CLASS
  1
ACMBOMSTANDARDJIS
  2
AcmBOMStdJIS
  3
"AcmSymBB|Product Description: AutoCAD Mechanical 2000|Company: Autodesk"
 90
        0
280
     0
281
     0
  0
CLASS
  1
ACMSTANDARDANSI
  2
AcmStandardANSI
  3
"AcmSymBB|Product Description: AutoCAD Mechanical 2000|Company: Autodesk"
 90
        0
280
     0
281
     0
  0
CLASS
  1
ACMSURFSTANDARDANSI
  2
AcmSurfTextStdANSI
  3
"AcmSymBB|Product Description: AutoCAD Mechanical 2000|Company: Autodesk"
 90
        0
280
     0
281
     0
  0
CLASS
  1
ACMFCFSTANDARDANSI
  2
AcmFCFStdANSI
  3
"AcmSymBB|Product Description: AutoCAD Mechanical 2000|Company: Autodesk"
 90
        0
280
     0
281
     0
  0
CLASS
  1
ACMWELDSTANDARDANSI
  2
AcmWeldingStdANSI
  3
"AcmSymBB|Product Description: AutoCAD Mechanical 2000|Company: Autodesk"
 90
        0
280
     0
281
     0
  0
CLASS
  1
ACMIDSTANDARDANSI
  2
AcmIdStdANSI
  3
"AcmSymBB|Product Description: AutoCAD Mechanical 2000|Company: Autodesk"
 90
        0
280
     0
281
     0
  0
CLASS
  1
ACMDATUMSTANDARDANSI
  2
AcmDatumStdANSI
  3
"AcmSymBB|Product Description: AutoCAD Mechanical 2000|Company: Autodesk"
 90
        0
280
     0
281
     0
  0
CLASS
  1
ACMBOMSTANDARDANSI
  2
AcmBOMStdANSI
  3
"AcmSymBB|Product Description: AutoCAD Mechanical 2000|Company: Autodesk"
 90
        0
280
     0
281
     0
  0
CLASS
  1
ACMSTANDARDBSI
  2
AcmStandardBSI
  3
"AcmSymBB|Product Description: AutoCAD Mechanical 2000|Company: Autodesk"
 90
        0
280
     0
281
     0
  0
CLASS
  1
ACMSURFSTANDARDBSI
  2
AcmSurfTextStdBSI
  3
"AcmSymBB|Product Description: AutoCAD Mechanical 2000|Company: Autodesk"
 90
        0
280
     0
281
     0
  0
CLASS
  1
ACMFCFSTANDARDBSI
  2
AcmFCFStdBSI
  3
"AcmSymBB|Product Description: AutoCAD Mechanical 2000|Company: Autodesk"
 90
        0
280
     0
281
     0
  0
CLASS
  1
ACMWELDSTANDARDBSI
  2
AcmWeldingStdBSI
  3
"AcmSymBB|Product Description: AutoCAD Mechanical 2000|Company: Autodesk"
 90
        0
280
     0
281
     0
  0
CLASS
  1
ACMIDSTANDARDBSI
  2
AcmIdStdBSI
  3
"AcmSymBB|Product Description: AutoCAD Mechanical 2000|Company: Autodesk"
 90
        0
280
     0
281
     0
  0
CLASS
  1
ACMDATUMSTANDARDBSI
  2
AcmDatumStdBSI
  3
"AcmSymBB|Product Description: AutoCAD Mechanical 2000|Company: Autodesk"
 90
        0
280
     0
281
     0
  0
CLASS
  1
ACMBOMSTANDARDBSI
  2
AcmBOMStdBSI
  3
"AcmSymBB|Product Description: AutoCAD Mechanical 2000|Company: Autodesk"
 90
        0
280
     0
281
     0
  0
CLASS
  1
LONG_TRANSACTION
  2
AcDbLongTransaction
  3
AutoCAD 2000
 90
        0
280
     0
281
     0
  0
CLASS
  1
LWPOLYLINE
  2
AcDbPolyline
  3
AutoCAD 2000
 90
        0
280
     0
281
     1
  0
CLASS
  1
HATCH
  2
AcDbHatch
  3
AutoCAD 2000
 90
        0
280
     0
281
     1
  0
CLASS
  1
XRECORD
  2
AcDbXrecord
  3
AutoCAD 2000
 90
        0
280
     0
281
     0
  0
ENDSEC
  0
SECTION
  2
TABLES
  0
TABLE
  2
VPORT
  5
8
330
0
100
AcDbSymbolTable
 70
     3
  0
VPORT
  5
17BD
330
8
100
AcDbSymbolTableRecord
100
AcDbViewportTableRecord
  2
*ACTIVE
 70
     0
 10
0.0
 20
0.0
 11
1.0
 21
1.0
 12
-28.42508812662542
 22
-12.11182468367735
 13
0.0
 23
0.0
 14
2.5
 24
2.5
 15
10.0
 25
10.0
 16
0.0
 26
0.0
 36
1.0
 17
0.0
 27
0.0
 37
0.0
 40
46.08958093648017
 41
1.56570841889117
 42
50.0
 43
0.0
 44
0.0
 50
0.0
 51
0.0
 71
     0
 72
   100
 73
     1
 74
     3
 75
     0
 76
     0
 77
     0
 78
     0
  0
ENDTAB
  0
TABLE
  2
LTYPE
  5
5
330
0
100
AcDbSymbolTable
 70
    10
  0
LTYPE
  5
14
330
5
100
AcDbSymbolTableRecord
100
AcDbLinetypeTableRecord
  2
BYBLOCK
 70
     0
  3

 72
    65
 73
     0
 40
0.0
  0
LTYPE
  5
15
330
5
100
AcDbSymbolTableRecord
100
AcDbLinetypeTableRecord
  2
BYLAYER
 70
     0
  3

 72
    65
 73
     0
 40
0.0
  0
LTYPE
  5
16
330
5
100
AcDbSymbolTableRecord
100
AcDbLinetypeTableRecord
  2
CONTINUOUS
 70
     0
  3
Solid line
 72
    65
 73
     0
 40
0.0
  0
LTYPE
  5
4B
330
5
100
AcDbSymbolTableRecord
100
AcDbLinetypeTableRecord
  2
AM_ISO02W050
 70
     0
  3
__ __ __ __ __ __ __ __ __ __ __ __ __ __ __
 72
    65
 73
     2
 40
7.5
 49
6.0
 74
     0
 49
-1.5
 74
     0
  0
LTYPE
  5
4C
330
5
100
AcDbSymbolTableRecord
100
AcDbLinetypeTableRecord
  2
AM_ISO08W050
 70
     0
  3
____ . ____ . ____ . ____ . ____ . ____ . ____
 72
    65
 73
     4
 40
18.0
 49
12.0
 74
     0
 49
-1.5
 74
     0
 49
3.0
 74
     0
 49
-1.5
 74
     0
  0
LTYPE
  5
4D
330
5
100
AcDbSymbolTableRecord
100
AcDbLinetypeTableRecord
  2
AM_ISO09W050
 70
     0
  3
_____ . . _____ . . _____ . . ____ .. ____
 72
    65
 73
     6
 40
22.5
 49
12.0
 74
     0
 49
-1.5
 74
     0
 49
3.0
 74
     0
 49
-1.5
 74
     0
 49
3.0
 74
     0
 49
-1.5
 74
     0
  0
LTYPE
  5
4E
330
5
100
AcDbSymbolTableRecord
100
AcDbLinetypeTableRecord
  2
AMCONSTR
 70
     0
  3
_______________________
 72
    65
 73
     2
 40
9999.0
 49
9999.0
 74
     0
 49
0.0
 74
     0
  0
LTYPE
  5
4F
330
5
100
AcDbSymbolTableRecord
100
AcDbLinetypeTableRecord
  2
AM_ISO02W050X2
 70
     0
  3
 _ _ _ _ _ _ _ _ _ _ _ _
 72
    65
 73
     2
 40
3.75
 49
3.0
 74
     0
 49
-0.75
 74
     0
  0
LTYPE
  5
50
330
5
100
AcDbSymbolTableRecord
100
AcDbLinetypeTableRecord
  2
AM_ISO08W050X2
 70
     0
  3
__ . __ . __ . __ . __ . __
 72
    65
 73
     4
 40
9.0
 49
6.0
 74
     0
 49
-0.75
 74
     0
 49
1.5
 74
     0
 49
-0.75
 74
     0
  0
LTYPE
  5
53
330
5
100
AcDbSymbolTableRecord
100
AcDbLinetypeTableRecord
  2
AMZIGZAG
 70
     0
  3
/\/-/\/-/\/-/\/-/\/-/\/
 72
    65
 73
     2
 40
11.00009999999999
 49
0.0001
 74
     4
 75
   135
340
52
 46
0.04
 50
0.0
 44
0.0
 45
0.0
 49
-11.0
 74
     0
  0
LTYPE
  5
166
330
5
100
AcDbSymbolTableRecord
100
AcDbLinetypeTableRecord
  2
ACJISTGL
 70
     0
  3
_ _ _ _ _
 72
    65
 73
     2
 40
3.0
 49
2.0
 74
     0
 49
-1.0
 74
     0
  0
LTYPE
  5
26A
330
5
100
AcDbSymbolTableRecord
100
AcDbLinetypeTableRecord
  2
ACJISTGB
 70
     0
  3
__ . . __ . .
 72
    65
 73
     6
 40
9.0
 49
4.0
 74
     0
 49
-1.0
 74
     0
 49
1.0
 74
     0
 49
-1.0
 74
     0
 49
1.0
 74
     0
 49
-1.0
 74
     0
  0
ENDTAB
  0
TABLE
  2
LAYER
  5
2
330
0
100
AcDbSymbolTable
 70
     7
  0
LAYER
  5
10
330
2
100
AcDbSymbolTableRecord
100
AcDbLayerTableRecord
  2
0
 70
     0
 62
     7
  6
CONTINUOUS
  0
LAYER
  5
3F9
330
2
100
AcDbSymbolTableRecord
100
AcDbLayerTableRecord
  2
AM_0
 70
     0
 62
     7
  6
CONTINUOUS
  0
LAYER
  5
BD4
330
2
100
AcDbSymbolTableRecord
100
AcDbLayerTableRecord
  2
AM_11
 70
     0
 62
     3
  6
AM_ISO09W050
  0
LAYER
  5
BD5
330
2
100
AcDbSymbolTableRecord
100
AcDbLayerTableRecord
  2
AM_7
 70
     0
 62
     4
  6
AM_ISO08W050
  0
LAYER
  5
BD6
330
2
100
AcDbSymbolTableRecord
100
AcDbLayerTableRecord
  2
AM_5
 70
     0
 62
     3
  6
CONTINUOUS
  0
LAYER
  5
BD7
330
2
100
AcDbSymbolTableRecord
100
AcDbLayerTableRecord
  2
DEFPOINTS
 70
     0
 62
     7
  6
CONTINUOUS
  0
LAYER
  5
E59
330
2
100
AcDbSymbolTableRecord
100
AcDbLayerTableRecord
  2
AM_6
 70
     0
 62
     2
  6
CONTINUOUS
  0
ENDTAB
  0
TABLE
  2
STYLE
  5
3
330
0
100
AcDbSymbolTable
 70
     5
  0
STYLE
  5
11
330
3
100
AcDbSymbolTableRecord
100
AcDbTextStyleTableRecord
  2
STANDARD
 70
     0
 40
0.0
 41
1.0
 50
0.0
 71
     0
 42
2.5
  3
simplex.shx
  4
EXTFONT.SHX
  0
STYLE
  5
52
330
3
100
AcDbSymbolTableRecord
100
AcDbTextStyleTableRecord
  2

 70
     1
 40
0.0
 41
1.0
 50
0.0
 71
     0
 42
2.5
  3
ltypeshp.shx
  4

  0
STYLE
  5
6B
330
3
100
AcDbSymbolTableRecord
100
AcDbTextStyleTableRecord
  2
ASAMI
 70
     0
 40
0.0
 41
1.0
 50
0.0
 71
     0
 42
2.5
  3
simplex.shx
  4
EXTFONT.SHX
  0
STYLE
  5
262
330
3
100
AcDbSymbolTableRecord
100
AcDbTextStyleTableRecord
  2
ACJISTS
 70
     0
 40
1.0
 41
1.0
 50
0.0
 71
     0
 42
2.5
  3
simplex.shx
  4
bigfont.shx
  0
STYLE
  5
269
330
3
100
AcDbSymbolTableRecord
100
AcDbTextStyleTableRecord
  2
ACJISGDT
 70
     0
 40
0.0
 41
1.0
 50
0.0
 71
     0
 42
2.5
  3
amgdtans.shx
  4

  0
ENDTAB
  0
TABLE
  2
VIEW
  5
6
330
0
100
AcDbSymbolTable
 70
     0
  0
ENDTAB
  0
TABLE
  2
UCS
  5
7
330
0
100
AcDbSymbolTable
 70
     0
  0
ENDTAB
  0
TABLE
  2
APPID
  5
9
330
0
100
AcDbSymbolTable
 70
    12
  0
APPID
  5
12
330
9
100
AcDbSymbolTableRecord
100
AcDbRegAppTableRecord
  2
ACAD
 70
     0
  0
APPID
  5
30
330
9
100
AcDbSymbolTableRecord
100
AcDbRegAppTableRecord
  2
MCAD_NO_VIS
 70
     0
  0
APPID
  5
31
330
9
100
AcDbSymbolTableRecord
100
AcDbRegAppTableRecord
  2
ACAD_TEMP_GRAPHIC
 70
     0
  0
APPID
  5
2C2
330
9
100
AcDbSymbolTableRecord
100
AcDbRegAppTableRecord
  2
GENIUS_GENDTOL_13
 70
     0
  0
APPID
  5
339
330
9
100
AcDbSymbolTableRecord
100
AcDbRegAppTableRecord
  2
GENIUS_GENODEF_13
 70
     0
  0
APPID
  5
33A
330
9
100
AcDbSymbolTableRecord
100
AcDbRegAppTableRecord
  2
GENIUS_GENOBJ-N-RSBK_13
 70
     0
  0
APPID
  5
33B
330
9
100
AcDbSymbolTableRecord
100
AcDbRegAppTableRecord
  2
GENIUS_GENOBJ-N-LIB_13
 70
     0
  0
APPID
  5
33C
330
9
100
AcDbSymbolTableRecord
100
AcDbRegAppTableRecord
  2
GENIUS_GENSCALE_13
 70
     0
  0
APPID
  5
378
330
9
100
AcDbSymbolTableRecord
100
AcDbRegAppTableRecord
  2
GENIUS_GENDIMSH_14
 70
     0
  0
APPID
  5
BD8
330
9
100
AcDbSymbolTableRecord
100
AcDbRegAppTableRecord
  2
GENIUS_GENOBJ-N-CEN_13
 70
     0
  0
APPID
  5
BD9
330
9
100
AcDbSymbolTableRecord
100
AcDbRegAppTableRecord
  2
GENIUS_GENFIL_13
 70
     0
  0
APPID
  5
BDA
330
9
100
AcDbSymbolTableRecord
100
AcDbRegAppTableRecord
  2
GENIUS_GENOBJ-N-CHA_13
 70
     0
  0
ENDTAB
  0
TABLE
  2
DIMSTYLE
  5
A
330
0
100
AcDbSymbolTable
 70
     8
  0
DIMSTYLE
105
58
102
{ACAD_REACTORS
330
105F
330
10EF
330
1180
330
13A3
102
}
330
A
100
AcDbSymbolTableRecord
100
AcDbDimStyleTableRecord
  2
AM_JIS
 70
     0
  3

  4
"
  5
OPEN30
  6

  7

 40
0.5
 41
2.5
 42
1.0
 43
12.0
 44
1.0
 45
0.0
 46
0.0
 47
0.1
 48
0.1
140
3.2
141
0.0
142
0.0
143
0.0393701
144
1.0
145
0.0
146
0.71
147
1.5
 71
     0
 72
     0
 73
     0
 74
     0
 75
     0
 76
     0
 77
     3
 78
     8
170
     0
171
     2
172
     1
173
     0
174
     0
175
     0
176
   256
177
   256
178
     2
270
     2
271
     3
272
     3
273
     2
274
     2
340
6B
275
     0
280
     0
281
     0
282
     0
283
     0
284
     0
285
     0
286
     0
287
     3
288
     0
  0
DIMSTYLE
105
5F
330
A
100
AcDbSymbolTableRecord
100
AcDbDimStyleTableRecord
  2
AM_JIS$3
 70
     0
  3

  4
"
  5
OPEN30
  6

  7

 40
0.5
 41
2.5
 42
1.0
 43
10.0
 44
1.0
 45
0.0
 46
0.0
 47
0.1
 48
0.1
140
3.2
141
0.0
142
0.0
143
0.0393701
144
1.0
145
0.0
146
0.71
147
1.5
 71
     0
 72
     0
 73
     0
 74
     1
 75
     0
 76
     0
 77
     3
 78
     8
170
     0
171
     2
172
     0
173
     0
174
     0
175
     0
176
   256
177
   256
178
     2
270
     2
271
     2
272
     3
273
     2
274
     2
340
6B
275
     0
280
     0
281
     0
282
     0
283
     0
284
     0
285
     0
286
     0
287
     0
288
     1
  0
DIMSTYLE
105
60
330
A
100
AcDbSymbolTableRecord
100
AcDbDimStyleTableRecord
  2
AM_JIS$4
 70
     0
  3

  4
"
  5
OPEN30
  6

  7

 40
0.5
 41
2.5
 42
1.0
 43
10.0
 44
1.0
 45
0.0
 46
0.0
 47
0.1
 48
0.1
140
3.2
141
0.0
142
0.0
143
0.0393701
144
1.0
145
0.0
146
0.71
147
1.5
 71
     0
 72
     0
 73
     0
 74
     1
 75
     0
 76
     0
 77
     3
 78
     8
170
     0
171
     2
172
     0
173
     0
174
     0
175
     0
176
   256
177
   256
178
     2
270
     2
271
     2
272
     3
273
     2
274
     2
340
6B
275
     0
280
     0
281
     0
282
     0
283
     0
284
     0
285
     0
286
     0
287
     0
288
     1
  0
DIMSTYLE
105
61
330
A
100
AcDbSymbolTableRecord
100
AcDbDimStyleTableRecord
  2
AM_JIS$6
 70
     0
  3

  4
"
  5
OPEN30
  6

  7

 40
0.5
 41
2.5
 42
1.0
 43
10.0
 44
1.0
 45
0.0
 46
0.0
 47
0.1
 48
0.1
140
3.2
141
0.0
142
0.0
143
0.0393701
144
1.0
145
0.0
146
0.71
147
1.5
 71
     0
 72
     0
 73
     0
 74
     0
 75
     0
 76
     0
 77
     0
 78
     8
170
     0
171
     2
172
     1
173
     0
174
     0
175
     0
176
   256
177
   256
178
     2
270
     2
271
     2
272
     2
273
     2
274
     2
340
6B
275
     0
280
     0
281
     0
282
     0
283
     0
284
     0
285
     0
286
     0
287
     3
288
     0
  0
DIMSTYLE
105
62
330
A
100
AcDbSymbolTableRecord
100
AcDbDimStyleTableRecord
  2
AM_JIS$7
 70
     0
  3

  4
"
  5
OPEN30
  6

  7

 40
0.5
 41
2.5
 42
1.0
 43
10.0
 44
1.0
 45
0.0
 46
0.0
 47
0.1
 48
0.1
140
3.2
141
0.0
142
0.0
143
0.0393701
144
1.0
145
0.0
146
0.71
147
1.5
 71
     0
 72
     0
 73
     0
 74
     0
 75
     0
 76
     0
 77
     3
 78
     8
170
     0
171
     2
172
     1
173
     0
174
     0
175
     0
176
   256
177
   256
178
     2
270
     2
271
     2
272
     3
273
     2
274
     2
340
6B
275
     0
280
     0
281
     0
282
     0
283
     0
284
     0
285
     0
286
     0
287
     3
288
     0
  0
DIMSTYLE
105
63
330
A
100
AcDbSymbolTableRecord
100
AcDbDimStyleTableRecord
  2
AM_JIS$SF
 70
     0
  3

  4
"
  5
OPEN30
  6

  7

 40
0.5
 41
2.5
 42
1.0
 43
10.0
 44
1.0
 45
0.0
 46
0.0
 47
0.1
 48
0.1
140
3.2
141
0.0
142
0.0
143
0.0393701
144
1.0
145
0.0
146
0.71
147
1.5
 71
     0
 72
     0
 73
     0
 74
     0
 75
     1
 76
     1
 77
     3
 78
     8
170
     0
171
     2
172
     1
173
     0
174
     0
175
     0
176
   256
177
   256
178
     2
270
     2
271
     2
272
     2
273
     2
274
     2
340
6B
275
     0
280
     0
281
     0
282
     0
283
     0
284
     0
285
     0
286
     0
287
     3
288
     0
  0
DIMSTYLE
105
68
330
A
100
AcDbSymbolTableRecord
100
AcDbDimStyleTableRecord
  2
AM_JIS$SH
 70
     0
  3

  4
"
  5

  6
GENAXEH
  7
OPEN30
 40
0.5
 41
2.5
 42
1.0
 43
10.0
 44
1.0
 45
0.0
 46
0.0
 47
0.1
 48
0.1
140
3.2
141
0.0
142
0.0
143
0.0393701
144
2.0
145
0.0
146
0.71
147
1.5
 71
     0
 72
     0
 73
     0
 74
     0
 75
     1
 76
     1
 77
     3
 78
     8
170
     0
171
     2
172
     1
173
     1
174
     0
175
     0
176
   256
177
   256
178
     2
270
     2
271
     2
272
     2
273
     2
274
     2
340
6B
275
     0
280
     0
281
     0
282
     0
283
     0
284
     0
285
     0
286
     0
287
     3
288
     0
  0
DIMSTYLE
105
B34
330
A
100
AcDbSymbolTableRecord
100
AcDbDimStyleTableRecord
  2
AM_JIS$2
 70
     0
  3

  4
"
  5
OPEN30
  6

  7

 40
0.5
 41
2.5
 42
1.0
 43
12.0
 44
1.0
 45
0.0
 46
0.0
 47
0.1
 48
0.1
140
3.2
141
0.0
142
0.0
143
0.0393701
144
1.0
145
0.0
146
0.71
147
1.5
 71
     0
 72
     0
 73
     0
 74
     0
 75
     0
 76
     0
 77
     3
 78
     8
170
     0
171
     2
172
     1
173
     0
174
     0
175
     0
176
   256
177
   256
178
     2
270
     2
271
     3
272
     3
273
     2
274
     2
340
6B
275
     0
280
     0
281
     0
282
     0
283
     0
284
     0
285
     0
286
     0
287
     3
288
     0
  0
ENDTAB
  0
TABLE
  2
BLOCK_RECORD
  5
1
330
0
100
AcDbSymbolTable
 70
     9
  0
BLOCK_RECORD
  5
1F
102
{ACAD_XDICTIONARY
360
74
102
}
330
1
100
AcDbSymbolTableRecord
100
AcDbBlockTableRecord
  2
*MODEL_SPACE
  0
BLOCK_RECORD
  5
101
102
{ACAD_XDICTIONARY
360
17E6
102
}
330
1
100
AcDbSymbolTableRecord
100
AcDbBlockTableRecord
  2
*PAPER_SPACE
  0
BLOCK_RECORD
  5
59
330
1
100
AcDbSymbolTableRecord
100
AcDbBlockTableRecord
  2
_OPEN30
  0
BLOCK_RECORD
  5
64
330
1
100
AcDbSymbolTableRecord
100
AcDbBlockTableRecord
  2
GENAXEH
  0
BLOCK_RECORD
  5
1060
330
1
100
AcDbSymbolTableRecord
100
AcDbBlockTableRecord
  2
*D5
  0
BLOCK_RECORD
  5
10F0
330
1
100
AcDbSymbolTableRecord
100
AcDbBlockTableRecord
  2
*D6
  0
BLOCK_RECORD
  5
1181
330
1
100
AcDbSymbolTableRecord
100
AcDbBlockTableRecord
  2
*D7
  0
BLOCK_RECORD
  5
13A4
330
1
100
AcDbSymbolTableRecord
100
AcDbBlockTableRecord
  2
*D8
  0
ENDTAB
  0
ENDSEC
  0
SECTION
  2
BLOCKS
  0
BLOCK
  5
20
330
1F
100
AcDbEntity
  8
0
100
AcDbBlockBegin
  2
*MODEL_SPACE
 70
     0
 10
0.0
 20
0.0
 30
0.0
  3
*MODEL_SPACE
  1

  0
ENDBLK
  5
21
330
1F
100
AcDbEntity
  8
0
100
AcDbBlockEnd
  0
BLOCK
  5
103
330
101
100
AcDbEntity
 67
     1
  8
0
100
AcDbBlockBegin
  2
*PAPER_SPACE
 70
     0
 10
0.0
 20
0.0
 30
0.0
  3
*PAPER_SPACE
  1

  0
ENDBLK
  5
104
330
101
100
AcDbEntity
 67
     1
  8
0
100
AcDbBlockEnd
  0
BLOCK
  5
5D
330
59
100
AcDbEntity
  8
0
100
AcDbBlockBegin
  2
_OPEN30
 70
     0
 10
0.0
 20
0.0
 30
0.0
  3
_OPEN30
  1

  0
LINE
  5
5A
330
59
100
AcDbEntity
  8
0
 62
     0
100
AcDbLine
 10
-1.0
 20
0.26794919
 30
0.0
 11
0.0
 21
0.0
 31
0.0
  0
LINE
  5
5B
330
59
100
AcDbEntity
  8
0
 62
     0
100
AcDbLine
 10
0.0
 20
0.0
 30
0.0
 11
-1.0
 21
-0.26794919
 31
0.0
  0
LINE
  5
5C
330
59
100
AcDbEntity
  8
0
 62
     0
100
AcDbLine
 10
0.0
 20
0.0
 30
0.0
 11
-1.0
 21
0.0
 31
0.0
  0
ENDBLK
  5
5E
330
59
100
AcDbEntity
  8
0
100
AcDbBlockEnd
  0
BLOCK
  5
66
330
64
100
AcDbEntity
  8
0
100
AcDbBlockBegin
  2
GENAXEH
 70
     0
 10
0.0
 20
0.0
 30
0.0
  3
GENAXEH
  1

  0
LINE
  5
65
330
64
100
AcDbEntity
  8
0
100
AcDbLine
 10
-1.0
 20
0.0
 30
0.0
 11
1.0
 21
0.0
 31
0.0
  0
ENDBLK
  5
67
330
64
100
AcDbEntity
  8
0
100
AcDbBlockEnd
  0
BLOCK
  5
106A
330
1060
100
AcDbEntity
  8
0
100
AcDbBlockBegin
  2
*D5
 70
     1
 10
0.0
 20
0.0
 30
0.0
  3
*D5
  1

  0
LINE
  5
16BF
330
1060
100
AcDbEntity
  8
AM_5
100
AcDbLine
 10
-18.00000000000013
 20
-2.999999999999875
 30
0.0
 11
-18.00000000000013
 21
-10.5
 31
0.0
  0
LINE
  5
16C0
330
1060
100
AcDbEntity
  8
AM_5
100
AcDbLine
 10
-0.0000000000007852
 20
-2.999999999999998
 30
0.0
 11
-0.0000000000007856
 21
-10.5
 31
0.0
  0
LINE
  5
16C1
330
1060
100
AcDbEntity
  8
AM_5
100
AcDbLine
 10
-16.75000000000013
 20
-10.0
 30
0.0
 11
-1.250000000000785
 21
-10.0
 31
0.0
  0
INSERT
  5
16C2
330
1060
100
AcDbEntity
  8
AM_5
100
AcDbBlockReference
  2
_OPEN30
 10
-18.00000000000013
 20
-10.0
 30
0.0
 41
1.25
 42
1.25
 43
1.25
 50
180.0
  0
INSERT
  5
16C3
330
1060
100
AcDbEntity
  8
AM_5
100
AcDbBlockReference
  2
_OPEN30
 10
-0.0000000000007856
 20
-10.0
 30
0.0
 41
1.25
 42
1.25
 43
1.25
  0
MTEXT
  5
16C4
330
1060
100
AcDbEntity
  8
AM_5
 62
     2
100
AcDbMText
 10
-9.00000000000046
 20
-8.449999999999999
 30
0.0
 40
1.6
 41
0.0
 71
     5
 72
     1
  1
18
  7
ASAMI
1001
ACAD
1000
MTEXTBEGIN
1070
    73
1070
     1
1070
    44
1040
1.0
1070
    74
1070
     0
1000
MTEXTEND
  0
POINT
  5
16C5
330
1060
100
AcDbEntity
  8
DEFPOINTS
 62
     0
100
AcDbPoint
 10
-18.00000000000013
 20
-2.499999999999875
 30
0.0
  0
POINT
  5
16C6
330
1060
100
AcDbEntity
  8
DEFPOINTS
 62
     0
100
AcDbPoint
 10
-0.0000000000007851
 20
-2.499999999999998
 30
0.0
  0
POINT
  5
16C7
330
1060
100
AcDbEntity
  8
DEFPOINTS
 62
     0
100
AcDbPoint
 10
-0.0000000000007856
 20
-10.0
 30
0.0
  0
ENDBLK
  5
106B
330
1060
100
AcDbEntity
  8
0
100
AcDbBlockEnd
  0
BLOCK
  5
10FA
330
10F0
100
AcDbEntity
  8
0
100
AcDbBlockBegin
  2
*D6
 70
     1
 10
0.0
 20
0.0
 30
0.0
  3
*D6
  1

  0
LINE
  5
16B6
330
10F0
100
AcDbEntity
  8
AM_5
100
AcDbLine
 10
-55.0
 20
-2.999999999999268
 30
0.0
 11
-55.0
 21
-16.5
 31
0.0
  0
LINE
  5
16B7
330
10F0
100
AcDbEntity
  8
AM_5
100
AcDbLine
 10
0.0000000000000035
 20
-3.5
 30
0.0
 11
0.0000000000000027
 21
-16.5
 31
0.0
  0
LINE
  5
16B8
330
10F0
100
AcDbEntity
  8
AM_5
100
AcDbLine
 10
-53.75
 20
-16.0
 30
0.0
 11
-1.249999999999997
 21
-16.0
 31
0.0
  0
INSERT
  5
16B9
330
10F0
100
AcDbEntity
  8
AM_5
100
AcDbBlockReference
  2
_OPEN30
 10
-55.0
 20
-16.0
 30
0.0
 41
1.25
 42
1.25
 43
1.25
 50
180.0
  0
INSERT
  5
16BA
330
10F0
100
AcDbEntity
  8
AM_5
100
AcDbBlockReference
  2
_OPEN30
 10
0.0000000000000028
 20
-16.0
 30
0.0
 41
1.25
 42
1.25
 43
1.25
  0
MTEXT
  5
16BB
330
10F0
100
AcDbEntity
  8
AM_5
 62
     2
100
AcDbMText
 10
-27.5
 20
-14.45
 30
0.0
 40
1.6
 41
0.0
 71
     5
 72
     1
  1
55
  7
ASAMI
1001
ACAD
1000
MTEXTBEGIN
1070
    73
1070
     1
1070
    44
1040
1.0
1070
    74
1070
     0
1000
MTEXTEND
  0
POINT
  5
16BC
330
10F0
100
AcDbEntity
  8
DEFPOINTS
 62
     0
100
AcDbPoint
 10
-55.0
 20
-2.499999999999268
 30
0.0
  0
POINT
  5
16BD
330
10F0
100
AcDbEntity
  8
DEFPOINTS
 62
     0
100
AcDbPoint
 10
0.0000000000000036
 20
-3.0
 30
0.0
  0
POINT
  5
16BE
330
10F0
100
AcDbEntity
  8
DEFPOINTS
 62
     0
100
AcDbPoint
 10
0.0000000000000028
 20
-16.0
 30
0.0
  0
ENDBLK
  5
10FB
330
10F0
100
AcDbEntity
  8
0
100
AcDbBlockEnd
  0
BLOCK
  5
118B
330
1181
100
AcDbEntity
  8
0
100
AcDbBlockBegin
  2
*D7
 70
     1
 10
0.0
 20
0.0
 30
0.0
  3
*D7
  1

  0
LINE
  5
16C8
330
1181
100
AcDbEntity
  8
AM_5
100
AcDbLine
 10
0.5000000000000009
 20
2.5
 30
0.0
 11
7.500000000000007
 21
2.499999999999997
 31
0.0
  0
LINE
  5
16C9
330
1181
100
AcDbEntity
  8
AM_5
100
AcDbLine
 10
0.5
 20
-2.5
 30
0.0
 11
7.500000000000005
 21
-2.500000000000002
 31
0.0
  0
LINE
  5
16CA
330
1181
100
AcDbEntity
  8
AM_5
100
AcDbLine
 10
7.000000000000006
 20
1.249999999999998
 30
0.0
 11
7.000000000000006
 21
-1.250000000000001
 31
0.0
  0
INSERT
  5
16CB
330
1181
100
AcDbEntity
  8
AM_5
100
AcDbBlockReference
  2
_OPEN30
 10
7.000000000000007
 20
2.499999999999997
 30
0.0
 41
1.25
 42
1.25
 43
1.25
 50
90.0
  0
INSERT
  5
16CC
330
1181
100
AcDbEntity
  8
AM_5
100
AcDbBlockReference
  2
_OPEN30
 10
7.000000000000005
 20
-2.500000000000002
 30
0.0
 41
1.25
 42
1.25
 43
1.25
 50
270.0
  0
MTEXT
  5
16CD
330
1181
100
AcDbEntity
  8
AM_5
 62
     2
100
AcDbMText
 10
5.450000000000006
 20
-0.0000000000000007
 30
0.0
 40
1.6
 41
0.0
 71
     5
 72
     1
  1
%%c5
  7
ASAMI
 11
0.0000000000000001
 21
1.0
 31
0.0
1001
ACAD
1000
MTEXTBEGIN
1070
    73
1070
     1
1070
    44
1040
1.0
1070
    74
1070
     0
1000
MTEXTEND
  0
POINT
  5
16CE
330
1181
100
AcDbEntity
  8
DEFPOINTS
 62
     0
100
AcDbPoint
 10
0.0000000000000009
 20
2.5
 30
0.0
  0
POINT
  5
16CF
330
1181
100
AcDbEntity
  8
DEFPOINTS
 62
     0
100
AcDbPoint
 10
0.0
 20
-2.5
 30
0.0
  0
POINT
  5
16D0
330
1181
100
AcDbEntity
  8
DEFPOINTS
 62
     0
100
AcDbPoint
 10
7.000000000000005
 20
-2.500000000000002
 30
0.0
  0
ENDBLK
  5
118C
330
1181
100
AcDbEntity
  8
0
100
AcDbBlockEnd
  0
BLOCK
  5
13AE
330
13A4
100
AcDbEntity
  8
0
100
AcDbBlockBegin
  2
*D8
 70
     1
 10
0.0
 20
0.0
 30
0.0
  3
*D8
  1

  0
LINE
  5
16AD
330
13A4
100
AcDbEntity
  8
AM_5
100
AcDbLine
 10
-55.0
 20
2.999999999999973
 30
0.0
 11
-62.5
 21
2.999999999999975
 31
0.0
  0
LINE
  5
16AE
330
13A4
100
AcDbEntity
  8
AM_5
100
AcDbLine
 10
-55.0
 20
-2.999999999999267
 30
0.0
 11
-62.5
 21
-2.999999999999265
 31
0.0
  0
LINE
  5
16AF
330
13A4
100
AcDbEntity
  8
AM_5
100
AcDbLine
 10
-62.00000000000001
 20
1.749999999999975
 30
0.0
 11
-62.00000000000001
 21
-1.749999999999265
 31
0.0
  0
INSERT
  5
16B0
330
13A4
100
AcDbEntity
  8
AM_5
100
AcDbBlockReference
  2
_OPEN30
 10
-62.00000000000001
 20
2.999999999999975
 30
0.0
 41
1.25
 42
1.25
 43
1.25
 50
90.0
  0
INSERT
  5
16B1
330
13A4
100
AcDbEntity
  8
AM_5
100
AcDbBlockReference
  2
_OPEN30
 10
-62.00000000000001
 20
-2.999999999999265
 30
0.0
 41
1.25
 42
1.25
 43
1.25
 50
270.0
  0
MTEXT
  5
16B2
330
13A4
100
AcDbEntity
  8
AM_5
 62
     2
100
AcDbMText
 10
-63.55
 20
0.0000000000003453
 30
0.0
 40
1.6
 41
0.0
 71
     5
 72
     1
  1
%%c6
  7
ASAMI
 11
0.0000000000000001
 21
1.0
 31
0.0
1001
ACAD
1000
MTEXTBEGIN
1070
    73
1070
     1
1070
    44
1040
1.0
1070
    74
1070
     0
1000
MTEXTEND
  0
POINT
  5
16B3
330
13A4
100
AcDbEntity
  8
DEFPOINTS
 62
     0
100
AcDbPoint
 10
-54.50000000000001
 20
2.999999999999973
 30
0.0
  0
POINT
  5
16B4
330
13A4
100
AcDbEntity
  8
DEFPOINTS
 62
     0
100
AcDbPoint
 10
-54.50000000000001
 20
-2.999999999999267
 30
0.0
  0
POINT
  5
16B5
330
13A4
100
AcDbEntity
  8
DEFPOINTS
 62
     0
100
AcDbPoint
 10
-62.00000000000001
 20
-2.999999999999265
 30
0.0
  0
ENDBLK
  5
13AF
330
13A4
100
AcDbEntity
  8
0
100
AcDbBlockEnd
  0
ENDSEC
  0
SECTION
  2
ENTITIES
  0
TEXT
  5
E5A
330
1F
100
AcDbEntity
  8
AM_6
100
AcDbText
 10
-37.91666666666666
 20
-27.25000100000004
 30
0.0
 40
2.5
  1
LSM2050ZX
 72
     4
 11
-27.5
 21
-26.00000100000004
 31
0.0
100
AcDbText
  0
LINE
  5
F47
330
1F
100
AcDbEntity
  8
AM_7
  6
AM_ISO08W050X2
100
AcDbLine
 10
2.584834186602734
 20
-0.0000000000000015
 30
0.0
 11
-57.7882302597198
 21
0.0000000000000058
 31
0.0
1001
GENIUS_GENODEF_13
1002
{
1000
HIER
1070
     0
1002
}
1002
{
1000
MANEDIT
1070
     0
1002
}
1002
{
1000
NOSEL
1070
     0
1002
}
1002
{
1000
BEHIND
1070
     0
1002
}
1002
{
1000
REACTOR
1002
}
1001
GENIUS_GENOBJ-N-CEN_13
1002
{
1000
OWNER
1000
GEN
1002
}
  0
DIMENSION
  5
105F
330
1F
100
AcDbEntity
  8
AM_5
100
AcDbDimension
  2
*D5
 10
-0.0000000000007856
 20
-10.0
 30
0.0
 11
-9.00000000000046
 21
-8.449999999999999
 31
0.0
 70
    32
  1
<>
  3
AM_JIS
100
AcDbAlignedDimension
 13
-18.00000000000013
 23
-2.499999999999875
 33
0.0
 14
-0.0000000000007851
 24
-2.499999999999998
 34
0.0
 50
0.0000000000001132
100
AcDbRotatedDimension
1001
GENIUS_GENDTOL_13
1000

1000
h7
1000

1040
0.0
  0
DIMENSION
  5
10EF
330
1F
100
AcDbEntity
  8
AM_5
100
AcDbDimension
  2
*D6
 10
0.0000000000000028
 20
-16.0
 30
0.0
 11
-27.5
 21
-14.45
 31
0.0
 70
    32
  1
<>
  3
AM_JIS
100
AcDbAlignedDimension
 13
-55.0
 23
-2.499999999999268
 33
0.0
 14
0.0000000000000036
 24
-3.0
 34
0.0
 50
0.0000000000001132
100
AcDbRotatedDimension
1001
GENIUS_GENDTOL_13
1000

1000
h7
1000

1040
0.0
  0
DIMENSION
  5
1180
330
1F
100
AcDbEntity
  8
AM_5
100
AcDbDimension
  2
*D7
 10
7.000000000000005
 20
-2.500000000000002
 30
0.0
 11
5.450000000000006
 21
-0.0000000000000007
 31
0.0
 70
    32
  1
%%c<>
  3
AM_JIS
100
AcDbAlignedDimension
 13
0.0000000000000009
 23
2.5
 33
0.0
 14
0.0
 24
-2.5
 34
0.0
 50
90.0
100
AcDbRotatedDimension
1001
GENIUS_GENDTOL_13
1000

1000
h7
1000

1040
0.0
  0
LINE
  5
139D
330
1F
100
AcDbEntity
  8
AM_0
100
AcDbLine
 10
-26.5
 20
3.000000000000013
 30
0.0
 11
-54.50000000000001
 21
2.999999999999973
 31
0.0
  0
LINE
  5
139E
330
1F
100
AcDbEntity
  8
AM_0
100
AcDbLine
 10
-26.5
 20
-2.999999999999252
 30
0.0
 11
-54.50000000000001
 21
-2.999999999999267
 31
0.0
  0
LINE
  5
13A1
330
1F
100
AcDbEntity
  8
AM_0
100
AcDbLine
 10
-54.50000000000001
 20
2.999999999999973
 30
0.0
 11
-54.50000000000002
 21
-2.999999999999267
 31
0.0
  0
LINE
  5
13A2
330
1F
100
AcDbEntity
  8
AM_0
100
AcDbLine
 10
-55.0
 20
2.499999999999972
 30
0.0
 11
-55.0
 21
-2.499999999999268
 31
0.0
  0
DIMENSION
  5
13A3
330
1F
100
AcDbEntity
  8
AM_5
100
AcDbDimension
  2
*D8
 10
-62.00000000000001
 20
-2.999999999999265
 30
0.0
 11
-63.55
 21
0.0000000000003453
 31
0.0
 70
    32
  1
%%c<>
  3
AM_JIS
100
AcDbAlignedDimension
 13
-54.50000000000001
 23
2.999999999999973
 33
0.0
 14
-54.50000000000001
 24
-2.999999999999267
 34
0.0
 50
270.0
100
AcDbRotatedDimension
1001
GENIUS_GENDTOL_13
1000

1000
h7
1000

1040
0.0
  0
LINE
  5
13C4
330
1F
100
AcDbEntity
  8
AM_0
100
AcDbLine
 10
-54.50000000000001
 20
2.999999999999973
 30
0.0
 11
-55.0
 21
2.499999999999972
 31
0.0
1001
GENIUS_GENFIL_13
1070
     0
1040
0.5
1040
0.5
1040
20.0
1040
0.0
1002
{
1002
}
1001
GENIUS_GENODEF_13
1002
{
1000
HIER
1070
     0
1002
}
1002
{
1000
MANEDIT
1070
     0
1002
}
1002
{
1000
NOSEL
1070
     0
1002
}
1002
{
1000
BEHIND
1070
     0
1002
}
1002
{
1000
REACTOR
1002
}
1001
GENIUS_GENOBJ-N-CHA_13
1002
{
1000
OWNER
1000
GEN
1002
}
  0
LINE
  5
13C7
330
1F
100
AcDbEntity
  8
AM_0
100
AcDbLine
 10
-55.0
 20
-2.499999999999268
 30
0.0
 11
-54.50000000000001
 21
-2.999999999999267
 31
0.0
1001
GENIUS_GENFIL_13
1070
     0
1040
0.5
1040
0.5
1040
20.0
1040
0.0
1002
{
1002
}
1001
GENIUS_GENODEF_13
1002
{
1000
HIER
1070
     0
1002
}
1002
{
1000
MANEDIT
1070
     0
1002
}
1002
{
1000
NOSEL
1070
     0
1002
}
1002
{
1000
BEHIND
1070
     0
1002
}
1002
{
1000
REACTOR
1002
}
1001
GENIUS_GENOBJ-N-CHA_13
1002
{
1000
OWNER
1000
GEN
1002
}
  0
SPLINE
  5
1494
330
1F
100
AcDbEntity
  8
AM_0
100
AcDbSpline
210
0.0
220
0.0
230
1.0
 70
     8
 71
     3
 72
     8
 73
     4
 74
     2
 42
0.0000000001
 43
0.0000000001
 44
0.0000000001
 12
-1.0
 22
-0.0000000000000008
 32
0.0
 40
0.0
 40
0.0
 40
0.0
 40
0.0
 40
7.077445848048284
 40
7.077445848048284
 40
7.077445848048284
 40
7.077445848048284
 10
-5.764766751292496
 20
-1.918347729364956
 30
0.0
 10
-8.12391536730859
 20
-1.918347729364958
 30
0.0
 10
-10.3452148676198
 20
-0.9402795963077599
 30
0.0
 10
-12.56651436793102
 20
0.0377885367494386
 30
0.0
 11
-5.764766751292496
 21
-1.918347729364956
 31
0.0
 11
-12.56651436793102
 21
0.0377885367494386
 31
0.0
  0
SPLINE
  5
1495
330
1F
100
AcDbEntity
  8
AM_0
100
AcDbSpline
210
0.0
220
0.0
230
1.0
 70
     8
 71
     3
 72
     8
 73
     4
 74
     0
 42
0.0000000001
 43
0.0000000001
 40
4.219358800530717
 40
4.219358800530717
 40
4.219358800530717
 40
4.219358800530717
 40
14.36247867694493
 40
14.36247867694493
 40
14.36247867694493
 40
14.36247867694493
 10
-0.1874999999999694
 20
-2.039110092256491
 30
0.0
 10
-1.810541878445091
 20
-1.630473895844346
 30
0.0
 10
-3.366441768978738
 20
-0.8152369479221768
 30
0.0
 10
-4.922341659512348
 20
0.0000000000000675
 30
0.0
  0
SPLINE
  5
1496
330
1F
100
AcDbEntity
  8
AM_0
100
AcDbSpline
210
0.0
220
0.0
230
1.0
 70
     8
 71
     3
 72
     8
 73
     4
 74
     0
 42
0.0000000001
 43
0.0000000001
 40
1.870660592686466
 40
1.870660592686466
 40
1.870660592686466
 40
1.870660592686466
 40
14.43901837670146
 40
14.43901837670146
 40
14.43901837670146
 40
14.43901837670146
 10
-0.0524999999999998
 20
-2.366720578810868
 30
0.0
 10
-2.102982295614415
 20
-2.110950306050723
 30
0.0
 10
-4.015128952308549
 20
-1.05547515302533
 30
0.0
 10
-5.927275609002684
 20
0.0000000000000675
 30
0.0
  0
SPLINE
  5
1497
330
1F
100
AcDbEntity
  8
AM_0
100
AcDbSpline
210
0.0
220
0.0
230
1.0
 70
     8
 71
     3
 72
     8
 73
     4
 74
     2
 42
0.0000000001
 43
0.0000000001
 44
0.0000000001
 12
-1.0
 22
-0.0000000000000008
 32
0.0
 40
0.0
 40
0.0
 40
0.0
 40
0.0
 40
7.244998274671979
 40
7.244998274671979
 40
7.244998274671979
 40
7.244998274671979
 10
0.0000000000000022
 20
-2.499999999999998
 30
0.0
 10
-2.414999424890657
 20
-2.5
 30
0.0
 10
-4.607499712445327
 20
-1.250000000000001
 30
0.0
 10
-6.799999999999997
 20
-0.0000000000000036
 30
0.0
 11
0.0000000000000022
 21
-2.499999999999998
 31
0.0
 11
-6.799999999999997
 21
-0.0000000000000036
 31
0.0
  0
SPLINE
  5
1498
330
1F
100
AcDbEntity
  8
AM_0
100
AcDbSpline
210
0.0
220
0.0
230
1.0
 70
     8
 71
     3
 72
     8
 73
     4
 74
     0
 42
0.0000000001
 43
0.0000000001
 40
5.297458184749251
 40
5.297458184749251
 40
5.297458184749251
 40
5.297458184749251
 40
7.218994763998551
 40
7.218994763998551
 40
7.218994763998551
 40
7.218994763998551
 10
-14.44527865065492
 20
0.7996632683592857
 30
0.0
 10
-13.7490358637498
 20
0.5584687023702557
 30
0.0
 10
-13.15777511584041
 20
0.2981286195598116
 30
0.0
 10
-12.56651436793102
 20
0.0377885367493676
 30
0.0
  0
SPLINE
  5
1499
330
1F
100
AcDbEntity
  8
AM_0
100
AcDbSpline
210
0.0
220
0.0
230
1.0
 70
     8
 71
     3
 72
     8
 73
     4
 74
     0
 42
0.0000000001
 43
0.0000000001
 40
0.0
 40
0.0
 40
0.0
 40
0.0
 40
2.238610194515266
 40
2.238610194515266
 40
2.238610194515266
 40
2.238610194515266
 10
-5.764766751292496
 20
-1.918347729364956
 30
0.0
 10
-5.033194792198257
 20
-1.918347729364956
 30
0.0
 10
-4.314878680178109
 20
-1.824294738646731
 30
0.0
 10
-3.605707777204399
 20
-1.665354588566362
 30
0.0
  0
SPLINE
  5
149A
330
1F
100
AcDbEntity
  8
AM_0
100
AcDbSpline
210
0.0
220
0.0
230
1.0
 70
     8
 71
     3
 72
     8
 73
     4
 74
     0
 42
0.0000000001
 43
0.0000000001
 40
0.7142832446738512
 40
0.7142832446738512
 40
0.7142832446738512
 40
0.7142832446738512
 40
14.36247867694493
 40
14.36247867694493
 40
14.36247867694493
 40
14.36247867694493
 10
-11.36659098623553
 20
2.300298894912197
 30
0.0
 10
-9.109460817678007
 20
2.193903517737817
 30
0.0
 10
-7.015901238595176
 20
1.096951758868907
 30
0.0
 10
-4.922341659512348
 20
0.0000000000000675
 30
0.0
  0
SPLINE
  5
149B
330
1F
100
AcDbEntity
  8
AM_0
100
AcDbSpline
210
0.0
220
0.0
230
1.0
 70
     8
 71
     3
 72
     8
 73
     4
 74
     0
 42
0.0000000001
 43
0.0000000001
 40
0.0
 40
0.0
 40
0.0
 40
0.0
 40
7.57842115059705
 40
7.57842115059705
 40
7.57842115059705
 40
7.57842115059705
 10
0.0
 20
2.500000000000001
 30
0.0
 10
-1.263070191766184
 20
2.500000000000001
 30
0.0
 10
-2.465277960247933
 20
2.158074947991226
 30
0.0
 10
-3.638454995282068
 20
1.653055255508775
 30
0.0
  0
SPLINE
  5
149C
330
1F
100
AcDbEntity
  8
AM_0
100
AcDbSpline
210
0.0
220
0.0
230
1.0
 70
     8
 71
     3
 72
     8
 73
     4
 74
     2
 42
0.0000000001
 43
0.0000000001
 44
0.0000000001
 12
-0.6417012268563095
 22
-0.7669547153848834
 32
0.0
 13
-0.990099942783104
 23
-0.140364180975397
 33
0.0
 40
0.0
 40
0.0
 40
0.0
 40
0.0
 40
1.293282661808389
 40
1.293282661808389
 40
1.293282661808389
 40
1.293282661808389
 10
0.0
 20
2.037351343342026
 30
0.0
 10
-0.276633690251479
 20
1.70672159807554
 30
0.0
 10
-0.7514597523580158
 20
1.564736898462205
 30
0.0
 10
-1.178286115510971
 20
1.504226711264067
 30
0.0
 11
0.0
 21
2.037351343342026
 31
0.0
 11
-1.178286115510971
 21
1.504226711264067
 31
0.0
  0
SPLINE
  5
149D
330
1F
100
AcDbEntity
  8
AM_0
100
AcDbSpline
210
0.0
220
0.0
230
1.0
 70
     8
 71
     3
 72
     8
 73
     4
 74
     0
 42
0.0000000001
 43
0.0000000001
 40
0.3581103616548037
 40
0.3581103616548037
 40
0.3581103616548037
 40
0.3581103616548037
 40
14.43901837670146
 40
14.43901837670146
 40
14.43901837670146
 40
14.43901837670146
 10
-12.54860429966111
 20
2.422922711426375
 30
0.0
 10
-10.21180691323298
 20
2.364994504026606
 30
0.0
 10
-8.069541261117834
 20
1.182497252013373
 30
0.0
 10
-5.927275609002684
 20
0.0000000000000675
 30
0.0
  0
SPLINE
  5
149E
330
1F
100
AcDbEntity
  8
AM_0
100
AcDbSpline
210
0.0
220
0.0
230
1.0
 70
     8
 71
     3
 72
     8
 73
     4
 74
     2
 42
0.0000000001
 43
0.0000000001
 44
0.0000000001
 12
1.0
 22
0.0000000000000006
 32
0.0
 40
0.0
 40
0.0
 40
0.0
 40
0.0
 40
7.24499827467198
 40
7.24499827467198
 40
7.24499827467198
 40
7.24499827467198
 10
-13.59999999999999
 20
2.500000000000065
 30
0.0
 10
-11.18500057510933
 20
2.500000000000067
 30
0.0
 10
-8.992500287554666
 20
1.250000000000067
 30
0.0
 10
-6.799999999999997
 20
0.0000000000000675
 30
0.0
 11
-13.59999999999999
 21
2.500000000000065
 31
0.0
 11
-6.799999999999997
 21
0.0000000000000675
 31
0.0
  0
SPLINE
  5
149F
330
1F
100
AcDbEntity
  8
AM_0
100
AcDbSpline
210
0.0
220
0.0
230
1.0
 70
     8
 71
     3
 72
     8
 73
     4
 74
     0
 42
0.0000000001
 43
0.0000000001
 40
0.0
 40
0.0
 40
0.0
 40
0.0
 40
2.221495395472776
 40
2.221495395472776
 40
2.221495395472776
 40
2.221495395472776
 10
-11.72234165951234
 20
-2.308722251901407
 30
0.0
 10
-11.35209242693356
 20
-2.308722251901407
 30
0.0
 10
-10.98640356091628
 20
-2.281105427783607
 30
0.0
 10
-10.62456969342857
 20
-2.230143371450459
 30
0.0
  0
SPLINE
  5
14A0
330
1F
100
AcDbEntity
  8
AM_0
100
AcDbSpline
210
0.0
220
0.0
230
1.0
 70
     8
 71
     3
 72
     8
 73
     4
 74
     2
 42
0.0000000001
 43
0.0000000001
 44
0.0000000001
 12
-1.0
 22
-0.0000000000000008
 32
0.0
 40
0.0
 40
0.0
 40
0.0
 40
0.0
 40
7.244998274671981
 40
7.244998274671981
 40
7.244998274671981
 40
7.244998274671981
 10
-12.9632968485389
 20
-2.500000000000007
 30
0.0
 10
-15.37829627342956
 20
-2.500000000000008
 30
0.0
 10
-17.57079656098423
 20
-1.250000000000009
 30
0.0
 10
-19.7632968485389
 20
-0.0000000000000107
 30
0.0
 11
-12.9632968485389
 21
-2.500000000000007
 31
0.0
 11
-19.7632968485389
 21
-0.0000000000000107
 31
0.0
  0
SPLINE
  5
14A1
330
1F
100
AcDbEntity
  8
AM_0
100
AcDbSpline
210
0.0
220
0.0
230
1.0
 70
     8
 71
     3
 72
     8
 73
     4
 74
     0
 42
0.0000000001
 43
0.0000000001
 40
0.0
 40
0.0
 40
0.0
 40
0.0
 40
2.764560748519282
 40
2.764560748519282
 40
2.764560748519282
 40
2.764560748519282
 10
-12.9632968485389
 20
-2.500000000000007
 30
0.0
 10
-12.2665154842495
 20
-2.425141835167757
 30
0.0
 10
-11.81344468806098
 20
-2.380690574255062
 30
0.0
 10
-11.36659098628818
 20
-2.300298894921589
 30
0.0
  0
SPLINE
  5
14A2
330
1F
100
AcDbEntity
  8
AM_0
100
AcDbSpline
210
0.0
220
0.0
230
1.0
 70
     8
 71
     3
 72
     8
 73
     4
 74
     2
 42
0.0000000001
 43
0.0000000001
 44
0.0000000001
 12
-1.0
 22
-0.0000000000000008
 32
0.0
 40
0.0
 40
0.0
 40
0.0
 40
0.0
 40
6.735826676961943
 40
6.735826676961943
 40
6.735826676961943
 40
6.735826676961943
 10
-11.72234165951234
 20
-2.308722251901336
 30
0.0
 10
-13.96761721849965
 20
-2.308722251901338
 30
0.0
 10
-16.00888377485624
 20
-1.154361125950674
 30
0.0
 10
-18.05015033121282
 20
-0.0000000000000107
 30
0.0
 11
-11.72234165951234
 21
-2.308722251901336
 31
0.0
 11
-18.05015033121282
 21
-0.0000000000000107
 31
0.0
  0
SPLINE
  5
14A3
330
1F
100
AcDbEntity
  8
AM_0
100
AcDbSpline
210
0.0
220
0.0
230
1.0
 70
     8
 71
     3
 72
     8
 73
     4
 74
     0
 42
0.0000000001
 43
0.0000000001
 40
0.0
 40
0.0
 40
0.0
 40
0.0
 40
5.192508374738713
 40
5.192508374738713
 40
5.192508374738713
 40
5.192508374738713
 10
-13.59999999999999
 20
2.499999999999994
 30
0.0
 10
-14.46541806245644
 20
2.499999999999994
 30
0.0
 10
-15.30226376061701
 20
2.339480477104411
 30
0.0
 10
-16.65104953563542
 20
1.655833208577977
 30
0.0
  0
SPLINE
  5
14A4
330
1F
100
AcDbEntity
  8
AM_0
100
AcDbSpline
210
0.0
220
0.0
230
1.0
 70
     8
 71
     3
 72
     8
 73
     4
 74
     0
 42
0.0000000001
 43
0.0000000001
 40
0.0
 40
0.0
 40
0.0
 40
0.0
 40
2.238610194515266
 40
2.238610194515266
 40
2.238610194515266
 40
2.238610194515266
 10
-18.7280635998314
 20
-1.918347729364963
 30
0.0
 10
-17.99649164073716
 20
-1.918347729364963
 30
0.0
 10
-17.27817552871702
 20
-1.824294738646738
 30
0.0
 10
-16.56900462574331
 20
-1.665354588566369
 30
0.0
  0
SPLINE
  5
14A5
330
1F
100
AcDbEntity
  8
AM_0
100
AcDbSpline
210
0.0
220
0.0
230
1.0
 70
     8
 71
     3
 72
     8
 73
     4
 74
     2
 42
0.0000000001
 43
0.0000000001
 44
0.0000000001
 12
-1.0
 22
-0.0000000000000008
 32
0.0
 40
0.0
 40
0.0
 40
0.0
 40
0.0
 40
7.591087800261676
 40
7.591087800261676
 40
7.591087800261676
 40
7.591087800261676
 10
-18.7280635998314
 20
-1.918347729364963
 30
0.0
 10
-21.25842619991863
 20
-1.918347729364965
 30
0.0
 10
-23.18449033029348
 20
0.1364286819882727
 30
0.0
 10
-25.11055446066833
 20
2.191205093341511
 30
0.0
 11
-18.7280635998314
 21
-1.918347729364963
 31
0.0
 11
-25.11055446066833
 21
2.191205093341511
 31
0.0
  0
SPLINE
  5
14A6
330
1F
100
AcDbEntity
  8
AM_0
100
AcDbSpline
210
0.0
220
0.0
230
1.0
 70
     8
 71
     3
 72
     8
 73
     4
 74
     2
 42
0.0000000001
 43
0.0000000001
 44
0.0000000001
 12
-1.0
 22
-0.0000000000000008
 32
0.0
 40
0.0
 40
0.0
 40
0.0
 40
0.0
 40
6.406070643662336
 40
6.406070643662336
 40
6.406070643662336
 40
6.406070643662336
 10
-20.28145007676375
 20
-2.018010028381967
 30
0.0
 10
-22.41680695798453
 20
-2.018010028381969
 30
0.0
 10
-23.76368070932645
 20
0.0865975324797709
 30
0.0
 10
-25.11055446066837
 20
2.191205093341511
 30
0.0
 11
-20.28145007676375
 21
-2.018010028381967
 31
0.0
 11
-25.11055446066837
 21
2.191205093341511
 31
0.0
  0
SPLINE
  5
14A7
330
1F
100
AcDbEntity
  8
AM_0
100
AcDbSpline
210
0.0
220
0.0
230
1.0
 70
     8
 71
     3
 72
     8
 73
     4
 74
     0
 42
0.0000000001
 43
0.0000000001
 40
0.8520923236092304
 40
0.8520923236092304
 40
0.8520923236092304
 40
0.8520923236092304
 40
5.795998619737583
 40
5.795998619737583
 40
5.795998619737583
 40
5.795998619737583
 10
-25.11055446066833
 20
2.191205093341511
 30
0.0
 10
-23.50364141625224
 20
2.132465266335815
 30
0.0
 10
-21.34314879507158
 20
1.025614865437908
 30
0.0
 10
-19.7632968485389
 20
-0.0000000000000107
 30
0.0
  0
SPLINE
  5
14A8
330
1F
100
AcDbEntity
  8
AM_0
100
AcDbSpline
210
0.0
220
0.0
230
1.0
 70
     8
 71
     3
 72
     8
 73
     4
 74
     0
 42
0.0000000001
 43
0.0000000001
 40
4.451443990596779
 40
4.451443990596779
 40
4.451443990596779
 40
4.451443990596779
 40
14.36247867694493
 40
14.36247867694493
 40
14.36247867694493
 40
14.36247867694493
 10
-23.36051820932549
 20
2.499999999999916
 30
0.0
 10
-20.76735746638878
 20
1.819026352187607
 30
0.0
 10
-19.45098455251592
 20
0.7965834740094984
 30
0.0
 10
-18.05015033121282
 20
-0.0000000000000107
 30
0.0
  0
SPLINE
  5
14A9
330
1F
100
AcDbEntity
  8
AM_0
100
AcDbSpline
210
0.0
220
0.0
230
1.0
 70
     8
 71
     3
 72
     8
 73
     4
 74
     0
 42
0.0000000001
 43
0.0000000001
 40
1.870660592686466
 40
1.870660592686466
 40
1.870660592686466
 40
1.870660592686466
 40
12.76932635337807
 40
12.76932635337807
 40
12.76932635337807
 40
12.76932635337807
 10
-12.2699601143147
 20
-2.425141835167757
 30
0.0
 10
-14.0682297025137
 20
-2.514435825655349
 30
0.0
 10
-16.28829218713515
 20
-1.418944681115021
 30
0.0
 10
-18.366180565742
 20
-0.2804920912225075
 30
0.0
  0
LINE
  5
14AA
330
1F
100
AcDbEntity
  8
AM_0
100
AcDbLine
 10
-5.764766751292496
 20
-1.918347729364954
 30
0.0
 11
-10.62456969343695
 21
-2.230143371451667
 31
0.0
  0
LINE
  5
14AB
330
1F
100
AcDbEntity
  8
AM_0
100
AcDbLine
 10
-9.545877283273684
 20
2.010426274461844
 30
0.0
 11
-1.178286115510971
 21
1.504226711264069
 31
0.0
  0
LINE
  5
14AC
330
1F
100
AcDbEntity
  8
AM_11
100
AcDbLine
 10
-0.0000000000003908
 20
2.500000000000001
 30
0.0
 11
-18.00000000000013
 21
2.499999999999916
 31
0.0
  0
LINE
  5
14AD
330
1F
100
AcDbEntity
  8
AM_11
100
AcDbLine
 10
-18.00000000000013
 20
-2.499999999999875
 30
0.0
 11
0.0000000000000022
 21
-2.499999999999998
 31
0.0
  0
LINE
  5
14AF
330
1F
100
AcDbEntity
  8
AM_0
100
AcDbLine
 10
-0.0524999999999998
 20
-2.366720578810868
 30
0.0
 11
-0.1875000000000049
 21
-2.039110092256633
 31
0.0
  0
LINE
  5
14B0
330
1F
100
AcDbEntity
  8
AM_0
100
AcDbLine
 10
-0.0524999999999998
 20
-2.366720578810868
 30
0.0
 11
-0.052500000000002
 21
0.1625670636111938
 31
0.0
  0
LINE
  5
14B1
330
1F
100
AcDbEntity
  8
AM_0
100
AcDbLine
 10
0.0000000000000022
 20
-2.499999999999998
 30
0.0
 11
0.0
 21
0.1000000000000529
 31
0.0
  0
LINE
  5
14B2
330
1F
100
AcDbEntity
  8
AM_0
100
AcDbLine
 10
-0.1875000000000049
 20
-2.039110092256633
 30
0.0
 11
-0.1875000000000049
 21
-2.012177715566279
 31
0.0
  0
LINE
  5
14B3
330
1F
100
AcDbEntity
  8
AM_0
100
AcDbLine
 10
-0.1678199262354596
 20
0.3000000000000131
 30
0.0
 11
0.0
 21
0.5000000000000444
 31
0.0
  0
ARC
  5
14B4
330
1F
100
AcDbEntity
  8
AM_0
100
AcDbCircle
 10
7.103384221191326
 20
0.0105186558542467
 30
0.0
 40
7.566260194955924
100
AcDbArc
 50
175.3635181775062
 51
195.5055110014724
  0
LINE
  5
14B5
330
1F
100
AcDbEntity
  8
AM_0
100
AcDbLine
 10
0.0000000000000022
 20
-2.499999999999998
 30
0.0
 11
-0.0524999999999998
 21
-2.366720578810868
 31
0.0
  0
LINE
  5
14B6
330
1F
100
AcDbEntity
  8
AM_0
100
AcDbLine
 10
0.0
 20
0.5000000000000444
 30
0.0
 11
0.0
 21
2.500000000000001
 31
0.0
  0
LINE
  5
14B7
330
1F
100
AcDbEntity
  8
AM_0
100
AcDbLine
 10
0.0
 20
0.1000000000000529
 30
0.0
 11
-1.178286115510971
 21
1.504226711264069
 31
0.0
  0
ARC
  5
14B8
330
1F
100
AcDbEntity
  8
AM_0
100
AcDbCircle
 10
-20.19071536733231
 20
0.8180573201123177
 30
0.0
 40
3.318232602023631
100
AcDbArc
 50
201.3423460643704
 51
269.4110822024502
  0
ARC
  5
14B9
330
1F
100
AcDbEntity
  8
AM_0
100
AcDbCircle
 10
-0.5669158325266066
 20
39.82429278136628
 30
0.0
 40
41.4189650177193
100
AcDbArc
 50
247.1495126141754
 51
250.4230435276618
  0
LINE
  5
14BA
330
1F
100
AcDbEntity
  8
AM_0
100
AcDbLine
 10
-20.22482140172858
 20
-2.499999999999873
 30
0.0
 11
-24.63397459621789
 21
-2.499999999999876
 31
0.0
  0
LINE
  5
14BB
330
1F
100
AcDbEntity
  8
AM_0
100
AcDbLine
 10
-18.7280635998314
 20
-1.918347729364965
 30
0.0
 11
-20.2814500783257
 21
-2.018010028482224
 31
0.0
  0
ARC
  5
14BC
330
1F
100
AcDbEntity
  8
AM_0
100
AcDbCircle
 10
-20.22362858132435
 20
-0.2864501825362158
 30
0.0
 40
2.213550138852425
100
AcDbArc
 50
269.9691249017173
 51
312.5039386329094
  0
LINE
  5
14BD
330
1F
100
AcDbEntity
  8
AM_0
100
AcDbLine
 10
-18.00000000000013
 20
-0.978965280359667
 30
0.0
 11
-18.366180565742
 21
-0.2804920912225099
 31
0.0
  0
LINE
  5
14BE
330
1F
100
AcDbEntity
  8
AM_0
100
AcDbLine
 10
-18.366180565742
 20
-0.2804920912225099
 30
0.0
 11
-18.00000000000013
 21
-0.0283599263870027
 31
0.0
  0
LINE
  5
14C0
330
1F
100
AcDbEntity
  8
AM_0
100
AcDbLine
 10
-21.70258898908308
 20
1.961427377024362
 30
0.0
 11
-16.65104953563531
 21
1.655833208577975
 31
0.0
  0
LINE
  5
155C
330
1F
100
AcDbEntity
  8
AM_11
100
AcDbLine
 10
-18.00000000000013
 20
-2.49999999999987
 30
0.0
 11
-18.00000000000013
 21
2.499999999999912
 31
0.0
  0
LINE
  5
1571
330
1F
100
AcDbEntity
  8
AM_0
100
AcDbLine
 10
-26.5
 20
3.000000000000013
 30
0.0
 11
-26.5
 21
-2.999999999999252
 31
0.0
  0
LINE
  5
1588
330
1F
100
AcDbEntity
  8
AM_0
100
AcDbLine
 10
-23.36051820932444
 20
2.499999999999912
 30
0.0
 11
-24.63397459621518
 21
2.499999999999912
 31
0.0
  0
LINE
  5
1589
330
1F
100
AcDbEntity
  8
AM_0
100
AcDbLine
 10
-24.63397459621518
 20
2.499999999999912
 30
0.0
 11
-24.63397459621537
 21
2.146384194655177
 31
0.0
  0
LINE
  5
158A
330
1F
100
AcDbEntity
  8
AM_0
100
AcDbLine
 10
-26.5
 20
3.000000000000013
 30
0.0
 11
-24.63397459621518
 21
2.499999999999911
 31
0.0
  0
LINE
  5
158B
330
1F
100
AcDbEntity
  8
AM_0
100
AcDbLine
 10
-26.5
 20
-2.999999999999252
 30
0.0
 11
-24.63397459621789
 21
-2.499999999999876
 31
0.0
  0
LINE
  5
158E
330
1F
100
AcDbEntity
  8
AM_0
100
AcDbLine
 10
-24.63397459621575
 20
1.451938345635644
 30
0.0
 11
-24.63397459621789
 21
-2.499999999999876
 31
0.0
  0
VIEWPORT
  5
110
330
101
100
AcDbEntity
 67
     1
  8
0
100
AcDbViewport
 10
420.5
 20
297.0
 30
0.0
 40
948.9782706766916
 41
628.452
 68
     1
 69
     1
1001
ACAD
1000
MVIEW
1002
{
1070
    16
1010
0.0
1020
0.0
1030
0.0
1010
0.0
1020
0.0
1030
1.0
1040
0.0
1040
628.452
1040
420.5
1040
297.0
1040
50.0
1040
0.0
1040
0.0
1070
     0
1070
   100
1070
     1
1070
     1
1070
     0
1070
     0
1070
     0
1070
     0
1040
0.0
1040
0.0
1040
0.0
1040
10.0
1040
10.0
1040
10.0
1040
10.0
1070
     0
1002
{
1002
}
1002
}
  0
ENDSEC
  0
SECTION
  2
OBJECTS
  0
DICTIONARY
  5
C
330
0
100
AcDbDictionary
  3
ACAD_GROUP
350
D
  3
ACAD_LAYOUT
350
1A
  3
ACAD_MLINESTYLE
350
17
  3
ACAD_PLOTSETTINGS
350
19
  3
ACAD_PLOTSTYLENAME
350
E
  3
ACDBVARIABLEDICTIONARY
350
34
  3
ACMDICTIONARY
350
43
  3
AMG
350
2B
  3
AMGSNAPSETTINGS
350
6E
  3
DWGPROPS
350
17B2
  3
ACDBHEADERROUNDTRIPXREC
350
17BE
  0
DICTIONARY
  5
74
330
1F
100
AcDbDictionary
280
     1
  3
ACAD_INDEX
360
17B4
  3
ACAD_LAYOUTSELFREF
360
17E1
  0
DICTIONARY
  5
17E6
330
101
100
AcDbDictionary
280
     1
  3
ACAD_LAYOUTSELFREF
360
17E7
  0
DICTIONARY
  5
D
102
{ACAD_REACTORS
330
C
102
}
330
C
100
AcDbDictionary
  0
DICTIONARY
  5
1A
102
{ACAD_REACTORS
330
C
102
}
330
C
100
AcDbDictionary
  0
DICTIONARY
  5
17
102
{ACAD_REACTORS
330
C
102
}
330
C
100
AcDbDictionary
  3
STANDARD
350
18
  0
DICTIONARY
  5
19
102
{ACAD_REACTORS
330
C
102
}
330
C
100
AcDbDictionary
  0
ACDBDICTIONARYWDFLT
  5
E
102
{ACAD_REACTORS
330
C
102
}
330
C
100
AcDbDictionary
281
     1
  3
Normal
350
F
100
AcDbDictionaryWithDefault
340
F
  0
DICTIONARY
  5
34
102
{ACAD_REACTORS
330
C
102
}
330
C
100
AcDbDictionary
  3
INDEXCTL
350
35
  3
SORTENTS
350
B5E
  0
DICTIONARY
  5
43
102
{ACAD_REACTORS
330
C
102
}
330
C
100
AcDbDictionary
  3
ACMSTDDICTIONARY
350
260
  0
DICTIONARY
  5
2B
102
{ACAD_REACTORS
330
C
102
}
330
C
100
AcDbDictionary
  3
ACMGSETTINGS
350
2C
  0
DICTIONARY
  5
6E
102
{ACAD_REACTORS
330
C
102
}
330
C
100
AcDbDictionary
  0
XRECORD
  5
17B2
102
{ACAD_REACTORS
330
C
102
}
330
C
100
AcDbXrecord
  1
DWGPROPS COOKIE
  2

  3

  4

  6

  7

  8

  9

300
AmdtFileType=82
301
=
302
=
303
=
304
=
305
=
306
=
307
=
308
=
309
=
 40
0.0601381597222222
 41
2452836.771637361
 42
2452901.579353472
  1

 90
        1
  0
DICTIONARY
  5
17BE
102
{ACAD_REACTORS
330
C
102
}
330
C
100
AcDbDictionary
  3
TSTACKALIGN
350
17BF
  3
TSTACKSIZE
350
17C0
  3
HYPERLINKBASE
350
17C1
  3
STYLESHEET
350
17C2
  3
LAYOUTDICT
350
17C3
  3
PLOTSETDICT
350
17C4
  3
PLOTSTYLNAMDICT
350
17C5
  3
LWETCUNION
350
17C6
  3
INSUNITS
350
17C7
  3
CEPSNTYPE
350
17C8
  3
FINGERPRINTGUID
350
17C9
  3
VERSIONGUID
350
17CA
  3
PSVPSCALE
350
17CB
  3
DIMSTYLEDATA
350
17CC
  3
PUCSORTHOREF
350
17CD
  3
PUCSORTHOVIEW
350
17CE
  3
PUCSBASE
350
17CF
  3
PUCSORGTOP
350
17D0
  3
PUCSORGBOTTOM
350
17D1
  3
PUCSORGLEFT
350
17D2
  3
PUCSORGRIGHT
350
17D3
  3
PUCSORGFRONT
350
17D4
  3
PUCSORGBACK
350
17D5
  3
UCSORTHOREF
350
17D6
  3
UCSORTHOVIEW
350
17D7
  3
UCSBASE
350
17D8
  3
UCSORGTOP
350
17D9
  3
UCSORGBOTTOM
350
17DA
  3
UCSORGLEFT
350
17DB
  3
UCSORGRIGHT
350
17DC
  3
UCSORGFRONT
350
17DD
  3
UCSORGBACK
350
17DE
  0
DICTIONARY
  5
17B4
102
{ACAD_REACTORS
330
74
102
}
330
74
100
AcDbDictionary
  3
*A1
350
17B5
  0
XRECORD
  5
17E1
102
{ACAD_REACTORS
330
74
102
}
330
74
100
AcDbXrecord
340
1F
  0
XRECORD
  5
17E7
102
{ACAD_REACTORS
330
17E6
102
}
330
17E6
100
AcDbXrecord
340
101
  0
MLINESTYLE
  5
18
102
{ACAD_REACTORS
330
17
102
}
330
17
100
AcDbMlineStyle
  2
STANDARD
 70
     0
  3

 62
   256
 51
90.0
 52
90.0
 71
     2
 49
0.5
 62
   256
  6
BYLAYER
 49
-0.5
 62
   256
  6
BYLAYER
  0
ACDBPLACEHOLDER
  5
F
102
{ACAD_REACTORS
330
E
102
}
330
E
100
AcDbPlaceHolder
280
     0
  0
DICTIONARYVAR
  5
35
102
{ACAD_REACTORS
330
34
102
}
330
34
100
DictionaryVariables
280
     0
  1
1
  0
DICTIONARYVAR
  5
B5E
102
{ACAD_REACTORS
330
34
102
}
330
34
100
DictionaryVariables
280
     0
  1
96
  0
DICTIONARY
  5
260
102
{ACAD_REACTORS
330
43
102
}
330
43
100
AcDbDictionary
  0
DICTIONARY
  5
2C
102
{ACAD_REACTORS
330
2B
102
}
330
2B
100
AcDbDictionary
  3
DWGSETTINGS
350
2D
  0
XRECORD
  5
17BF
102
{ACAD_REACTORS
330
17BE
102
}
330
17BE
100
AcDbXrecord
 90
        1
  0
XRECORD
  5
17C0
102
{ACAD_REACTORS
330
17BE
102
}
330
17BE
100
AcDbXrecord
 90
       70
  0
XRECORD
  5
17C1
102
{ACAD_REACTORS
330
17BE
102
}
330
17BE
100
AcDbXrecord
  1

  0
XRECORD
  5
17C2
102
{ACAD_REACTORS
330
17BE
102
}
330
17BE
100
AcDbXrecord
  1
ASAMI.ctb
  0
XRECORD
  5
17C3
102
{ACAD_REACTORS
330
17BE
102
}
330
17BE
100
AcDbXrecord
340
1A
  0
XRECORD
  5
17C4
102
{ACAD_REACTORS
330
17BE
102
}
330
17BE
100
AcDbXrecord
340
19
  0
XRECORD
  5
17C5
102
{ACAD_REACTORS
330
17BE
102
}
330
17BE
100
AcDbXrecord
340
E
  0
XRECORD
  5
17C6
102
{ACAD_REACTORS
330
17BE
102
}
330
17BE
100
AcDbXrecord
 90
    10781
  0
XRECORD
  5
17C7
102
{ACAD_REACTORS
330
17BE
102
}
330
17BE
100
AcDbXrecord
 90
        4
  0
XRECORD
  5
17C8
102
{ACAD_REACTORS
330
17BE
102
}
330
17BE
100
AcDbXrecord
 90
        0
  0
XRECORD
  5
17C9
102
{ACAD_REACTORS
330
17BE
102
}
330
17BE
100
AcDbXrecord
  1
{AFB28963-8C59-40AE-9337-C84526B81ACE}
  0
XRECORD
  5
17CA
102
{ACAD_REACTORS
330
17BE
102
}
330
17BE
100
AcDbXrecord
  1
{B76975B5-9899-4DA0-95C6-F539A9F4E635}
  0
XRECORD
  5
17CB
102
{ACAD_REACTORS
330
17BE
102
}
330
17BE
100
AcDbXrecord
 40
0.0
  0
XRECORD
  5
17CC
102
{ACAD_REACTORS
330
17BE
102
}
330
17BE
100
AcDbXrecord
1000
DSTYLE
1002
{
1070
    79
 70
     2
1070
   341
340
59
1070
   342
340
59
1070
   371
 70
    -1
1070
   372
 70
    -1
1002
}
  0
XRECORD
  5
17CD
102
{ACAD_REACTORS
330
17BE
102
}
330
17BE
100
AcDbXrecord
340
0
  0
XRECORD
  5
17CE
102
{ACAD_REACTORS
330
17BE
102
}
330
17BE
100
AcDbXrecord
 70
     0
  0
XRECORD
  5
17CF
102
{ACAD_REACTORS
330
17BE
102
}
330
17BE
100
AcDbXrecord
340
0
  0
XRECORD
  5
17D0
102
{ACAD_REACTORS
330
17BE
102
}
330
17BE
100
AcDbXrecord
 10
0.0
 20
0.0
 30
0.0
  0
XRECORD
  5
17D1
102
{ACAD_REACTORS
330
17BE
102
}
330
17BE
100
AcDbXrecord
 10
0.0
 20
0.0
 30
0.0
  0
XRECORD
  5
17D2
102
{ACAD_REACTORS
330
17BE
102
}
330
17BE
100
AcDbXrecord
 10
0.0
 20
0.0
 30
0.0
  0
XRECORD
  5
17D3
102
{ACAD_REACTORS
330
17BE
102
}
330
17BE
100
AcDbXrecord
 10
0.0
 20
0.0
 30
0.0
  0
XRECORD
  5
17D4
102
{ACAD_REACTORS
330
17BE
102
}
330
17BE
100
AcDbXrecord
 10
0.0
 20
0.0
 30
0.0
  0
XRECORD
  5
17D5
102
{ACAD_REACTORS
330
17BE
102
}
330
17BE
100
AcDbXrecord
 10
0.0
 20
0.0
 30
0.0
  0
XRECORD
  5
17D6
102
{ACAD_REACTORS
330
17BE
102
}
330
17BE
100
AcDbXrecord
340
0
  0
XRECORD
  5
17D7
102
{ACAD_REACTORS
330
17BE
102
}
330
17BE
100
AcDbXrecord
 70
     0
  0
XRECORD
  5
17D8
102
{ACAD_REACTORS
330
17BE
102
}
330
17BE
100
AcDbXrecord
340
0
  0
XRECORD
  5
17D9
102
{ACAD_REACTORS
330
17BE
102
}
330
17BE
100
AcDbXrecord
 10
0.0
 20
0.0
 30
0.0
  0
XRECORD
  5
17DA
102
{ACAD_REACTORS
330
17BE
102
}
330
17BE
100
AcDbXrecord
 10
0.0
 20
0.0
 30
0.0
  0
XRECORD
  5
17DB
102
{ACAD_REACTORS
330
17BE
102
}
330
17BE
100
AcDbXrecord
 10
0.0
 20
0.0
 30
0.0
  0
XRECORD
  5
17DC
102
{ACAD_REACTORS
330
17BE
102
}
330
17BE
100
AcDbXrecord
 10
0.0
 20
0.0
 30
0.0
  0
XRECORD
  5
17DD
102
{ACAD_REACTORS
330
17BE
102
}
330
17BE
100
AcDbXrecord
 10
0.0
 20
0.0
 30
0.0
  0
XRECORD
  5
17DE
102
{ACAD_REACTORS
330
17BE
102
}
330
17BE
100
AcDbXrecord
 10
0.0
 20
0.0
 30
0.0
  0
LAYER_INDEX
  5
17B5
102
{ACAD_REACTORS
330
17B4
102
}
330
17B4
100
AcDbIndex
 40
2453152.446246909
100
AcDbLayerIndex
  8
0
360
17B6
 90
        0
  8
AM_0
360
17B7
 90
       53
  8
AM_11
360
17B8
 90
        3
  8
AM_7
360
17B9
 90
        1
  8
AM_5
360
17BA
 90
        4
  8
Defpoints
360
17BB
 90
        0
  8
AM_6
360
17BC
 90
        1
  0
XRECORD
  5
2D
102
{ACAD_REACTORS
330
2C
102
}
330
2C
100
AcDbXrecord
  1
VERSION
140
15.0
  1
PRODUCT
  2
AutoCAD Mechanical 2000
  0
IDBUFFER
  5
17B6
330
0
100
AcDbIdBuffer
  0
IDBUFFER
  5
17B7
330
0
100
AcDbIdBuffer
330
1588
330
1589
330
158A
330
158B
330
158E
330
139D
330
139E
330
13A1
330
13A2
330
13C4
330
13C7
330
1494
330
1495
330
1496
330
1497
330
1498
330
1499
330
149A
330
149B
330
149C
330
149D
330
149E
330
149F
330
14A0
330
14A1
330
14A2
330
14A3
330
14A4
330
14A5
330
14A6
330
14A7
330
14A8
330
14A9
330
14AA
330
14AB
330
14AF
330
14B0
330
14B1
330
14B2
330
14B3
330
14B4
330
14B5
330
14B6
330
14B7
330
14B8
330
14B9
330
14BA
330
14BB
330
14BC
330
14BD
330
14BE
330
14C0
330
1571
  0
IDBUFFER
  5
17B8
330
0
100
AcDbIdBuffer
330
14AC
330
14AD
330
155C
  0
IDBUFFER
  5
17B9
330
0
100
AcDbIdBuffer
330
F47
  0
IDBUFFER
  5
17BA
330
0
100
AcDbIdBuffer
330
105F
330
10EF
330
1180
330
13A3
  0
IDBUFFER
  5
17BB
330
0
100
AcDbIdBuffer
  0
IDBUFFER
  5
17BC
330
0
100
AcDbIdBuffer
330
E5A
  0
ENDSEC
  0
EOF
