  0
SECTION
  2
HEADER
  9
$ACADVER
  1
AC1014
  9
$ACADMAINTVER
 70
     9
  9
$DWGCODEPAGE
  3
ANSI_932
  9
$INSBASE
 10
0.0
 20
0.0
 30
0.0
  9
$EXTMIN
 10
-113.7
 20
-56.50000099999793
 30
-0.00000001
  9
$EXTMAX
 10
15.0
 20
8.24032717499622
 30
0.00000001
  9
$LIMMIN
 10
-127.2151052491144
 20
-74.87452384220507
  9
$LIMMAX
 10
33.88325021764075
 20
31.27634774903237
  9
$ORTHOMODE
 70
     0
  9
$REGENMODE
 70
     1
  9
$FILLMODE
 70
     1
  9
$QTEXTMODE
 70
     0
  9
$MIRRTEXT
 70
     0
  9
$DRAGMODE
 70
     2
  9
$LTSCALE
 40
1.0
  9
$OSMODE
 70
    55
  9
$ATTMODE
 70
     1
  9
$TEXTSIZE
 40
2.5
  9
$TRACEWID
 40
1.0
  9
$TEXTSTYLE
  7
STANDARD
  9
$CLAYER
  8
AM_0
  9
$CELTYPE
  6
BYLAYER
  9
$CECOLOR
 62
   256
  9
$CELTSCALE
 40
1.0
  9
$DELOBJ
 70
     1
  9
$DISPSILH
 70
     0
  9
$DIMSCALE
 40
1.0
  9
$DIMASZ
 40
2.5
  9
$DIMEXO
 40
1.0
  9
$DIMDLI
 40
12.0
  9
$DIMRND
 40
0.0
  9
$DIMDLE
 40
0.0
  9
$DIMEXE
 40
1.0
  9
$DIMTP
 40
0.1
  9
$DIMTM
 40
0.1
  9
$DIMTXT
 40
3.2
  9
$DIMCEN
 40
0.0
  9
$DIMTSZ
 40
0.0
  9
$DIMTOL
 70
     0
  9
$DIMLIM
 70
     0
  9
$DIMTIH
 70
     0
  9
$DIMTOH
 70
     0
  9
$DIMSE1
 70
     0
  9
$DIMSE2
 70
     0
  9
$DIMTAD
 70
     3
  9
$DIMZIN
 70
     8
  9
$DIMBLK
  1
OPEN30
  9
$DIMASO
 70
     1
  9
$DIMSHO
 70
     1
  9
$DIMPOST
  1

  9
$DIMAPOST
  1
"
  9
$DIMALT
 70
     0
  9
$DIMALTD
 70
     2
  9
$DIMALTF
 40
0.0393701
  9
$DIMLFAC
 40
1.0
  9
$DIMTOFL
 70
     1
  9
$DIMTVP
 40
0.0
  9
$DIMTIX
 70
     0
  9
$DIMSOXD
 70
     0
  9
$DIMSAH
 70
     0
  9
$DIMBLK1
  1

  9
$DIMBLK2
  1

  9
$DIMSTYLE
  2
AM_JIS
  9
$DIMCLRD
 70
   256
  9
$DIMCLRE
 70
   256
  9
$DIMCLRT
 70
     2
  9
$DIMTFAC
 40
0.71
  9
$DIMGAP
 40
1.5
  9
$DIMJUST
 70
     0
  9
$DIMSD1
 70
     0
  9
$DIMSD2
 70
     0
  9
$DIMTOLJ
 70
     0
  9
$DIMTZIN
 70
     0
  9
$DIMALTZ
 70
     0
  9
$DIMALTTZ
 70
     0
  9
$DIMFIT
 70
     3
  9
$DIMUPT
 70
     0
  9
$DIMUNIT
 70
     2
  9
$DIMDEC
 70
     3
  9
$DIMTDEC
 70
     3
  9
$DIMALTU
 70
     2
  9
$DIMALTTD
 70
     2
  9
$DIMTXSTY
  7
ASAMI
  9
$DIMAUNIT
 70
     0
  9
$LUNITS
 70
     2
  9
$LUPREC
 70
     2
  9
$SKETCHINC
 40
1.0
  9
$FILLETRAD
 40
2.5
  9
$AUNITS
 70
     0
  9
$AUPREC
 70
     0
  9
$MENU
  1
.
  9
$ELEVATION
 40
0.0
  9
$PELEVATION
 40
0.0
  9
$THICKNESS
 40
0.0
  9
$LIMCHECK
 70
     0
  9
$BLIPMODE
 70
     0
  9
$CHAMFERA
 40
1.0
  9
$CHAMFERB
 40
1.0
  9
$CHAMFERC
 40
20.0
  9
$CHAMFERD
 40
0.0
  9
$SKPOLY
 70
     0
  9
$TDCREATE
 40
2452836.771637361
  9
$TDUPDATE
 40
2453152.447497129
  9
$TDINDWG
 40
0.0435251505
  9
$TDUSRTIMER
 40
0.0435251505
  9
$USRTIMER
 70
     1
  9
$ANGBASE
 50
0.0
  9
$ANGDIR
 70
     0
  9
$PDMODE
 70
     0
  9
$PDSIZE
 40
0.0
  9
$PLINEWID
 40
0.0
  9
$COORDS
 70
     1
  9
$SPLFRAME
 70
     0
  9
$SPLINETYPE
 70
     6
  9
$SPLINESEGS
 70
     8
  9
$ATTDIA
 70
     1
  9
$ATTREQ
 70
     1
  9
$HANDLING
 70
 12289
  9
$HANDSEED
  5
17DD
  9
$SURFTAB1
 70
     6
  9
$SURFTAB2
 70
     6
  9
$SURFTYPE
 70
     6
  9
$SURFU
 70
     6
  9
$SURFV
 70
     6
  9
$UCSNAME
  2

  9
$UCSORG
 10
0.0
 20
0.0
 30
0.0
  9
$UCSXDIR
 10
1.0
 20
0.0
 30
0.0
  9
$UCSYDIR
 10
0.0
 20
1.0
 30
0.0
  9
$PUCSNAME
  2

  9
$PUCSORG
 10
0.0
 20
0.0
 30
0.0
  9
$PUCSXDIR
 10
1.0
 20
0.0
 30
0.0
  9
$PUCSYDIR
 10
0.0
 20
1.0
 30
0.0
  9
$USERI1
 70
     0
  9
$USERI2
 70
     0
  9
$USERI3
 70
     0
  9
$USERI4
 70
     0
  9
$USERI5
 70
     0
  9
$USERR1
 40
0.0
  9
$USERR2
 40
0.0
  9
$USERR3
 40
0.0
  9
$USERR4
 40
0.0
  9
$USERR5
 40
0.0
  9
$WORLDVIEW
 70
     1
  9
$SHADEDGE
 70
     3
  9
$SHADEDIF
 70
    70
  9
$TILEMODE
 70
     1
  9
$MAXACTVP
 70
    64
  9
$PINSBASE
 10
0.0
 20
0.0
 30
0.0
  9
$PLIMCHECK
 70
     0
  9
$PEXTMIN
 10
1.000000000000000E+20
 20
1.000000000000000E+20
 30
1.000000000000000E+20
  9
$PEXTMAX
 10
-1.000000000000000E+20
 20
-1.000000000000000E+20
 30
-1.000000000000000E+20
  9
$PLIMMIN
 10
0.0
 20
0.0
  9
$PLIMMAX
 10
841.0
 20
594.0
  9
$UNITMODE
 70
     0
  9
$VISRETAIN
 70
     1
  9
$PLINEGEN
 70
     0
  9
$PSLTSCALE
 70
     0
  9
$TREEDEPTH
 70
  3020
  9
$PICKSTYLE
 70
     0
  9
$CMLSTYLE
  2
STANDARD
  9
$CMLJUST
 70
     0
  9
$CMLSCALE
 40
20.0
  9
$PROXYGRAPHICS
 70
     1
  9
$MEASUREMENT
 70
     1
  0
ENDSEC
  0
SECTION
  2
CLASSES
  0
CLASS
  1
ACDBDICTIONARYWDFLT
  2
AcDbDictionaryWithDefault
  3
AutoCAD 2000
 90
        0
280
     0
281
     0
  0
CLASS
  1
ACDBPLACEHOLDER
  2
AcDbPlaceHolder
  3
AutoCAD 2000
 90
        0
280
     0
281
     0
  0
CLASS
  1
LAYOUT
  2
AcDbLayout
  3
AutoCAD 2000
 90
        0
280
     0
281
     0
  0
CLASS
  1
AMGSETTINGSOBJ
  2
AmgSettingsObj
  3
"AcadM|Product Description: AutoCAD Mechanical 2000|Company: Autodesk"
 90
        0
280
     0
281
     0
  0
CLASS
  1
ACME_DOCUMENT
  2
AcMeDbDoc
  3
AcMeServices
 90
        0
280
     0
281
     0
  0
CLASS
  1
ACMESCOPE
  2
AcMeScope
  3
AcMeServices
 90
        0
280
     0
281
     0
  0
CLASS
  1
ACMECOMMANDHISTORY
  2
AcMeCommandHistory
  3
AcMeServices
 90
        0
280
     0
281
     0
  0
CLASS
  1
DICTIONARYVAR
  2
AcDbDictionaryVar
  3
AutoCAD 2000
 90
        0
280
     0
281
     0
  0
CLASS
  1
ACIMSYSVARMAN
  2
AcImSysVarManager
  3
AcMeServices
 90
        0
280
     0
281
     0
  0
CLASS
  1
ACIMREALSYSVAR
  2
AcImRealSysVar
  3
AcMeServices
 90
        0
280
     0
281
     0
  0
CLASS
  1
ACIMINTSYSVAR
  2
AcImIntSysVar
  3
AcMeServices
 90
        0
280
     0
281
     0
  0
CLASS
  1
ACMEDRAWINGMAN
  2
AcMeDrawingMan
  3
AcMeServices
 90
        0
280
     0
281
     0
  0
CLASS
  1
ACMEVIEW
  2
AcMeView
  3
AcMeServices
 90
        0
280
     0
281
     0
  0
CLASS
  1
ACDBENTITYCACHE
  2
AcMeEntityCache
  3
AcMeServices
 90
        0
280
     0
281
     0
  0
CLASS
  1
GSMANAGER
  2
AcMeGSManager
  3
AcMeServices
 90
        0
280
     0
281
     0
  0
CLASS
  1
AmdtInternalReactor
  2
AmdtInternalReactor
  3
AcMeServices
 90
        0
280
     0
281
     0
  0
CLASS
  1
ACMESTATEMGR
  2
AcMeStateMgr
  3
AcMeServices
 90
        0
280
     0
281
     0
  0
CLASS
  1
ACME_DATABASE
  2
AcMeDbDatabase
  3
AcMeServices
 90
        0
280
     0
281
     0
  0
CLASS
  1
ACRFINSADJUSTERMGR
  2
AcRfInsAdjusterMgr
  3
AcMeServices
 90
        0
280
     0
281
     0
  0
CLASS
  1
ACMDATADICTIONARY
  2
AcmDataDictionary
  3
"AcmSymBB|Product Description: AutoCAD Mechanical 2000|Company: Autodesk"
 90
        0
280
     0
281
     0
  0
CLASS
  1
ACMDATAENTRYBLOCK
  2
AcmDataEntryBlock
  3
"AcmSymBB|Product Description: AutoCAD Mechanical 2000|Company: Autodesk"
 90
        0
280
     0
281
     0
  0
CLASS
  1
AMGOBJPROPCFG
  2
AmgObjPropCfg
  3
"AmgLay|Product Description: AutoCAD Mechanical 2000|Company: Autodesk"
 90
        1
280
     0
281
     0
  0
CLASS
  1
ACAMGFILTERDAT
  2
AcAmgFilterDat
  3
"AcadM|Product Description: AutoCAD Mechanical 2000|Company: Autodesk"
 90
        0
280
     0
281
     0
  0
CLASS
  1
LAYER_INDEX
  2
AcDbLayerIndex
  3
AutoCAD 2000
 90
        0
280
     0
281
     0
  0
CLASS
  1
IDBUFFER
  2
AcDbIdBuffer
  3
AutoCAD 2000
 90
        0
280
     0
281
     0
  0
CLASS
  1
ACIMSTRSYSVAR
  2
AcImStrSysVar
  3
AcMeServices
 90
        0
280
     0
281
     0
  0
CLASS
  1
ACMSTANDARDJIS
  2
AcmStandardJIS
  3
"AcmSymBB|Product Description: AutoCAD Mechanical 2000|Company: Autodesk"
 90
        0
280
     0
281
     0
  0
CLASS
  1
ACMSURFSTANDARDJIS
  2
AcmSurfTextStdJIS
  3
"AcmSymBB|Product Description: AutoCAD Mechanical 2000|Company: Autodesk"
 90
        0
280
     0
281
     0
  0
CLASS
  1
ACMFCFSTANDARDJIS
  2
AcmFCFStdJIS
  3
"AcmSymBB|Product Description: AutoCAD Mechanical 2000|Company: Autodesk"
 90
        0
280
     0
281
     0
  0
CLASS
  1
ACMWELDSTANDARDJIS
  2
AcmWeldingStdJIS
  3
"AcmSymBB|Product Description: AutoCAD Mechanical 2000|Company: Autodesk"
 90
        0
280
     0
281
     0
  0
CLASS
  1
ACMIDSTANDARDJIS
  2
AcmIdStdJIS
  3
"AcmSymBB|Product Description: AutoCAD Mechanical 2000|Company: Autodesk"
 90
        0
280
     0
281
     0
  0
CLASS
  1
ACMDATUMSTANDARDJIS
  2
AcmDatumStdJIS
  3
"AcmSymBB|Product Description: AutoCAD Mechanical 2000|Company: Autodesk"
 90
        0
280
     0
281
     0
  0
CLASS
  1
ACMBOMSTANDARDJIS
  2
AcmBOMStdJIS
  3
"AcmSymBB|Product Description: AutoCAD Mechanical 2000|Company: Autodesk"
 90
        0
280
     0
281
     0
  0
CLASS
  1
ACMSTANDARDANSI
  2
AcmStandardANSI
  3
"AcmSymBB|Product Description: AutoCAD Mechanical 2000|Company: Autodesk"
 90
        0
280
     0
281
     0
  0
CLASS
  1
ACMSURFSTANDARDANSI
  2
AcmSurfTextStdANSI
  3
"AcmSymBB|Product Description: AutoCAD Mechanical 2000|Company: Autodesk"
 90
        0
280
     0
281
     0
  0
CLASS
  1
ACMFCFSTANDARDANSI
  2
AcmFCFStdANSI
  3
"AcmSymBB|Product Description: AutoCAD Mechanical 2000|Company: Autodesk"
 90
        0
280
     0
281
     0
  0
CLASS
  1
ACMWELDSTANDARDANSI
  2
AcmWeldingStdANSI
  3
"AcmSymBB|Product Description: AutoCAD Mechanical 2000|Company: Autodesk"
 90
        0
280
     0
281
     0
  0
CLASS
  1
ACMIDSTANDARDANSI
  2
AcmIdStdANSI
  3
"AcmSymBB|Product Description: AutoCAD Mechanical 2000|Company: Autodesk"
 90
        0
280
     0
281
     0
  0
CLASS
  1
ACMDATUMSTANDARDANSI
  2
AcmDatumStdANSI
  3
"AcmSymBB|Product Description: AutoCAD Mechanical 2000|Company: Autodesk"
 90
        0
280
     0
281
     0
  0
CLASS
  1
ACMBOMSTANDARDANSI
  2
AcmBOMStdANSI
  3
"AcmSymBB|Product Description: AutoCAD Mechanical 2000|Company: Autodesk"
 90
        0
280
     0
281
     0
  0
CLASS
  1
ACMSTANDARDBSI
  2
AcmStandardBSI
  3
"AcmSymBB|Product Description: AutoCAD Mechanical 2000|Company: Autodesk"
 90
        0
280
     0
281
     0
  0
CLASS
  1
ACMSURFSTANDARDBSI
  2
AcmSurfTextStdBSI
  3
"AcmSymBB|Product Description: AutoCAD Mechanical 2000|Company: Autodesk"
 90
        0
280
     0
281
     0
  0
CLASS
  1
ACMFCFSTANDARDBSI
  2
AcmFCFStdBSI
  3
"AcmSymBB|Product Description: AutoCAD Mechanical 2000|Company: Autodesk"
 90
        0
280
     0
281
     0
  0
CLASS
  1
ACMWELDSTANDARDBSI
  2
AcmWeldingStdBSI
  3
"AcmSymBB|Product Description: AutoCAD Mechanical 2000|Company: Autodesk"
 90
        0
280
     0
281
     0
  0
CLASS
  1
ACMIDSTANDARDBSI
  2
AcmIdStdBSI
  3
"AcmSymBB|Product Description: AutoCAD Mechanical 2000|Company: Autodesk"
 90
        0
280
     0
281
     0
  0
CLASS
  1
ACMDATUMSTANDARDBSI
  2
AcmDatumStdBSI
  3
"AcmSymBB|Product Description: AutoCAD Mechanical 2000|Company: Autodesk"
 90
        0
280
     0
281
     0
  0
CLASS
  1
ACMBOMSTANDARDBSI
  2
AcmBOMStdBSI
  3
"AcmSymBB|Product Description: AutoCAD Mechanical 2000|Company: Autodesk"
 90
        0
280
     0
281
     0
  0
CLASS
  1
LONG_TRANSACTION
  2
AcDbLongTransaction
  3
AutoCAD 2000
 90
        0
280
     0
281
     0
  0
CLASS
  1
LWPOLYLINE
  2
AcDbPolyline
  3
AutoCAD 2000
 90
        0
280
     0
281
     1
  0
CLASS
  1
HATCH
  2
AcDbHatch
  3
AutoCAD 2000
 90
        0
280
     0
281
     1
  0
CLASS
  1
XRECORD
  2
AcDbXrecord
  3
AutoCAD 2000
 90
        0
280
     0
281
     0
  0
ENDSEC
  0
SECTION
  2
TABLES
  0
TABLE
  2
VPORT
  5
8
330
0
100
AcDbSymbolTable
 70
     3
  0
VPORT
  5
17B2
330
8
100
AcDbSymbolTableRecord
100
AcDbViewportTableRecord
  2
*ACTIVE
 70
     0
 10
0.0
 20
0.0
 11
1.0
 21
1.0
 12
-30.88910609269828
 22
-13.0041789003943
 13
0.0
 23
0.0
 14
2.5
 24
2.5
 15
10.0
 25
10.0
 16
0.0
 26
0.0
 36
1.0
 17
0.0
 27
0.0
 37
0.0
 40
118.4471502431324
 41
1.56570841889117
 42
50.0
 43
0.0
 44
0.0
 50
0.0
 51
0.0
 71
     0
 72
   100
 73
     1
 74
     3
 75
     0
 76
     0
 77
     0
 78
     0
  0
ENDTAB
  0
TABLE
  2
LTYPE
  5
5
330
0
100
AcDbSymbolTable
 70
    10
  0
LTYPE
  5
14
330
5
100
AcDbSymbolTableRecord
100
AcDbLinetypeTableRecord
  2
BYBLOCK
 70
     0
  3

 72
    65
 73
     0
 40
0.0
  0
LTYPE
  5
15
330
5
100
AcDbSymbolTableRecord
100
AcDbLinetypeTableRecord
  2
BYLAYER
 70
     0
  3

 72
    65
 73
     0
 40
0.0
  0
LTYPE
  5
16
330
5
100
AcDbSymbolTableRecord
100
AcDbLinetypeTableRecord
  2
CONTINUOUS
 70
     0
  3
Solid line
 72
    65
 73
     0
 40
0.0
  0
LTYPE
  5
4B
330
5
100
AcDbSymbolTableRecord
100
AcDbLinetypeTableRecord
  2
AM_ISO02W050
 70
     0
  3
__ __ __ __ __ __ __ __ __ __ __ __ __ __ __
 72
    65
 73
     2
 40
7.5
 49
6.0
 74
     0
 49
-1.5
 74
     0
  0
LTYPE
  5
4C
330
5
100
AcDbSymbolTableRecord
100
AcDbLinetypeTableRecord
  2
AM_ISO08W050
 70
     0
  3
____ . ____ . ____ . ____ . ____ . ____ . ____
 72
    65
 73
     4
 40
18.0
 49
12.0
 74
     0
 49
-1.5
 74
     0
 49
3.0
 74
     0
 49
-1.5
 74
     0
  0
LTYPE
  5
4D
330
5
100
AcDbSymbolTableRecord
100
AcDbLinetypeTableRecord
  2
AM_ISO09W050
 70
     0
  3
_____ . . _____ . . _____ . . ____ .. ____
 72
    65
 73
     6
 40
22.5
 49
12.0
 74
     0
 49
-1.5
 74
     0
 49
3.0
 74
     0
 49
-1.5
 74
     0
 49
3.0
 74
     0
 49
-1.5
 74
     0
  0
LTYPE
  5
4E
330
5
100
AcDbSymbolTableRecord
100
AcDbLinetypeTableRecord
  2
AMCONSTR
 70
     0
  3
_______________________
 72
    65
 73
     2
 40
9999.0
 49
9999.0
 74
     0
 49
0.0
 74
     0
  0
LTYPE
  5
4F
330
5
100
AcDbSymbolTableRecord
100
AcDbLinetypeTableRecord
  2
AM_ISO02W050X2
 70
     0
  3
 _ _ _ _ _ _ _ _ _ _ _ _
 72
    65
 73
     2
 40
3.75
 49
3.0
 74
     0
 49
-0.75
 74
     0
  0
LTYPE
  5
50
330
5
100
AcDbSymbolTableRecord
100
AcDbLinetypeTableRecord
  2
AM_ISO08W050X2
 70
     0
  3
__ . __ . __ . __ . __ . __
 72
    65
 73
     4
 40
9.0
 49
6.0
 74
     0
 49
-0.75
 74
     0
 49
1.5
 74
     0
 49
-0.75
 74
     0
  0
LTYPE
  5
53
330
5
100
AcDbSymbolTableRecord
100
AcDbLinetypeTableRecord
  2
AMZIGZAG
 70
     0
  3
/\/-/\/-/\/-/\/-/\/-/\/
 72
    65
 73
     2
 40
11.00009999999999
 49
0.0001
 74
     4
 75
   135
340
52
 46
0.04
 50
0.0
 44
0.0
 45
0.0
 49
-11.0
 74
     0
  0
LTYPE
  5
166
330
5
100
AcDbSymbolTableRecord
100
AcDbLinetypeTableRecord
  2
ACJISTGL
 70
     0
  3
_ _ _ _ _
 72
    65
 73
     2
 40
3.0
 49
2.0
 74
     0
 49
-1.0
 74
     0
  0
LTYPE
  5
26A
330
5
100
AcDbSymbolTableRecord
100
AcDbLinetypeTableRecord
  2
ACJISTGB
 70
     0
  3
__ . . __ . .
 72
    65
 73
     6
 40
9.0
 49
4.0
 74
     0
 49
-1.0
 74
     0
 49
1.0
 74
     0
 49
-1.0
 74
     0
 49
1.0
 74
     0
 49
-1.0
 74
     0
  0
ENDTAB
  0
TABLE
  2
LAYER
  5
2
330
0
100
AcDbSymbolTable
 70
     7
  0
LAYER
  5
10
330
2
100
AcDbSymbolTableRecord
100
AcDbLayerTableRecord
  2
0
 70
     0
 62
     7
  6
CONTINUOUS
  0
LAYER
  5
3F9
330
2
100
AcDbSymbolTableRecord
100
AcDbLayerTableRecord
  2
AM_0
 70
     0
 62
     7
  6
CONTINUOUS
  0
LAYER
  5
BD4
330
2
100
AcDbSymbolTableRecord
100
AcDbLayerTableRecord
  2
AM_11
 70
     0
 62
     3
  6
AM_ISO09W050
  0
LAYER
  5
BD5
330
2
100
AcDbSymbolTableRecord
100
AcDbLayerTableRecord
  2
AM_7
 70
     0
 62
     4
  6
AM_ISO08W050
  0
LAYER
  5
BD6
330
2
100
AcDbSymbolTableRecord
100
AcDbLayerTableRecord
  2
AM_5
 70
     0
 62
     3
  6
CONTINUOUS
  0
LAYER
  5
BD7
330
2
100
AcDbSymbolTableRecord
100
AcDbLayerTableRecord
  2
DEFPOINTS
 70
     0
 62
     7
  6
CONTINUOUS
  0
LAYER
  5
E59
330
2
100
AcDbSymbolTableRecord
100
AcDbLayerTableRecord
  2
AM_6
 70
     0
 62
     2
  6
CONTINUOUS
  0
ENDTAB
  0
TABLE
  2
STYLE
  5
3
330
0
100
AcDbSymbolTable
 70
     5
  0
STYLE
  5
11
330
3
100
AcDbSymbolTableRecord
100
AcDbTextStyleTableRecord
  2
STANDARD
 70
     0
 40
0.0
 41
1.0
 50
0.0
 71
     0
 42
2.5
  3
simplex.shx
  4
EXTFONT.SHX
  0
STYLE
  5
52
330
3
100
AcDbSymbolTableRecord
100
AcDbTextStyleTableRecord
  2

 70
     1
 40
0.0
 41
1.0
 50
0.0
 71
     0
 42
2.5
  3
ltypeshp.shx
  4

  0
STYLE
  5
6B
330
3
100
AcDbSymbolTableRecord
100
AcDbTextStyleTableRecord
  2
ASAMI
 70
     0
 40
0.0
 41
1.0
 50
0.0
 71
     0
 42
2.5
  3
simplex.shx
  4
EXTFONT.SHX
  0
STYLE
  5
262
330
3
100
AcDbSymbolTableRecord
100
AcDbTextStyleTableRecord
  2
ACJISTS
 70
     0
 40
1.0
 41
1.0
 50
0.0
 71
     0
 42
2.5
  3
simplex.shx
  4
bigfont.shx
  0
STYLE
  5
269
330
3
100
AcDbSymbolTableRecord
100
AcDbTextStyleTableRecord
  2
ACJISGDT
 70
     0
 40
0.0
 41
1.0
 50
0.0
 71
     0
 42
2.5
  3
amgdtans.shx
  4

  0
ENDTAB
  0
TABLE
  2
VIEW
  5
6
330
0
100
AcDbSymbolTable
 70
     0
  0
ENDTAB
  0
TABLE
  2
UCS
  5
7
330
0
100
AcDbSymbolTable
 70
     0
  0
ENDTAB
  0
TABLE
  2
APPID
  5
9
330
0
100
AcDbSymbolTable
 70
    12
  0
APPID
  5
12
330
9
100
AcDbSymbolTableRecord
100
AcDbRegAppTableRecord
  2
ACAD
 70
     0
  0
APPID
  5
30
330
9
100
AcDbSymbolTableRecord
100
AcDbRegAppTableRecord
  2
MCAD_NO_VIS
 70
     0
  0
APPID
  5
31
330
9
100
AcDbSymbolTableRecord
100
AcDbRegAppTableRecord
  2
ACAD_TEMP_GRAPHIC
 70
     0
  0
APPID
  5
2C2
330
9
100
AcDbSymbolTableRecord
100
AcDbRegAppTableRecord
  2
GENIUS_GENDTOL_13
 70
     0
  0
APPID
  5
339
330
9
100
AcDbSymbolTableRecord
100
AcDbRegAppTableRecord
  2
GENIUS_GENODEF_13
 70
     0
  0
APPID
  5
33A
330
9
100
AcDbSymbolTableRecord
100
AcDbRegAppTableRecord
  2
GENIUS_GENOBJ-N-RSBK_13
 70
     0
  0
APPID
  5
33B
330
9
100
AcDbSymbolTableRecord
100
AcDbRegAppTableRecord
  2
GENIUS_GENOBJ-N-LIB_13
 70
     0
  0
APPID
  5
33C
330
9
100
AcDbSymbolTableRecord
100
AcDbRegAppTableRecord
  2
GENIUS_GENSCALE_13
 70
     0
  0
APPID
  5
378
330
9
100
AcDbSymbolTableRecord
100
AcDbRegAppTableRecord
  2
GENIUS_GENDIMSH_14
 70
     0
  0
APPID
  5
BD8
330
9
100
AcDbSymbolTableRecord
100
AcDbRegAppTableRecord
  2
GENIUS_GENOBJ-N-CEN_13
 70
     0
  0
APPID
  5
BD9
330
9
100
AcDbSymbolTableRecord
100
AcDbRegAppTableRecord
  2
GENIUS_GENFIL_13
 70
     0
  0
APPID
  5
BDA
330
9
100
AcDbSymbolTableRecord
100
AcDbRegAppTableRecord
  2
GENIUS_GENOBJ-N-CHA_13
 70
     0
  0
ENDTAB
  0
TABLE
  2
DIMSTYLE
  5
A
330
0
100
AcDbSymbolTable
 70
     8
  0
DIMSTYLE
105
58
102
{ACAD_REACTORS
330
105F
330
10EF
330
14CC
330
1512
102
}
330
A
100
AcDbSymbolTableRecord
100
AcDbDimStyleTableRecord
  2
AM_JIS
 70
     0
  3

  4
"
  5
OPEN30
  6

  7

 40
1.0
 41
2.5
 42
1.0
 43
12.0
 44
1.0
 45
0.0
 46
0.0
 47
0.1
 48
0.1
140
3.2
141
0.0
142
0.0
143
0.0393701
144
1.0
145
0.0
146
0.71
147
1.5
 71
     0
 72
     0
 73
     0
 74
     0
 75
     0
 76
     0
 77
     3
 78
     8
170
     0
171
     2
172
     1
173
     0
174
     0
175
     0
176
   256
177
   256
178
     2
270
     2
271
     3
272
     3
273
     2
274
     2
340
6B
275
     0
280
     0
281
     0
282
     0
283
     0
284
     0
285
     0
286
     0
287
     3
288
     0
  0
DIMSTYLE
105
5F
330
A
100
AcDbSymbolTableRecord
100
AcDbDimStyleTableRecord
  2
AM_JIS$3
 70
     0
  3

  4
"
  5
OPEN30
  6

  7

 40
1.0
 41
2.5
 42
1.0
 43
10.0
 44
1.0
 45
0.0
 46
0.0
 47
0.1
 48
0.1
140
3.2
141
0.0
142
0.0
143
0.0393701
144
1.0
145
0.0
146
0.71
147
1.5
 71
     0
 72
     0
 73
     0
 74
     1
 75
     0
 76
     0
 77
     3
 78
     8
170
     0
171
     2
172
     0
173
     0
174
     0
175
     0
176
   256
177
   256
178
     2
270
     2
271
     2
272
     3
273
     2
274
     2
340
6B
275
     0
280
     0
281
     0
282
     0
283
     0
284
     0
285
     0
286
     0
287
     0
288
     1
  0
DIMSTYLE
105
60
330
A
100
AcDbSymbolTableRecord
100
AcDbDimStyleTableRecord
  2
AM_JIS$4
 70
     0
  3

  4
"
  5
OPEN30
  6

  7

 40
1.0
 41
2.5
 42
1.0
 43
10.0
 44
1.0
 45
0.0
 46
0.0
 47
0.1
 48
0.1
140
3.2
141
0.0
142
0.0
143
0.0393701
144
1.0
145
0.0
146
0.71
147
1.5
 71
     0
 72
     0
 73
     0
 74
     1
 75
     0
 76
     0
 77
     3
 78
     8
170
     0
171
     2
172
     0
173
     0
174
     0
175
     0
176
   256
177
   256
178
     2
270
     2
271
     2
272
     3
273
     2
274
     2
340
6B
275
     0
280
     0
281
     0
282
     0
283
     0
284
     0
285
     0
286
     0
287
     0
288
     1
  0
DIMSTYLE
105
61
330
A
100
AcDbSymbolTableRecord
100
AcDbDimStyleTableRecord
  2
AM_JIS$6
 70
     0
  3

  4
"
  5
OPEN30
  6

  7

 40
1.0
 41
2.5
 42
1.0
 43
10.0
 44
1.0
 45
0.0
 46
0.0
 47
0.1
 48
0.1
140
3.2
141
0.0
142
0.0
143
0.0393701
144
1.0
145
0.0
146
0.71
147
1.5
 71
     0
 72
     0
 73
     0
 74
     0
 75
     0
 76
     0
 77
     0
 78
     8
170
     0
171
     2
172
     1
173
     0
174
     0
175
     0
176
   256
177
   256
178
     2
270
     2
271
     2
272
     2
273
     2
274
     2
340
6B
275
     0
280
     0
281
     0
282
     0
283
     0
284
     0
285
     0
286
     0
287
     3
288
     0
  0
DIMSTYLE
105
62
330
A
100
AcDbSymbolTableRecord
100
AcDbDimStyleTableRecord
  2
AM_JIS$7
 70
     0
  3

  4
"
  5
OPEN30
  6

  7

 40
1.0
 41
2.5
 42
1.0
 43
10.0
 44
1.0
 45
0.0
 46
0.0
 47
0.1
 48
0.1
140
3.2
141
0.0
142
0.0
143
0.0393701
144
1.0
145
0.0
146
0.71
147
1.5
 71
     0
 72
     0
 73
     0
 74
     0
 75
     0
 76
     0
 77
     3
 78
     8
170
     0
171
     2
172
     1
173
     0
174
     0
175
     0
176
   256
177
   256
178
     2
270
     2
271
     2
272
     3
273
     2
274
     2
340
6B
275
     0
280
     0
281
     0
282
     0
283
     0
284
     0
285
     0
286
     0
287
     3
288
     0
  0
DIMSTYLE
105
63
330
A
100
AcDbSymbolTableRecord
100
AcDbDimStyleTableRecord
  2
AM_JIS$SF
 70
     0
  3

  4
"
  5
OPEN30
  6

  7

 40
1.0
 41
2.5
 42
1.0
 43
10.0
 44
1.0
 45
0.0
 46
0.0
 47
0.1
 48
0.1
140
3.2
141
0.0
142
0.0
143
0.0393701
144
1.0
145
0.0
146
0.71
147
1.5
 71
     0
 72
     0
 73
     0
 74
     0
 75
     1
 76
     1
 77
     3
 78
     8
170
     0
171
     2
172
     1
173
     0
174
     0
175
     0
176
   256
177
   256
178
     2
270
     2
271
     2
272
     2
273
     2
274
     2
340
6B
275
     0
280
     0
281
     0
282
     0
283
     0
284
     0
285
     0
286
     0
287
     3
288
     0
  0
DIMSTYLE
105
68
330
A
100
AcDbSymbolTableRecord
100
AcDbDimStyleTableRecord
  2
AM_JIS$SH
 70
     0
  3

  4
"
  5

  6
GENAXEH
  7
OPEN30
 40
1.0
 41
2.5
 42
1.0
 43
10.0
 44
1.0
 45
0.0
 46
0.0
 47
0.1
 48
0.1
140
3.2
141
0.0
142
0.0
143
0.0393701
144
2.0
145
0.0
146
0.71
147
1.5
 71
     0
 72
     0
 73
     0
 74
     0
 75
     1
 76
     1
 77
     3
 78
     8
170
     0
171
     2
172
     1
173
     1
174
     0
175
     0
176
   256
177
   256
178
     2
270
     2
271
     2
272
     2
273
     2
274
     2
340
6B
275
     0
280
     0
281
     0
282
     0
283
     0
284
     0
285
     0
286
     0
287
     3
288
     0
  0
DIMSTYLE
105
B34
330
A
100
AcDbSymbolTableRecord
100
AcDbDimStyleTableRecord
  2
AM_JIS$2
 70
     0
  3

  4
"
  5
OPEN30
  6

  7

 40
1.0
 41
2.5
 42
1.0
 43
12.0
 44
1.0
 45
0.0
 46
0.0
 47
0.1
 48
0.1
140
3.2
141
0.0
142
0.0
143
0.0393701
144
1.0
145
0.0
146
0.71
147
1.5
 71
     0
 72
     0
 73
     0
 74
     0
 75
     0
 76
     0
 77
     3
 78
     8
170
     0
171
     2
172
     1
173
     0
174
     0
175
     0
176
   256
177
   256
178
     2
270
     2
271
     3
272
     3
273
     2
274
     2
340
6B
275
     0
280
     0
281
     0
282
     0
283
     0
284
     0
285
     0
286
     0
287
     3
288
     0
  0
ENDTAB
  0
TABLE
  2
BLOCK_RECORD
  5
1
330
0
100
AcDbSymbolTable
 70
     9
  0
BLOCK_RECORD
  5
1F
102
{ACAD_XDICTIONARY
360
74
102
}
330
1
100
AcDbSymbolTableRecord
100
AcDbBlockTableRecord
  2
*MODEL_SPACE
  0
BLOCK_RECORD
  5
101
102
{ACAD_XDICTIONARY
360
17DB
102
}
330
1
100
AcDbSymbolTableRecord
100
AcDbBlockTableRecord
  2
*PAPER_SPACE
  0
BLOCK_RECORD
  5
59
330
1
100
AcDbSymbolTableRecord
100
AcDbBlockTableRecord
  2
_OPEN30
  0
BLOCK_RECORD
  5
64
330
1
100
AcDbSymbolTableRecord
100
AcDbBlockTableRecord
  2
GENAXEH
  0
BLOCK_RECORD
  5
1060
330
1
100
AcDbSymbolTableRecord
100
AcDbBlockTableRecord
  2
*D5
  0
BLOCK_RECORD
  5
10F0
330
1
100
AcDbSymbolTableRecord
100
AcDbBlockTableRecord
  2
*D6
  0
BLOCK_RECORD
  5
14CD
330
1
100
AcDbSymbolTableRecord
100
AcDbBlockTableRecord
  2
*D7
  0
BLOCK_RECORD
  5
1513
330
1
100
AcDbSymbolTableRecord
100
AcDbBlockTableRecord
  2
*D8
  0
ENDTAB
  0
ENDSEC
  0
SECTION
  2
BLOCKS
  0
BLOCK
  5
20
330
1F
100
AcDbEntity
  8
0
100
AcDbBlockBegin
  2
*MODEL_SPACE
 70
     0
 10
0.0
 20
0.0
 30
0.0
  3
*MODEL_SPACE
  1

  0
ENDBLK
  5
21
330
1F
100
AcDbEntity
  8
0
100
AcDbBlockEnd
  0
BLOCK
  5
103
330
101
100
AcDbEntity
 67
     1
  8
0
100
AcDbBlockBegin
  2
*PAPER_SPACE
 70
     0
 10
0.0
 20
0.0
 30
0.0
  3
*PAPER_SPACE
  1

  0
ENDBLK
  5
104
330
101
100
AcDbEntity
 67
     1
  8
0
100
AcDbBlockEnd
  0
BLOCK
  5
5D
330
59
100
AcDbEntity
  8
0
100
AcDbBlockBegin
  2
_OPEN30
 70
     0
 10
0.0
 20
0.0
 30
0.0
  3
_OPEN30
  1

  0
LINE
  5
5A
330
59
100
AcDbEntity
  8
0
 62
     0
100
AcDbLine
 10
-1.0
 20
0.26794919
 30
0.0
 11
0.0
 21
0.0
 31
0.0
  0
LINE
  5
5B
330
59
100
AcDbEntity
  8
0
 62
     0
100
AcDbLine
 10
0.0
 20
0.0
 30
0.0
 11
-1.0
 21
-0.26794919
 31
0.0
  0
LINE
  5
5C
330
59
100
AcDbEntity
  8
0
 62
     0
100
AcDbLine
 10
0.0
 20
0.0
 30
0.0
 11
-1.0
 21
0.0
 31
0.0
  0
ENDBLK
  5
5E
330
59
100
AcDbEntity
  8
0
100
AcDbBlockEnd
  0
BLOCK
  5
66
330
64
100
AcDbEntity
  8
0
100
AcDbBlockBegin
  2
GENAXEH
 70
     0
 10
0.0
 20
0.0
 30
0.0
  3
GENAXEH
  1

  0
LINE
  5
65
330
64
100
AcDbEntity
  8
0
100
AcDbLine
 10
-1.0
 20
0.0
 30
0.0
 11
1.0
 21
0.0
 31
0.0
  0
ENDBLK
  5
67
330
64
100
AcDbEntity
  8
0
100
AcDbBlockEnd
  0
BLOCK
  5
106A
330
1060
100
AcDbEntity
  8
0
100
AcDbBlockBegin
  2
*D5
 70
     1
 10
0.0
 20
0.0
 30
0.0
  3
*D5
  1

  0
LINE
  5
15BE
330
1060
100
AcDbEntity
  8
AM_5
100
AcDbLine
 10
-35.00000000000026
 20
-7.500000000000176
 30
0.0
 11
-35.00000000000026
 21
-23.00000099999793
 31
0.0
  0
LINE
  5
15BF
330
1060
100
AcDbEntity
  8
AM_5
100
AcDbLine
 10
-0.0000000000007782
 20
-7.499999999997786
 30
0.0
 11
-0.0000000000007791
 21
-23.00000099999793
 31
0.0
  0
LINE
  5
15C0
330
1060
100
AcDbEntity
  8
AM_5
100
AcDbLine
 10
-32.50000000000026
 20
-22.00000099999793
 30
0.0
 11
-2.500000000000778
 21
-22.00000099999793
 31
0.0
  0
INSERT
  5
15C1
330
1060
100
AcDbEntity
  8
AM_5
100
AcDbBlockReference
  2
_OPEN30
 10
-35.00000000000026
 20
-22.00000099999793
 30
0.0
 41
2.5
 42
2.5
 43
2.5
 50
180.0
  0
INSERT
  5
15C2
330
1060
100
AcDbEntity
  8
AM_5
100
AcDbBlockReference
  2
_OPEN30
 10
-0.0000000000007791
 20
-22.00000099999793
 30
0.0
 41
2.5
 42
2.5
 43
2.5
  0
MTEXT
  5
15C3
330
1060
100
AcDbEntity
  8
AM_5
 62
     2
100
AcDbMText
 10
-17.50000000000052
 20
-18.90000099999793
 30
0.0
 40
3.2
 41
0.0
 71
     5
 72
     1
  1
35
  7
ASAMI
1001
ACAD
1000
MTEXTBEGIN
1070
    73
1070
     1
1070
    44
1040
1.0
1070
    74
1070
     0
1000
MTEXTEND
  0
POINT
  5
15C4
330
1060
100
AcDbEntity
  8
DEFPOINTS
 62
     0
100
AcDbPoint
 10
-35.00000000000026
 20
-6.500000000000176
 30
0.0
  0
POINT
  5
15C5
330
1060
100
AcDbEntity
  8
DEFPOINTS
 62
     0
100
AcDbPoint
 10
-0.0000000000007781
 20
-6.499999999997786
 30
0.0
  0
POINT
  5
15C6
330
1060
100
AcDbEntity
  8
DEFPOINTS
 62
     0
100
AcDbPoint
 10
-0.0000000000007791
 20
-22.00000099999793
 30
0.0
  0
ENDBLK
  5
106B
330
1060
100
AcDbEntity
  8
0
100
AcDbBlockEnd
  0
BLOCK
  5
10FA
330
10F0
100
AcDbEntity
  8
0
100
AcDbBlockBegin
  2
*D6
 70
     1
 10
0.0
 20
0.0
 30
0.0
  3
*D6
  1

  0
LINE
  5
15AC
330
10F0
100
AcDbEntity
  8
AM_5
100
AcDbLine
 10
-95.00000000000001
 20
-7.999999999998077
 30
0.0
 11
-95.00000000000001
 21
-35.00000099999792
 31
0.0
  0
LINE
  5
15AD
330
10F0
100
AcDbEntity
  8
AM_5
100
AcDbLine
 10
-0.0000000000007782
 20
-7.499999999997786
 30
0.0
 11
-0.0000000000007799
 21
-35.00000099999792
 31
0.0
  0
LINE
  5
15AE
330
10F0
100
AcDbEntity
  8
AM_5
100
AcDbLine
 10
-92.50000000000001
 20
-34.00000099999792
 30
0.0
 11
-2.500000000000779
 21
-34.00000099999792
 31
0.0
  0
INSERT
  5
15AF
330
10F0
100
AcDbEntity
  8
AM_5
100
AcDbBlockReference
  2
_OPEN30
 10
-95.00000000000001
 20
-34.00000099999792
 30
0.0
 41
2.5
 42
2.5
 43
2.5
 50
180.0
  0
INSERT
  5
15B0
330
10F0
100
AcDbEntity
  8
AM_5
100
AcDbBlockReference
  2
_OPEN30
 10
-0.0000000000007798
 20
-34.00000099999792
 30
0.0
 41
2.5
 42
2.5
 43
2.5
  0
MTEXT
  5
15B1
330
10F0
100
AcDbEntity
  8
AM_5
 62
     2
100
AcDbMText
 10
-47.50000000000039
 20
-30.90000099999792
 30
0.0
 40
3.2
 41
0.0
 71
     5
 72
     1
  1
95
  7
ASAMI
1001
ACAD
1000
MTEXTBEGIN
1070
    73
1070
     1
1070
    44
1040
1.0
1070
    74
1070
     0
1000
MTEXTEND
  0
POINT
  5
15B2
330
10F0
100
AcDbEntity
  8
DEFPOINTS
 62
     0
100
AcDbPoint
 10
-95.00000000000001
 20
-6.999999999998077
 30
0.0
  0
POINT
  5
15B3
330
10F0
100
AcDbEntity
  8
DEFPOINTS
 62
     0
100
AcDbPoint
 10
-0.0000000000007781
 20
-6.499999999997786
 30
0.0
  0
POINT
  5
15B4
330
10F0
100
AcDbEntity
  8
DEFPOINTS
 62
     0
100
AcDbPoint
 10
-0.0000000000007798
 20
-34.00000099999792
 30
0.0
  0
ENDBLK
  5
10FB
330
10F0
100
AcDbEntity
  8
0
100
AcDbBlockEnd
  0
BLOCK
  5
14D7
330
14CD
100
AcDbEntity
  8
0
100
AcDbBlockBegin
  2
*D7
 70
     1
 10
0.0
 20
0.0
 30
0.0
  3
*D7
  1

  0
LINE
  5
1765
330
14CD
100
AcDbEntity
  8
AM_5
100
AcDbLine
 10
1.000000000000002
 20
6.5
 30
0.0
 11
15.0
 21
6.499999999999995
 31
0.0
  0
LINE
  5
1766
330
14CD
100
AcDbEntity
  8
AM_5
100
AcDbLine
 10
0.9999999999999998
 20
-6.5
 30
0.0
 11
15.0
 21
-6.500000000000004
 31
0.0
  0
LINE
  5
1767
330
14CD
100
AcDbEntity
  8
AM_5
100
AcDbLine
 10
14.0
 20
3.999999999999996
 30
0.0
 11
14.0
 21
-4.000000000000004
 31
0.0
  0
INSERT
  5
1768
330
14CD
100
AcDbEntity
  8
AM_5
100
AcDbBlockReference
  2
_OPEN30
 10
14.0
 20
6.499999999999995
 30
0.0
 41
2.5
 42
2.5
 43
2.5
 50
90.0
  0
INSERT
  5
1769
330
14CD
100
AcDbEntity
  8
AM_5
100
AcDbBlockReference
  2
_OPEN30
 10
14.0
 20
-6.500000000000004
 30
0.0
 41
2.5
 42
2.5
 43
2.5
 50
270.0
  0
MTEXT
  5
176A
330
14CD
100
AcDbEntity
  8
AM_5
 62
     2
100
AcDbMText
 10
10.9
 20
-0.0000000000000014
 30
0.0
 40
3.2
 41
0.0
 71
     5
 72
     1
  1
%%c13
  7
ASAMI
 11
0.0000000000000001
 21
1.0
 31
0.0
1001
ACAD
1000
MTEXTBEGIN
1070
    73
1070
     1
1070
    44
1040
1.0
1070
    74
1070
     0
1000
MTEXTEND
  0
POINT
  5
176B
330
14CD
100
AcDbEntity
  8
DEFPOINTS
 62
     0
100
AcDbPoint
 10
0.0000000000000021
 20
6.5
 30
0.0
  0
POINT
  5
176C
330
14CD
100
AcDbEntity
  8
DEFPOINTS
 62
     0
100
AcDbPoint
 10
0.0
 20
-6.5
 30
0.0
  0
POINT
  5
176D
330
14CD
100
AcDbEntity
  8
DEFPOINTS
 62
     0
100
AcDbPoint
 10
14.0
 20
-6.500000000000004
 30
0.0
  0
ENDBLK
  5
14D8
330
14CD
100
AcDbEntity
  8
0
100
AcDbBlockEnd
  0
BLOCK
  5
151D
330
1513
100
AcDbEntity
  8
0
100
AcDbBlockBegin
  2
*D8
 70
     1
 10
0.0
 20
0.0
 30
0.0
  3
*D8
  1

  0
LINE
  5
175C
330
1513
100
AcDbEntity
  8
AM_5
100
AcDbLine
 10
-95.0
 20
7.999999999999898
 30
0.0
 11
-110.0
 21
7.999999999999903
 31
0.0
  0
LINE
  5
175D
330
1513
100
AcDbEntity
  8
AM_5
100
AcDbLine
 10
-95.00000000000001
 20
-7.999999999998077
 30
0.0
 11
-110.0
 21
-7.999999999998073
 31
0.0
  0
LINE
  5
175E
330
1513
100
AcDbEntity
  8
AM_5
100
AcDbLine
 10
-109.0
 20
5.499999999999902
 30
0.0
 11
-109.0
 21
-5.499999999998074
 31
0.0
  0
INSERT
  5
175F
330
1513
100
AcDbEntity
  8
AM_5
100
AcDbBlockReference
  2
_OPEN30
 10
-109.0
 20
7.999999999999902
 30
0.0
 41
2.5
 42
2.5
 43
2.5
 50
90.0
  0
INSERT
  5
1760
330
1513
100
AcDbEntity
  8
AM_5
100
AcDbBlockReference
  2
_OPEN30
 10
-109.0
 20
-7.999999999998074
 30
0.0
 41
2.5
 42
2.5
 43
2.5
 50
270.0
  0
MTEXT
  5
1761
330
1513
100
AcDbEntity
  8
AM_5
 62
     2
100
AcDbMText
 10
-112.1
 20
0.000000000000897
 30
0.0
 40
3.2
 41
0.0
 71
     5
 72
     1
  1
%%c16
  7
ASAMI
 11
0.0000000000000001
 21
1.0
 31
0.0
1001
ACAD
1000
MTEXTBEGIN
1070
    73
1070
     1
1070
    44
1040
1.0
1070
    74
1070
     0
1000
MTEXTEND
  0
POINT
  5
1762
330
1513
100
AcDbEntity
  8
DEFPOINTS
 62
     0
100
AcDbPoint
 10
-94.0
 20
7.999999999999898
 30
0.0
  0
POINT
  5
1763
330
1513
100
AcDbEntity
  8
DEFPOINTS
 62
     0
100
AcDbPoint
 10
-94.00000000000002
 20
-7.999999999998077
 30
0.0
  0
POINT
  5
1764
330
1513
100
AcDbEntity
  8
DEFPOINTS
 62
     0
100
AcDbPoint
 10
-109.0
 20
-7.999999999998074
 30
0.0
  0
ENDBLK
  5
151E
330
1513
100
AcDbEntity
  8
0
100
AcDbBlockEnd
  0
ENDSEC
  0
SECTION
  2
ENTITIES
  0
TEXT
  5
E5A
330
1F
100
AcDbEntity
  8
AM_6
100
AcDbText
 10
-67.85714285714323
 20
-56.50000099999792
 30
0.0
 40
5.0
  1
LSM2130ZX
 72
     4
 11
-47.50000000000038
 21
-54.00000099999792
 31
0.0
100
AcDbText
  0
LINE
  5
F47
330
1F
100
AcDbEntity
  8
AM_7
  6
AM_ISO08W050X2
100
AcDbLine
 10
4.557768030854958
 20
0.0
 30
0.0
 11
-97.78823025971981
 21
-0.0000000000000155
 31
0.0
1001
GENIUS_GENODEF_13
1002
{
1000
HIER
1070
     0
1002
}
1002
{
1000
MANEDIT
1070
     0
1002
}
1002
{
1000
NOSEL
1070
     0
1002
}
1002
{
1000
BEHIND
1070
     0
1002
}
1002
{
1000
REACTOR
1002
}
1001
GENIUS_GENOBJ-N-CEN_13
1002
{
1000
OWNER
1000
GEN
1002
}
  0
DIMENSION
  5
105F
330
1F
100
AcDbEntity
  8
AM_5
100
AcDbDimension
  2
*D5
 10
-0.0000000000007791
 20
-22.00000099999793
 30
0.0
 11
-17.50000000000052
 21
-18.90000099999793
 31
0.0
 70
    32
  1
<>
  3
AM_JIS
100
AcDbAlignedDimension
 13
-35.00000000000026
 23
-6.500000000000176
 33
0.0
 14
-0.0000000000007781
 24
-6.499999999997786
 34
0.0
 50
0.0000000000001132
100
AcDbRotatedDimension
1001
GENIUS_GENDTOL_13
1000

1000
h7
1000

1040
0.0
  0
DIMENSION
  5
10EF
330
1F
100
AcDbEntity
  8
AM_5
100
AcDbDimension
  2
*D6
 10
-0.0000000000007798
 20
-34.00000099999792
 30
0.0
 11
-47.50000000000039
 21
-30.90000099999792
 31
0.0
 70
    32
  1
<>
  3
AM_JIS
100
AcDbAlignedDimension
 13
-95.00000000000001
 23
-6.999999999998077
 33
0.0
 14
-0.0000000000007781
 24
-6.499999999997786
 34
0.0
 50
0.0000000000001132
100
AcDbRotatedDimension
1001
GENIUS_GENDTOL_13
1000

1000
h7
1000

1040
0.0
  0
LINE
  5
1440
330
1F
100
AcDbEntity
  8
AM_0
100
AcDbLine
 10
-51.0
 20
7.999999999999956
 30
0.0
 11
-46.87878387081807
 21
6.499999999999963
 31
0.0
  0
LINE
  5
1442
330
1F
100
AcDbEntity
  8
AM_0
100
AcDbLine
 10
-46.87878387081119
 20
-6.5
 30
0.0
 11
-51.00000000000003
 21
-7.999999999998031
 31
0.0
  0
LINE
  5
14BD
330
1F
100
AcDbEntity
  8
AM_0
100
AcDbLine
 10
-0.3915798278827557
 20
0.7799999999999558
 30
0.0
 11
0.0
 21
1.3
 31
0.0
  0
LINE
  5
14BE
330
1F
100
AcDbEntity
  8
AM_0
100
AcDbLine
 10
0.0
 20
1.3
 30
0.0
 11
-0.0000000000000041
 21
6.5
 31
0.0
  0
LINE
  5
14BF
330
1F
100
AcDbEntity
  8
AM_0
100
AcDbLine
 10
0.0
 20
0.2599999999999852
 30
0.0
 11
-2.749334269525566
 21
3.910989449286501
 31
0.0
  0
LINE
  5
14C0
330
1F
100
AcDbEntity
  8
AM_0
100
AcDbLine
 10
0.0000000000000041
 20
-6.5
 30
0.0
 11
-0.1225000000000171
 21
-6.153473504908374
 31
0.0
  0
LINE
  5
14C1
330
1F
100
AcDbEntity
  8
AM_0
100
AcDbLine
 10
-0.437499999999996
 20
-5.301686239867251
 30
0.0
 11
-0.437499999999996
 21
-5.231662060472405
 31
0.0
  0
LINE
  5
14C2
330
1F
100
AcDbEntity
  8
AM_0
100
AcDbLine
 10
-0.1225000000000171
 20
-6.153473504908374
 30
0.0
 11
-0.437499999999996
 21
-5.301686239867251
 31
0.0
  0
LINE
  5
14C3
330
1F
100
AcDbEntity
  8
AM_0
100
AcDbLine
 10
0.0000000000000041
 20
-6.5
 30
0.0
 11
0.0
 21
0.2599999999999852
 31
0.0
  0
LINE
  5
14C4
330
1F
100
AcDbEntity
  8
AM_0
100
AcDbLine
 10
-0.1225000000000171
 20
-6.153473504908374
 30
0.0
 11
-0.1225000000000212
 21
0.4226743653890993
 31
0.0
  0
LINE
  5
14C7
330
1F
100
AcDbEntity
  8
AM_11
100
AcDbLine
 10
-34.9999751285088
 20
-6.499999999999992
 30
0.0
 11
-34.9999751285088
 21
6.499999999999973
 31
0.0
  0
LINE
  5
14C8
330
1F
100
AcDbEntity
  8
AM_0
100
AcDbLine
 10
-22.2737136609719
 20
5.227108313600643
 30
0.0
 11
-2.749334269525566
 21
3.910989449286501
 31
0.0
  0
LINE
  5
14C9
330
1F
100
AcDbEntity
  8
AM_11
100
AcDbLine
 10
-0.0000000000008994
 20
6.5
 30
0.0
 11
-34.9999751285088
 21
6.499999999999971
 31
0.0
  0
LINE
  5
14CA
330
1F
100
AcDbEntity
  8
AM_11
100
AcDbLine
 10
-35.00000000000027
 20
-6.499999999999992
 30
0.0
 11
0.0000000000000041
 21
-6.5
 31
0.0
  0
LINE
  5
14CB
330
1F
100
AcDbEntity
  8
AM_0
100
AcDbLine
 10
-16.91797030080769
 20
-4.987704096348924
 30
0.0
 11
-30.28251003396521
 21
-5.904321217490576
 31
0.0
  0
DIMENSION
  5
14CC
330
1F
100
AcDbEntity
  8
AM_5
100
AcDbDimension
  2
*D7
 10
14.0
 20
-6.500000000000004
 30
0.0
 11
10.9
 21
-0.0000000000000014
 31
0.0
 70
    32
  1
%%c<>
  3
AM_JIS
100
AcDbAlignedDimension
 13
0.0000000000000021
 23
6.5
 33
0.0
 14
0.0
 24
-6.5
 34
0.0
 50
90.0
100
AcDbRotatedDimension
1001
GENIUS_GENDTOL_13
1000

1000
h7
1000

1040
0.0
  0
SPLINE
  5
14D9
330
1F
100
AcDbEntity
  8
AM_0
100
AcDbSpline
210
0.0
220
0.0
230
1.0
 70
     8
 71
     3
 72
     8
 73
     4
 74
     0
 42
0.0000000001
 43
0.0000000001
 40
0.0
 40
0.0
 40
0.0
 40
0.0
 40
14.48999654934396
 40
14.48999654934396
 40
14.48999654934396
 40
14.48999654934396
 10
-31.73333333333332
 20
6.50000000000012
 30
0.0
 10
-26.09833467525511
 20
6.500000000000124
 30
0.0
 10
-20.98250067096088
 20
3.250000000000129
 30
0.0
 10
-15.86666666666665
 20
0.0000000000001339
 30
0.0
  0
SPLINE
  5
14DA
330
1F
100
AcDbEntity
  8
AM_0
100
AcDbSpline
210
0.0
220
0.0
230
1.0
 70
     8
 71
     3
 72
     8
 73
     4
 74
     0
 42
0.0000000001
 43
0.0000000001
 40
0.3581103616548037
 40
0.3581103616548037
 40
0.3581103616548037
 40
0.3581103616548037
 40
14.43901837670146
 40
14.43901837670146
 40
14.43901837670146
 40
14.43901837670146
 10
-29.28007669920922
 20
6.299599049708456
 30
0.0
 10
-23.82754946421028
 20
6.148985710469172
 30
0.0
 10
-18.82892960927495
 20
3.074492855234618
 30
0.0
 10
-13.83030975433961
 20
0.0000000000000647
 30
0.0
  0
SPLINE
  5
14DB
330
1F
100
AcDbEntity
  8
AM_0
100
AcDbSpline
210
0.0
220
0.0
230
1.0
 70
     8
 71
     3
 72
     8
 73
     4
 74
     0
 42
0.0000000001
 43
0.0000000001
 40
0.0
 40
0.0
 40
0.0
 40
0.0
 40
2.586565323616736
 40
2.586565323616736
 40
2.586565323616736
 40
2.586565323616736
 10
-0.0000000000000041
 20
5.297113492689152
 30
0.0
 10
-0.6454786105867781
 20
4.437476154996303
 30
0.0
 10
-1.753406088835353
 20
4.068315936001659
 30
0.0
 10
-2.749334269525566
 20
3.910989449286501
 30
0.0
  0
SPLINE
  5
14DC
330
1F
100
AcDbEntity
  8
AM_0
100
AcDbSpline
210
0.0
220
0.0
230
1.0
 70
     8
 71
     3
 72
     8
 73
     4
 74
     0
 42
0.0000000001
 43
0.0000000001
 40
0.0
 40
0.0
 40
0.0
 40
0.0
 40
7.57842115059705
 40
7.57842115059705
 40
7.57842115059705
 40
7.57842115059705
 10
-0.0000000000000041
 20
6.5
 30
0.0
 10
-2.947163780787746
 20
6.5
 30
0.0
 10
-5.752315240578511
 20
5.610994864777105
 30
0.0
 10
-8.489728322324845
 20
4.297943664322732
 30
0.0
  0
SPLINE
  5
14DD
330
1F
100
AcDbEntity
  8
AM_0
100
AcDbSpline
210
0.0
220
0.0
230
1.0
 70
     8
 71
     3
 72
     8
 73
     4
 74
     0
 42
0.0000000001
 43
0.0000000001
 40
0.7142832446738512
 40
0.7142832446738512
 40
0.7142832446738512
 40
0.7142832446738512
 40
14.36247867694493
 40
14.36247867694493
 40
14.36247867694493
 40
14.36247867694493
 10
-26.52204563454959
 20
5.980777126771557
 30
0.0
 10
-21.255408574582
 20
5.704149146118174
 30
0.0
 10
-16.37043622338875
 20
2.852074573059119
 30
0.0
 10
-11.4854638721955
 20
0.0000000000000647
 30
0.0
  0
SPLINE
  5
14DE
330
1F
100
AcDbEntity
  8
AM_0
100
AcDbSpline
210
0.0
220
0.0
230
1.0
 70
     8
 71
     3
 72
     8
 73
     4
 74
     0
 42
0.0000000001
 43
0.0000000001
 40
0.0
 40
0.0
 40
0.0
 40
0.0
 40
2.238610194515266
 40
2.238610194515266
 40
2.238610194515266
 40
2.238610194515266
 10
-16.91797030080769
 20
-4.987704096348924
 30
0.0
 10
-11.7441211817959
 20
-4.987704096348924
 30
0.0
 10
-10.06805025374889
 20
-4.74316632048165
 30
0.0
 10
-8.413318146810231
 20
-4.329921930272575
 30
0.0
  0
SPLINE
  5
14DF
330
1F
100
AcDbEntity
  8
AM_0
100
AcDbSpline
210
0.0
220
0.0
230
1.0
 70
     8
 71
     3
 72
     8
 73
     4
 74
     0
 42
0.0000000001
 43
0.0000000001
 40
5.297458184749251
 40
5.297458184749251
 40
5.297458184749251
 40
5.297458184749251
 40
7.218994763998551
 40
7.218994763998551
 40
7.218994763998551
 40
7.218994763998551
 10
-37.17249806598664
 20
2.07912449773418
 30
0.0
 10
-35.54793156320803
 20
1.452018626162618
 30
0.0
 10
-34.16832315141946
 20
0.7751344108554643
 30
0.0
 10
-32.78871473963091
 20
0.0982501955482402
 30
0.0
  0
SPLINE
  5
14E0
330
1F
100
AcDbEntity
  8
AM_0
100
AcDbSpline
210
0.0
220
0.0
230
1.0
 70
     8
 71
     3
 72
     8
 73
     4
 74
     0
 42
0.0000000001
 43
0.0000000001
 40
0.0
 40
0.0
 40
0.0
 40
0.0
 40
2.764560748519282
 40
2.764560748519282
 40
2.764560748519282
 40
2.764560748519282
 10
-34.9999751285088
 20
-6.304182237591306
 30
0.0
 10
-34.11371687921404
 20
-6.305368771436173
 30
0.0
 10
-33.05655168810754
 20
-6.189795493063241
 30
0.0
 10
-32.01389305063769
 20
-5.98077712679621
 30
0.0
  0
SPLINE
  5
14E1
330
1F
100
AcDbEntity
  8
AM_0
100
AcDbSpline
210
0.0
220
0.0
230
1.0
 70
     8
 71
     3
 72
     8
 73
     4
 74
     0
 42
0.0000000001
 43
0.0000000001
 40
0.0
 40
0.0
 40
0.0
 40
0.0
 40
2.221495395472776
 40
2.221495395472776
 40
2.221495395472776
 40
2.221495395472776
 10
-32.84397795482741
 20
-5.977916365293737
 30
0.0
 10
-31.98006307881021
 20
-6.002677854943664
 30
0.0
 10
-31.12678905810322
 20
-5.930874112237423
 30
0.0
 10
-30.28251003396521
 20
-5.904321217490577
 30
0.0
  0
SPLINE
  5
14E2
330
1F
100
AcDbEntity
  8
AM_0
100
AcDbSpline
210
0.0
220
0.0
230
1.0
 70
     8
 71
     3
 72
     8
 73
     4
 74
     0
 42
0.0000000001
 43
0.0000000001
 40
0.0
 40
0.0
 40
0.0
 40
0.0
 40
2.130230809022907
 40
2.130230809022907
 40
2.130230809022907
 40
2.130230809022907
 10
-40.49184741596551
 20
-6.500000000000176
 30
0.0
 10
-36.39675765690076
 20
-6.500000000000176
 30
0.0
 10
-35.57955531422769
 20
-6.429757474166393
 30
0.0
 10
-34.9999751285088
 20
-6.304182237591306
 30
0.0
  0
SPLINE
  5
14E3
330
1F
100
AcDbEntity
  8
AM_0
100
AcDbSpline
210
0.0
220
0.0
230
1.0
 70
     8
 71
     3
 72
     8
 73
     4
 74
     0
 42
0.0000000001
 43
0.0000000001
 40
0.0
 40
0.0
 40
0.0
 40
0.0
 40
14.48999654934395
 40
14.48999654934395
 40
14.48999654934395
 40
14.48999654934395
 10
0.0000000000000041
 20
-6.5
 30
0.0
 10
-5.6349986580782
 20
-6.500000000000005
 30
0.0
 10
-10.75083266237242
 20
-3.250000000000009
 30
0.0
 10
-15.86666666666665
 20
-0.0000000000000139
 30
0.0
  0
SPLINE
  5
14E4
330
1F
100
AcDbEntity
  8
AM_0
100
AcDbSpline
210
0.0
220
0.0
230
1.0
 70
     8
 71
     3
 72
     8
 73
     4
 74
     0
 42
0.0000000001
 43
0.0000000001
 40
1.870660592686466
 40
1.870660592686466
 40
1.870660592686466
 40
1.870660592686466
 40
14.43901837670146
 40
14.43901837670146
 40
14.43901837670146
 40
14.43901837670146
 10
-0.1224999999999839
 20
-6.1534735049083
 30
0.0
 10
-4.906958689766953
 20
-5.488470795731927
 30
0.0
 10
-9.368634222053298
 20
-2.744235397865933
 30
0.0
 10
-13.83030975433961
 20
0.0000000000000647
 30
0.0
  0
SPLINE
  5
14E5
330
1F
100
AcDbEntity
  8
AM_0
100
AcDbSpline
210
0.0
220
0.0
230
1.0
 70
     8
 71
     3
 72
     8
 73
     4
 74
     0
 42
0.0000000001
 43
0.0000000001
 40
4.219358800530717
 40
4.219358800530717
 40
4.219358800530717
 40
4.219358800530717
 40
14.36247867694493
 40
14.36247867694493
 40
14.36247867694493
 40
14.36247867694493
 10
-0.4374999999999296
 20
-5.301686239866956
 30
0.0
 10
-4.224597716371847
 20
-4.239232129195453
 30
0.0
 10
-7.85503079428367
 20
-2.119616064597692
 30
0.0
 10
-11.4854638721955
 20
0.0000000000000647
 30
0.0
  0
SPLINE
  5
14E6
330
1F
100
AcDbEntity
  8
AM_0
100
AcDbSpline
210
0.0
220
0.0
230
1.0
 70
     8
 71
     3
 72
     8
 73
     4
 74
     0
 42
0.0000000001
 43
0.0000000001
 40
0.0
 40
0.0
 40
0.0
 40
0.0
 40
14.15489169609656
 40
14.15489169609656
 40
14.15489169609656
 40
14.15489169609656
 10
-16.91797030080769
 20
-4.987704096348924
 30
0.0
 10
-22.42265040484524
 20
-4.987704096348929
 30
0.0
 10
-27.60568257223808
 20
-2.444726950400196
 30
0.0
 10
-32.78871473963091
 20
0.0982501955485358
 30
0.0
  0
ELLIPSE
  5
14E7
330
1F
100
AcDbEntity
  8
AM_0
100
AcDbEllipse
 10
16.57456318277978
 20
0.0273485052208937
 30
0.0
 11
0.0000000000000114
 21
19.67227650688539
 31
0.0
210
0.0
220
0.0
230
0.9999999999999998
 40
0.8974358974358974
 41
1.489874453283513
 42
1.841418545974796
  0
SPLINE
  5
14E8
330
1F
100
AcDbEntity
  8
AM_0
100
AcDbSpline
210
0.0
220
0.0
230
1.0
 70
     8
 71
     3
 72
     8
 73
     4
 74
     0
 42
0.0000000001
 43
0.0000000001
 40
0.0
 40
0.0
 40
0.0
 40
0.0
 40
3.000656968708724
 40
3.000656968708724
 40
3.000656968708724
 40
3.000656968708724
 10
-31.73333333333332
 20
6.499999999999973
 30
0.0
 10
-32.90025548783111
 20
6.499999999999973
 30
0.0
 10
-34.0449137417873
 20
6.360626727507412
 30
0.0
 10
-35.20255848069574
 20
6.091030613079404
 30
0.0
  0
SPLINE
  5
14E9
330
1F
100
AcDbEntity
  8
AM_0
100
AcDbSpline
210
0.0
220
0.0
230
1.0
 70
     8
 71
     3
 72
     8
 73
     4
 74
     0
 42
0.0000000001
 43
0.0000000001
 40
6.225830728781539
 40
6.225830728781539
 40
6.225830728781539
 40
6.225830728781539
 40
7.218994763998551
 40
7.218994763998551
 40
7.218994763998551
 40
7.218994763998551
 10
-46.64214743595846
 20
1.042688512752883
 30
0.0
 10
-46.45143097783265
 20
0.8014257130216293
 30
0.0
 10
-46.05019704732895
 20
0.4929838362466228
 30
0.0
 10
-45.35866459579847
 20
-0.0742754437659699
 30
0.0
  0
SPLINE
  5
14EA
330
1F
100
AcDbEntity
  8
AM_0
100
AcDbSpline
210
0.0
220
0.0
230
1.0
 70
     8
 71
     3
 72
     8
 73
     4
 74
     0
 42
0.0000000001
 43
0.0000000001
 40
0.0
 40
0.0
 40
0.0
 40
0.0
 40
13.29048144950165
 40
13.29048144950165
 40
13.29048144950165
 40
13.29048144950165
 10
-32.84397795482741
 20
-5.97791636529359
 30
0.0
 10
-38.01249851852249
 20
-5.475214403586932
 30
0.0
 10
-41.2443469940743
 20
-3.278585376776362
 30
0.0
 10
-45.35866459579881
 20
-0.0742754437657188
 30
0.0
  0
ELLIPSE
  5
14EB
330
1F
100
AcDbEntity
  8
AM_0
100
AcDbEllipse
 10
-34.22459753364229
 20
14.91304779635852
 30
0.0
 11
-1.364405601464033
 21
21.25251895704594
 31
0.0
210
0.0
220
0.0
230
1.0
 40
0.7890013166644116
 41
2.230154259799662
 42
3.014298409576749
  0
ELLIPSE
  5
14EC
330
1F
100
AcDbEntity
  8
AM_0
100
AcDbEllipse
 10
-42.01332027347869
 20
-61.90606181730633
 30
0.0
 11
0.0000000000000203
 21
68.41929218062936
 31
0.0
210
0.0
220
0.0
230
1.0
 40
0.8974358974358974
 41
-0.4398766785916726
 42
0.0196661158540401
  0
ELLIPSE
  5
14ED
330
1F
100
AcDbEntity
  8
AM_0
100
AcDbEllipse
 10
-4.789651490353951
 20
103.5431612315523
 30
0.0
 11
0.0000000000077415
 21
107.6893090460697
 31
0.0
210
0.0
220
0.0
230
1.0
 40
0.8974358974358864
 41
2.693188654067228
 42
2.799910305627925
  0
ELLIPSE
  5
14EE
330
1F
100
AcDbEntity
  8
AM_0
100
AcDbEllipse
 10
-37.32906294934387
 20
-4.816254674307575
 30
0.0
 11
6.632419452491856
 21
10.16354260927889
 31
0.0
210
0.0
220
0.0
230
1.0
 40
0.9065868180366159
 41
1.165611431993158
 42
1.585874061875908
  0
LINE
  5
150E
330
1F
100
AcDbEntity
  8
AM_0
100
AcDbLine
 10
-51.00000000000004
 20
-7.999999999998032
 30
0.0
 11
-94.00000000000002
 21
-7.999999999998076
 31
0.0
  0
LINE
  5
1510
330
1F
100
AcDbEntity
  8
AM_0
100
AcDbLine
 10
-94.0
 20
7.999999999999898
 30
0.0
 11
-94.00000000000002
 21
-7.999999999998077
 31
0.0
  0
LINE
  5
1511
330
1F
100
AcDbEntity
  8
AM_0
100
AcDbLine
 10
-95.0
 20
6.999999999999897
 30
0.0
 11
-95.00000000000001
 21
-6.999999999998077
 31
0.0
  0
DIMENSION
  5
1512
330
1F
100
AcDbEntity
  8
AM_5
100
AcDbDimension
  2
*D8
 10
-109.0
 20
-7.999999999998074
 30
0.0
 11
-112.1
 21
0.000000000000897
 31
0.0
 70
    32
  1
%%c<>
  3
AM_JIS
100
AcDbAlignedDimension
 13
-94.0
 23
7.999999999999898
 33
0.0
 14
-94.00000000000002
 24
-7.999999999998077
 34
0.0
 50
270.0
100
AcDbRotatedDimension
1001
GENIUS_GENDTOL_13
1000

1000
h7
1000

1040
0.0
  0
LINE
  5
151F
330
1F
100
AcDbEntity
  8
AM_0
100
AcDbLine
 10
-50.99999999999999
 20
7.999999999999956
 30
0.0
 11
-94.0
 21
7.999999999999898
 31
0.0
  0
LINE
  5
153D
330
1F
100
AcDbEntity
  8
AM_0
100
AcDbLine
 10
-94.0
 20
7.999999999999898
 30
0.0
 11
-95.0
 21
6.999999999999897
 31
0.0
1001
GENIUS_GENFIL_13
1070
     0
1040
1.0
1040
1.0
1040
20.0
1040
0.0
1002
{
1002
}
1001
GENIUS_GENODEF_13
1002
{
1000
HIER
1070
     0
1002
}
1002
{
1000
MANEDIT
1070
     0
1002
}
1002
{
1000
NOSEL
1070
     0
1002
}
1002
{
1000
BEHIND
1070
     0
1002
}
1002
{
1000
REACTOR
1002
}
1001
GENIUS_GENOBJ-N-CHA_13
1002
{
1000
OWNER
1000
GEN
1002
}
  0
LINE
  5
1540
330
1F
100
AcDbEntity
  8
AM_0
100
AcDbLine
 10
-95.00000000000001
 20
-6.999999999998077
 30
0.0
 11
-94.00000000000002
 21
-7.999999999998076
 31
0.0
1001
GENIUS_GENFIL_13
1070
     0
1040
1.0
1040
1.0
1040
20.0
1040
0.0
1002
{
1002
}
1001
GENIUS_GENODEF_13
1002
{
1000
HIER
1070
     0
1002
}
1002
{
1000
MANEDIT
1070
     0
1002
}
1002
{
1000
NOSEL
1070
     0
1002
}
1002
{
1000
BEHIND
1070
     0
1002
}
1002
{
1000
REACTOR
1002
}
1001
GENIUS_GENOBJ-N-CHA_13
1002
{
1000
OWNER
1000
GEN
1002
}
  0
LINE
  5
1565
330
1F
100
AcDbEntity
  8
AM_0
100
AcDbLine
 10
-51.0
 20
7.999999999999956
 30
0.0
 11
-51.00000000000003
 21
-7.999999999998031
 31
0.0
  0
LINE
  5
1566
330
1F
100
AcDbEntity
  8
AM_0
100
AcDbLine
 10
-43.2207798849198
 20
6.499999999999967
 30
0.0
 11
-46.87878387081807
 21
6.499999999999964
 31
0.0
  0
LINE
  5
1567
330
1F
100
AcDbEntity
  8
AM_0
100
AcDbLine
 10
-40.49184741595324
 20
-6.499999999999996
 30
0.0
 11
-46.87878387081119
 21
-6.500000000000001
 31
0.0
  0
LINE
  5
1568
330
1F
100
AcDbEntity
  8
AM_0
100
AcDbLine
 10
-46.87878387081807
 20
6.499999999999963
 30
0.0
 11
-46.87878387081119
 21
-6.5
 31
0.0
  0
VIEWPORT
  5
110
330
101
100
AcDbEntity
 67
     1
  8
0
100
AcDbViewport
 10
420.5
 20
297.0
 30
0.0
 40
948.9782706766916
 41
628.452
 68
     1
 69
     1
1001
ACAD
1000
MVIEW
1002
{
1070
    16
1010
0.0
1020
0.0
1030
0.0
1010
0.0
1020
0.0
1030
1.0
1040
0.0
1040
628.452
1040
420.5
1040
297.0
1040
50.0
1040
0.0
1040
0.0
1070
     0
1070
   100
1070
     1
1070
     1
1070
     0
1070
     0
1070
     0
1070
     0
1040
0.0
1040
0.0
1040
0.0
1040
10.0
1040
10.0
1040
10.0
1040
10.0
1070
     0
1002
{
1002
}
1002
}
  0
ENDSEC
  0
SECTION
  2
OBJECTS
  0
DICTIONARY
  5
C
330
0
100
AcDbDictionary
  3
ACAD_GROUP
350
D
  3
ACAD_LAYOUT
350
1A
  3
ACAD_MLINESTYLE
350
17
  3
ACAD_PLOTSETTINGS
350
19
  3
ACAD_PLOTSTYLENAME
350
E
  3
ACDBVARIABLEDICTIONARY
350
34
  3
ACMDICTIONARY
350
43
  3
AMG
350
2B
  3
AMGSNAPSETTINGS
350
6E
  3
DWGPROPS
350
17A7
  3
ACDBHEADERROUNDTRIPXREC
350
17B3
  0
DICTIONARY
  5
74
330
1F
100
AcDbDictionary
280
     1
  3
ACAD_INDEX
360
17A9
  3
ACAD_LAYOUTSELFREF
360
17D6
  0
DICTIONARY
  5
17DB
330
101
100
AcDbDictionary
280
     1
  3
ACAD_LAYOUTSELFREF
360
17DC
  0
DICTIONARY
  5
D
102
{ACAD_REACTORS
330
C
102
}
330
C
100
AcDbDictionary
  0
DICTIONARY
  5
1A
102
{ACAD_REACTORS
330
C
102
}
330
C
100
AcDbDictionary
  0
DICTIONARY
  5
17
102
{ACAD_REACTORS
330
C
102
}
330
C
100
AcDbDictionary
  3
STANDARD
350
18
  0
DICTIONARY
  5
19
102
{ACAD_REACTORS
330
C
102
}
330
C
100
AcDbDictionary
  0
ACDBDICTIONARYWDFLT
  5
E
102
{ACAD_REACTORS
330
C
102
}
330
C
100
AcDbDictionary
281
     1
  3
Normal
350
F
100
AcDbDictionaryWithDefault
340
F
  0
DICTIONARY
  5
34
102
{ACAD_REACTORS
330
C
102
}
330
C
100
AcDbDictionary
  3
INDEXCTL
350
35
  3
SORTENTS
350
B5E
  0
DICTIONARY
  5
43
102
{ACAD_REACTORS
330
C
102
}
330
C
100
AcDbDictionary
  3
ACMSTDDICTIONARY
350
260
  0
DICTIONARY
  5
2B
102
{ACAD_REACTORS
330
C
102
}
330
C
100
AcDbDictionary
  3
ACMGSETTINGS
350
2C
  0
DICTIONARY
  5
6E
102
{ACAD_REACTORS
330
C
102
}
330
C
100
AcDbDictionary
  0
XRECORD
  5
17A7
102
{ACAD_REACTORS
330
C
102
}
330
C
100
AcDbXrecord
  1
DWGPROPS COOKIE
  2

  3

  4

  6

  7

  8

  9

300
AmdtFileType=82
301
=
302
=
303
=
304
=
305
=
306
=
307
=
308
=
309
=
 40
0.0433996412037037
 41
2452836.771637361
 42
2453045.534417095
  1

 90
        1
  0
DICTIONARY
  5
17B3
102
{ACAD_REACTORS
330
C
102
}
330
C
100
AcDbDictionary
  3
TSTACKALIGN
350
17B4
  3
TSTACKSIZE
350
17B5
  3
HYPERLINKBASE
350
17B6
  3
STYLESHEET
350
17B7
  3
LAYOUTDICT
350
17B8
  3
PLOTSETDICT
350
17B9
  3
PLOTSTYLNAMDICT
350
17BA
  3
LWETCUNION
350
17BB
  3
INSUNITS
350
17BC
  3
CEPSNTYPE
350
17BD
  3
FINGERPRINTGUID
350
17BE
  3
VERSIONGUID
350
17BF
  3
PSVPSCALE
350
17C0
  3
DIMSTYLEDATA
350
17C1
  3
PUCSORTHOREF
350
17C2
  3
PUCSORTHOVIEW
350
17C3
  3
PUCSBASE
350
17C4
  3
PUCSORGTOP
350
17C5
  3
PUCSORGBOTTOM
350
17C6
  3
PUCSORGLEFT
350
17C7
  3
PUCSORGRIGHT
350
17C8
  3
PUCSORGFRONT
350
17C9
  3
PUCSORGBACK
350
17CA
  3
UCSORTHOREF
350
17CB
  3
UCSORTHOVIEW
350
17CC
  3
UCSBASE
350
17CD
  3
UCSORGTOP
350
17CE
  3
UCSORGBOTTOM
350
17CF
  3
UCSORGLEFT
350
17D0
  3
UCSORGRIGHT
350
17D1
  3
UCSORGFRONT
350
17D2
  3
UCSORGBACK
350
17D3
  0
DICTIONARY
  5
17A9
102
{ACAD_REACTORS
330
74
102
}
330
74
100
AcDbDictionary
  3
*A1
350
17AA
  0
XRECORD
  5
17D6
102
{ACAD_REACTORS
330
74
102
}
330
74
100
AcDbXrecord
340
1F
  0
XRECORD
  5
17DC
102
{ACAD_REACTORS
330
17DB
102
}
330
17DB
100
AcDbXrecord
340
101
  0
MLINESTYLE
  5
18
102
{ACAD_REACTORS
330
17
102
}
330
17
100
AcDbMlineStyle
  2
STANDARD
 70
     0
  3

 62
   256
 51
90.0
 52
90.0
 71
     2
 49
0.5
 62
   256
  6
BYLAYER
 49
-0.5
 62
   256
  6
BYLAYER
  0
ACDBPLACEHOLDER
  5
F
102
{ACAD_REACTORS
330
E
102
}
330
E
100
AcDbPlaceHolder
280
     0
  0
DICTIONARYVAR
  5
35
102
{ACAD_REACTORS
330
34
102
}
330
34
100
DictionaryVariables
280
     0
  1
1
  0
DICTIONARYVAR
  5
B5E
102
{ACAD_REACTORS
330
34
102
}
330
34
100
DictionaryVariables
280
     0
  1
96
  0
DICTIONARY
  5
260
102
{ACAD_REACTORS
330
43
102
}
330
43
100
AcDbDictionary
  0
DICTIONARY
  5
2C
102
{ACAD_REACTORS
330
2B
102
}
330
2B
100
AcDbDictionary
  3
DWGSETTINGS
350
2D
  0
XRECORD
  5
17B4
102
{ACAD_REACTORS
330
17B3
102
}
330
17B3
100
AcDbXrecord
 90
        1
  0
XRECORD
  5
17B5
102
{ACAD_REACTORS
330
17B3
102
}
330
17B3
100
AcDbXrecord
 90
       70
  0
XRECORD
  5
17B6
102
{ACAD_REACTORS
330
17B3
102
}
330
17B3
100
AcDbXrecord
  1

  0
XRECORD
  5
17B7
102
{ACAD_REACTORS
330
17B3
102
}
330
17B3
100
AcDbXrecord
  1
ASAMI.ctb
  0
XRECORD
  5
17B8
102
{ACAD_REACTORS
330
17B3
102
}
330
17B3
100
AcDbXrecord
340
1A
  0
XRECORD
  5
17B9
102
{ACAD_REACTORS
330
17B3
102
}
330
17B3
100
AcDbXrecord
340
19
  0
XRECORD
  5
17BA
102
{ACAD_REACTORS
330
17B3
102
}
330
17B3
100
AcDbXrecord
340
E
  0
XRECORD
  5
17BB
102
{ACAD_REACTORS
330
17B3
102
}
330
17B3
100
AcDbXrecord
 90
    10781
  0
XRECORD
  5
17BC
102
{ACAD_REACTORS
330
17B3
102
}
330
17B3
100
AcDbXrecord
 90
        4
  0
XRECORD
  5
17BD
102
{ACAD_REACTORS
330
17B3
102
}
330
17B3
100
AcDbXrecord
 90
        0
  0
XRECORD
  5
17BE
102
{ACAD_REACTORS
330
17B3
102
}
330
17B3
100
AcDbXrecord
  1
{AFB28963-8C59-40AE-9337-C84526B81ACE}
  0
XRECORD
  5
17BF
102
{ACAD_REACTORS
330
17B3
102
}
330
17B3
100
AcDbXrecord
  1
{52AD8F43-0BF5-46DF-9D1D-17792AAC9A14}
  0
XRECORD
  5
17C0
102
{ACAD_REACTORS
330
17B3
102
}
330
17B3
100
AcDbXrecord
 40
0.0
  0
XRECORD
  5
17C1
102
{ACAD_REACTORS
330
17B3
102
}
330
17B3
100
AcDbXrecord
1000
DSTYLE
1002
{
1070
    79
 70
     2
1070
   341
340
59
1070
   342
340
59
1070
   371
 70
    -1
1070
   372
 70
    -1
1002
}
  0
XRECORD
  5
17C2
102
{ACAD_REACTORS
330
17B3
102
}
330
17B3
100
AcDbXrecord
340
0
  0
XRECORD
  5
17C3
102
{ACAD_REACTORS
330
17B3
102
}
330
17B3
100
AcDbXrecord
 70
     0
  0
XRECORD
  5
17C4
102
{ACAD_REACTORS
330
17B3
102
}
330
17B3
100
AcDbXrecord
340
0
  0
XRECORD
  5
17C5
102
{ACAD_REACTORS
330
17B3
102
}
330
17B3
100
AcDbXrecord
 10
0.0
 20
0.0
 30
0.0
  0
XRECORD
  5
17C6
102
{ACAD_REACTORS
330
17B3
102
}
330
17B3
100
AcDbXrecord
 10
0.0
 20
0.0
 30
0.0
  0
XRECORD
  5
17C7
102
{ACAD_REACTORS
330
17B3
102
}
330
17B3
100
AcDbXrecord
 10
0.0
 20
0.0
 30
0.0
  0
XRECORD
  5
17C8
102
{ACAD_REACTORS
330
17B3
102
}
330
17B3
100
AcDbXrecord
 10
0.0
 20
0.0
 30
0.0
  0
XRECORD
  5
17C9
102
{ACAD_REACTORS
330
17B3
102
}
330
17B3
100
AcDbXrecord
 10
0.0
 20
0.0
 30
0.0
  0
XRECORD
  5
17CA
102
{ACAD_REACTORS
330
17B3
102
}
330
17B3
100
AcDbXrecord
 10
0.0
 20
0.0
 30
0.0
  0
XRECORD
  5
17CB
102
{ACAD_REACTORS
330
17B3
102
}
330
17B3
100
AcDbXrecord
340
0
  0
XRECORD
  5
17CC
102
{ACAD_REACTORS
330
17B3
102
}
330
17B3
100
AcDbXrecord
 70
     0
  0
XRECORD
  5
17CD
102
{ACAD_REACTORS
330
17B3
102
}
330
17B3
100
AcDbXrecord
340
0
  0
XRECORD
  5
17CE
102
{ACAD_REACTORS
330
17B3
102
}
330
17B3
100
AcDbXrecord
 10
0.0
 20
0.0
 30
0.0
  0
XRECORD
  5
17CF
102
{ACAD_REACTORS
330
17B3
102
}
330
17B3
100
AcDbXrecord
 10
0.0
 20
0.0
 30
0.0
  0
XRECORD
  5
17D0
102
{ACAD_REACTORS
330
17B3
102
}
330
17B3
100
AcDbXrecord
 10
0.0
 20
0.0
 30
0.0
  0
XRECORD
  5
17D1
102
{ACAD_REACTORS
330
17B3
102
}
330
17B3
100
AcDbXrecord
 10
0.0
 20
0.0
 30
0.0
  0
XRECORD
  5
17D2
102
{ACAD_REACTORS
330
17B3
102
}
330
17B3
100
AcDbXrecord
 10
0.0
 20
0.0
 30
0.0
  0
XRECORD
  5
17D3
102
{ACAD_REACTORS
330
17B3
102
}
330
17B3
100
AcDbXrecord
 10
0.0
 20
0.0
 30
0.0
  0
LAYER_INDEX
  5
17AA
102
{ACAD_REACTORS
330
17A9
102
}
330
17A9
100
AcDbIndex
 40
2453152.447497129
100
AcDbLayerIndex
  8
0
360
17AB
 90
        0
  8
AM_0
360
17AC
 90
       44
  8
AM_11
360
17AD
 90
        3
  8
AM_7
360
17AE
 90
        1
  8
AM_5
360
17AF
 90
        4
  8
Defpoints
360
17B0
 90
        0
  8
AM_6
360
17B1
 90
        1
  0
XRECORD
  5
2D
102
{ACAD_REACTORS
330
2C
102
}
330
2C
100
AcDbXrecord
  1
VERSION
140
15.0
  1
PRODUCT
  2
AutoCAD Mechanical 2000
  0
IDBUFFER
  5
17AB
330
0
100
AcDbIdBuffer
  0
IDBUFFER
  5
17AC
330
0
100
AcDbIdBuffer
330
14DD
330
14DE
330
14DF
330
14E0
330
14E1
330
14E2
330
14E3
330
14E4
330
14E5
330
14E6
330
14E7
330
14E8
330
14E9
330
14EA
330
14EB
330
14EC
330
14ED
330
14EE
330
150E
330
1510
330
1511
330
151F
330
153D
330
1540
330
1565
330
1566
330
1567
330
1568
330
1440
330
1442
330
14BD
330
14BE
330
14BF
330
14C0
330
14C1
330
14C2
330
14C3
330
14C4
330
14C8
330
14CB
330
14D9
330
14DA
330
14DB
330
14DC
  0
IDBUFFER
  5
17AD
330
0
100
AcDbIdBuffer
330
14C7
330
14C9
330
14CA
  0
IDBUFFER
  5
17AE
330
0
100
AcDbIdBuffer
330
F47
  0
IDBUFFER
  5
17AF
330
0
100
AcDbIdBuffer
330
105F
330
10EF
330
14CC
330
1512
  0
IDBUFFER
  5
17B0
330
0
100
AcDbIdBuffer
  0
IDBUFFER
  5
17B1
330
0
100
AcDbIdBuffer
330
E5A
  0
ENDSEC
  0
EOF
