  0
SECTION
  2
HEADER
  9
$ACADVER
  1
AC1014
  9
$ACADMAINTVER
 70
     9
  9
$DWGCODEPAGE
  3
ANSI_932
  9
$INSBASE
 10
0.0
 20
0.0
 30
0.0
  9
$EXTMIN
 10
-62.1382312597198
 20
-27.25000100000005
 30
-0.00000001
  9
$EXTMAX
 10
12.05776903085495
 20
3.999999999999998
 30
0.00000001
  9
$LIMMIN
 10
-68.19230936270617
 20
-34.68940759797263
  9
$LIMMAX
 10
17.20702784832059
 20
15.72787212546569
  9
$ORTHOMODE
 70
     0
  9
$REGENMODE
 70
     1
  9
$FILLMODE
 70
     1
  9
$QTEXTMODE
 70
     0
  9
$MIRRTEXT
 70
     0
  9
$DRAGMODE
 70
     2
  9
$LTSCALE
 40
1.0
  9
$OSMODE
 70
    55
  9
$ATTMODE
 70
     1
  9
$TEXTSIZE
 40
2.5
  9
$TRACEWID
 40
1.0
  9
$TEXTSTYLE
  7
STANDARD
  9
$CLAYER
  8
AM_0
  9
$CELTYPE
  6
BYLAYER
  9
$CECOLOR
 62
   256
  9
$CELTSCALE
 40
1.0
  9
$DELOBJ
 70
     1
  9
$DISPSILH
 70
     0
  9
$DIMSCALE
 40
0.5
  9
$DIMASZ
 40
2.5
  9
$DIMEXO
 40
1.0
  9
$DIMDLI
 40
12.0
  9
$DIMRND
 40
0.0
  9
$DIMDLE
 40
0.0
  9
$DIMEXE
 40
1.0
  9
$DIMTP
 40
0.1
  9
$DIMTM
 40
0.1
  9
$DIMTXT
 40
3.2
  9
$DIMCEN
 40
0.0
  9
$DIMTSZ
 40
0.0
  9
$DIMTOL
 70
     0
  9
$DIMLIM
 70
     0
  9
$DIMTIH
 70
     0
  9
$DIMTOH
 70
     0
  9
$DIMSE1
 70
     0
  9
$DIMSE2
 70
     0
  9
$DIMTAD
 70
     3
  9
$DIMZIN
 70
     8
  9
$DIMBLK
  1
OPEN30
  9
$DIMASO
 70
     1
  9
$DIMSHO
 70
     1
  9
$DIMPOST
  1

  9
$DIMAPOST
  1
"
  9
$DIMALT
 70
     0
  9
$DIMALTD
 70
     2
  9
$DIMALTF
 40
0.0393701
  9
$DIMLFAC
 40
1.0
  9
$DIMTOFL
 70
     1
  9
$DIMTVP
 40
0.0
  9
$DIMTIX
 70
     0
  9
$DIMSOXD
 70
     0
  9
$DIMSAH
 70
     0
  9
$DIMBLK1
  1

  9
$DIMBLK2
  1

  9
$DIMSTYLE
  2
AM_JIS
  9
$DIMCLRD
 70
   256
  9
$DIMCLRE
 70
   256
  9
$DIMCLRT
 70
     2
  9
$DIMTFAC
 40
0.71
  9
$DIMGAP
 40
1.5
  9
$DIMJUST
 70
     0
  9
$DIMSD1
 70
     0
  9
$DIMSD2
 70
     0
  9
$DIMTOLJ
 70
     0
  9
$DIMTZIN
 70
     0
  9
$DIMALTZ
 70
     0
  9
$DIMALTTZ
 70
     0
  9
$DIMFIT
 70
     3
  9
$DIMUPT
 70
     0
  9
$DIMUNIT
 70
     2
  9
$DIMDEC
 70
     3
  9
$DIMTDEC
 70
     3
  9
$DIMALTU
 70
     2
  9
$DIMALTTD
 70
     2
  9
$DIMTXSTY
  7
ASAMI
  9
$DIMAUNIT
 70
     0
  9
$LUNITS
 70
     2
  9
$LUPREC
 70
     2
  9
$SKETCHINC
 40
1.0
  9
$FILLETRAD
 40
2.5
  9
$AUNITS
 70
     0
  9
$AUPREC
 70
     0
  9
$MENU
  1
.
  9
$ELEVATION
 40
0.0
  9
$PELEVATION
 40
0.0
  9
$THICKNESS
 40
0.0
  9
$LIMCHECK
 70
     0
  9
$BLIPMODE
 70
     0
  9
$CHAMFERA
 40
0.5
  9
$CHAMFERB
 40
0.5
  9
$CHAMFERC
 40
20.0
  9
$CHAMFERD
 40
0.0
  9
$SKPOLY
 70
     0
  9
$TDCREATE
 40
2452836.771637361
  9
$TDUPDATE
 40
2453152.443303229
  9
$TDINDWG
 40
0.1169854167
  9
$TDUSRTIMER
 40
0.1169854167
  9
$USRTIMER
 70
     1
  9
$ANGBASE
 50
0.0
  9
$ANGDIR
 70
     0
  9
$PDMODE
 70
     0
  9
$PDSIZE
 40
0.0
  9
$PLINEWID
 40
0.0
  9
$COORDS
 70
     1
  9
$SPLFRAME
 70
     0
  9
$SPLINETYPE
 70
     6
  9
$SPLINESEGS
 70
     8
  9
$ATTDIA
 70
     1
  9
$ATTREQ
 70
     1
  9
$HANDLING
 70
 12289
  9
$HANDSEED
  5
1E58
  9
$SURFTAB1
 70
     6
  9
$SURFTAB2
 70
     6
  9
$SURFTYPE
 70
     6
  9
$SURFU
 70
     6
  9
$SURFV
 70
     6
  9
$UCSNAME
  2

  9
$UCSORG
 10
0.0
 20
0.0
 30
0.0
  9
$UCSXDIR
 10
1.0
 20
0.0
 30
0.0
  9
$UCSYDIR
 10
0.0
 20
1.0
 30
0.0
  9
$PUCSNAME
  2

  9
$PUCSORG
 10
0.0
 20
0.0
 30
0.0
  9
$PUCSXDIR
 10
1.0
 20
0.0
 30
0.0
  9
$PUCSYDIR
 10
0.0
 20
1.0
 30
0.0
  9
$USERI1
 70
     0
  9
$USERI2
 70
     0
  9
$USERI3
 70
     0
  9
$USERI4
 70
     0
  9
$USERI5
 70
     0
  9
$USERR1
 40
0.0
  9
$USERR2
 40
0.0
  9
$USERR3
 40
0.0
  9
$USERR4
 40
0.0
  9
$USERR5
 40
0.0
  9
$WORLDVIEW
 70
     1
  9
$SHADEDGE
 70
     3
  9
$SHADEDIF
 70
    70
  9
$TILEMODE
 70
     1
  9
$MAXACTVP
 70
    64
  9
$PINSBASE
 10
0.0
 20
0.0
 30
0.0
  9
$PLIMCHECK
 70
     0
  9
$PEXTMIN
 10
1.000000000000000E+20
 20
1.000000000000000E+20
 30
1.000000000000000E+20
  9
$PEXTMAX
 10
-1.000000000000000E+20
 20
-1.000000000000000E+20
 30
-1.000000000000000E+20
  9
$PLIMMIN
 10
0.0
 20
0.0
  9
$PLIMMAX
 10
841.0
 20
594.0
  9
$UNITMODE
 70
     0
  9
$VISRETAIN
 70
     1
  9
$PLINEGEN
 70
     0
  9
$PSLTSCALE
 70
     0
  9
$TREEDEPTH
 70
  3020
  9
$PICKSTYLE
 70
     0
  9
$CMLSTYLE
  2
STANDARD
  9
$CMLJUST
 70
     0
  9
$CMLSCALE
 40
20.0
  9
$PROXYGRAPHICS
 70
     1
  9
$MEASUREMENT
 70
     1
  0
ENDSEC
  0
SECTION
  2
CLASSES
  0
CLASS
  1
ACDBDICTIONARYWDFLT
  2
AcDbDictionaryWithDefault
  3
AutoCAD 2000
 90
        0
280
     0
281
     0
  0
CLASS
  1
ACDBPLACEHOLDER
  2
AcDbPlaceHolder
  3
AutoCAD 2000
 90
        0
280
     0
281
     0
  0
CLASS
  1
LAYOUT
  2
AcDbLayout
  3
AutoCAD 2000
 90
        0
280
     0
281
     0
  0
CLASS
  1
AMGSETTINGSOBJ
  2
AmgSettingsObj
  3
"AcadM|Product Description: AutoCAD Mechanical 2000|Company: Autodesk"
 90
        0
280
     0
281
     0
  0
CLASS
  1
ACME_DOCUMENT
  2
AcMeDbDoc
  3
AcMeServices
 90
        0
280
     0
281
     0
  0
CLASS
  1
ACMESCOPE
  2
AcMeScope
  3
AcMeServices
 90
        0
280
     0
281
     0
  0
CLASS
  1
ACMECOMMANDHISTORY
  2
AcMeCommandHistory
  3
AcMeServices
 90
        0
280
     0
281
     0
  0
CLASS
  1
DICTIONARYVAR
  2
AcDbDictionaryVar
  3
AutoCAD 2000
 90
        0
280
     0
281
     0
  0
CLASS
  1
ACIMSYSVARMAN
  2
AcImSysVarManager
  3
AcMeServices
 90
        0
280
     0
281
     0
  0
CLASS
  1
ACIMREALSYSVAR
  2
AcImRealSysVar
  3
AcMeServices
 90
        0
280
     0
281
     0
  0
CLASS
  1
ACIMINTSYSVAR
  2
AcImIntSysVar
  3
AcMeServices
 90
        0
280
     0
281
     0
  0
CLASS
  1
ACMEDRAWINGMAN
  2
AcMeDrawingMan
  3
AcMeServices
 90
        0
280
     0
281
     0
  0
CLASS
  1
ACMEVIEW
  2
AcMeView
  3
AcMeServices
 90
        0
280
     0
281
     0
  0
CLASS
  1
ACDBENTITYCACHE
  2
AcMeEntityCache
  3
AcMeServices
 90
        0
280
     0
281
     0
  0
CLASS
  1
GSMANAGER
  2
AcMeGSManager
  3
AcMeServices
 90
        0
280
     0
281
     0
  0
CLASS
  1
AmdtInternalReactor
  2
AmdtInternalReactor
  3
AcMeServices
 90
        0
280
     0
281
     0
  0
CLASS
  1
ACMESTATEMGR
  2
AcMeStateMgr
  3
AcMeServices
 90
        0
280
     0
281
     0
  0
CLASS
  1
ACME_DATABASE
  2
AcMeDbDatabase
  3
AcMeServices
 90
        0
280
     0
281
     0
  0
CLASS
  1
ACRFINSADJUSTERMGR
  2
AcRfInsAdjusterMgr
  3
AcMeServices
 90
        0
280
     0
281
     0
  0
CLASS
  1
ACMDATADICTIONARY
  2
AcmDataDictionary
  3
"AcmSymBB|Product Description: AutoCAD Mechanical 2000|Company: Autodesk"
 90
        0
280
     0
281
     0
  0
CLASS
  1
ACMDATAENTRYBLOCK
  2
AcmDataEntryBlock
  3
"AcmSymBB|Product Description: AutoCAD Mechanical 2000|Company: Autodesk"
 90
        0
280
     0
281
     0
  0
CLASS
  1
AMGOBJPROPCFG
  2
AmgObjPropCfg
  3
"AmgLay|Product Description: AutoCAD Mechanical 2000|Company: Autodesk"
 90
        1
280
     0
281
     0
  0
CLASS
  1
ACAMGFILTERDAT
  2
AcAmgFilterDat
  3
"AcadM|Product Description: AutoCAD Mechanical 2000|Company: Autodesk"
 90
        0
280
     0
281
     0
  0
CLASS
  1
LAYER_INDEX
  2
AcDbLayerIndex
  3
AutoCAD 2000
 90
        0
280
     0
281
     0
  0
CLASS
  1
IDBUFFER
  2
AcDbIdBuffer
  3
AutoCAD 2000
 90
        0
280
     0
281
     0
  0
CLASS
  1
ACIMSTRSYSVAR
  2
AcImStrSysVar
  3
AcMeServices
 90
        0
280
     0
281
     0
  0
CLASS
  1
ACMSTANDARDJIS
  2
AcmStandardJIS
  3
"AcmSymBB|Product Description: AutoCAD Mechanical 2000|Company: Autodesk"
 90
        0
280
     0
281
     0
  0
CLASS
  1
ACMSURFSTANDARDJIS
  2
AcmSurfTextStdJIS
  3
"AcmSymBB|Product Description: AutoCAD Mechanical 2000|Company: Autodesk"
 90
        0
280
     0
281
     0
  0
CLASS
  1
ACMFCFSTANDARDJIS
  2
AcmFCFStdJIS
  3
"AcmSymBB|Product Description: AutoCAD Mechanical 2000|Company: Autodesk"
 90
        0
280
     0
281
     0
  0
CLASS
  1
ACMWELDSTANDARDJIS
  2
AcmWeldingStdJIS
  3
"AcmSymBB|Product Description: AutoCAD Mechanical 2000|Company: Autodesk"
 90
        0
280
     0
281
     0
  0
CLASS
  1
ACMIDSTANDARDJIS
  2
AcmIdStdJIS
  3
"AcmSymBB|Product Description: AutoCAD Mechanical 2000|Company: Autodesk"
 90
        0
280
     0
281
     0
  0
CLASS
  1
ACMDATUMSTANDARDJIS
  2
AcmDatumStdJIS
  3
"AcmSymBB|Product Description: AutoCAD Mechanical 2000|Company: Autodesk"
 90
        0
280
     0
281
     0
  0
CLASS
  1
ACMBOMSTANDARDJIS
  2
AcmBOMStdJIS
  3
"AcmSymBB|Product Description: AutoCAD Mechanical 2000|Company: Autodesk"
 90
        0
280
     0
281
     0
  0
CLASS
  1
ACMSTANDARDANSI
  2
AcmStandardANSI
  3
"AcmSymBB|Product Description: AutoCAD Mechanical 2000|Company: Autodesk"
 90
        0
280
     0
281
     0
  0
CLASS
  1
ACMSURFSTANDARDANSI
  2
AcmSurfTextStdANSI
  3
"AcmSymBB|Product Description: AutoCAD Mechanical 2000|Company: Autodesk"
 90
        0
280
     0
281
     0
  0
CLASS
  1
ACMFCFSTANDARDANSI
  2
AcmFCFStdANSI
  3
"AcmSymBB|Product Description: AutoCAD Mechanical 2000|Company: Autodesk"
 90
        0
280
     0
281
     0
  0
CLASS
  1
ACMWELDSTANDARDANSI
  2
AcmWeldingStdANSI
  3
"AcmSymBB|Product Description: AutoCAD Mechanical 2000|Company: Autodesk"
 90
        0
280
     0
281
     0
  0
CLASS
  1
ACMIDSTANDARDANSI
  2
AcmIdStdANSI
  3
"AcmSymBB|Product Description: AutoCAD Mechanical 2000|Company: Autodesk"
 90
        0
280
     0
281
     0
  0
CLASS
  1
ACMDATUMSTANDARDANSI
  2
AcmDatumStdANSI
  3
"AcmSymBB|Product Description: AutoCAD Mechanical 2000|Company: Autodesk"
 90
        0
280
     0
281
     0
  0
CLASS
  1
ACMBOMSTANDARDANSI
  2
AcmBOMStdANSI
  3
"AcmSymBB|Product Description: AutoCAD Mechanical 2000|Company: Autodesk"
 90
        0
280
     0
281
     0
  0
CLASS
  1
ACMSTANDARDBSI
  2
AcmStandardBSI
  3
"AcmSymBB|Product Description: AutoCAD Mechanical 2000|Company: Autodesk"
 90
        0
280
     0
281
     0
  0
CLASS
  1
ACMSURFSTANDARDBSI
  2
AcmSurfTextStdBSI
  3
"AcmSymBB|Product Description: AutoCAD Mechanical 2000|Company: Autodesk"
 90
        0
280
     0
281
     0
  0
CLASS
  1
ACMFCFSTANDARDBSI
  2
AcmFCFStdBSI
  3
"AcmSymBB|Product Description: AutoCAD Mechanical 2000|Company: Autodesk"
 90
        0
280
     0
281
     0
  0
CLASS
  1
ACMWELDSTANDARDBSI
  2
AcmWeldingStdBSI
  3
"AcmSymBB|Product Description: AutoCAD Mechanical 2000|Company: Autodesk"
 90
        0
280
     0
281
     0
  0
CLASS
  1
ACMIDSTANDARDBSI
  2
AcmIdStdBSI
  3
"AcmSymBB|Product Description: AutoCAD Mechanical 2000|Company: Autodesk"
 90
        0
280
     0
281
     0
  0
CLASS
  1
ACMDATUMSTANDARDBSI
  2
AcmDatumStdBSI
  3
"AcmSymBB|Product Description: AutoCAD Mechanical 2000|Company: Autodesk"
 90
        0
280
     0
281
     0
  0
CLASS
  1
ACMBOMSTANDARDBSI
  2
AcmBOMStdBSI
  3
"AcmSymBB|Product Description: AutoCAD Mechanical 2000|Company: Autodesk"
 90
        0
280
     0
281
     0
  0
CLASS
  1
LONG_TRANSACTION
  2
AcDbLongTransaction
  3
AutoCAD 2000
 90
        0
280
     0
281
     0
  0
CLASS
  1
LWPOLYLINE
  2
AcDbPolyline
  3
AutoCAD 2000
 90
        0
280
     0
281
     1
  0
CLASS
  1
HATCH
  2
AcDbHatch
  3
AutoCAD 2000
 90
        0
280
     0
281
     1
  0
CLASS
  1
XRECORD
  2
AcDbXrecord
  3
AutoCAD 2000
 90
        0
280
     0
281
     0
  0
ENDSEC
  0
SECTION
  2
TABLES
  0
TABLE
  2
VPORT
  5
8
330
0
100
AcDbSymbolTable
 70
     3
  0
VPORT
  5
1E2D
330
8
100
AcDbSymbolTableRecord
100
AcDbViewportTableRecord
  2
*ACTIVE
 70
     0
 10
0.0
 20
0.0
 11
1.0
 21
1.0
 12
-17.54764772920411
 22
-7.601949814857597
 13
0.0
 23
0.0
 14
2.5
 24
2.5
 15
10.0
 25
10.0
 16
0.0
 26
0.0
 36
1.0
 17
0.0
 27
0.0
 37
0.0
 40
63.24697277930029
 41
1.56570841889117
 42
50.0
 43
0.0
 44
0.0
 50
0.0
 51
0.0
 71
     0
 72
   100
 73
     1
 74
     3
 75
     0
 76
     0
 77
     0
 78
     0
  0
ENDTAB
  0
TABLE
  2
LTYPE
  5
5
330
0
100
AcDbSymbolTable
 70
    10
  0
LTYPE
  5
14
330
5
100
AcDbSymbolTableRecord
100
AcDbLinetypeTableRecord
  2
BYBLOCK
 70
     0
  3

 72
    65
 73
     0
 40
0.0
  0
LTYPE
  5
15
330
5
100
AcDbSymbolTableRecord
100
AcDbLinetypeTableRecord
  2
BYLAYER
 70
     0
  3

 72
    65
 73
     0
 40
0.0
  0
LTYPE
  5
16
330
5
100
AcDbSymbolTableRecord
100
AcDbLinetypeTableRecord
  2
CONTINUOUS
 70
     0
  3
Solid line
 72
    65
 73
     0
 40
0.0
  0
LTYPE
  5
4B
330
5
100
AcDbSymbolTableRecord
100
AcDbLinetypeTableRecord
  2
AM_ISO02W050
 70
     0
  3
__ __ __ __ __ __ __ __ __ __ __ __ __ __ __
 72
    65
 73
     2
 40
7.5
 49
6.0
 74
     0
 49
-1.5
 74
     0
  0
LTYPE
  5
4C
330
5
100
AcDbSymbolTableRecord
100
AcDbLinetypeTableRecord
  2
AM_ISO08W050
 70
     0
  3
____ . ____ . ____ . ____ . ____ . ____ . ____
 72
    65
 73
     4
 40
18.0
 49
12.0
 74
     0
 49
-1.5
 74
     0
 49
3.0
 74
     0
 49
-1.5
 74
     0
  0
LTYPE
  5
4D
330
5
100
AcDbSymbolTableRecord
100
AcDbLinetypeTableRecord
  2
AM_ISO09W050
 70
     0
  3
_____ . . _____ . . _____ . . ____ .. ____
 72
    65
 73
     6
 40
22.5
 49
12.0
 74
     0
 49
-1.5
 74
     0
 49
3.0
 74
     0
 49
-1.5
 74
     0
 49
3.0
 74
     0
 49
-1.5
 74
     0
  0
LTYPE
  5
4E
330
5
100
AcDbSymbolTableRecord
100
AcDbLinetypeTableRecord
  2
AMCONSTR
 70
     0
  3
_______________________
 72
    65
 73
     2
 40
9999.0
 49
9999.0
 74
     0
 49
0.0
 74
     0
  0
LTYPE
  5
4F
330
5
100
AcDbSymbolTableRecord
100
AcDbLinetypeTableRecord
  2
AM_ISO02W050X2
 70
     0
  3
 _ _ _ _ _ _ _ _ _ _ _ _
 72
    65
 73
     2
 40
3.75
 49
3.0
 74
     0
 49
-0.75
 74
     0
  0
LTYPE
  5
50
330
5
100
AcDbSymbolTableRecord
100
AcDbLinetypeTableRecord
  2
AM_ISO08W050X2
 70
     0
  3
__ . __ . __ . __ . __ . __
 72
    65
 73
     4
 40
9.0
 49
6.0
 74
     0
 49
-0.75
 74
     0
 49
1.5
 74
     0
 49
-0.75
 74
     0
  0
LTYPE
  5
53
330
5
100
AcDbSymbolTableRecord
100
AcDbLinetypeTableRecord
  2
AMZIGZAG
 70
     0
  3
/\/-/\/-/\/-/\/-/\/-/\/
 72
    65
 73
     2
 40
11.00009999999999
 49
0.0001
 74
     4
 75
   135
340
52
 46
0.04
 50
0.0
 44
0.0
 45
0.0
 49
-11.0
 74
     0
  0
LTYPE
  5
166
330
5
100
AcDbSymbolTableRecord
100
AcDbLinetypeTableRecord
  2
ACJISTGL
 70
     0
  3
_ _ _ _ _
 72
    65
 73
     2
 40
3.0
 49
2.0
 74
     0
 49
-1.0
 74
     0
  0
LTYPE
  5
26A
330
5
100
AcDbSymbolTableRecord
100
AcDbLinetypeTableRecord
  2
ACJISTGB
 70
     0
  3
__ . . __ . .
 72
    65
 73
     6
 40
9.0
 49
4.0
 74
     0
 49
-1.0
 74
     0
 49
1.0
 74
     0
 49
-1.0
 74
     0
 49
1.0
 74
     0
 49
-1.0
 74
     0
  0
ENDTAB
  0
TABLE
  2
LAYER
  5
2
330
0
100
AcDbSymbolTable
 70
     7
  0
LAYER
  5
10
330
2
100
AcDbSymbolTableRecord
100
AcDbLayerTableRecord
  2
0
 70
     0
 62
     7
  6
CONTINUOUS
  0
LAYER
  5
3F9
330
2
100
AcDbSymbolTableRecord
100
AcDbLayerTableRecord
  2
AM_0
 70
     0
 62
     7
  6
CONTINUOUS
  0
LAYER
  5
BD4
330
2
100
AcDbSymbolTableRecord
100
AcDbLayerTableRecord
  2
AM_11
 70
     0
 62
     3
  6
AM_ISO09W050
  0
LAYER
  5
BD5
330
2
100
AcDbSymbolTableRecord
100
AcDbLayerTableRecord
  2
AM_7
 70
     0
 62
     4
  6
AM_ISO08W050
  0
LAYER
  5
BD6
330
2
100
AcDbSymbolTableRecord
100
AcDbLayerTableRecord
  2
AM_5
 70
     0
 62
     3
  6
CONTINUOUS
  0
LAYER
  5
BD7
330
2
100
AcDbSymbolTableRecord
100
AcDbLayerTableRecord
  2
DEFPOINTS
 70
     0
 62
     7
  6
CONTINUOUS
  0
LAYER
  5
E59
330
2
100
AcDbSymbolTableRecord
100
AcDbLayerTableRecord
  2
AM_6
 70
     0
 62
     2
  6
CONTINUOUS
  0
ENDTAB
  0
TABLE
  2
STYLE
  5
3
330
0
100
AcDbSymbolTable
 70
     5
  0
STYLE
  5
11
330
3
100
AcDbSymbolTableRecord
100
AcDbTextStyleTableRecord
  2
STANDARD
 70
     0
 40
0.0
 41
1.0
 50
0.0
 71
     0
 42
2.5
  3
simplex.shx
  4
EXTFONT.SHX
  0
STYLE
  5
52
330
3
100
AcDbSymbolTableRecord
100
AcDbTextStyleTableRecord
  2

 70
     1
 40
0.0
 41
1.0
 50
0.0
 71
     0
 42
2.5
  3
ltypeshp.shx
  4

  0
STYLE
  5
6B
330
3
100
AcDbSymbolTableRecord
100
AcDbTextStyleTableRecord
  2
ASAMI
 70
     0
 40
0.0
 41
1.0
 50
0.0
 71
     0
 42
2.5
  3
simplex.shx
  4
EXTFONT.SHX
  0
STYLE
  5
262
330
3
100
AcDbSymbolTableRecord
100
AcDbTextStyleTableRecord
  2
ACJISTS
 70
     0
 40
1.0
 41
1.0
 50
0.0
 71
     0
 42
2.5
  3
simplex.shx
  4
bigfont.shx
  0
STYLE
  5
269
330
3
100
AcDbSymbolTableRecord
100
AcDbTextStyleTableRecord
  2
ACJISGDT
 70
     0
 40
0.0
 41
1.0
 50
0.0
 71
     0
 42
2.5
  3
amgdtans.shx
  4

  0
ENDTAB
  0
TABLE
  2
VIEW
  5
6
330
0
100
AcDbSymbolTable
 70
     0
  0
ENDTAB
  0
TABLE
  2
UCS
  5
7
330
0
100
AcDbSymbolTable
 70
     0
  0
ENDTAB
  0
TABLE
  2
APPID
  5
9
330
0
100
AcDbSymbolTable
 70
    12
  0
APPID
  5
12
330
9
100
AcDbSymbolTableRecord
100
AcDbRegAppTableRecord
  2
ACAD
 70
     0
  0
APPID
  5
30
330
9
100
AcDbSymbolTableRecord
100
AcDbRegAppTableRecord
  2
MCAD_NO_VIS
 70
     0
  0
APPID
  5
31
330
9
100
AcDbSymbolTableRecord
100
AcDbRegAppTableRecord
  2
ACAD_TEMP_GRAPHIC
 70
     0
  0
APPID
  5
2C2
330
9
100
AcDbSymbolTableRecord
100
AcDbRegAppTableRecord
  2
GENIUS_GENDTOL_13
 70
     0
  0
APPID
  5
339
330
9
100
AcDbSymbolTableRecord
100
AcDbRegAppTableRecord
  2
GENIUS_GENODEF_13
 70
     0
  0
APPID
  5
33A
330
9
100
AcDbSymbolTableRecord
100
AcDbRegAppTableRecord
  2
GENIUS_GENOBJ-N-RSBK_13
 70
     0
  0
APPID
  5
33B
330
9
100
AcDbSymbolTableRecord
100
AcDbRegAppTableRecord
  2
GENIUS_GENOBJ-N-LIB_13
 70
     0
  0
APPID
  5
33C
330
9
100
AcDbSymbolTableRecord
100
AcDbRegAppTableRecord
  2
GENIUS_GENSCALE_13
 70
     0
  0
APPID
  5
378
330
9
100
AcDbSymbolTableRecord
100
AcDbRegAppTableRecord
  2
GENIUS_GENDIMSH_14
 70
     0
  0
APPID
  5
BD8
330
9
100
AcDbSymbolTableRecord
100
AcDbRegAppTableRecord
  2
GENIUS_GENOBJ-N-CEN_13
 70
     0
  0
APPID
  5
BD9
330
9
100
AcDbSymbolTableRecord
100
AcDbRegAppTableRecord
  2
GENIUS_GENFIL_13
 70
     0
  0
APPID
  5
BDA
330
9
100
AcDbSymbolTableRecord
100
AcDbRegAppTableRecord
  2
GENIUS_GENOBJ-N-CHA_13
 70
     0
  0
ENDTAB
  0
TABLE
  2
DIMSTYLE
  5
A
330
0
100
AcDbSymbolTable
 70
     8
  0
DIMSTYLE
105
58
102
{ACAD_REACTORS
330
105F
330
10EF
330
13A3
330
1180
102
}
330
A
100
AcDbSymbolTableRecord
100
AcDbDimStyleTableRecord
  2
AM_JIS
 70
     0
  3

  4
"
  5
OPEN30
  6

  7

 40
0.5
 41
2.5
 42
1.0
 43
12.0
 44
1.0
 45
0.0
 46
0.0
 47
0.1
 48
0.1
140
3.2
141
0.0
142
0.0
143
0.0393701
144
1.0
145
0.0
146
0.71
147
1.5
 71
     0
 72
     0
 73
     0
 74
     0
 75
     0
 76
     0
 77
     3
 78
     8
170
     0
171
     2
172
     1
173
     0
174
     0
175
     0
176
   256
177
   256
178
     2
270
     2
271
     3
272
     3
273
     2
274
     2
340
6B
275
     0
280
     0
281
     0
282
     0
283
     0
284
     0
285
     0
286
     0
287
     3
288
     0
  0
DIMSTYLE
105
5F
330
A
100
AcDbSymbolTableRecord
100
AcDbDimStyleTableRecord
  2
AM_JIS$3
 70
     0
  3

  4
"
  5
OPEN30
  6

  7

 40
0.5
 41
2.5
 42
1.0
 43
10.0
 44
1.0
 45
0.0
 46
0.0
 47
0.1
 48
0.1
140
3.2
141
0.0
142
0.0
143
0.0393701
144
1.0
145
0.0
146
0.71
147
1.5
 71
     0
 72
     0
 73
     0
 74
     1
 75
     0
 76
     0
 77
     3
 78
     8
170
     0
171
     2
172
     0
173
     0
174
     0
175
     0
176
   256
177
   256
178
     2
270
     2
271
     2
272
     3
273
     2
274
     2
340
6B
275
     0
280
     0
281
     0
282
     0
283
     0
284
     0
285
     0
286
     0
287
     0
288
     1
  0
DIMSTYLE
105
60
330
A
100
AcDbSymbolTableRecord
100
AcDbDimStyleTableRecord
  2
AM_JIS$4
 70
     0
  3

  4
"
  5
OPEN30
  6

  7

 40
0.5
 41
2.5
 42
1.0
 43
10.0
 44
1.0
 45
0.0
 46
0.0
 47
0.1
 48
0.1
140
3.2
141
0.0
142
0.0
143
0.0393701
144
1.0
145
0.0
146
0.71
147
1.5
 71
     0
 72
     0
 73
     0
 74
     1
 75
     0
 76
     0
 77
     3
 78
     8
170
     0
171
     2
172
     0
173
     0
174
     0
175
     0
176
   256
177
   256
178
     2
270
     2
271
     2
272
     3
273
     2
274
     2
340
6B
275
     0
280
     0
281
     0
282
     0
283
     0
284
     0
285
     0
286
     0
287
     0
288
     1
  0
DIMSTYLE
105
61
330
A
100
AcDbSymbolTableRecord
100
AcDbDimStyleTableRecord
  2
AM_JIS$6
 70
     0
  3

  4
"
  5
OPEN30
  6

  7

 40
0.5
 41
2.5
 42
1.0
 43
10.0
 44
1.0
 45
0.0
 46
0.0
 47
0.1
 48
0.1
140
3.2
141
0.0
142
0.0
143
0.0393701
144
1.0
145
0.0
146
0.71
147
1.5
 71
     0
 72
     0
 73
     0
 74
     0
 75
     0
 76
     0
 77
     0
 78
     8
170
     0
171
     2
172
     1
173
     0
174
     0
175
     0
176
   256
177
   256
178
     2
270
     2
271
     2
272
     2
273
     2
274
     2
340
6B
275
     0
280
     0
281
     0
282
     0
283
     0
284
     0
285
     0
286
     0
287
     3
288
     0
  0
DIMSTYLE
105
62
330
A
100
AcDbSymbolTableRecord
100
AcDbDimStyleTableRecord
  2
AM_JIS$7
 70
     0
  3

  4
"
  5
OPEN30
  6

  7

 40
0.5
 41
2.5
 42
1.0
 43
10.0
 44
1.0
 45
0.0
 46
0.0
 47
0.1
 48
0.1
140
3.2
141
0.0
142
0.0
143
0.0393701
144
1.0
145
0.0
146
0.71
147
1.5
 71
     0
 72
     0
 73
     0
 74
     0
 75
     0
 76
     0
 77
     3
 78
     8
170
     0
171
     2
172
     1
173
     0
174
     0
175
     0
176
   256
177
   256
178
     2
270
     2
271
     2
272
     3
273
     2
274
     2
340
6B
275
     0
280
     0
281
     0
282
     0
283
     0
284
     0
285
     0
286
     0
287
     3
288
     0
  0
DIMSTYLE
105
63
330
A
100
AcDbSymbolTableRecord
100
AcDbDimStyleTableRecord
  2
AM_JIS$SF
 70
     0
  3

  4
"
  5
OPEN30
  6

  7

 40
0.5
 41
2.5
 42
1.0
 43
10.0
 44
1.0
 45
0.0
 46
0.0
 47
0.1
 48
0.1
140
3.2
141
0.0
142
0.0
143
0.0393701
144
1.0
145
0.0
146
0.71
147
1.5
 71
     0
 72
     0
 73
     0
 74
     0
 75
     1
 76
     1
 77
     3
 78
     8
170
     0
171
     2
172
     1
173
     0
174
     0
175
     0
176
   256
177
   256
178
     2
270
     2
271
     2
272
     2
273
     2
274
     2
340
6B
275
     0
280
     0
281
     0
282
     0
283
     0
284
     0
285
     0
286
     0
287
     3
288
     0
  0
DIMSTYLE
105
68
330
A
100
AcDbSymbolTableRecord
100
AcDbDimStyleTableRecord
  2
AM_JIS$SH
 70
     0
  3

  4
"
  5

  6
GENAXEH
  7
OPEN30
 40
0.5
 41
2.5
 42
1.0
 43
10.0
 44
1.0
 45
0.0
 46
0.0
 47
0.1
 48
0.1
140
3.2
141
0.0
142
0.0
143
0.0393701
144
2.0
145
0.0
146
0.71
147
1.5
 71
     0
 72
     0
 73
     0
 74
     0
 75
     1
 76
     1
 77
     3
 78
     8
170
     0
171
     2
172
     1
173
     1
174
     0
175
     0
176
   256
177
   256
178
     2
270
     2
271
     2
272
     2
273
     2
274
     2
340
6B
275
     0
280
     0
281
     0
282
     0
283
     0
284
     0
285
     0
286
     0
287
     3
288
     0
  0
DIMSTYLE
105
B34
330
A
100
AcDbSymbolTableRecord
100
AcDbDimStyleTableRecord
  2
AM_JIS$2
 70
     0
  3

  4
"
  5
OPEN30
  6

  7

 40
0.5
 41
2.5
 42
1.0
 43
12.0
 44
1.0
 45
0.0
 46
0.0
 47
0.1
 48
0.1
140
3.2
141
0.0
142
0.0
143
0.0393701
144
1.0
145
0.0
146
0.71
147
1.5
 71
     0
 72
     0
 73
     0
 74
     0
 75
     0
 76
     0
 77
     3
 78
     8
170
     0
171
     2
172
     1
173
     0
174
     0
175
     0
176
   256
177
   256
178
     2
270
     2
271
     3
272
     3
273
     2
274
     2
340
6B
275
     0
280
     0
281
     0
282
     0
283
     0
284
     0
285
     0
286
     0
287
     3
288
     0
  0
ENDTAB
  0
TABLE
  2
BLOCK_RECORD
  5
1
330
0
100
AcDbSymbolTable
 70
     9
  0
BLOCK_RECORD
  5
1F
102
{ACAD_XDICTIONARY
360
74
102
}
330
1
100
AcDbSymbolTableRecord
100
AcDbBlockTableRecord
  2
*MODEL_SPACE
  0
BLOCK_RECORD
  5
101
102
{ACAD_XDICTIONARY
360
1E56
102
}
330
1
100
AcDbSymbolTableRecord
100
AcDbBlockTableRecord
  2
*PAPER_SPACE
  0
BLOCK_RECORD
  5
59
330
1
100
AcDbSymbolTableRecord
100
AcDbBlockTableRecord
  2
_OPEN30
  0
BLOCK_RECORD
  5
64
330
1
100
AcDbSymbolTableRecord
100
AcDbBlockTableRecord
  2
GENAXEH
  0
BLOCK_RECORD
  5
1060
330
1
100
AcDbSymbolTableRecord
100
AcDbBlockTableRecord
  2
*D5
  0
BLOCK_RECORD
  5
10F0
330
1
100
AcDbSymbolTableRecord
100
AcDbBlockTableRecord
  2
*D6
  0
BLOCK_RECORD
  5
1181
330
1
100
AcDbSymbolTableRecord
100
AcDbBlockTableRecord
  2
*D7
  0
BLOCK_RECORD
  5
13A4
330
1
100
AcDbSymbolTableRecord
100
AcDbBlockTableRecord
  2
*D8
  0
ENDTAB
  0
ENDSEC
  0
SECTION
  2
BLOCKS
  0
BLOCK
  5
20
330
1F
100
AcDbEntity
  8
0
100
AcDbBlockBegin
  2
*MODEL_SPACE
 70
     0
 10
0.0
 20
0.0
 30
0.0
  3
*MODEL_SPACE
  1

  0
ENDBLK
  5
21
330
1F
100
AcDbEntity
  8
0
100
AcDbBlockEnd
  0
BLOCK
  5
103
330
101
100
AcDbEntity
 67
     1
  8
0
100
AcDbBlockBegin
  2
*PAPER_SPACE
 70
     0
 10
0.0
 20
0.0
 30
0.0
  3
*PAPER_SPACE
  1

  0
ENDBLK
  5
104
330
101
100
AcDbEntity
 67
     1
  8
0
100
AcDbBlockEnd
  0
BLOCK
  5
5D
330
59
100
AcDbEntity
  8
0
100
AcDbBlockBegin
  2
_OPEN30
 70
     0
 10
0.0
 20
0.0
 30
0.0
  3
_OPEN30
  1

  0
LINE
  5
5A
330
59
100
AcDbEntity
  8
0
 62
     0
100
AcDbLine
 10
-1.0
 20
0.26794919
 30
0.0
 11
0.0
 21
0.0
 31
0.0
  0
LINE
  5
5B
330
59
100
AcDbEntity
  8
0
 62
     0
100
AcDbLine
 10
0.0
 20
0.0
 30
0.0
 11
-1.0
 21
-0.26794919
 31
0.0
  0
LINE
  5
5C
330
59
100
AcDbEntity
  8
0
 62
     0
100
AcDbLine
 10
0.0
 20
0.0
 30
0.0
 11
-1.0
 21
0.0
 31
0.0
  0
ENDBLK
  5
5E
330
59
100
AcDbEntity
  8
0
100
AcDbBlockEnd
  0
BLOCK
  5
66
330
64
100
AcDbEntity
  8
0
100
AcDbBlockBegin
  2
GENAXEH
 70
     0
 10
0.0
 20
0.0
 30
0.0
  3
GENAXEH
  1

  0
LINE
  5
65
330
64
100
AcDbEntity
  8
0
100
AcDbLine
 10
-1.0
 20
0.0
 30
0.0
 11
1.0
 21
0.0
 31
0.0
  0
ENDBLK
  5
67
330
64
100
AcDbEntity
  8
0
100
AcDbBlockEnd
  0
BLOCK
  5
106A
330
1060
100
AcDbEntity
  8
0
100
AcDbBlockBegin
  2
*D5
 70
     1
 10
0.0
 20
0.0
 30
0.0
  3
*D5
  1

  0
LINE
  5
1CD3
330
1060
100
AcDbEntity
  8
AM_5
100
AcDbLine
 10
-12.0
 20
-1.999999999999913
 30
0.0
 11
-12.0
 21
-10.50000100000004
 31
0.0
  0
LINE
  5
1CD4
330
1060
100
AcDbEntity
  8
AM_5
100
AcDbLine
 10
-0.0000000000002202
 20
-1.999999999997384
 30
0.0
 11
-0.0000000000002207
 21
-10.50000100000004
 31
0.0
  0
LINE
  5
1CD5
330
1060
100
AcDbEntity
  8
AM_5
100
AcDbLine
 10
-10.74999999999999
 20
-10.00000100000004
 30
0.0
 11
-1.25000000000022
 21
-10.00000100000004
 31
0.0
  0
INSERT
  5
1CD6
330
1060
100
AcDbEntity
  8
AM_5
100
AcDbBlockReference
  2
_OPEN30
 10
-12.0
 20
-10.00000100000004
 30
0.0
 41
1.25
 42
1.25
 43
1.25
 50
180.0
  0
INSERT
  5
1CD7
330
1060
100
AcDbEntity
  8
AM_5
100
AcDbBlockReference
  2
_OPEN30
 10
-0.0000000000002207
 20
-10.00000100000004
 30
0.0
 41
1.25
 42
1.25
 43
1.25
  0
MTEXT
  5
1CD8
330
1060
100
AcDbEntity
  8
AM_5
 62
     2
100
AcDbMText
 10
-6.00000000000011
 20
-8.450001000000048
 30
0.0
 40
1.6
 41
0.0
 71
     5
 72
     1
  1
12
  7
ASAMI
1001
ACAD
1000
MTEXTBEGIN
1070
    73
1070
     1
1070
    44
1040
1.0
1070
    74
1070
     0
1000
MTEXTEND
  0
POINT
  5
1CD9
330
1060
100
AcDbEntity
  8
DEFPOINTS
 62
     0
100
AcDbPoint
 10
-12.0
 20
-1.499999999999913
 30
0.0
  0
POINT
  5
1CDA
330
1060
100
AcDbEntity
  8
DEFPOINTS
 62
     0
100
AcDbPoint
 10
-0.0000000000002202
 20
-1.499999999997384
 30
0.0
  0
POINT
  5
1CDB
330
1060
100
AcDbEntity
  8
DEFPOINTS
 62
     0
100
AcDbPoint
 10
-0.0000000000002207
 20
-10.00000100000004
 30
0.0
  0
ENDBLK
  5
106B
330
1060
100
AcDbEntity
  8
0
100
AcDbBlockEnd
  0
BLOCK
  5
10FA
330
10F0
100
AcDbEntity
  8
0
100
AcDbBlockBegin
  2
*D6
 70
     1
 10
0.0
 20
0.0
 30
0.0
  3
*D6
  1

  0
LINE
  5
1CDC
330
10F0
100
AcDbEntity
  8
AM_5
100
AcDbLine
 10
-50.0
 20
-2.999999999999268
 30
0.0
 11
-50.0
 21
-16.50000100000004
 31
0.0
  0
LINE
  5
1CDD
330
10F0
100
AcDbEntity
  8
AM_5
100
AcDbLine
 10
-0.0000000000000654
 20
-1.999999999999378
 30
0.0
 11
-0.0000000000000663
 21
-16.50000100000004
 31
0.0
  0
LINE
  5
1CDE
330
10F0
100
AcDbEntity
  8
AM_5
100
AcDbLine
 10
-48.75
 20
-16.00000100000004
 30
0.0
 11
-1.250000000000066
 21
-16.00000100000004
 31
0.0
  0
INSERT
  5
1CDF
330
10F0
100
AcDbEntity
  8
AM_5
100
AcDbBlockReference
  2
_OPEN30
 10
-50.0
 20
-16.00000100000004
 30
0.0
 41
1.25
 42
1.25
 43
1.25
 50
180.0
  0
INSERT
  5
1CE0
330
10F0
100
AcDbEntity
  8
AM_5
100
AcDbBlockReference
  2
_OPEN30
 10
-0.0000000000000663
 20
-16.00000100000004
 30
0.0
 41
1.25
 42
1.25
 43
1.25
  0
MTEXT
  5
1CE1
330
10F0
100
AcDbEntity
  8
AM_5
 62
     2
100
AcDbMText
 10
-25.00000000000003
 20
-14.45000100000004
 30
0.0
 40
1.6
 41
0.0
 71
     5
 72
     1
  1
50
  7
ASAMI
1001
ACAD
1000
MTEXTBEGIN
1070
    73
1070
     1
1070
    44
1040
1.0
1070
    74
1070
     0
1000
MTEXTEND
  0
POINT
  5
1CE2
330
10F0
100
AcDbEntity
  8
DEFPOINTS
 62
     0
100
AcDbPoint
 10
-50.0
 20
-2.499999999999268
 30
0.0
  0
POINT
  5
1CE3
330
10F0
100
AcDbEntity
  8
DEFPOINTS
 62
     0
100
AcDbPoint
 10
-0.0000000000000654
 20
-1.499999999999378
 30
0.0
  0
POINT
  5
1CE4
330
10F0
100
AcDbEntity
  8
DEFPOINTS
 62
     0
100
AcDbPoint
 10
-0.0000000000000663
 20
-16.00000100000004
 30
0.0
  0
ENDBLK
  5
10FB
330
10F0
100
AcDbEntity
  8
0
100
AcDbBlockEnd
  0
BLOCK
  5
118B
330
1181
100
AcDbEntity
  8
0
100
AcDbBlockBegin
  2
*D7
 70
     1
 10
0.0
 20
0.0
 30
0.0
  3
*D7
  1

  0
LINE
  5
186E
330
1181
100
AcDbEntity
  8
AM_5
100
AcDbLine
 10
0.4999999999995161
 20
1.500000000000001
 30
0.0
 11
12.05776903085495
 21
1.499999999999998
 31
0.0
  0
LINE
  5
186F
330
1181
100
AcDbEntity
  8
AM_5
100
AcDbLine
 10
0.5
 20
-1.499999999998505
 30
0.0
 11
12.05776903085495
 21
-1.499999999998508
 31
0.0
  0
LINE
  5
1870
330
1181
100
AcDbEntity
  8
AM_5
100
AcDbLine
 10
11.55776903085495
 20
2.749999999999998
 30
0.0
 11
11.55776903085495
 21
3.999999999999998
 31
0.0
  0
LINE
  5
1871
330
1181
100
AcDbEntity
  8
AM_5
100
AcDbLine
 10
11.55776903085495
 20
-2.749999999998507
 30
0.0
 11
11.55776903085495
 21
-8.014285714284222
 31
0.0
  0
LINE
  5
1872
330
1181
100
AcDbEntity
  8
AM_5
100
AcDbLine
 10
11.55776903085495
 20
1.499999999999998
 30
0.0
 11
11.55776903085495
 21
-1.499999999998508
 31
0.0
  0
INSERT
  5
1873
330
1181
100
AcDbEntity
  8
AM_5
100
AcDbBlockReference
  2
_OPEN30
 10
11.55776903085495
 20
1.499999999999998
 30
0.0
 41
1.25
 42
1.25
 43
1.25
 50
270.0
  0
INSERT
  5
1874
330
1181
100
AcDbEntity
  8
AM_5
100
AcDbBlockReference
  2
_OPEN30
 10
11.55776903085495
 20
-1.499999999998508
 30
0.0
 41
1.25
 42
1.25
 43
1.25
 50
90.0
  0
MTEXT
  5
1875
330
1181
100
AcDbEntity
  8
AM_5
 62
     2
100
AcDbMText
 10
10.00776903085495
 20
-6.007142857141363
 30
0.0
 40
1.6
 41
0.0
 71
     5
 72
     1
  1
%%c3
  7
ASAMI
 11
0.0000000000000001
 21
1.0
 31
0.0
1001
ACAD
1000
MTEXTBEGIN
1070
    73
1070
     1
1070
    44
1040
1.0
1070
    74
1070
     0
1000
MTEXTEND
  0
POINT
  5
1876
330
1181
100
AcDbEntity
  8
DEFPOINTS
 62
     0
100
AcDbPoint
 10
-0.000000000000484
 20
1.500000000000001
 30
0.0
  0
POINT
  5
1877
330
1181
100
AcDbEntity
  8
DEFPOINTS
 62
     0
100
AcDbPoint
 10
-0.0000000000000001
 20
-1.499999999998504
 30
0.0
  0
POINT
  5
1878
330
1181
100
AcDbEntity
  8
DEFPOINTS
 62
     0
100
AcDbPoint
 10
11.55776903085495
 20
-1.499999999998508
 30
0.0
  0
ENDBLK
  5
118C
330
1181
100
AcDbEntity
  8
0
100
AcDbBlockEnd
  0
BLOCK
  5
13AE
330
13A4
100
AcDbEntity
  8
0
100
AcDbBlockBegin
  2
*D8
 70
     1
 10
0.0
 20
0.0
 30
0.0
  3
*D8
  1

  0
LINE
  5
1629
330
13A4
100
AcDbEntity
  8
AM_5
100
AcDbLine
 10
-50.0
 20
2.999999999999973
 30
0.0
 11
-60.28823125971979
 21
2.999999999999976
 31
0.0
  0
LINE
  5
162A
330
13A4
100
AcDbEntity
  8
AM_5
100
AcDbLine
 10
-50.0
 20
-2.999999999999267
 30
0.0
 11
-60.28823125971979
 21
-2.999999999999264
 31
0.0
  0
LINE
  5
162B
330
13A4
100
AcDbEntity
  8
AM_5
100
AcDbLine
 10
-59.78823125971979
 20
1.749999999999976
 30
0.0
 11
-59.78823125971979
 21
-1.749999999999265
 31
0.0
  0
INSERT
  5
162C
330
13A4
100
AcDbEntity
  8
AM_5
100
AcDbBlockReference
  2
_OPEN30
 10
-59.78823125971979
 20
2.999999999999976
 30
0.0
 41
1.25
 42
1.25
 43
1.25
 50
90.0
  0
INSERT
  5
162D
330
13A4
100
AcDbEntity
  8
AM_5
100
AcDbBlockReference
  2
_OPEN30
 10
-59.78823125971979
 20
-2.999999999999264
 30
0.0
 41
1.25
 42
1.25
 43
1.25
 50
270.0
  0
MTEXT
  5
162E
330
13A4
100
AcDbEntity
  8
AM_5
 62
     2
100
AcDbMText
 10
-61.33823125971979
 20
0.000000000000346
 30
0.0
 40
1.6
 41
0.0
 71
     5
 72
     1
  1
%%c6
  7
ASAMI
 11
0.0000000000000001
 21
1.0
 31
0.0
1001
ACAD
1000
MTEXTBEGIN
1070
    73
1070
     1
1070
    44
1040
1.0
1070
    74
1070
     0
1000
MTEXTEND
  0
POINT
  5
162F
330
13A4
100
AcDbEntity
  8
DEFPOINTS
 62
     0
100
AcDbPoint
 10
-49.50000000000001
 20
2.999999999999973
 30
0.0
  0
POINT
  5
1630
330
13A4
100
AcDbEntity
  8
DEFPOINTS
 62
     0
100
AcDbPoint
 10
-49.50000000000001
 20
-2.999999999999267
 30
0.0
  0
POINT
  5
1631
330
13A4
100
AcDbEntity
  8
DEFPOINTS
 62
     0
100
AcDbPoint
 10
-59.78823125971979
 20
-2.999999999999264
 30
0.0
  0
ENDBLK
  5
13AF
330
13A4
100
AcDbEntity
  8
0
100
AcDbBlockEnd
  0
ENDSEC
  0
SECTION
  2
ENTITIES
  0
TEXT
  5
E5A
330
1F
100
AcDbEntity
  8
AM_6
100
AcDbText
 10
-33.03571428571459
 20
-27.25000100000004
 30
0.0
 40
2.5
  1
LSM4030
 72
     4
 11
-25.0000000000003
 21
-26.00000100000004
 31
0.0
100
AcDbText
  0
LINE
  5
F47
330
1F
100
AcDbEntity
  8
AM_7
  6
AM_ISO08W050X2
100
AcDbLine
 10
4.557768030854958
 20
0.0
 30
0.0
 11
-52.7882302597198
 21
0.0000000000000058
 31
0.0
1001
GENIUS_GENODEF_13
1002
{
1000
HIER
1070
     0
1002
}
1002
{
1000
MANEDIT
1070
     0
1002
}
1002
{
1000
NOSEL
1070
     0
1002
}
1002
{
1000
BEHIND
1070
     0
1002
}
1002
{
1000
REACTOR
1002
}
1001
GENIUS_GENOBJ-N-CEN_13
1002
{
1000
OWNER
1000
GEN
1002
}
  0
DIMENSION
  5
105F
330
1F
100
AcDbEntity
  8
AM_5
100
AcDbDimension
  2
*D5
 10
-0.0000000000002207
 20
-10.00000100000004
 30
0.0
 11
-6.00000000000011
 21
-8.450001000000048
 31
0.0
 70
    32
  1
<>
  3
AM_JIS
100
AcDbAlignedDimension
 13
-12.0
 23
-1.499999999999913
 33
0.0
 14
-0.0000000000002202
 24
-1.499999999997384
 34
0.0
 50
0.0000000000001132
100
AcDbRotatedDimension
1001
GENIUS_GENDTOL_13
1000

1000
h7
1000

1040
0.0
  0
DIMENSION
  5
10EF
330
1F
100
AcDbEntity
  8
AM_5
100
AcDbDimension
  2
*D6
 10
-0.0000000000000663
 20
-16.00000100000004
 30
0.0
 11
-25.00000000000003
 21
-14.45000100000004
 31
0.0
 70
    32
  1
<>
  3
AM_JIS
100
AcDbAlignedDimension
 13
-50.0
 23
-2.499999999999268
 33
0.0
 14
-0.0000000000000654
 24
-1.499999999999378
 34
0.0
 50
0.0000000000001132
100
AcDbRotatedDimension
1001
GENIUS_GENDTOL_13
1000

1000
h7
1000

1040
0.0
  0
DIMENSION
  5
1180
330
1F
100
AcDbEntity
  8
AM_5
100
AcDbDimension
  2
*D7
 10
11.55776903085495
 20
-1.499999999998508
 30
0.0
 11
10.00776903085495
 21
-6.007142857141363
 31
0.0
 70
    32
  1
%%c<>
  3
AM_JIS
100
AcDbAlignedDimension
 13
-0.000000000000484
 23
1.500000000000001
 33
0.0
 14
-0.0000000000000001
 24
-1.499999999998504
 34
0.0
 50
90.0
100
AcDbRotatedDimension
1001
GENIUS_GENDTOL_13
1000

1000
h7
1000

1040
0.0
  0
LINE
  5
139D
330
1F
100
AcDbEntity
  8
AM_0
100
AcDbLine
 10
-21.0
 20
3.000000000000023
 30
0.0
 11
-49.50000000000001
 21
2.999999999999973
 31
0.0
  0
LINE
  5
139E
330
1F
100
AcDbEntity
  8
AM_0
100
AcDbLine
 10
-21.0
 20
-2.999999999999247
 30
0.0
 11
-49.50000000000001
 21
-2.999999999999267
 31
0.0
  0
LINE
  5
13A1
330
1F
100
AcDbEntity
  8
AM_0
100
AcDbLine
 10
-49.50000000000001
 20
2.999999999999973
 30
0.0
 11
-49.50000000000002
 21
-2.999999999999267
 31
0.0
  0
LINE
  5
13A2
330
1F
100
AcDbEntity
  8
AM_0
100
AcDbLine
 10
-50.0
 20
2.499999999999972
 30
0.0
 11
-50.0
 21
-2.499999999999268
 31
0.0
  0
DIMENSION
  5
13A3
330
1F
100
AcDbEntity
  8
AM_5
100
AcDbDimension
  2
*D8
 10
-59.78823125971979
 20
-2.999999999999264
 30
0.0
 11
-61.33823125971979
 21
0.000000000000346
 31
0.0
 70
    32
  1
%%c<>
  3
AM_JIS
100
AcDbAlignedDimension
 13
-49.50000000000001
 23
2.999999999999973
 33
0.0
 14
-49.50000000000001
 24
-2.999999999999267
 34
0.0
 50
270.0
100
AcDbRotatedDimension
1001
GENIUS_GENDTOL_13
1000

1000
h7
1000

1040
0.0
  0
LINE
  5
13C4
330
1F
100
AcDbEntity
  8
AM_0
100
AcDbLine
 10
-49.50000000000001
 20
2.999999999999973
 30
0.0
 11
-50.0
 21
2.499999999999972
 31
0.0
1001
GENIUS_GENFIL_13
1070
     0
1040
0.5
1040
0.5
1040
20.0
1040
0.0
1002
{
1002
}
1001
GENIUS_GENODEF_13
1002
{
1000
HIER
1070
     0
1002
}
1002
{
1000
MANEDIT
1070
     0
1002
}
1002
{
1000
NOSEL
1070
     0
1002
}
1002
{
1000
BEHIND
1070
     0
1002
}
1002
{
1000
REACTOR
1002
}
1001
GENIUS_GENOBJ-N-CHA_13
1002
{
1000
OWNER
1000
GEN
1002
}
  0
LINE
  5
13C7
330
1F
100
AcDbEntity
  8
AM_0
100
AcDbLine
 10
-50.0
 20
-2.499999999999268
 30
0.0
 11
-49.50000000000001
 21
-2.999999999999267
 31
0.0
1001
GENIUS_GENFIL_13
1070
     0
1040
0.5
1040
0.5
1040
20.0
1040
0.0
1002
{
1002
}
1001
GENIUS_GENODEF_13
1002
{
1000
HIER
1070
     0
1002
}
1002
{
1000
MANEDIT
1070
     0
1002
}
1002
{
1000
NOSEL
1070
     0
1002
}
1002
{
1000
BEHIND
1070
     0
1002
}
1002
{
1000
REACTOR
1002
}
1001
GENIUS_GENOBJ-N-CHA_13
1002
{
1000
OWNER
1000
GEN
1002
}
  0
LINE
  5
1571
330
1F
100
AcDbEntity
  8
AM_0
100
AcDbLine
 10
-21.0
 20
3.000000000000013
 30
0.0
 11
-21.0
 21
-2.999999999999252
 31
0.0
  0
LINE
  5
158A
330
1F
100
AcDbEntity
  8
AM_0
100
AcDbLine
 10
-21.0
 20
3.000000000000013
 30
0.0
 11
-15.40192378864644
 21
1.49999999999995
 31
0.0
  0
LINE
  5
158B
330
1F
100
AcDbEntity
  8
AM_0
100
AcDbLine
 10
-21.0
 20
-2.999999999999252
 30
0.0
 11
-15.40192378864917
 21
-1.499999999999923
 31
0.0
  0
LINE
  5
16CC
330
1F
100
AcDbEntity
  8
AM_0
100
AcDbLine
 10
-15.40192378864755
 20
1.49999999999995
 30
0.0
 11
-15.40192378864917
 21
-1.499999999999922
 31
0.0
  0
LINE
  5
1868
330
1F
100
AcDbEntity
  8
AM_0
100
AcDbLine
 10
-12.0
 20
1.49999999999995
 30
0.0
 11
-15.40192378864755
 21
1.49999999999995
 31
0.0
  0
LINE
  5
1869
330
1F
100
AcDbEntity
  8
AM_0
100
AcDbLine
 10
-12.50815760964524
 20
-1.499999999999919
 30
0.0
 11
-15.40192378864917
 21
-1.499999999999921
 31
0.0
  0
SPLINE
  5
1B1F
330
1F
100
AcDbEntity
  8
AM_0
100
AcDbSpline
210
0.0
220
0.0
230
1.0
 70
     8
 71
     3
 72
     8
 73
     4
 74
     2
 42
0.0000000001
 43
0.0000000001
 44
0.0000000001
 12
-1.0
 22
-0.0000000000000008
 32
0.0
 40
0.0
 40
0.0
 40
0.0
 40
0.0
 40
4.346998964803188
 40
4.346998964803188
 40
4.346998964803188
 40
4.346998964803188
 10
-4.08000000000012
 20
-1.499999999999349
 30
0.0
 10
-5.528999654934517
 20
-1.49999999999935
 30
0.0
 10
-6.844499827467318
 20
-0.7499999999993486
 30
0.0
 10
-8.160000000000119
 20
0.0000000000006537
 30
0.0
 11
-4.08000000000012
 21
-1.499999999999349
 31
0.0
 11
-8.160000000000119
 21
0.0000000000006537
 31
0.0
  0
SPLINE
  5
1B20
330
1F
100
AcDbEntity
  8
AM_0
100
AcDbSpline
210
0.0
220
0.0
230
1.0
 70
     8
 71
     3
 72
     8
 73
     4
 74
     2
 42
0.0000000001
 43
0.0000000001
 44
0.0000000001
 12
1.0
 22
0.0000000000000006
 32
0.0
 40
0.0
 40
0.0
 40
0.0
 40
0.0
 40
4.346998964803185
 40
4.346998964803185
 40
4.346998964803185
 40
4.346998964803185
 10
-8.160000000000062
 20
1.500000000000646
 30
0.0
 10
-6.711000345065667
 20
1.500000000000647
 30
0.0
 10
-5.395500172532865
 20
0.7500000000006505
 30
0.0
 10
-4.080000000000064
 20
0.0000000000006537
 30
0.0
 11
-8.160000000000062
 21
1.500000000000646
 31
0.0
 11
-4.080000000000064
 21
0.0000000000006537
 31
0.0
  0
SPLINE
  5
1B26
330
1F
100
AcDbEntity
  8
AM_0
100
AcDbSpline
210
0.0
220
0.0
230
1.0
 70
     8
 71
     3
 72
     8
 73
     4
 74
     0
 42
0.0000000001
 43
0.0000000001
 40
0.0
 40
0.0
 40
0.0
 40
0.0
 40
2.764560748519282
 40
2.764560748519282
 40
2.764560748519282
 40
2.764560748519282
 10
-3.556365365401739
 20
-1.455085101099999
 30
0.0
 10
-3.279909290549818
 20
-1.455085101099999
 30
0.0
 10
-3.008066812836717
 20
-1.428414344552397
 30
0.0
 10
-2.739954591773036
 20
-1.380179336952313
 30
0.0
  0
SPLINE
  5
1B28
330
1F
100
AcDbEntity
  8
AM_0
100
AcDbSpline
210
0.0
220
0.0
230
1.0
 70
     8
 71
     3
 72
     8
 73
     4
 74
     0
 42
0.0000000001
 43
0.0000000001
 40
0.7142832446738512
 40
0.7142832446738512
 40
0.7142832446738512
 40
0.7142832446738512
 40
14.36247867694493
 40
14.36247867694493
 40
14.36247867694493
 40
14.36247867694493
 10
-7.066691753654533
 20
1.364044279134813
 30
0.0
 10
-5.465676490606862
 20
1.316342110643276
 30
0.0
 10
-4.209540743157171
 20
0.658171055321958
 30
0.0
 10
-2.953404995707481
 20
0.0000000000006395
 30
0.0
  0
SPLINE
  5
1B29
330
1F
100
AcDbEntity
  8
AM_0
100
AcDbSpline
210
0.0
220
0.0
230
1.0
 70
     8
 71
     3
 72
     8
 73
     4
 74
     2
 42
0.0000000001
 43
0.0000000001
 44
0.0000000001
 12
-1.0
 22
-0.0000000000000008
 32
0.0
 40
0.0
 40
0.0
 40
0.0
 40
0.0
 40
4.308743603083481
 40
4.308743603083481
 40
4.308743603083481
 40
4.308743603083481
 10
-2.953404995707538
 20
-1.385233351140154
 30
0.0
 10
-4.389652863402032
 20
-1.385233351140155
 30
0.0
 10
-5.711528929554785
 20
-0.692616675569744
 30
0.0
 10
-7.033404995707536
 20
0.0000000000006679
 30
0.0
 11
-2.953404995707538
 21
-1.385233351140154
 31
0.0
 11
-7.033404995707536
 21
0.0000000000006679
 31
0.0
  0
SPLINE
  5
1B2A
330
1F
100
AcDbEntity
  8
AM_0
100
AcDbSpline
210
0.0
220
0.0
230
1.0
 70
     8
 71
     3
 72
     8
 73
     4
 74
     2
 42
0.0000000001
 43
0.0000000001
 44
0.0000000001
 12
-1.0
 22
-0.0000000000000008
 32
0.0
 40
0.0
 40
0.0
 40
0.0
 40
0.0
 40
4.346998964803186
 40
4.346998964803186
 40
4.346998964803186
 40
4.346998964803186
 10
-0.0000000000000654
 20
-1.499999999999378
 30
0.0
 10
-1.448999654934461
 20
-1.499999999999379
 30
0.0
 10
-2.764499827467262
 20
-0.7499999999993806
 30
0.0
 10
-4.080000000000064
 20
0.0000000000006182
 30
0.0
 11
-0.0000000000000654
 21
-1.499999999999378
 31
0.0
 11
-4.080000000000064
 21
0.0000000000006182
 31
0.0
  0
SPLINE
  5
1B2B
330
1F
100
AcDbEntity
  8
AM_0
100
AcDbSpline
210
0.0
220
0.0
230
1.0
 70
     8
 71
     3
 72
     8
 73
     4
 74
     2
 42
0.0000000001
 43
0.0000000001
 44
0.0000000001
 12
1.0
 22
0.0000000000000006
 32
0.0
 40
0.0
 40
0.0
 40
0.0
 40
0.0
 40
4.346998964803185
 40
4.346998964803185
 40
4.346998964803185
 40
4.346998964803185
 10
-4.080000000000064
 20
1.500000000000653
 30
0.0
 10
-2.631000345065669
 20
1.500000000000654
 30
0.0
 10
-1.315500172532867
 20
0.7500000000006577
 30
0.0
 10
-0.0000000000000654
 20
0.0000000000006608
 30
0.0
 11
-4.080000000000064
 21
1.500000000000653
 31
0.0
 11
-0.0000000000000654
 21
0.0000000000006608
 31
0.0
  0
SPLINE
  5
1B2D
330
1F
100
AcDbEntity
  8
AM_0
100
AcDbSpline
210
0.0
220
0.0
230
1.0
 70
     8
 71
     3
 72
     8
 73
     4
 74
     0
 42
0.0000000001
 43
0.0000000001
 40
4.542668862435135
 40
4.542668862435135
 40
4.542668862435135
 40
4.542668862435135
 40
14.36247867694493
 40
14.36247867694493
 40
14.36247867694493
 40
14.36247867694493
 10
-0.2054999999996469
 20
-1.199284996636368
 30
0.0
 10
-1.145837951056728
 20
-0.9471017059712387
 30
0.0
 10
-2.049621473382104
 20
-0.4735508529853015
 30
0.0
 10
-2.953404995707481
 20
0.0000000000006395
 30
0.0
  0
SPLINE
  5
1B2E
330
1F
100
AcDbEntity
  8
AM_0
100
AcDbSpline
210
0.0
220
0.0
230
1.0
 70
     8
 71
     3
 72
     8
 73
     4
 74
     0
 42
0.0000000001
 43
0.0000000001
 40
0.0
 40
0.0
 40
0.0
 40
0.0
 40
5.635889483499127
 40
5.635889483499127
 40
5.635889483499127
 40
5.635889483499127
 10
-0.0000000000000654
 20
1.500000000000625
 30
0.0
 10
-0.5635889483499753
 20
1.500000000000625
 30
0.0
 10
-1.1069817761509
 20
1.386538208694361
 30
0.0
 10
-1.638033771913215
 20
1.203745631511992
 30
0.0
  0
SPLINE
  5
1B2F
330
1F
100
AcDbEntity
  8
AM_0
100
AcDbSpline
210
0.0
220
0.0
230
1.0
 70
     8
 71
     3
 72
     8
 73
     4
 74
     2
 42
0.0000000001
 43
0.0000000001
 44
0.0000000001
 12
-0.6417012268563094
 22
-0.7669547153848832
 32
0.0
 13
-0.990099942783104
 23
-0.140364180975397
 33
0.0
 40
0.0
 40
0.0
 40
0.0
 40
0.0
 40
0.7759695970850174
 40
0.7759695970850174
 40
0.7759695970850174
 40
0.7759695970850174
 10
-0.0000000000000654
 20
1.222410806005811
 30
0.0
 10
-0.1659802141509493
 20
1.024032958845924
 30
0.0
 10
-0.4508758514148661
 20
0.9388421390779267
 30
0.0
 10
-0.706971669306634
 20
0.9025360267590443
 30
0.0
 11
-0.0000000000000654
 21
1.222410806005811
 31
0.0
 11
-0.706971669306634
 21
0.9025360267590443
 31
0.0
  0
SPLINE
  5
1B30
330
1F
100
AcDbEntity
  8
AM_0
100
AcDbSpline
210
0.0
220
0.0
230
1.0
 70
     8
 71
     3
 72
     8
 73
     4
 74
     0
 42
0.0000000001
 43
0.0000000001
 40
0.7142832446738512
 40
0.7142832446738512
 40
0.7142832446738512
 40
0.7142832446738512
 40
9.361146747480315
 40
9.361146747480315
 40
9.361146747480315
 40
9.361146747480315
 10
-3.31099573681652
 20
1.431693777101953
 30
0.0
 10
-1.881946810166007
 20
1.339735031692093
 30
0.0
 10
-1.063332405434473
 20
1.060730964840509
 30
0.0
 10
-0.2591535613890571
 20
0.69430753484491
 30
0.0
  0
SPLINE
  5
1B31
330
1F
100
AcDbEntity
  8
AM_0
100
AcDbSpline
210
0.0
220
0.0
230
1.0
 70
     8
 71
     3
 72
     8
 73
     4
 74
     0
 42
0.0000000001
 43
0.0000000001
 40
0.0
 40
0.0
 40
0.0
 40
0.0
 40
4.451443990518192
 40
4.451443990518192
 40
4.451443990518192
 40
4.451443990518192
 10
-2.953404995707538
 20
-1.38523335114019
 30
0.0
 10
-2.50826059665571
 20
-1.38523335114019
 30
0.0
 10
-2.074102764255827
 20
-1.318700524273612
 30
0.0
 10
-1.647526369964312
 20
-1.206255764676424
 30
0.0
  0
SPLINE
  5
1B34
330
1F
100
AcDbEntity
  8
AM_0
100
AcDbSpline
210
0.0
220
0.0
230
1.0
 70
     8
 71
     3
 72
     8
 73
     4
 74
     0
 42
0.0000000001
 43
0.0000000001
 40
0.0
 40
0.0
 40
0.0
 40
0.0
 40
5.635889483499305
 40
5.635889483499305
 40
5.635889483499305
 40
5.635889483499305
 10
-4.08000000000012
 20
1.500000000000653
 30
0.0
 10
-4.643588948350059
 20
1.500000000000653
 30
0.0
 10
-5.186981776150995
 20
1.386538208694396
 30
0.0
 10
-5.724809997120823
 20
1.176585853413286
 30
0.0
  0
SPLINE
  5
1B35
330
1F
100
AcDbEntity
  8
AM_0
100
AcDbSpline
210
0.0
220
0.0
230
1.0
 70
     8
 71
     3
 72
     8
 73
     4
 74
     0
 42
0.0000000001
 43
0.0000000001
 40
0.0
 40
0.0
 40
0.0
 40
0.0
 40
2.130230809022907
 40
2.130230809022907
 40
2.130230809022907
 40
2.130230809022907
 10
-4.08000000000012
 20
-1.499999999999385
 30
0.0
 10
-3.866976919097831
 20
-1.499999999999385
 30
0.0
 10
-3.65683917383904
 20
-1.483790186345434
 30
0.0
 10
-3.449162579796849
 20
-1.453753626855149
 30
0.0
  0
LINE
  5
1B61
330
1F
100
AcDbEntity
  8
AM_7
  6
AM_ISO08W050X2
100
AcDbLine
 10
1.36733040925642
 20
0.0000000000006253
 30
0.0
 11
-12.24000000000006
 21
0.0000000000006111
 31
0.0
1001
GENIUS_GENODEF_13
1002
{
1000
HIER
1070
     0
1002
}
1002
{
1000
MANEDIT
1070
     0
1002
}
1002
{
1000
NOSEL
1070
     0
1002
}
1002
{
1000
BEHIND
1070
     0
1002
}
1002
{
1000
REACTOR
1002
}
1001
GENIUS_GENOBJ-N-CEN_13
1002
{
1000
OWNER
1000
GEN
1002
}
  0
LINE
  5
1B76
330
1F
100
AcDbEntity
  8
AM_11
100
AcDbLine
 10
-12.0
 20
-1.499999999999387
 30
0.0
 11
-0.0000000000000654
 21
-1.499999999999378
 31
0.0
  0
LINE
  5
1B77
330
1F
100
AcDbEntity
  8
AM_11
100
AcDbLine
 10
-0.0000000000002963
 20
1.500000000000625
 30
0.0
 11
-12.0
 21
1.500000000000614
 31
0.0
  0
LINE
  5
1B78
330
1F
100
AcDbEntity
  8
AM_0
100
AcDbLine
 10
-0.0000000000000654
 20
0.0000000000006253
 30
0.0
 11
-0.0000000000000654
 21
1.500000000000625
 31
0.0
  0
ARC
  5
1B79
330
1F
100
AcDbEntity
  8
AM_0
100
AcDbCircle
 10
0.5957019546080943
 20
-0.7631640494147512
 30
0.0
 40
0.912209434654815
100
AcDbArc
 50
159.3923269732581
 51
208.5609268810354
  0
LINE
  5
1B7B
330
1F
100
AcDbEntity
  8
AM_0
100
AcDbLine
 10
-0.0000000000000654
 20
-1.499999999999378
 30
0.0
 11
-0.0000000000000654
 21
-0.299999999999379
 31
0.0
  0
LINE
  5
1B7C
330
1F
100
AcDbEntity
  8
AM_0
100
AcDbLine
 10
-0.2581373957074163
 20
-0.4420964295493413
 30
0.0
 11
-0.0315000000000631
 21
-0.3980693563683317
 31
0.0
  0
LINE
  5
1B7D
330
1F
100
AcDbEntity
  8
AM_0
100
AcDbLine
 10
-0.0000000000000654
 20
0.0000000000006253
 30
0.0
 11
-0.706971669306634
 21
0.0000000000006253
 31
0.0
  0
LINE
  5
1B7E
330
1F
100
AcDbEntity
  8
AM_0
100
AcDbLine
 10
-0.706971669306634
 20
-0.2399999999993767
 30
0.0
 11
-0.0346410161514449
 21
-0.2399999999993767
 31
0.0
  0
LINE
  5
1B7F
330
1F
100
AcDbEntity
  8
AM_0
100
AcDbLine
 10
-0.0000000000000654
 20
-0.299999999999379
 30
0.0
 11
-0.1732050807569629
 21
0.0000000000006395
 31
0.0
  0
LINE
  5
1B80
330
1F
100
AcDbEntity
  8
AM_0
100
AcDbLine
 10
-0.0000000000000654
 20
0.0000000000006253
 30
0.0
 11
-0.0315000000000631
 21
0.300000000000658
 31
0.0
  0
LINE
  5
1B81
330
1F
100
AcDbEntity
  8
AM_0
100
AcDbLine
 10
-0.0000000000000654
 20
0.0000000000006253
 30
0.0
 11
-0.0266527827432569
 21
-0.2538360261251
 31
0.0
  0
LINE
  5
1B82
330
1F
100
AcDbEntity
  8
AM_0
100
AcDbLine
 10
-0.706971669306634
 20
0.0000000000006253
 30
0.0
 11
-0.706971669306634
 21
-0.2399999999993767
 31
0.0
  0
LINE
  5
1B83
330
1F
100
AcDbEntity
  8
AM_0
100
AcDbLine
 10
-0.706971669306634
 20
-0.2399999999993767
 30
0.0
 11
-0.2581373957074163
 21
-0.4420964295493413
 31
0.0
  0
LINE
  5
1B84
330
1F
100
AcDbEntity
  8
AM_0
100
AcDbLine
 10
-0.0315000000000631
 20
-0.3980693563683317
 30
0.0
 11
-0.0000000000000654
 21
-0.299999999999379
 31
0.0
  0
LINE
  5
1B85
330
1F
100
AcDbEntity
  8
AM_0
100
AcDbLine
 10
-0.3202572593238223
 20
0.8001422442037409
 30
0.0
 11
-0.706971669306634
 21
0.9025360267590443
 31
0.0
  0
LINE
  5
1B86
330
1F
100
AcDbEntity
  8
AM_0
100
AcDbLine
 10
-0.0315000000000631
 20
0.300000000000658
 30
0.0
 11
-0.3202572593238223
 21
0.8001422442037409
 31
0.0
  0
LINE
  5
1B87
330
1F
100
AcDbEntity
  8
AM_0
100
AcDbLine
 10
-0.0000000000000654
 20
-1.499999999999378
 30
0.0
 11
-0.0315000000000631
 21
-1.420032347285928
 31
0.0
  0
LINE
  5
1B88
330
1F
100
AcDbEntity
  8
AM_0
100
AcDbLine
 10
-0.0315000000000631
 20
-1.420032347285907
 30
0.0
 11
-0.2055000000000661
 21
-1.199284996637953
 31
0.0
  0
LINE
  5
1B96
330
1F
100
AcDbEntity
  8
AM_11
100
AcDbLine
 10
-12.00000000000003
 20
-1.499999999999385
 30
0.0
 11
-12.0
 21
1.500000000000618
 31
0.0
  0
SPLINE
  5
1C0D
330
1F
100
AcDbEntity
  8
AM_0
100
AcDbSpline
210
0.0
220
0.0
230
1.0
 70
     8
 71
     3
 72
     8
 73
     4
 74
     0
 42
0.0000000001
 43
0.0000000001
 40
0.0
 40
0.0
 40
0.0
 40
0.0
 40
5.635889483499305
 40
5.635889483499305
 40
5.635889483499305
 40
5.635889483499305
 10
-8.160000000000099
 20
1.50000000000065
 30
0.0
 10
-8.723588948350037
 20
1.50000000000065
 30
0.0
 10
-9.266981776150974
 20
1.386538208694393
 30
0.0
 10
-9.804114997228211
 20
1.182857854685924
 30
0.0
  0
SPLINE
  5
1C0F
330
1F
100
AcDbEntity
  8
AM_0
100
AcDbSpline
210
0.0
220
0.0
230
1.0
 70
     8
 71
     3
 72
     8
 73
     4
 74
     0
 42
0.0000000001
 43
0.0000000001
 40
1.090140354492627
 40
1.090140354492627
 40
1.090140354492627
 40
1.090140354492627
 40
14.36247867694493
 40
14.36247867694493
 40
14.36247867694493
 40
14.36247867694493
 10
-10.8994914363202
 20
1.346550787339996
 30
0.0
 10
-9.476491146079967
 20
1.280091417744444
 30
0.0
 10
-8.254948070893755
 20
0.640045708872556
 30
0.0
 10
-7.033404995707536
 20
0.0000000000006679
 30
0.0
  0
SPLINE
  5
1C5D
330
1F
100
AcDbEntity
  8
AM_0
100
AcDbSpline
210
0.0
220
0.0
230
1.0
 70
     8
 71
     3
 72
     8
 73
     4
 74
     0
 42
0.0000000001
 43
0.0000000001
 40
0.0
 40
0.0
 40
0.0
 40
0.0
 40
1.412269715655734
 40
1.412269715655734
 40
1.412269715655734
 40
1.412269715655734
 10
-11.58000000000003
 20
-1.479320623773119
 30
0.0
 10
-11.72122697156561
 20
-1.479320623773119
 30
0.0
 10
-11.86118577069244
 20
-1.472196031887428
 30
0.0
 10
-11.99999999999998
 20
-1.458641247546886
 30
0.0
  0
SPLINE
  5
1C60
330
1F
100
AcDbEntity
  8
AM_0
100
AcDbSpline
210
0.0
220
0.0
230
1.0
 70
     8
 71
     3
 72
     8
 73
     4
 74
     0
 42
0.0000000001
 43
0.0000000001
 40
0.0
 40
0.0
 40
0.0
 40
0.0
 40
2.130230809022907
 40
2.130230809022907
 40
2.130230809022907
 40
2.130230809022907
 10
-11.16000000000004
 20
-1.499999999999388
 30
0.0
 10
-10.94697691909774
 20
-1.499999999999388
 30
0.0
 10
-10.73683917383895
 20
-1.483790186345437
 30
0.0
 10
-10.52916257979677
 20
-1.45375362685516
 30
0.0
  0
SPLINE
  5
1C61
330
1F
100
AcDbEntity
  8
AM_0
100
AcDbSpline
210
0.0
220
0.0
230
1.0
 70
     8
 71
     3
 72
     8
 73
     4
 74
     0
 42
0.0000000001
 43
0.0000000001
 40
0.0
 40
0.0
 40
0.0
 40
0.0
 40
6.769478140335353
 40
6.769478140335353
 40
6.769478140335353
 40
6.769478140335353
 10
-10.03340499570745
 20
-1.385233351140158
 30
0.0
 10
-10.71035280974099
 20
-1.385233351140158
 30
0.0
 10
-11.36189261981054
 20
-1.231366689942291
 30
0.0
 10
-11.99999999999998
 20
-0.9961554595150801
 30
0.0
  0
SPLINE
  5
1C63
330
1F
100
AcDbEntity
  8
AM_0
100
AcDbSpline
210
0.0
220
0.0
230
1.0
 70
     8
 71
     3
 72
     8
 73
     4
 74
     0
 42
0.0000000001
 43
0.0000000001
 40
4.48458745047074
 40
4.48458745047074
 40
4.48458745047074
 40
4.48458745047074
 40
14.36247867694493
 40
14.36247867694493
 40
14.36247867694493
 40
14.36247867694493
 10
-12.79803377191329
 20
1.203724644052122
 30
0.0
 10
-11.85166329081589
 20
0.9527035460687542
 30
0.0
 10
-10.94253414326166
 20
0.4763517730346863
 30
0.0
 10
-10.03340499570745
 20
0.0000000000006253
 30
0.0
  0
SPLINE
  5
1C75
330
1F
100
AcDbEntity
  8
AM_0
100
AcDbSpline
210
0.0
220
0.0
230
1.0
 70
     8
 71
     3
 72
     8
 73
     4
 74
     0
 42
0.0000000001
 43
0.0000000001
 40
0.0
 40
0.0
 40
0.0
 40
0.0
 40
4.451443990518192
 40
4.451443990518192
 40
4.451443990518192
 40
4.451443990518192
 10
-10.03340499570745
 20
-1.385233351140193
 30
0.0
 10
-9.588260596655635
 20
-1.385233351140193
 30
0.0
 10
-9.154102764255751
 20
-1.318700524273623
 30
0.0
 10
-8.727526369964236
 20
-1.206255764676427
 30
0.0
  0
SPLINE
  5
1C76
330
1F
100
AcDbEntity
  8
AM_0
100
AcDbSpline
210
0.0
220
0.0
230
1.0
 70
     8
 71
     3
 72
     8
 73
     4
 74
     0
 42
0.0000000001
 43
0.0000000001
 40
0.0
 40
0.0
 40
0.0
 40
0.0
 40
2.764560748519282
 40
2.764560748519282
 40
2.764560748519282
 40
2.764560748519282
 10
-10.63636536540165
 20
-1.455085101100003
 30
0.0
 10
-10.35990929054973
 20
-1.455085101100003
 30
0.0
 10
-10.08806681283664
 20
-1.428414344552408
 30
0.0
 10
-9.81995459177296
 20
-1.380179336952323
 30
0.0
  0
SPLINE
  5
1C77
330
1F
100
AcDbEntity
  8
AM_0
100
AcDbSpline
210
0.0
220
0.0
230
1.0
 70
     8
 71
     3
 72
     8
 73
     4
 74
     0
 42
0.0000000001
 43
0.0000000001
 40
0.0
 40
0.0
 40
0.0
 40
0.0
 40
1.412269715655931
 40
1.412269715655931
 40
1.412269715655931
 40
1.412269715655931
 10
-11.16000000000004
 20
-1.499999999999353
 30
0.0
 10
-11.30122697156563
 20
-1.499999999999353
 30
0.0
 10
-11.44118577069248
 20
-1.492875408113668
 30
0.0
 10
-11.58000000000004
 20
-1.479320623773119
 30
0.0
  0
SPLINE
  5
1C78
330
1F
100
AcDbEntity
  8
AM_0
100
AcDbSpline
210
0.0
220
0.0
230
1.0
 70
     8
 71
     3
 72
     8
 73
     4
 74
     0
 42
0.0000000001
 43
0.0000000001
 40
11.41055204919593
 40
11.41055204919593
 40
11.41055204919593
 40
11.41055204919593
 40
14.48999654934393
 40
14.48999654934393
 40
14.48999654934393
 40
14.48999654934393
 10
-11.99999999999999
 20
0.4709757026943464
 30
0.0
 10
-11.71914571924913
 20
0.3187831504653076
 30
0.0
 10
-11.43957285962458
 20
0.1593915752329735
 30
0.0
 10
-11.16000000000004
 20
0.0000000000006466
 30
0.0
  0
POLYLINE
  5
1C8F
330
1F
100
AcDbEntity
  8
AM_0
100
AcDb2dPolyline
 66
     1
 10
0.0
 20
0.0
 30
0.0
 70
     2
  0
VERTEX
  5
1C90
330
1C8F
100
AcDbEntity
  8
AM_0
100
AcDbVertex
100
AcDb2dVertex
 10
-12.7980337719133
 20
1.20372464405213
 30
0.0
 42
-0.0080850818469205
  0
VERTEX
  5
1C91
330
1C8F
100
AcDbEntity
  8
AM_0
100
AcDbVertex
100
AcDb2dVertex
 10
-12.94844639203245
 20
1.250838836208927
 30
0.0
 42
-0.0113772357485858
 70
     1
  0
VERTEX
  5
1C92
330
1C8F
100
AcDbEntity
  8
AM_0
100
AcDbVertex
100
AcDb2dVertex
 10
-13.05561118792059
 20
1.289061180508142
 30
0.0
 42
-0.0082896290467094
  0
VERTEX
  5
1C93
330
1C8F
100
AcDbEntity
  8
AM_0
100
AcDbVertex
100
AcDb2dVertex
 10
-13.39716259608776
 20
1.426248427703981
 30
0.0
 42
-0.2726804491113656
 70
     1
  0
VERTEX
  5
1C94
330
1C8F
100
AcDbEntity
  8
AM_0
100
AcDbVertex
100
AcDb2dVertex
 10
-13.40434004905298
 20
1.435891219821314
 30
0.0
 42
-0.4014058829339297
  0
VERTEX
  5
1C95
330
1C8F
100
AcDbEntity
  8
AM_0
100
AcDbVertex
100
AcDb2dVertex
 10
-13.39132834501471
 20
1.452796212786687
 30
0.0
 42
-0.0313656446754737
 70
     1
  0
VERTEX
  5
1C96
330
1C8F
100
AcDbEntity
  8
AM_0
100
AcDbVertex
100
AcDb2dVertex
 10
-13.15689837095822
 20
1.473635947401788
 30
0.0
 42
-0.0039726403541645
  0
VERTEX
  5
1C97
330
1C8F
100
AcDbEntity
  8
AM_0
100
AcDbVertex
100
AcDb2dVertex
 10
-12.9434073627661
 20
1.477480551135883
 30
0.0
 42
0.0019401889352083
 70
     1
  0
VERTEX
  5
1C98
330
1C8F
100
AcDbEntity
  8
AM_0
100
AcDbVertex
100
AcDb2dVertex
 10
-12.50624999999997
 20
1.483575556977122
 30
0.0
 42
0.0036525506412497
  0
VERTEX
  5
1C99
330
1C8F
100
AcDbEntity
  8
AM_0
100
AcDbVertex
100
AcDb2dVertex
 10
-12.33434397734332
 20
1.487895931636586
 30
0.0
 42
0.0018773371428962
 70
     1
  0
VERTEX
  5
1C9A
330
1C8F
100
AcDbEntity
  8
AM_0
100
AcDbVertex
100
AcDb2dVertex
 10
-11.99999999999998
 20
1.500000000000611
 30
0.0
  0
SEQEND
  5
1C9B
330
1C8F
100
AcDbEntity
  8
AM_0
  0
POLYLINE
  5
1C9D
330
1F
100
AcDbEntity
  8
AM_0
100
AcDb2dPolyline
 66
     1
 10
0.0
 20
0.0
 30
0.0
 70
     2
  0
VERTEX
  5
1DEC
330
1C9D
100
AcDbEntity
  8
AM_0
100
AcDbVertex
100
AcDb2dVertex
 10
-11.99999999999998
 20
0.4709757026943749
 30
0.0
 42
0.0282874143909205
  0
VERTEX
  5
1DF4
330
1C9D
100
AcDbEntity
  8
AM_0
100
AcDbVertex
100
AcDb2dVertex
 10
-12.27088065263731
 20
0.5446205467125043
 30
0.0
 42
0.0334074463496909
 70
     1
  0
VERTEX
  5
1DED
330
1C9D
100
AcDbEntity
  8
AM_0
100
AcDbVertex
100
AcDb2dVertex
 10
-12.50624999999997
 20
0.5782949103711133
 30
0.0
 42
0.0318888583378972
  0
VERTEX
  5
1DF5
330
1C9D
100
AcDbEntity
  8
AM_0
100
AcDbVertex
100
AcDb2dVertex
 10
-13.00092638441017
 20
0.5840135154061399
 30
0.0
 42
0.0858515004804053
 70
     1
  0
VERTEX
  5
1DEE
330
1C9D
100
AcDbEntity
  8
AM_0
100
AcDbVertex
100
AcDb2dVertex
 10
-13.18124999999997
 20
0.5430303554868914
 30
0.0
 42
0.1198883322212041
  0
VERTEX
  5
1DF6
330
1C9D
100
AcDbEntity
  8
AM_0
100
AcDbVertex
100
AcDb2dVertex
 10
-13.3098047140512
 20
0.4486281013128597
 30
0.0
 42
0.170480030243379
 70
     1
  0
VERTEX
  5
1DEF
330
1C9D
100
AcDbEntity
  8
AM_0
100
AcDbVertex
100
AcDb2dVertex
 10
-13.34999999999997
 20
0.3421777862469
 30
0.0
 42
0.1172295991725341
  0
VERTEX
  5
1DF7
330
1C9D
100
AcDbEntity
  8
AM_0
100
AcDbVertex
100
AcDb2dVertex
 10
-13.32163265720567
 20
0.209127235025278
 30
0.0
 42
0.0600702127063968
 70
     1
  0
VERTEX
  5
1DF0
330
1C9D
100
AcDbEntity
  8
AM_0
100
AcDbVertex
100
AcDb2dVertex
 10
-13.18124999999997
 20
-0.0130784186695294
 30
0.0
 42
0.0296604585274382
  0
VERTEX
  5
1DF9
330
1C9D
100
AcDbEntity
  8
AM_0
100
AcDbVertex
100
AcDb2dVertex
 10
-12.95115990772559
 20
-0.2636806729478422
 30
0.0
 42
0.0168132859575152
 70
     1
  0
VERTEX
  5
1DF1
330
1C9D
100
AcDbEntity
  8
AM_0
100
AcDbVertex
100
AcDb2dVertex
 10
-12.50624999999997
 20
-0.6659575162595104
 30
0.0
 42
0.0308957679148689
  0
VERTEX
  5
1DF8
330
1C9D
100
AcDbEntity
  8
AM_0
100
AcDbVertex
100
AcDb2dVertex
 10
-12.32335249098164
 20
-0.8020537649071357
 30
0.0
 42
0.018665024272641
 70
     1
  0
VERTEX
  5
1DF2
330
1C9D
100
AcDbEntity
  8
AM_0
100
AcDbVertex
100
AcDb2dVertex
 10
-11.99999999999998
 20
-0.9961554595150801
 30
0.0
  0
SEQEND
  5
1DF3
330
1C9D
100
AcDbEntity
  8
AM_0
  0
LINE
  5
1C9F
330
1F
100
AcDbEntity
  8
AM_0
100
AcDbLine
 10
-12.00000000000001
 20
0.9405383358065391
 30
0.0
 11
-11.99999999999998
 21
0.4709757026943749
 31
0.0
  0
ARC
  5
1CA0
330
1F
100
AcDbEntity
  8
AM_0
100
AcDbCircle
 10
-11.99512991178948
 20
-4.660916844632538
 30
0.0
 40
3.202279300349893
100
AcDbArc
 50
90.08713656171531
 51
99.21891394236302
  0
LINE
  5
1CA1
330
1F
100
AcDbEntity
  8
AM_0
100
AcDbLine
 10
-11.99999999999998
 20
-0.9961554595150801
 30
0.0
 11
-12.00000000000001
 21
-1.458641247546893
 31
0.0
  0
SPLINE
  5
1CA4
330
1F
100
AcDbEntity
  8
AM_0
100
AcDbSpline
210
0.0
220
0.0
230
1.0
 70
     8
 71
     3
 72
     8
 73
     4
 74
     2
 42
0.0000000001
 43
0.0000000001
 44
0.0000000001
 12
-1.0
 22
0.0000000000000001
 32
0.0
 40
0.0
 40
0.0
 40
0.0
 40
0.0
 40
4.346998964803181
 40
4.346998964803181
 40
4.346998964803181
 40
4.346998964803181
 10
-7.080000000000119
 20
-1.499999999999353
 30
0.0
 10
-8.528999654934512
 20
-1.499999999999353
 30
0.0
 10
-9.844499827467313
 20
-0.7499999999993534
 30
0.0
 10
-11.1600000000001
 20
0.0000000000006466
 30
0.0
 11
-7.080000000000119
 21
-1.499999999999353
 31
0.0
 11
-11.1600000000001
 21
0.0000000000006466
 31
0.0
  0
SPLINE
  5
1CA5
330
1F
100
AcDbEntity
  8
AM_0
100
AcDbSpline
210
0.0
220
0.0
230
1.0
 70
     8
 71
     3
 72
     8
 73
     4
 74
     2
 42
0.0000000001
 43
0.0000000001
 44
0.0000000001
 12
-1.0
 22
0.0000000000000001
 32
0.0
 40
0.0
 40
0.0
 40
0.0
 40
0.0
 40
4.308743603083473
 40
4.308743603083473
 40
4.308743603083473
 40
4.308743603083473
 10
-5.953404995707529
 20
-1.385233351140158
 30
0.0
 10
-7.38965286340202
 20
-1.385233351140158
 30
0.0
 10
-8.71152892955477
 20
-0.6926166755697487
 30
0.0
 10
-10.03340499570752
 20
0.0000000000006608
 30
0.0
 11
-5.953404995707529
 21
-1.385233351140158
 31
0.0
 11
-10.03340499570752
 21
0.0000000000006608
 31
0.0
  0
SPLINE
  5
1CA7
330
1F
100
AcDbEntity
  8
AM_0
100
AcDbSpline
210
0.0
220
0.0
230
1.0
 70
     8
 71
     3
 72
     8
 73
     4
 74
     0
 42
0.0000000001
 43
0.0000000001
 40
0.0
 40
0.0
 40
0.0
 40
0.0
 40
2.764560748519282
 40
2.764560748519282
 40
2.764560748519282
 40
2.764560748519282
 10
-6.556365365401738
 20
-1.455085101099999
 30
0.0
 10
-6.279909290549817
 20
-1.455085101099999
 30
0.0
 10
-6.008066812836716
 20
-1.428414344552404
 30
0.0
 10
-5.739954591773042
 20
-1.38017933695232
 30
0.0
  0
SPLINE
  5
1CA8
330
1F
100
AcDbEntity
  8
AM_0
100
AcDbSpline
210
0.0
220
0.0
230
1.0
 70
     8
 71
     3
 72
     8
 73
     4
 74
     0
 42
0.0000000001
 43
0.0000000001
 40
0.0
 40
0.0
 40
0.0
 40
0.0
 40
2.262448627968059
 40
2.262448627968059
 40
2.262448627968059
 40
2.262448627968059
 10
-5.953404995707536
 20
-1.38523335114019
 30
0.0
 10
-5.72716013291073
 20
-1.38523335114019
 30
0.0
 10
-5.503753304294013
 20
-1.368046686486209
 30
0.0
 10
-5.282737448686312
 20
-1.336380685539904
 30
0.0
  0
SPLINE
  5
1CA9
330
1F
100
AcDbEntity
  8
AM_0
100
AcDbSpline
210
0.0
220
0.0
230
1.0
 70
     8
 71
     3
 72
     8
 73
     4
 74
     0
 42
0.0000000001
 43
0.0000000001
 40
0.0
 40
0.0
 40
0.0
 40
0.0
 40
2.130230809022907
 40
2.130230809022907
 40
2.130230809022907
 40
2.130230809022907
 10
-7.080000000000126
 20
-1.499999999999385
 30
0.0
 10
-6.866976919097822
 20
-1.499999999999385
 30
0.0
 10
-6.656839173839038
 20
-1.483790186345434
 30
0.0
 10
-6.449162579796848
 20
-1.453753626855156
 30
0.0
  0
SPLINE
  5
1CAE
330
1F
100
AcDbEntity
  8
AM_0
100
AcDbSpline
210
0.0
220
0.0
230
1.0
 70
     8
 71
     3
 72
     8
 73
     4
 74
     2
 42
0.0000000001
 43
0.0000000001
 44
0.0000000001
 12
1.0
 22
-0.0000000000000002
 32
0.0
 40
0.0
 40
0.0
 40
0.0
 40
0.0
 40
4.122572012713614
 40
4.122572012713614
 40
4.122572012713614
 40
4.122572012713614
 10
-11.99999999999998
 20
1.500000000000611
 30
0.0
 10
-10.62580932909544
 20
1.50000000000061
 30
0.0
 10
-9.392904664547211
 20
0.750000000000306
 30
0.0
 10
-8.159999999998975
 20
0.0000000000000013
 30
0.0
 11
-11.99999999999998
 21
1.500000000000611
 31
0.0
 11
-8.159999999998975
 21
0.0000000000000013
 31
0.0
  0
VIEWPORT
  5
110
330
101
100
AcDbEntity
 67
     1
  8
0
100
AcDbViewport
 10
420.5
 20
297.0
 30
0.0
 40
948.9782706766916
 41
628.452
 68
     1
 69
     1
1001
ACAD
1000
MVIEW
1002
{
1070
    16
1010
0.0
1020
0.0
1030
0.0
1010
0.0
1020
0.0
1030
1.0
1040
0.0
1040
628.452
1040
420.5
1040
297.0
1040
50.0
1040
0.0
1040
0.0
1070
     0
1070
   100
1070
     1
1070
     1
1070
     0
1070
     0
1070
     0
1070
     0
1040
0.0
1040
0.0
1040
0.0
1040
10.0
1040
10.0
1040
10.0
1040
10.0
1070
     0
1002
{
1002
}
1002
}
  0
ENDSEC
  0
SECTION
  2
OBJECTS
  0
DICTIONARY
  5
C
330
0
100
AcDbDictionary
  3
ACAD_GROUP
350
D
  3
ACAD_LAYOUT
350
1A
  3
ACAD_MLINESTYLE
350
17
  3
ACAD_PLOTSETTINGS
350
19
  3
ACAD_PLOTSTYLENAME
350
E
  3
ACDBVARIABLEDICTIONARY
350
34
  3
ACMDICTIONARY
350
43
  3
AMG
350
2B
  3
AMGSNAPSETTINGS
350
6E
  3
DWGPROPS
350
1E22
  3
ACDBHEADERROUNDTRIPXREC
350
1E2E
  0
DICTIONARY
  5
74
330
1F
100
AcDbDictionary
280
     1
  3
ACAD_INDEX
360
1E24
  3
ACAD_LAYOUTSELFREF
360
1E51
  0
DICTIONARY
  5
1E56
330
101
100
AcDbDictionary
280
     1
  3
ACAD_LAYOUTSELFREF
360
1E57
  0
DICTIONARY
  5
D
102
{ACAD_REACTORS
330
C
102
}
330
C
100
AcDbDictionary
  0
DICTIONARY
  5
1A
102
{ACAD_REACTORS
330
C
102
}
330
C
100
AcDbDictionary
  0
DICTIONARY
  5
17
102
{ACAD_REACTORS
330
C
102
}
330
C
100
AcDbDictionary
  3
STANDARD
350
18
  0
DICTIONARY
  5
19
102
{ACAD_REACTORS
330
C
102
}
330
C
100
AcDbDictionary
  0
ACDBDICTIONARYWDFLT
  5
E
102
{ACAD_REACTORS
330
C
102
}
330
C
100
AcDbDictionary
281
     1
  3
Normal
350
F
100
AcDbDictionaryWithDefault
340
F
  0
DICTIONARY
  5
34
102
{ACAD_REACTORS
330
C
102
}
330
C
100
AcDbDictionary
  3
INDEXCTL
350
35
  3
SORTENTS
350
B5E
  0
DICTIONARY
  5
43
102
{ACAD_REACTORS
330
C
102
}
330
C
100
AcDbDictionary
  3
ACMSTDDICTIONARY
350
260
  0
DICTIONARY
  5
2B
102
{ACAD_REACTORS
330
C
102
}
330
C
100
AcDbDictionary
  3
ACMGSETTINGS
350
2C
  0
DICTIONARY
  5
6E
102
{ACAD_REACTORS
330
C
102
}
330
C
100
AcDbDictionary
  0
XRECORD
  5
1E22
102
{ACAD_REACTORS
330
C
102
}
330
C
100
AcDbXrecord
  1
DWGPROPS COOKIE
  2

  3

  4

  6

  7

  8

  9

300
AmdtFileType=82
301
=
302
=
303
=
304
=
305
=
306
=
307
=
308
=
309
=
 40
0.1168655092592592
 41
2452836.771637361
 42
2453045.5364828
  1

 90
        1
  0
DICTIONARY
  5
1E2E
102
{ACAD_REACTORS
330
C
102
}
330
C
100
AcDbDictionary
  3
TSTACKALIGN
350
1E2F
  3
TSTACKSIZE
350
1E30
  3
HYPERLINKBASE
350
1E31
  3
STYLESHEET
350
1E32
  3
LAYOUTDICT
350
1E33
  3
PLOTSETDICT
350
1E34
  3
PLOTSTYLNAMDICT
350
1E35
  3
LWETCUNION
350
1E36
  3
INSUNITS
350
1E37
  3
CEPSNTYPE
350
1E38
  3
FINGERPRINTGUID
350
1E39
  3
VERSIONGUID
350
1E3A
  3
PSVPSCALE
350
1E3B
  3
DIMSTYLEDATA
350
1E3C
  3
PUCSORTHOREF
350
1E3D
  3
PUCSORTHOVIEW
350
1E3E
  3
PUCSBASE
350
1E3F
  3
PUCSORGTOP
350
1E40
  3
PUCSORGBOTTOM
350
1E41
  3
PUCSORGLEFT
350
1E42
  3
PUCSORGRIGHT
350
1E43
  3
PUCSORGFRONT
350
1E44
  3
PUCSORGBACK
350
1E45
  3
UCSORTHOREF
350
1E46
  3
UCSORTHOVIEW
350
1E47
  3
UCSBASE
350
1E48
  3
UCSORGTOP
350
1E49
  3
UCSORGBOTTOM
350
1E4A
  3
UCSORGLEFT
350
1E4B
  3
UCSORGRIGHT
350
1E4C
  3
UCSORGFRONT
350
1E4D
  3
UCSORGBACK
350
1E4E
  0
DICTIONARY
  5
1E24
102
{ACAD_REACTORS
330
74
102
}
330
74
100
AcDbDictionary
  3
*A1
350
1E25
  0
XRECORD
  5
1E51
102
{ACAD_REACTORS
330
74
102
}
330
74
100
AcDbXrecord
340
1F
  0
XRECORD
  5
1E57
102
{ACAD_REACTORS
330
1E56
102
}
330
1E56
100
AcDbXrecord
340
101
  0
MLINESTYLE
  5
18
102
{ACAD_REACTORS
330
17
102
}
330
17
100
AcDbMlineStyle
  2
STANDARD
 70
     0
  3

 62
   256
 51
90.0
 52
90.0
 71
     2
 49
0.5
 62
   256
  6
BYLAYER
 49
-0.5
 62
   256
  6
BYLAYER
  0
ACDBPLACEHOLDER
  5
F
102
{ACAD_REACTORS
330
E
102
}
330
E
100
AcDbPlaceHolder
280
     0
  0
DICTIONARYVAR
  5
35
102
{ACAD_REACTORS
330
34
102
}
330
34
100
DictionaryVariables
280
     0
  1
1
  0
DICTIONARYVAR
  5
B5E
102
{ACAD_REACTORS
330
34
102
}
330
34
100
DictionaryVariables
280
     0
  1
96
  0
DICTIONARY
  5
260
102
{ACAD_REACTORS
330
43
102
}
330
43
100
AcDbDictionary
  0
DICTIONARY
  5
2C
102
{ACAD_REACTORS
330
2B
102
}
330
2B
100
AcDbDictionary
  3
DWGSETTINGS
350
2D
  0
XRECORD
  5
1E2F
102
{ACAD_REACTORS
330
1E2E
102
}
330
1E2E
100
AcDbXrecord
 90
        1
  0
XRECORD
  5
1E30
102
{ACAD_REACTORS
330
1E2E
102
}
330
1E2E
100
AcDbXrecord
 90
       70
  0
XRECORD
  5
1E31
102
{ACAD_REACTORS
330
1E2E
102
}
330
1E2E
100
AcDbXrecord
  1

  0
XRECORD
  5
1E32
102
{ACAD_REACTORS
330
1E2E
102
}
330
1E2E
100
AcDbXrecord
  1
ASAMI.ctb
  0
XRECORD
  5
1E33
102
{ACAD_REACTORS
330
1E2E
102
}
330
1E2E
100
AcDbXrecord
340
1A
  0
XRECORD
  5
1E34
102
{ACAD_REACTORS
330
1E2E
102
}
330
1E2E
100
AcDbXrecord
340
19
  0
XRECORD
  5
1E35
102
{ACAD_REACTORS
330
1E2E
102
}
330
1E2E
100
AcDbXrecord
340
E
  0
XRECORD
  5
1E36
102
{ACAD_REACTORS
330
1E2E
102
}
330
1E2E
100
AcDbXrecord
 90
    10781
  0
XRECORD
  5
1E37
102
{ACAD_REACTORS
330
1E2E
102
}
330
1E2E
100
AcDbXrecord
 90
        4
  0
XRECORD
  5
1E38
102
{ACAD_REACTORS
330
1E2E
102
}
330
1E2E
100
AcDbXrecord
 90
        0
  0
XRECORD
  5
1E39
102
{ACAD_REACTORS
330
1E2E
102
}
330
1E2E
100
AcDbXrecord
  1
{AFB28963-8C59-40AE-9337-C84526B81ACE}
  0
XRECORD
  5
1E3A
102
{ACAD_REACTORS
330
1E2E
102
}
330
1E2E
100
AcDbXrecord
  1
{D7D82CB8-6330-48AA-8A6E-1941EF9A5F94}
  0
XRECORD
  5
1E3B
102
{ACAD_REACTORS
330
1E2E
102
}
330
1E2E
100
AcDbXrecord
 40
0.0
  0
XRECORD
  5
1E3C
102
{ACAD_REACTORS
330
1E2E
102
}
330
1E2E
100
AcDbXrecord
1000
DSTYLE
1002
{
1070
    79
 70
     2
1070
   341
340
59
1070
   342
340
59
1070
   371
 70
    -1
1070
   372
 70
    -1
1002
}
  0
XRECORD
  5
1E3D
102
{ACAD_REACTORS
330
1E2E
102
}
330
1E2E
100
AcDbXrecord
340
0
  0
XRECORD
  5
1E3E
102
{ACAD_REACTORS
330
1E2E
102
}
330
1E2E
100
AcDbXrecord
 70
     0
  0
XRECORD
  5
1E3F
102
{ACAD_REACTORS
330
1E2E
102
}
330
1E2E
100
AcDbXrecord
340
0
  0
XRECORD
  5
1E40
102
{ACAD_REACTORS
330
1E2E
102
}
330
1E2E
100
AcDbXrecord
 10
0.0
 20
0.0
 30
0.0
  0
XRECORD
  5
1E41
102
{ACAD_REACTORS
330
1E2E
102
}
330
1E2E
100
AcDbXrecord
 10
0.0
 20
0.0
 30
0.0
  0
XRECORD
  5
1E42
102
{ACAD_REACTORS
330
1E2E
102
}
330
1E2E
100
AcDbXrecord
 10
0.0
 20
0.0
 30
0.0
  0
XRECORD
  5
1E43
102
{ACAD_REACTORS
330
1E2E
102
}
330
1E2E
100
AcDbXrecord
 10
0.0
 20
0.0
 30
0.0
  0
XRECORD
  5
1E44
102
{ACAD_REACTORS
330
1E2E
102
}
330
1E2E
100
AcDbXrecord
 10
0.0
 20
0.0
 30
0.0
  0
XRECORD
  5
1E45
102
{ACAD_REACTORS
330
1E2E
102
}
330
1E2E
100
AcDbXrecord
 10
0.0
 20
0.0
 30
0.0
  0
XRECORD
  5
1E46
102
{ACAD_REACTORS
330
1E2E
102
}
330
1E2E
100
AcDbXrecord
340
0
  0
XRECORD
  5
1E47
102
{ACAD_REACTORS
330
1E2E
102
}
330
1E2E
100
AcDbXrecord
 70
     0
  0
XRECORD
  5
1E48
102
{ACAD_REACTORS
330
1E2E
102
}
330
1E2E
100
AcDbXrecord
340
0
  0
XRECORD
  5
1E49
102
{ACAD_REACTORS
330
1E2E
102
}
330
1E2E
100
AcDbXrecord
 10
0.0
 20
0.0
 30
0.0
  0
XRECORD
  5
1E4A
102
{ACAD_REACTORS
330
1E2E
102
}
330
1E2E
100
AcDbXrecord
 10
0.0
 20
0.0
 30
0.0
  0
XRECORD
  5
1E4B
102
{ACAD_REACTORS
330
1E2E
102
}
330
1E2E
100
AcDbXrecord
 10
0.0
 20
0.0
 30
0.0
  0
XRECORD
  5
1E4C
102
{ACAD_REACTORS
330
1E2E
102
}
330
1E2E
100
AcDbXrecord
 10
0.0
 20
0.0
 30
0.0
  0
XRECORD
  5
1E4D
102
{ACAD_REACTORS
330
1E2E
102
}
330
1E2E
100
AcDbXrecord
 10
0.0
 20
0.0
 30
0.0
  0
XRECORD
  5
1E4E
102
{ACAD_REACTORS
330
1E2E
102
}
330
1E2E
100
AcDbXrecord
 10
0.0
 20
0.0
 30
0.0
  0
LAYER_INDEX
  5
1E25
102
{ACAD_REACTORS
330
1E24
102
}
330
1E24
100
AcDbIndex
 40
2453152.443303229
100
AcDbLayerIndex
  8
0
360
1E26
 90
        0
  8
AM_0
360
1E27
 90
       63
  8
AM_11
360
1E28
 90
        3
  8
AM_7
360
1E29
 90
        2
  8
AM_5
360
1E2A
 90
        4
  8
Defpoints
360
1E2B
 90
        0
  8
AM_6
360
1E2C
 90
        1
  0
XRECORD
  5
2D
102
{ACAD_REACTORS
330
2C
102
}
330
2C
100
AcDbXrecord
  1
VERSION
140
15.0
  1
PRODUCT
  2
AutoCAD Mechanical 2000
  0
IDBUFFER
  5
1E26
330
0
100
AcDbIdBuffer
  0
IDBUFFER
  5
1E27
330
0
100
AcDbIdBuffer
330
1C75
330
1C76
330
1C77
330
1C78
330
1C8F
330
1C9D
330
1C9F
330
1CA0
330
1CA1
330
1CA4
330
1CA5
330
1CA7
330
1CA8
330
1CA9
330
1CAE
330
139D
330
139E
330
13A1
330
13A2
330
13C4
330
13C7
330
1571
330
158A
330
158B
330
16CC
330
1868
330
1869
330
1B1F
330
1B20
330
1B26
330
1B28
330
1B29
330
1B2A
330
1B2B
330
1B2D
330
1B2E
330
1B2F
330
1B30
330
1B31
330
1B34
330
1B35
330
1B78
330
1B79
330
1B7B
330
1B7C
330
1B7D
330
1B7E
330
1B7F
330
1B80
330
1B81
330
1B82
330
1B83
330
1B84
330
1B85
330
1B86
330
1B87
330
1B88
330
1C0D
330
1C0F
330
1C5D
330
1C60
330
1C61
330
1C63
  0
IDBUFFER
  5
1E28
330
0
100
AcDbIdBuffer
330
1B76
330
1B77
330
1B96
  0
IDBUFFER
  5
1E29
330
0
100
AcDbIdBuffer
330
F47
330
1B61
  0
IDBUFFER
  5
1E2A
330
0
100
AcDbIdBuffer
330
105F
330
10EF
330
1180
330
13A3
  0
IDBUFFER
  5
1E2B
330
0
100
AcDbIdBuffer
  0
IDBUFFER
  5
1E2C
330
0
100
AcDbIdBuffer
330
E5A
  0
ENDSEC
  0
EOF
