  0
SECTION
  2
HEADER
  9
$ACADVER
  1
AC1014
  9
$ACADMAINTVER
 70
     9
  9
$DWGCODEPAGE
  3
ANSI_932
  9
$INSBASE
 10
0.0
 20
0.0
 30
0.0
  9
$EXTMIN
 10
-62.1382312597198
 20
-27.25000100000005
 30
-0.00000001
  9
$EXTMAX
 10
12.05776903085495
 20
4.499999999999998
 30
0.00000001
  9
$LIMMIN
 10
-68.19230936270617
 20
-34.68940759797263
  9
$LIMMAX
 10
17.20702784832059
 20
15.72787212546569
  9
$ORTHOMODE
 70
     0
  9
$REGENMODE
 70
     1
  9
$FILLMODE
 70
     1
  9
$QTEXTMODE
 70
     0
  9
$MIRRTEXT
 70
     0
  9
$DRAGMODE
 70
     2
  9
$LTSCALE
 40
1.0
  9
$OSMODE
 70
    55
  9
$ATTMODE
 70
     1
  9
$TEXTSIZE
 40
2.5
  9
$TRACEWID
 40
1.0
  9
$TEXTSTYLE
  7
STANDARD
  9
$CLAYER
  8
AM_0
  9
$CELTYPE
  6
BYLAYER
  9
$CECOLOR
 62
   256
  9
$CELTSCALE
 40
1.0
  9
$DELOBJ
 70
     1
  9
$DISPSILH
 70
     0
  9
$DIMSCALE
 40
0.5
  9
$DIMASZ
 40
2.5
  9
$DIMEXO
 40
1.0
  9
$DIMDLI
 40
12.0
  9
$DIMRND
 40
0.0
  9
$DIMDLE
 40
0.0
  9
$DIMEXE
 40
1.0
  9
$DIMTP
 40
0.1
  9
$DIMTM
 40
0.1
  9
$DIMTXT
 40
3.2
  9
$DIMCEN
 40
0.0
  9
$DIMTSZ
 40
0.0
  9
$DIMTOL
 70
     0
  9
$DIMLIM
 70
     0
  9
$DIMTIH
 70
     0
  9
$DIMTOH
 70
     0
  9
$DIMSE1
 70
     0
  9
$DIMSE2
 70
     0
  9
$DIMTAD
 70
     3
  9
$DIMZIN
 70
     8
  9
$DIMBLK
  1
OPEN30
  9
$DIMASO
 70
     1
  9
$DIMSHO
 70
     1
  9
$DIMPOST
  1

  9
$DIMAPOST
  1
"
  9
$DIMALT
 70
     0
  9
$DIMALTD
 70
     2
  9
$DIMALTF
 40
0.0393701
  9
$DIMLFAC
 40
1.0
  9
$DIMTOFL
 70
     1
  9
$DIMTVP
 40
0.0
  9
$DIMTIX
 70
     0
  9
$DIMSOXD
 70
     0
  9
$DIMSAH
 70
     0
  9
$DIMBLK1
  1

  9
$DIMBLK2
  1

  9
$DIMSTYLE
  2
AM_JIS
  9
$DIMCLRD
 70
   256
  9
$DIMCLRE
 70
   256
  9
$DIMCLRT
 70
     2
  9
$DIMTFAC
 40
0.71
  9
$DIMGAP
 40
1.5
  9
$DIMJUST
 70
     0
  9
$DIMSD1
 70
     0
  9
$DIMSD2
 70
     0
  9
$DIMTOLJ
 70
     0
  9
$DIMTZIN
 70
     0
  9
$DIMALTZ
 70
     0
  9
$DIMALTTZ
 70
     0
  9
$DIMFIT
 70
     3
  9
$DIMUPT
 70
     0
  9
$DIMUNIT
 70
     2
  9
$DIMDEC
 70
     3
  9
$DIMTDEC
 70
     3
  9
$DIMALTU
 70
     2
  9
$DIMALTTD
 70
     2
  9
$DIMTXSTY
  7
ASAMI
  9
$DIMAUNIT
 70
     0
  9
$LUNITS
 70
     2
  9
$LUPREC
 70
     2
  9
$SKETCHINC
 40
1.0
  9
$FILLETRAD
 40
2.5
  9
$AUNITS
 70
     0
  9
$AUPREC
 70
     0
  9
$MENU
  1
.
  9
$ELEVATION
 40
0.0
  9
$PELEVATION
 40
0.0
  9
$THICKNESS
 40
0.0
  9
$LIMCHECK
 70
     0
  9
$BLIPMODE
 70
     0
  9
$CHAMFERA
 40
0.5
  9
$CHAMFERB
 40
0.5
  9
$CHAMFERC
 40
20.0
  9
$CHAMFERD
 40
0.0
  9
$SKPOLY
 70
     0
  9
$TDCREATE
 40
2452836.771637361
  9
$TDUPDATE
 40
2453152.443456944
  9
$TDINDWG
 40
0.1034916551
  9
$TDUSRTIMER
 40
0.1034916551
  9
$USRTIMER
 70
     1
  9
$ANGBASE
 50
0.0
  9
$ANGDIR
 70
     0
  9
$PDMODE
 70
     0
  9
$PDSIZE
 40
0.0
  9
$PLINEWID
 40
0.0
  9
$COORDS
 70
     1
  9
$SPLFRAME
 70
     0
  9
$SPLINETYPE
 70
     6
  9
$SPLINESEGS
 70
     8
  9
$ATTDIA
 70
     1
  9
$ATTREQ
 70
     1
  9
$HANDLING
 70
 12289
  9
$HANDSEED
  5
2179
  9
$SURFTAB1
 70
     6
  9
$SURFTAB2
 70
     6
  9
$SURFTYPE
 70
     6
  9
$SURFU
 70
     6
  9
$SURFV
 70
     6
  9
$UCSNAME
  2

  9
$UCSORG
 10
0.0
 20
0.0
 30
0.0
  9
$UCSXDIR
 10
1.0
 20
0.0
 30
0.0
  9
$UCSYDIR
 10
0.0
 20
1.0
 30
0.0
  9
$PUCSNAME
  2

  9
$PUCSORG
 10
0.0
 20
0.0
 30
0.0
  9
$PUCSXDIR
 10
1.0
 20
0.0
 30
0.0
  9
$PUCSYDIR
 10
0.0
 20
1.0
 30
0.0
  9
$USERI1
 70
     0
  9
$USERI2
 70
     0
  9
$USERI3
 70
     0
  9
$USERI4
 70
     0
  9
$USERI5
 70
     0
  9
$USERR1
 40
0.0
  9
$USERR2
 40
0.0
  9
$USERR3
 40
0.0
  9
$USERR4
 40
0.0
  9
$USERR5
 40
0.0
  9
$WORLDVIEW
 70
     1
  9
$SHADEDGE
 70
     3
  9
$SHADEDIF
 70
    70
  9
$TILEMODE
 70
     1
  9
$MAXACTVP
 70
    64
  9
$PINSBASE
 10
0.0
 20
0.0
 30
0.0
  9
$PLIMCHECK
 70
     0
  9
$PEXTMIN
 10
1.000000000000000E+20
 20
1.000000000000000E+20
 30
1.000000000000000E+20
  9
$PEXTMAX
 10
-1.000000000000000E+20
 20
-1.000000000000000E+20
 30
-1.000000000000000E+20
  9
$PLIMMIN
 10
0.0
 20
0.0
  9
$PLIMMAX
 10
841.0
 20
594.0
  9
$UNITMODE
 70
     0
  9
$VISRETAIN
 70
     1
  9
$PLINEGEN
 70
     0
  9
$PSLTSCALE
 70
     0
  9
$TREEDEPTH
 70
  3020
  9
$PICKSTYLE
 70
     0
  9
$CMLSTYLE
  2
STANDARD
  9
$CMLJUST
 70
     0
  9
$CMLSCALE
 40
20.0
  9
$PROXYGRAPHICS
 70
     1
  9
$MEASUREMENT
 70
     1
  0
ENDSEC
  0
SECTION
  2
CLASSES
  0
CLASS
  1
ACDBDICTIONARYWDFLT
  2
AcDbDictionaryWithDefault
  3
AutoCAD 2000
 90
        0
280
     0
281
     0
  0
CLASS
  1
ACDBPLACEHOLDER
  2
AcDbPlaceHolder
  3
AutoCAD 2000
 90
        0
280
     0
281
     0
  0
CLASS
  1
LAYOUT
  2
AcDbLayout
  3
AutoCAD 2000
 90
        0
280
     0
281
     0
  0
CLASS
  1
AMGSETTINGSOBJ
  2
AmgSettingsObj
  3
"AcadM|Product Description: AutoCAD Mechanical 2000|Company: Autodesk"
 90
        0
280
     0
281
     0
  0
CLASS
  1
ACME_DOCUMENT
  2
AcMeDbDoc
  3
AcMeServices
 90
        0
280
     0
281
     0
  0
CLASS
  1
ACMESCOPE
  2
AcMeScope
  3
AcMeServices
 90
        0
280
     0
281
     0
  0
CLASS
  1
ACMECOMMANDHISTORY
  2
AcMeCommandHistory
  3
AcMeServices
 90
        0
280
     0
281
     0
  0
CLASS
  1
DICTIONARYVAR
  2
AcDbDictionaryVar
  3
AutoCAD 2000
 90
        0
280
     0
281
     0
  0
CLASS
  1
ACIMSYSVARMAN
  2
AcImSysVarManager
  3
AcMeServices
 90
        0
280
     0
281
     0
  0
CLASS
  1
ACIMREALSYSVAR
  2
AcImRealSysVar
  3
AcMeServices
 90
        0
280
     0
281
     0
  0
CLASS
  1
ACIMINTSYSVAR
  2
AcImIntSysVar
  3
AcMeServices
 90
        0
280
     0
281
     0
  0
CLASS
  1
ACMEDRAWINGMAN
  2
AcMeDrawingMan
  3
AcMeServices
 90
        0
280
     0
281
     0
  0
CLASS
  1
ACMEVIEW
  2
AcMeView
  3
AcMeServices
 90
        0
280
     0
281
     0
  0
CLASS
  1
ACDBENTITYCACHE
  2
AcMeEntityCache
  3
AcMeServices
 90
        0
280
     0
281
     0
  0
CLASS
  1
GSMANAGER
  2
AcMeGSManager
  3
AcMeServices
 90
        0
280
     0
281
     0
  0
CLASS
  1
AmdtInternalReactor
  2
AmdtInternalReactor
  3
AcMeServices
 90
        0
280
     0
281
     0
  0
CLASS
  1
ACMESTATEMGR
  2
AcMeStateMgr
  3
AcMeServices
 90
        0
280
     0
281
     0
  0
CLASS
  1
ACME_DATABASE
  2
AcMeDbDatabase
  3
AcMeServices
 90
        0
280
     0
281
     0
  0
CLASS
  1
ACRFINSADJUSTERMGR
  2
AcRfInsAdjusterMgr
  3
AcMeServices
 90
        0
280
     0
281
     0
  0
CLASS
  1
ACMDATADICTIONARY
  2
AcmDataDictionary
  3
"AcmSymBB|Product Description: AutoCAD Mechanical 2000|Company: Autodesk"
 90
        0
280
     0
281
     0
  0
CLASS
  1
ACMDATAENTRYBLOCK
  2
AcmDataEntryBlock
  3
"AcmSymBB|Product Description: AutoCAD Mechanical 2000|Company: Autodesk"
 90
        0
280
     0
281
     0
  0
CLASS
  1
AMGOBJPROPCFG
  2
AmgObjPropCfg
  3
"AmgLay|Product Description: AutoCAD Mechanical 2000|Company: Autodesk"
 90
        1
280
     0
281
     0
  0
CLASS
  1
ACAMGFILTERDAT
  2
AcAmgFilterDat
  3
"AcadM|Product Description: AutoCAD Mechanical 2000|Company: Autodesk"
 90
        0
280
     0
281
     0
  0
CLASS
  1
LAYER_INDEX
  2
AcDbLayerIndex
  3
AutoCAD 2000
 90
        0
280
     0
281
     0
  0
CLASS
  1
IDBUFFER
  2
AcDbIdBuffer
  3
AutoCAD 2000
 90
        0
280
     0
281
     0
  0
CLASS
  1
ACIMSTRSYSVAR
  2
AcImStrSysVar
  3
AcMeServices
 90
        0
280
     0
281
     0
  0
CLASS
  1
ACMSTANDARDJIS
  2
AcmStandardJIS
  3
"AcmSymBB|Product Description: AutoCAD Mechanical 2000|Company: Autodesk"
 90
        0
280
     0
281
     0
  0
CLASS
  1
ACMSURFSTANDARDJIS
  2
AcmSurfTextStdJIS
  3
"AcmSymBB|Product Description: AutoCAD Mechanical 2000|Company: Autodesk"
 90
        0
280
     0
281
     0
  0
CLASS
  1
ACMFCFSTANDARDJIS
  2
AcmFCFStdJIS
  3
"AcmSymBB|Product Description: AutoCAD Mechanical 2000|Company: Autodesk"
 90
        0
280
     0
281
     0
  0
CLASS
  1
ACMWELDSTANDARDJIS
  2
AcmWeldingStdJIS
  3
"AcmSymBB|Product Description: AutoCAD Mechanical 2000|Company: Autodesk"
 90
        0
280
     0
281
     0
  0
CLASS
  1
ACMIDSTANDARDJIS
  2
AcmIdStdJIS
  3
"AcmSymBB|Product Description: AutoCAD Mechanical 2000|Company: Autodesk"
 90
        0
280
     0
281
     0
  0
CLASS
  1
ACMDATUMSTANDARDJIS
  2
AcmDatumStdJIS
  3
"AcmSymBB|Product Description: AutoCAD Mechanical 2000|Company: Autodesk"
 90
        0
280
     0
281
     0
  0
CLASS
  1
ACMBOMSTANDARDJIS
  2
AcmBOMStdJIS
  3
"AcmSymBB|Product Description: AutoCAD Mechanical 2000|Company: Autodesk"
 90
        0
280
     0
281
     0
  0
CLASS
  1
ACMSTANDARDANSI
  2
AcmStandardANSI
  3
"AcmSymBB|Product Description: AutoCAD Mechanical 2000|Company: Autodesk"
 90
        0
280
     0
281
     0
  0
CLASS
  1
ACMSURFSTANDARDANSI
  2
AcmSurfTextStdANSI
  3
"AcmSymBB|Product Description: AutoCAD Mechanical 2000|Company: Autodesk"
 90
        0
280
     0
281
     0
  0
CLASS
  1
ACMFCFSTANDARDANSI
  2
AcmFCFStdANSI
  3
"AcmSymBB|Product Description: AutoCAD Mechanical 2000|Company: Autodesk"
 90
        0
280
     0
281
     0
  0
CLASS
  1
ACMWELDSTANDARDANSI
  2
AcmWeldingStdANSI
  3
"AcmSymBB|Product Description: AutoCAD Mechanical 2000|Company: Autodesk"
 90
        0
280
     0
281
     0
  0
CLASS
  1
ACMIDSTANDARDANSI
  2
AcmIdStdANSI
  3
"AcmSymBB|Product Description: AutoCAD Mechanical 2000|Company: Autodesk"
 90
        0
280
     0
281
     0
  0
CLASS
  1
ACMDATUMSTANDARDANSI
  2
AcmDatumStdANSI
  3
"AcmSymBB|Product Description: AutoCAD Mechanical 2000|Company: Autodesk"
 90
        0
280
     0
281
     0
  0
CLASS
  1
ACMBOMSTANDARDANSI
  2
AcmBOMStdANSI
  3
"AcmSymBB|Product Description: AutoCAD Mechanical 2000|Company: Autodesk"
 90
        0
280
     0
281
     0
  0
CLASS
  1
ACMSTANDARDBSI
  2
AcmStandardBSI
  3
"AcmSymBB|Product Description: AutoCAD Mechanical 2000|Company: Autodesk"
 90
        0
280
     0
281
     0
  0
CLASS
  1
ACMSURFSTANDARDBSI
  2
AcmSurfTextStdBSI
  3
"AcmSymBB|Product Description: AutoCAD Mechanical 2000|Company: Autodesk"
 90
        0
280
     0
281
     0
  0
CLASS
  1
ACMFCFSTANDARDBSI
  2
AcmFCFStdBSI
  3
"AcmSymBB|Product Description: AutoCAD Mechanical 2000|Company: Autodesk"
 90
        0
280
     0
281
     0
  0
CLASS
  1
ACMWELDSTANDARDBSI
  2
AcmWeldingStdBSI
  3
"AcmSymBB|Product Description: AutoCAD Mechanical 2000|Company: Autodesk"
 90
        0
280
     0
281
     0
  0
CLASS
  1
ACMIDSTANDARDBSI
  2
AcmIdStdBSI
  3
"AcmSymBB|Product Description: AutoCAD Mechanical 2000|Company: Autodesk"
 90
        0
280
     0
281
     0
  0
CLASS
  1
ACMDATUMSTANDARDBSI
  2
AcmDatumStdBSI
  3
"AcmSymBB|Product Description: AutoCAD Mechanical 2000|Company: Autodesk"
 90
        0
280
     0
281
     0
  0
CLASS
  1
ACMBOMSTANDARDBSI
  2
AcmBOMStdBSI
  3
"AcmSymBB|Product Description: AutoCAD Mechanical 2000|Company: Autodesk"
 90
        0
280
     0
281
     0
  0
CLASS
  1
LONG_TRANSACTION
  2
AcDbLongTransaction
  3
AutoCAD 2000
 90
        0
280
     0
281
     0
  0
CLASS
  1
LWPOLYLINE
  2
AcDbPolyline
  3
AutoCAD 2000
 90
        0
280
     0
281
     1
  0
CLASS
  1
HATCH
  2
AcDbHatch
  3
AutoCAD 2000
 90
        0
280
     0
281
     1
  0
CLASS
  1
XRECORD
  2
AcDbXrecord
  3
AutoCAD 2000
 90
        0
280
     0
281
     0
  0
ENDSEC
  0
SECTION
  2
TABLES
  0
TABLE
  2
VPORT
  5
8
330
0
100
AcDbSymbolTable
 70
     3
  0
VPORT
  5
214E
330
8
100
AcDbSymbolTableRecord
100
AcDbViewportTableRecord
  2
*ACTIVE
 70
     0
 10
0.0
 20
0.0
 11
1.0
 21
1.0
 12
-20.27231213186934
 22
-7.734738395566097
 13
0.0
 23
0.0
 14
2.5
 24
2.5
 15
10.0
 25
10.0
 16
0.0
 26
0.0
 36
1.0
 17
0.0
 27
0.0
 37
0.0
 40
67.92039035399511
 41
1.56570841889117
 42
50.0
 43
0.0
 44
0.0
 50
0.0
 51
0.0
 71
     0
 72
   100
 73
     1
 74
     3
 75
     0
 76
     0
 77
     0
 78
     0
  0
ENDTAB
  0
TABLE
  2
LTYPE
  5
5
330
0
100
AcDbSymbolTable
 70
    10
  0
LTYPE
  5
14
330
5
100
AcDbSymbolTableRecord
100
AcDbLinetypeTableRecord
  2
BYBLOCK
 70
     0
  3

 72
    65
 73
     0
 40
0.0
  0
LTYPE
  5
15
330
5
100
AcDbSymbolTableRecord
100
AcDbLinetypeTableRecord
  2
BYLAYER
 70
     0
  3

 72
    65
 73
     0
 40
0.0
  0
LTYPE
  5
16
330
5
100
AcDbSymbolTableRecord
100
AcDbLinetypeTableRecord
  2
CONTINUOUS
 70
     0
  3
Solid line
 72
    65
 73
     0
 40
0.0
  0
LTYPE
  5
4B
330
5
100
AcDbSymbolTableRecord
100
AcDbLinetypeTableRecord
  2
AM_ISO02W050
 70
     0
  3
__ __ __ __ __ __ __ __ __ __ __ __ __ __ __
 72
    65
 73
     2
 40
7.5
 49
6.0
 74
     0
 49
-1.5
 74
     0
  0
LTYPE
  5
4C
330
5
100
AcDbSymbolTableRecord
100
AcDbLinetypeTableRecord
  2
AM_ISO08W050
 70
     0
  3
____ . ____ . ____ . ____ . ____ . ____ . ____
 72
    65
 73
     4
 40
18.0
 49
12.0
 74
     0
 49
-1.5
 74
     0
 49
3.0
 74
     0
 49
-1.5
 74
     0
  0
LTYPE
  5
4D
330
5
100
AcDbSymbolTableRecord
100
AcDbLinetypeTableRecord
  2
AM_ISO09W050
 70
     0
  3
_____ . . _____ . . _____ . . ____ .. ____
 72
    65
 73
     6
 40
22.5
 49
12.0
 74
     0
 49
-1.5
 74
     0
 49
3.0
 74
     0
 49
-1.5
 74
     0
 49
3.0
 74
     0
 49
-1.5
 74
     0
  0
LTYPE
  5
4E
330
5
100
AcDbSymbolTableRecord
100
AcDbLinetypeTableRecord
  2
AMCONSTR
 70
     0
  3
_______________________
 72
    65
 73
     2
 40
9999.0
 49
9999.0
 74
     0
 49
0.0
 74
     0
  0
LTYPE
  5
4F
330
5
100
AcDbSymbolTableRecord
100
AcDbLinetypeTableRecord
  2
AM_ISO02W050X2
 70
     0
  3
 _ _ _ _ _ _ _ _ _ _ _ _
 72
    65
 73
     2
 40
3.75
 49
3.0
 74
     0
 49
-0.75
 74
     0
  0
LTYPE
  5
50
330
5
100
AcDbSymbolTableRecord
100
AcDbLinetypeTableRecord
  2
AM_ISO08W050X2
 70
     0
  3
__ . __ . __ . __ . __ . __
 72
    65
 73
     4
 40
9.0
 49
6.0
 74
     0
 49
-0.75
 74
     0
 49
1.5
 74
     0
 49
-0.75
 74
     0
  0
LTYPE
  5
53
330
5
100
AcDbSymbolTableRecord
100
AcDbLinetypeTableRecord
  2
AMZIGZAG
 70
     0
  3
/\/-/\/-/\/-/\/-/\/-/\/
 72
    65
 73
     2
 40
11.00009999999999
 49
0.0001
 74
     4
 75
   135
340
52
 46
0.04
 50
0.0
 44
0.0
 45
0.0
 49
-11.0
 74
     0
  0
LTYPE
  5
166
330
5
100
AcDbSymbolTableRecord
100
AcDbLinetypeTableRecord
  2
ACJISTGL
 70
     0
  3
_ _ _ _ _
 72
    65
 73
     2
 40
3.0
 49
2.0
 74
     0
 49
-1.0
 74
     0
  0
LTYPE
  5
26A
330
5
100
AcDbSymbolTableRecord
100
AcDbLinetypeTableRecord
  2
ACJISTGB
 70
     0
  3
__ . . __ . .
 72
    65
 73
     6
 40
9.0
 49
4.0
 74
     0
 49
-1.0
 74
     0
 49
1.0
 74
     0
 49
-1.0
 74
     0
 49
1.0
 74
     0
 49
-1.0
 74
     0
  0
ENDTAB
  0
TABLE
  2
LAYER
  5
2
330
0
100
AcDbSymbolTable
 70
     7
  0
LAYER
  5
10
330
2
100
AcDbSymbolTableRecord
100
AcDbLayerTableRecord
  2
0
 70
     0
 62
     7
  6
CONTINUOUS
  0
LAYER
  5
3F9
330
2
100
AcDbSymbolTableRecord
100
AcDbLayerTableRecord
  2
AM_0
 70
     0
 62
     7
  6
CONTINUOUS
  0
LAYER
  5
BD4
330
2
100
AcDbSymbolTableRecord
100
AcDbLayerTableRecord
  2
AM_11
 70
     0
 62
     3
  6
AM_ISO09W050
  0
LAYER
  5
BD5
330
2
100
AcDbSymbolTableRecord
100
AcDbLayerTableRecord
  2
AM_7
 70
     0
 62
     4
  6
AM_ISO08W050
  0
LAYER
  5
BD6
330
2
100
AcDbSymbolTableRecord
100
AcDbLayerTableRecord
  2
AM_5
 70
     0
 62
     3
  6
CONTINUOUS
  0
LAYER
  5
BD7
330
2
100
AcDbSymbolTableRecord
100
AcDbLayerTableRecord
  2
DEFPOINTS
 70
     0
 62
     7
  6
CONTINUOUS
  0
LAYER
  5
E59
330
2
100
AcDbSymbolTableRecord
100
AcDbLayerTableRecord
  2
AM_6
 70
     0
 62
     2
  6
CONTINUOUS
  0
ENDTAB
  0
TABLE
  2
STYLE
  5
3
330
0
100
AcDbSymbolTable
 70
     5
  0
STYLE
  5
11
330
3
100
AcDbSymbolTableRecord
100
AcDbTextStyleTableRecord
  2
STANDARD
 70
     0
 40
0.0
 41
1.0
 50
0.0
 71
     0
 42
2.5
  3
simplex.shx
  4
EXTFONT.SHX
  0
STYLE
  5
52
330
3
100
AcDbSymbolTableRecord
100
AcDbTextStyleTableRecord
  2

 70
     1
 40
0.0
 41
1.0
 50
0.0
 71
     0
 42
2.5
  3
ltypeshp.shx
  4

  0
STYLE
  5
6B
330
3
100
AcDbSymbolTableRecord
100
AcDbTextStyleTableRecord
  2
ASAMI
 70
     0
 40
0.0
 41
1.0
 50
0.0
 71
     0
 42
2.5
  3
simplex.shx
  4
EXTFONT.SHX
  0
STYLE
  5
262
330
3
100
AcDbSymbolTableRecord
100
AcDbTextStyleTableRecord
  2
ACJISTS
 70
     0
 40
1.0
 41
1.0
 50
0.0
 71
     0
 42
2.5
  3
simplex.shx
  4
bigfont.shx
  0
STYLE
  5
269
330
3
100
AcDbSymbolTableRecord
100
AcDbTextStyleTableRecord
  2
ACJISGDT
 70
     0
 40
0.0
 41
1.0
 50
0.0
 71
     0
 42
2.5
  3
amgdtans.shx
  4

  0
ENDTAB
  0
TABLE
  2
VIEW
  5
6
330
0
100
AcDbSymbolTable
 70
     0
  0
ENDTAB
  0
TABLE
  2
UCS
  5
7
330
0
100
AcDbSymbolTable
 70
     0
  0
ENDTAB
  0
TABLE
  2
APPID
  5
9
330
0
100
AcDbSymbolTable
 70
    12
  0
APPID
  5
12
330
9
100
AcDbSymbolTableRecord
100
AcDbRegAppTableRecord
  2
ACAD
 70
     0
  0
APPID
  5
30
330
9
100
AcDbSymbolTableRecord
100
AcDbRegAppTableRecord
  2
MCAD_NO_VIS
 70
     0
  0
APPID
  5
31
330
9
100
AcDbSymbolTableRecord
100
AcDbRegAppTableRecord
  2
ACAD_TEMP_GRAPHIC
 70
     0
  0
APPID
  5
2C2
330
9
100
AcDbSymbolTableRecord
100
AcDbRegAppTableRecord
  2
GENIUS_GENDTOL_13
 70
     0
  0
APPID
  5
339
330
9
100
AcDbSymbolTableRecord
100
AcDbRegAppTableRecord
  2
GENIUS_GENODEF_13
 70
     0
  0
APPID
  5
33A
330
9
100
AcDbSymbolTableRecord
100
AcDbRegAppTableRecord
  2
GENIUS_GENOBJ-N-RSBK_13
 70
     0
  0
APPID
  5
33B
330
9
100
AcDbSymbolTableRecord
100
AcDbRegAppTableRecord
  2
GENIUS_GENOBJ-N-LIB_13
 70
     0
  0
APPID
  5
33C
330
9
100
AcDbSymbolTableRecord
100
AcDbRegAppTableRecord
  2
GENIUS_GENSCALE_13
 70
     0
  0
APPID
  5
378
330
9
100
AcDbSymbolTableRecord
100
AcDbRegAppTableRecord
  2
GENIUS_GENDIMSH_14
 70
     0
  0
APPID
  5
BD8
330
9
100
AcDbSymbolTableRecord
100
AcDbRegAppTableRecord
  2
GENIUS_GENOBJ-N-CEN_13
 70
     0
  0
APPID
  5
BD9
330
9
100
AcDbSymbolTableRecord
100
AcDbRegAppTableRecord
  2
GENIUS_GENFIL_13
 70
     0
  0
APPID
  5
BDA
330
9
100
AcDbSymbolTableRecord
100
AcDbRegAppTableRecord
  2
GENIUS_GENOBJ-N-CHA_13
 70
     0
  0
ENDTAB
  0
TABLE
  2
DIMSTYLE
  5
A
330
0
100
AcDbSymbolTable
 70
     8
  0
DIMSTYLE
105
58
102
{ACAD_REACTORS
330
105F
330
10EF
330
13A3
330
1180
102
}
330
A
100
AcDbSymbolTableRecord
100
AcDbDimStyleTableRecord
  2
AM_JIS
 70
     0
  3

  4
"
  5
OPEN30
  6

  7

 40
0.5
 41
2.5
 42
1.0
 43
12.0
 44
1.0
 45
0.0
 46
0.0
 47
0.1
 48
0.1
140
3.2
141
0.0
142
0.0
143
0.0393701
144
1.0
145
0.0
146
0.71
147
1.5
 71
     0
 72
     0
 73
     0
 74
     0
 75
     0
 76
     0
 77
     3
 78
     8
170
     0
171
     2
172
     1
173
     0
174
     0
175
     0
176
   256
177
   256
178
     2
270
     2
271
     3
272
     3
273
     2
274
     2
340
6B
275
     0
280
     0
281
     0
282
     0
283
     0
284
     0
285
     0
286
     0
287
     3
288
     0
  0
DIMSTYLE
105
5F
330
A
100
AcDbSymbolTableRecord
100
AcDbDimStyleTableRecord
  2
AM_JIS$3
 70
     0
  3

  4
"
  5
OPEN30
  6

  7

 40
0.5
 41
2.5
 42
1.0
 43
10.0
 44
1.0
 45
0.0
 46
0.0
 47
0.1
 48
0.1
140
3.2
141
0.0
142
0.0
143
0.0393701
144
1.0
145
0.0
146
0.71
147
1.5
 71
     0
 72
     0
 73
     0
 74
     1
 75
     0
 76
     0
 77
     3
 78
     8
170
     0
171
     2
172
     0
173
     0
174
     0
175
     0
176
   256
177
   256
178
     2
270
     2
271
     2
272
     3
273
     2
274
     2
340
6B
275
     0
280
     0
281
     0
282
     0
283
     0
284
     0
285
     0
286
     0
287
     0
288
     1
  0
DIMSTYLE
105
60
330
A
100
AcDbSymbolTableRecord
100
AcDbDimStyleTableRecord
  2
AM_JIS$4
 70
     0
  3

  4
"
  5
OPEN30
  6

  7

 40
0.5
 41
2.5
 42
1.0
 43
10.0
 44
1.0
 45
0.0
 46
0.0
 47
0.1
 48
0.1
140
3.2
141
0.0
142
0.0
143
0.0393701
144
1.0
145
0.0
146
0.71
147
1.5
 71
     0
 72
     0
 73
     0
 74
     1
 75
     0
 76
     0
 77
     3
 78
     8
170
     0
171
     2
172
     0
173
     0
174
     0
175
     0
176
   256
177
   256
178
     2
270
     2
271
     2
272
     3
273
     2
274
     2
340
6B
275
     0
280
     0
281
     0
282
     0
283
     0
284
     0
285
     0
286
     0
287
     0
288
     1
  0
DIMSTYLE
105
61
330
A
100
AcDbSymbolTableRecord
100
AcDbDimStyleTableRecord
  2
AM_JIS$6
 70
     0
  3

  4
"
  5
OPEN30
  6

  7

 40
0.5
 41
2.5
 42
1.0
 43
10.0
 44
1.0
 45
0.0
 46
0.0
 47
0.1
 48
0.1
140
3.2
141
0.0
142
0.0
143
0.0393701
144
1.0
145
0.0
146
0.71
147
1.5
 71
     0
 72
     0
 73
     0
 74
     0
 75
     0
 76
     0
 77
     0
 78
     8
170
     0
171
     2
172
     1
173
     0
174
     0
175
     0
176
   256
177
   256
178
     2
270
     2
271
     2
272
     2
273
     2
274
     2
340
6B
275
     0
280
     0
281
     0
282
     0
283
     0
284
     0
285
     0
286
     0
287
     3
288
     0
  0
DIMSTYLE
105
62
330
A
100
AcDbSymbolTableRecord
100
AcDbDimStyleTableRecord
  2
AM_JIS$7
 70
     0
  3

  4
"
  5
OPEN30
  6

  7

 40
0.5
 41
2.5
 42
1.0
 43
10.0
 44
1.0
 45
0.0
 46
0.0
 47
0.1
 48
0.1
140
3.2
141
0.0
142
0.0
143
0.0393701
144
1.0
145
0.0
146
0.71
147
1.5
 71
     0
 72
     0
 73
     0
 74
     0
 75
     0
 76
     0
 77
     3
 78
     8
170
     0
171
     2
172
     1
173
     0
174
     0
175
     0
176
   256
177
   256
178
     2
270
     2
271
     2
272
     3
273
     2
274
     2
340
6B
275
     0
280
     0
281
     0
282
     0
283
     0
284
     0
285
     0
286
     0
287
     3
288
     0
  0
DIMSTYLE
105
63
330
A
100
AcDbSymbolTableRecord
100
AcDbDimStyleTableRecord
  2
AM_JIS$SF
 70
     0
  3

  4
"
  5
OPEN30
  6

  7

 40
0.5
 41
2.5
 42
1.0
 43
10.0
 44
1.0
 45
0.0
 46
0.0
 47
0.1
 48
0.1
140
3.2
141
0.0
142
0.0
143
0.0393701
144
1.0
145
0.0
146
0.71
147
1.5
 71
     0
 72
     0
 73
     0
 74
     0
 75
     1
 76
     1
 77
     3
 78
     8
170
     0
171
     2
172
     1
173
     0
174
     0
175
     0
176
   256
177
   256
178
     2
270
     2
271
     2
272
     2
273
     2
274
     2
340
6B
275
     0
280
     0
281
     0
282
     0
283
     0
284
     0
285
     0
286
     0
287
     3
288
     0
  0
DIMSTYLE
105
68
330
A
100
AcDbSymbolTableRecord
100
AcDbDimStyleTableRecord
  2
AM_JIS$SH
 70
     0
  3

  4
"
  5

  6
GENAXEH
  7
OPEN30
 40
0.5
 41
2.5
 42
1.0
 43
10.0
 44
1.0
 45
0.0
 46
0.0
 47
0.1
 48
0.1
140
3.2
141
0.0
142
0.0
143
0.0393701
144
2.0
145
0.0
146
0.71
147
1.5
 71
     0
 72
     0
 73
     0
 74
     0
 75
     1
 76
     1
 77
     3
 78
     8
170
     0
171
     2
172
     1
173
     1
174
     0
175
     0
176
   256
177
   256
178
     2
270
     2
271
     2
272
     2
273
     2
274
     2
340
6B
275
     0
280
     0
281
     0
282
     0
283
     0
284
     0
285
     0
286
     0
287
     3
288
     0
  0
DIMSTYLE
105
B34
330
A
100
AcDbSymbolTableRecord
100
AcDbDimStyleTableRecord
  2
AM_JIS$2
 70
     0
  3

  4
"
  5
OPEN30
  6

  7

 40
0.5
 41
2.5
 42
1.0
 43
12.0
 44
1.0
 45
0.0
 46
0.0
 47
0.1
 48
0.1
140
3.2
141
0.0
142
0.0
143
0.0393701
144
1.0
145
0.0
146
0.71
147
1.5
 71
     0
 72
     0
 73
     0
 74
     0
 75
     0
 76
     0
 77
     3
 78
     8
170
     0
171
     2
172
     1
173
     0
174
     0
175
     0
176
   256
177
   256
178
     2
270
     2
271
     3
272
     3
273
     2
274
     2
340
6B
275
     0
280
     0
281
     0
282
     0
283
     0
284
     0
285
     0
286
     0
287
     3
288
     0
  0
ENDTAB
  0
TABLE
  2
BLOCK_RECORD
  5
1
330
0
100
AcDbSymbolTable
 70
     9
  0
BLOCK_RECORD
  5
1F
102
{ACAD_XDICTIONARY
360
74
102
}
330
1
100
AcDbSymbolTableRecord
100
AcDbBlockTableRecord
  2
*MODEL_SPACE
  0
BLOCK_RECORD
  5
101
102
{ACAD_XDICTIONARY
360
2177
102
}
330
1
100
AcDbSymbolTableRecord
100
AcDbBlockTableRecord
  2
*PAPER_SPACE
  0
BLOCK_RECORD
  5
59
330
1
100
AcDbSymbolTableRecord
100
AcDbBlockTableRecord
  2
_OPEN30
  0
BLOCK_RECORD
  5
64
330
1
100
AcDbSymbolTableRecord
100
AcDbBlockTableRecord
  2
GENAXEH
  0
BLOCK_RECORD
  5
1060
330
1
100
AcDbSymbolTableRecord
100
AcDbBlockTableRecord
  2
*D5
  0
BLOCK_RECORD
  5
10F0
330
1
100
AcDbSymbolTableRecord
100
AcDbBlockTableRecord
  2
*D6
  0
BLOCK_RECORD
  5
1181
330
1
100
AcDbSymbolTableRecord
100
AcDbBlockTableRecord
  2
*D7
  0
BLOCK_RECORD
  5
13A4
330
1
100
AcDbSymbolTableRecord
100
AcDbBlockTableRecord
  2
*D8
  0
ENDTAB
  0
ENDSEC
  0
SECTION
  2
BLOCKS
  0
BLOCK
  5
20
330
1F
100
AcDbEntity
  8
0
100
AcDbBlockBegin
  2
*MODEL_SPACE
 70
     0
 10
0.0
 20
0.0
 30
0.0
  3
*MODEL_SPACE
  1

  0
ENDBLK
  5
21
330
1F
100
AcDbEntity
  8
0
100
AcDbBlockEnd
  0
BLOCK
  5
103
330
101
100
AcDbEntity
 67
     1
  8
0
100
AcDbBlockBegin
  2
*PAPER_SPACE
 70
     0
 10
0.0
 20
0.0
 30
0.0
  3
*PAPER_SPACE
  1

  0
ENDBLK
  5
104
330
101
100
AcDbEntity
 67
     1
  8
0
100
AcDbBlockEnd
  0
BLOCK
  5
5D
330
59
100
AcDbEntity
  8
0
100
AcDbBlockBegin
  2
_OPEN30
 70
     0
 10
0.0
 20
0.0
 30
0.0
  3
_OPEN30
  1

  0
LINE
  5
5A
330
59
100
AcDbEntity
  8
0
 62
     0
100
AcDbLine
 10
-1.0
 20
0.26794919
 30
0.0
 11
0.0
 21
0.0
 31
0.0
  0
LINE
  5
5B
330
59
100
AcDbEntity
  8
0
 62
     0
100
AcDbLine
 10
0.0
 20
0.0
 30
0.0
 11
-1.0
 21
-0.26794919
 31
0.0
  0
LINE
  5
5C
330
59
100
AcDbEntity
  8
0
 62
     0
100
AcDbLine
 10
0.0
 20
0.0
 30
0.0
 11
-1.0
 21
0.0
 31
0.0
  0
ENDBLK
  5
5E
330
59
100
AcDbEntity
  8
0
100
AcDbBlockEnd
  0
BLOCK
  5
66
330
64
100
AcDbEntity
  8
0
100
AcDbBlockBegin
  2
GENAXEH
 70
     0
 10
0.0
 20
0.0
 30
0.0
  3
GENAXEH
  1

  0
LINE
  5
65
330
64
100
AcDbEntity
  8
0
100
AcDbLine
 10
-1.0
 20
0.0
 30
0.0
 11
1.0
 21
0.0
 31
0.0
  0
ENDBLK
  5
67
330
64
100
AcDbEntity
  8
0
100
AcDbBlockEnd
  0
BLOCK
  5
106A
330
1060
100
AcDbEntity
  8
0
100
AcDbBlockBegin
  2
*D5
 70
     1
 10
0.0
 20
0.0
 30
0.0
  3
*D5
  1

  0
LINE
  5
1F2F
330
1060
100
AcDbEntity
  8
AM_5
100
AcDbLine
 10
-15.00000000000012
 20
-2.444854996729193
 30
0.0
 11
-15.00000000000012
 21
-10.50000100000004
 31
0.0
  0
LINE
  5
1F30
330
1060
100
AcDbEntity
  8
AM_5
100
AcDbLine
 10
-0.0000000000007854
 20
-2.499999999998004
 30
0.0
 11
-0.0000000000007859
 21
-10.50000100000004
 31
0.0
  0
LINE
  5
1F31
330
1060
100
AcDbEntity
  8
AM_5
100
AcDbLine
 10
-13.75000000000012
 20
-10.00000100000004
 30
0.0
 11
-1.250000000000785
 21
-10.00000100000004
 31
0.0
  0
INSERT
  5
1F32
330
1060
100
AcDbEntity
  8
AM_5
100
AcDbBlockReference
  2
_OPEN30
 10
-15.00000000000012
 20
-10.00000100000004
 30
0.0
 41
1.25
 42
1.25
 43
1.25
 50
180.0
  0
INSERT
  5
1F33
330
1060
100
AcDbEntity
  8
AM_5
100
AcDbBlockReference
  2
_OPEN30
 10
-0.0000000000007858
 20
-10.00000100000004
 30
0.0
 41
1.25
 42
1.25
 43
1.25
  0
MTEXT
  5
1F34
330
1060
100
AcDbEntity
  8
AM_5
 62
     2
100
AcDbMText
 10
-7.500000000000452
 20
-8.450001000000048
 30
0.0
 40
1.6
 41
0.0
 71
     5
 72
     1
  1
15
  7
ASAMI
1001
ACAD
1000
MTEXTBEGIN
1070
    73
1070
     1
1070
    44
1040
1.0
1070
    74
1070
     0
1000
MTEXTEND
  0
POINT
  5
1F35
330
1060
100
AcDbEntity
  8
DEFPOINTS
 62
     0
100
AcDbPoint
 10
-15.00000000000012
 20
-1.944854996729193
 30
0.0
  0
POINT
  5
1F36
330
1060
100
AcDbEntity
  8
DEFPOINTS
 62
     0
100
AcDbPoint
 10
-0.0000000000007853
 20
-1.999999999998004
 30
0.0
  0
POINT
  5
1F37
330
1060
100
AcDbEntity
  8
DEFPOINTS
 62
     0
100
AcDbPoint
 10
-0.0000000000007858
 20
-10.00000100000004
 30
0.0
  0
ENDBLK
  5
106B
330
1060
100
AcDbEntity
  8
0
100
AcDbBlockEnd
  0
BLOCK
  5
10FA
330
10F0
100
AcDbEntity
  8
0
100
AcDbBlockBegin
  2
*D6
 70
     1
 10
0.0
 20
0.0
 30
0.0
  3
*D6
  1

  0
LINE
  5
16C1
330
10F0
100
AcDbEntity
  8
AM_5
100
AcDbLine
 10
-50.0
 20
-2.999999999999268
 30
0.0
 11
-50.0
 21
-16.50000100000004
 31
0.0
  0
LINE
  5
16C2
330
10F0
100
AcDbEntity
  8
AM_5
100
AcDbLine
 10
-0.0000000000006306
 20
-2.499999999999998
 30
0.0
 11
-0.0000000000006315
 21
-16.50000100000004
 31
0.0
  0
LINE
  5
16C3
330
10F0
100
AcDbEntity
  8
AM_5
100
AcDbLine
 10
-48.75
 20
-16.00000100000004
 30
0.0
 11
-1.250000000000631
 21
-16.00000100000004
 31
0.0
  0
INSERT
  5
16C4
330
10F0
100
AcDbEntity
  8
AM_5
100
AcDbBlockReference
  2
_OPEN30
 10
-50.0
 20
-16.00000100000004
 30
0.0
 41
1.25
 42
1.25
 43
1.25
 50
180.0
  0
INSERT
  5
16C5
330
10F0
100
AcDbEntity
  8
AM_5
100
AcDbBlockReference
  2
_OPEN30
 10
-0.0000000000006315
 20
-16.00000100000004
 30
0.0
 41
1.25
 42
1.25
 43
1.25
  0
MTEXT
  5
16C6
330
10F0
100
AcDbEntity
  8
AM_5
 62
     2
100
AcDbMText
 10
-25.00000000000031
 20
-14.45000100000004
 30
0.0
 40
1.6
 41
0.0
 71
     5
 72
     1
  1
50
  7
ASAMI
1001
ACAD
1000
MTEXTBEGIN
1070
    73
1070
     1
1070
    44
1040
1.0
1070
    74
1070
     0
1000
MTEXTEND
  0
POINT
  5
16C7
330
10F0
100
AcDbEntity
  8
DEFPOINTS
 62
     0
100
AcDbPoint
 10
-50.0
 20
-2.499999999999268
 30
0.0
  0
POINT
  5
16C8
330
10F0
100
AcDbEntity
  8
DEFPOINTS
 62
     0
100
AcDbPoint
 10
-0.0000000000006306
 20
-1.999999999999998
 30
0.0
  0
POINT
  5
16C9
330
10F0
100
AcDbEntity
  8
DEFPOINTS
 62
     0
100
AcDbPoint
 10
-0.0000000000006315
 20
-16.00000100000004
 30
0.0
  0
ENDBLK
  5
10FB
330
10F0
100
AcDbEntity
  8
0
100
AcDbBlockEnd
  0
BLOCK
  5
118B
330
1181
100
AcDbEntity
  8
0
100
AcDbBlockBegin
  2
*D7
 70
     1
 10
0.0
 20
0.0
 30
0.0
  3
*D7
  1

  0
LINE
  5
1F3E
330
1181
100
AcDbEntity
  8
AM_5
100
AcDbLine
 10
0.4999999999993547
 20
2.000000000000001
 30
0.0
 11
12.05776903085495
 21
1.999999999999998
 31
0.0
  0
LINE
  5
1F3F
330
1181
100
AcDbEntity
  8
AM_5
100
AcDbLine
 10
0.4999999999999999
 20
-1.999999999998006
 30
0.0
 11
12.05776903085495
 21
-1.999999999998009
 31
0.0
  0
LINE
  5
1F40
330
1181
100
AcDbEntity
  8
AM_5
100
AcDbLine
 10
11.55776903085495
 20
3.249999999999998
 30
0.0
 11
11.55776903085495
 21
4.499999999999998
 31
0.0
  0
LINE
  5
1F41
330
1181
100
AcDbEntity
  8
AM_5
100
AcDbLine
 10
11.55776903085495
 20
-3.249999999998009
 30
0.0
 11
11.55776903085495
 21
-8.590476190474198
 31
0.0
  0
LINE
  5
1F42
330
1181
100
AcDbEntity
  8
AM_5
100
AcDbLine
 10
11.55776903085495
 20
1.999999999999998
 30
0.0
 11
11.55776903085495
 21
-1.999999999998009
 31
0.0
  0
INSERT
  5
1F43
330
1181
100
AcDbEntity
  8
AM_5
100
AcDbBlockReference
  2
_OPEN30
 10
11.55776903085495
 20
1.999999999999998
 30
0.0
 41
1.25
 42
1.25
 43
1.25
 50
270.0
  0
INSERT
  5
1F44
330
1181
100
AcDbEntity
  8
AM_5
100
AcDbBlockReference
  2
_OPEN30
 10
11.55776903085495
 20
-1.999999999998009
 30
0.0
 41
1.25
 42
1.25
 43
1.25
 50
90.0
  0
MTEXT
  5
1F45
330
1181
100
AcDbEntity
  8
AM_5
 62
     2
100
AcDbMText
 10
10.00776903085495
 20
-6.545238095236102
 30
0.0
 40
1.6
 41
0.0
 71
     5
 72
     1
  1
%%c4
  7
ASAMI
 11
0.0000000000000001
 21
1.0
 31
0.0
1001
ACAD
1000
MTEXTBEGIN
1070
    73
1070
     1
1070
    44
1040
1.0
1070
    74
1070
     0
1000
MTEXTEND
  0
POINT
  5
1F46
330
1181
100
AcDbEntity
  8
DEFPOINTS
 62
     0
100
AcDbPoint
 10
-0.0000000000006453
 20
2.000000000000001
 30
0.0
  0
POINT
  5
1F47
330
1181
100
AcDbEntity
  8
DEFPOINTS
 62
     0
100
AcDbPoint
 10
-0.0000000000000002
 20
-1.999999999998006
 30
0.0
  0
POINT
  5
1F48
330
1181
100
AcDbEntity
  8
DEFPOINTS
 62
     0
100
AcDbPoint
 10
11.55776903085495
 20
-1.999999999998009
 30
0.0
  0
ENDBLK
  5
118C
330
1181
100
AcDbEntity
  8
0
100
AcDbBlockEnd
  0
BLOCK
  5
13AE
330
13A4
100
AcDbEntity
  8
0
100
AcDbBlockBegin
  2
*D8
 70
     1
 10
0.0
 20
0.0
 30
0.0
  3
*D8
  1

  0
LINE
  5
1629
330
13A4
100
AcDbEntity
  8
AM_5
100
AcDbLine
 10
-50.0
 20
2.999999999999973
 30
0.0
 11
-60.28823125971979
 21
2.999999999999976
 31
0.0
  0
LINE
  5
162A
330
13A4
100
AcDbEntity
  8
AM_5
100
AcDbLine
 10
-50.0
 20
-2.999999999999267
 30
0.0
 11
-60.28823125971979
 21
-2.999999999999264
 31
0.0
  0
LINE
  5
162B
330
13A4
100
AcDbEntity
  8
AM_5
100
AcDbLine
 10
-59.78823125971979
 20
1.749999999999976
 30
0.0
 11
-59.78823125971979
 21
-1.749999999999265
 31
0.0
  0
INSERT
  5
162C
330
13A4
100
AcDbEntity
  8
AM_5
100
AcDbBlockReference
  2
_OPEN30
 10
-59.78823125971979
 20
2.999999999999976
 30
0.0
 41
1.25
 42
1.25
 43
1.25
 50
90.0
  0
INSERT
  5
162D
330
13A4
100
AcDbEntity
  8
AM_5
100
AcDbBlockReference
  2
_OPEN30
 10
-59.78823125971979
 20
-2.999999999999264
 30
0.0
 41
1.25
 42
1.25
 43
1.25
 50
270.0
  0
MTEXT
  5
162E
330
13A4
100
AcDbEntity
  8
AM_5
 62
     2
100
AcDbMText
 10
-61.33823125971979
 20
0.000000000000346
 30
0.0
 40
1.6
 41
0.0
 71
     5
 72
     1
  1
%%c6
  7
ASAMI
 11
0.0000000000000001
 21
1.0
 31
0.0
1001
ACAD
1000
MTEXTBEGIN
1070
    73
1070
     1
1070
    44
1040
1.0
1070
    74
1070
     0
1000
MTEXTEND
  0
POINT
  5
162F
330
13A4
100
AcDbEntity
  8
DEFPOINTS
 62
     0
100
AcDbPoint
 10
-49.50000000000001
 20
2.999999999999973
 30
0.0
  0
POINT
  5
1630
330
13A4
100
AcDbEntity
  8
DEFPOINTS
 62
     0
100
AcDbPoint
 10
-49.50000000000001
 20
-2.999999999999267
 30
0.0
  0
POINT
  5
1631
330
13A4
100
AcDbEntity
  8
DEFPOINTS
 62
     0
100
AcDbPoint
 10
-59.78823125971979
 20
-2.999999999999264
 30
0.0
  0
ENDBLK
  5
13AF
330
13A4
100
AcDbEntity
  8
0
100
AcDbBlockEnd
  0
ENDSEC
  0
SECTION
  2
ENTITIES
  0
TEXT
  5
E5A
330
1F
100
AcDbEntity
  8
AM_6
100
AcDbText
 10
-33.03571428571459
 20
-27.25000100000004
 30
0.0
 40
2.5
  1
LSM4040
 72
     4
 11
-25.00000000000031
 21
-26.00000100000004
 31
0.0
100
AcDbText
  0
LINE
  5
F47
330
1F
100
AcDbEntity
  8
AM_7
  6
AM_ISO08W050X2
100
AcDbLine
 10
4.557768030854958
 20
0.0
 30
0.0
 11
-52.7882302597198
 21
0.0000000000000058
 31
0.0
1001
GENIUS_GENODEF_13
1002
{
1000
HIER
1070
     0
1002
}
1002
{
1000
MANEDIT
1070
     0
1002
}
1002
{
1000
NOSEL
1070
     0
1002
}
1002
{
1000
BEHIND
1070
     0
1002
}
1002
{
1000
REACTOR
1002
}
1001
GENIUS_GENOBJ-N-CEN_13
1002
{
1000
OWNER
1000
GEN
1002
}
  0
DIMENSION
  5
105F
330
1F
100
AcDbEntity
  8
AM_5
100
AcDbDimension
  2
*D5
 10
-0.0000000000007858
 20
-10.00000100000004
 30
0.0
 11
-7.500000000000452
 21
-8.450001000000048
 31
0.0
 70
    32
  1
<>
  3
AM_JIS
100
AcDbAlignedDimension
 13
-15.00000000000012
 23
-1.944854996729193
 33
0.0
 14
-0.0000000000007853
 24
-1.999999999998004
 34
0.0
 50
0.0000000000001132
100
AcDbRotatedDimension
1001
GENIUS_GENDTOL_13
1000

1000
h7
1000

1040
0.0
  0
DIMENSION
  5
10EF
330
1F
100
AcDbEntity
  8
AM_5
100
AcDbDimension
  2
*D6
 10
-0.0000000000006315
 20
-16.00000100000004
 30
0.0
 11
-25.00000000000031
 21
-14.45000100000004
 31
0.0
 70
    32
  1
<>
  3
AM_JIS
100
AcDbAlignedDimension
 13
-50.0
 23
-2.499999999999268
 33
0.0
 14
-0.0000000000006306
 24
-1.999999999999998
 34
0.0
 50
0.0000000000001132
100
AcDbRotatedDimension
1001
GENIUS_GENDTOL_13
1000

1000
h7
1000

1040
0.0
  0
DIMENSION
  5
1180
330
1F
100
AcDbEntity
  8
AM_5
100
AcDbDimension
  2
*D7
 10
11.55776903085495
 20
-1.999999999998009
 30
0.0
 11
10.00776903085495
 21
-6.545238095236102
 31
0.0
 70
    32
  1
%%c<>
  3
AM_JIS
100
AcDbAlignedDimension
 13
-0.0000000000006453
 23
2.000000000000001
 33
0.0
 14
-0.0000000000000002
 24
-1.999999999998006
 34
0.0
 50
90.0
100
AcDbRotatedDimension
1001
GENIUS_GENDTOL_13
1000

1000
h7
1000

1040
0.0
  0
LINE
  5
139D
330
1F
100
AcDbEntity
  8
AM_0
100
AcDbLine
 10
-22.50000000000001
 20
3.000000000000022
 30
0.0
 11
-49.50000000000001
 21
2.999999999999973
 31
0.0
  0
LINE
  5
139E
330
1F
100
AcDbEntity
  8
AM_0
100
AcDbLine
 10
-22.50000000000001
 20
-2.999999999999248
 30
0.0
 11
-49.50000000000001
 21
-2.999999999999267
 31
0.0
  0
LINE
  5
13A1
330
1F
100
AcDbEntity
  8
AM_0
100
AcDbLine
 10
-49.50000000000001
 20
2.999999999999973
 30
0.0
 11
-49.50000000000002
 21
-2.999999999999267
 31
0.0
  0
LINE
  5
13A2
330
1F
100
AcDbEntity
  8
AM_0
100
AcDbLine
 10
-50.0
 20
2.499999999999972
 30
0.0
 11
-50.0
 21
-2.499999999999268
 31
0.0
  0
DIMENSION
  5
13A3
330
1F
100
AcDbEntity
  8
AM_5
100
AcDbDimension
  2
*D8
 10
-59.78823125971979
 20
-2.999999999999264
 30
0.0
 11
-61.33823125971979
 21
0.000000000000346
 31
0.0
 70
    32
  1
%%c<>
  3
AM_JIS
100
AcDbAlignedDimension
 13
-49.50000000000001
 23
2.999999999999973
 33
0.0
 14
-49.50000000000001
 24
-2.999999999999267
 34
0.0
 50
270.0
100
AcDbRotatedDimension
1001
GENIUS_GENDTOL_13
1000

1000
h7
1000

1040
0.0
  0
LINE
  5
13C4
330
1F
100
AcDbEntity
  8
AM_0
100
AcDbLine
 10
-49.50000000000001
 20
2.999999999999973
 30
0.0
 11
-50.0
 21
2.499999999999972
 31
0.0
1001
GENIUS_GENFIL_13
1070
     0
1040
0.5
1040
0.5
1040
20.0
1040
0.0
1002
{
1002
}
1001
GENIUS_GENODEF_13
1002
{
1000
HIER
1070
     0
1002
}
1002
{
1000
MANEDIT
1070
     0
1002
}
1002
{
1000
NOSEL
1070
     0
1002
}
1002
{
1000
BEHIND
1070
     0
1002
}
1002
{
1000
REACTOR
1002
}
1001
GENIUS_GENOBJ-N-CHA_13
1002
{
1000
OWNER
1000
GEN
1002
}
  0
LINE
  5
13C7
330
1F
100
AcDbEntity
  8
AM_0
100
AcDbLine
 10
-50.0
 20
-2.499999999999268
 30
0.0
 11
-49.50000000000001
 21
-2.999999999999267
 31
0.0
1001
GENIUS_GENFIL_13
1070
     0
1040
0.5
1040
0.5
1040
20.0
1040
0.0
1002
{
1002
}
1001
GENIUS_GENODEF_13
1002
{
1000
HIER
1070
     0
1002
}
1002
{
1000
MANEDIT
1070
     0
1002
}
1002
{
1000
NOSEL
1070
     0
1002
}
1002
{
1000
BEHIND
1070
     0
1002
}
1002
{
1000
REACTOR
1002
}
1001
GENIUS_GENOBJ-N-CHA_13
1002
{
1000
OWNER
1000
GEN
1002
}
  0
LINE
  5
1571
330
1F
100
AcDbEntity
  8
AM_0
100
AcDbLine
 10
-22.5
 20
3.000000000000011
 30
0.0
 11
-22.5
 21
-2.999999999999254
 31
0.0
  0
LINE
  5
158A
330
1F
100
AcDbEntity
  8
AM_0
100
AcDbLine
 10
-22.5
 20
3.000000000000011
 30
0.0
 11
-18.76794919243524
 21
2.000000000001115
 31
0.0
  0
LINE
  5
158B
330
1F
100
AcDbEntity
  8
AM_0
100
AcDbLine
 10
-22.5
 20
-2.999999999999254
 30
0.0
 11
-18.76794919243741
 21
-2.000000000000941
 31
0.0
  0
LINE
  5
16CC
330
1F
100
AcDbEntity
  8
AM_0
100
AcDbLine
 10
-18.76794919243524
 20
2.000000000000821
 30
0.0
 11
-18.76794919243741
 21
-1.999999999999184
 31
0.0
  0
LINE
  5
1EC8
330
1F
100
AcDbEntity
  8
AM_0
100
AcDbLine
 10
-0.0401625000000804
 20
0.4000000000008773
 30
0.0
 11
-0.4083280056378735
 21
1.066856325604987
 31
0.0
  0
LINE
  5
1EC9
330
1F
100
AcDbEntity
  8
AM_0
100
AcDbLine
 10
-0.4083280056378735
 20
1.066856325604987
 30
0.0
 11
-0.9013888783659583
 21
1.203381369012058
 31
0.0
  0
LINE
  5
1ECA
330
1F
100
AcDbEntity
  8
AM_0
100
AcDbLine
 10
-0.0000000000000834
 20
0.0000000000008337
 30
0.0
 11
-0.0339822979976526
 21
-0.3384480348334667
 31
0.0
  0
LINE
  5
1ECB
330
1F
100
AcDbEntity
  8
AM_0
100
AcDbLine
 10
-0.0401625000000804
 20
-0.5307591418244423
 30
0.0
 11
-0.0000000000000834
 21
-0.399999999999172
 31
0.0
  0
LINE
  5
1ECC
330
1F
100
AcDbEntity
  8
AM_0
100
AcDbLine
 10
-0.3291251795269558
 20
-0.5894619060657883
 30
0.0
 11
-0.0401625000000804
 21
-0.5307591418244423
 31
0.0
  0
LINE
  5
1ECD
330
1F
100
AcDbEntity
  8
AM_0
100
AcDbLine
 10
-0.0000000000000834
 20
-0.399999999999172
 30
0.0
 11
-0.2208364779651276
 21
0.0000000000008527
 31
0.0
  0
LINE
  5
1ECE
330
1F
100
AcDbEntity
  8
AM_0
100
AcDbLine
 10
-0.9013888783659583
 20
0.0000000000008337
 30
0.0
 11
-0.9013888783659583
 21
-0.3199999999991689
 31
0.0
  0
LINE
  5
1ECF
330
1F
100
AcDbEntity
  8
AM_0
100
AcDbLine
 10
-0.9013888783659583
 20
-0.3199999999991689
 30
0.0
 11
-0.0441672955930923
 21
-0.3199999999991689
 31
0.0
  0
LINE
  5
1ED0
330
1F
100
AcDbEntity
  8
AM_0
100
AcDbLine
 10
-0.0000000000000834
 20
0.0000000000008337
 30
0.0
 11
-0.9013888783659583
 21
0.0000000000008337
 31
0.0
  0
LINE
  5
1ED1
330
1F
100
AcDbEntity
  8
AM_0
100
AcDbLine
 10
-0.9013888783659583
 20
-0.3199999999991689
 30
0.0
 11
-0.3291251795269558
 21
-0.5894619060657883
 31
0.0
  0
LINE
  5
1ED2
330
1F
100
AcDbEntity
  8
AM_0
100
AcDbLine
 10
-0.0000000000000834
 20
0.0000000000008337
 30
0.0
 11
-0.0000000000000834
 21
2.000000000000833
 31
0.0
  0
LINE
  5
1ED3
330
1F
100
AcDbEntity
  8
AM_0
100
AcDbLine
 10
-0.0000000000000834
 20
0.0000000000008337
 30
0.0
 11
-0.0401625000000804
 21
0.4000000000008773
 31
0.0
  0
LINE
  5
1ED4
330
1F
100
AcDbEntity
  8
AM_0
100
AcDbLine
 10
-0.0000000000000834
 20
-1.99999999999917
 30
0.0
 11
-0.0401625000000804
 21
-1.893376463047905
 31
0.0
  0
LINE
  5
1ED5
330
1F
100
AcDbEntity
  8
AM_0
100
AcDbLine
 10
-0.0000000000000834
 20
-1.99999999999917
 30
0.0
 11
-0.0000000000000834
 21
-0.399999999999172
 31
0.0
  0
LINE
  5
1ED6
330
1F
100
AcDbEntity
  8
AM_0
100
AcDbLine
 10
-0.0401625000000804
 20
-1.893376463047905
 30
0.0
 11
-0.0401625000000804
 21
-0.5307591418244423
 31
0.0
  0
LINE
  5
1ED7
330
1F
100
AcDbEntity
  8
AM_0
100
AcDbLine
 10
-0.0401625000000804
 20
-1.893376463047876
 30
0.0
 11
-0.2620125000000843
 21
-1.599046662183937
 31
0.0
  0
LINE
  5
1EDA
330
1F
100
AcDbEntity
  8
AM_0
100
AcDbLine
 10
-15.00000000000007
 20
1.134679508273625
 30
0.0
 11
-15.00000000000005
 21
0.5012828888470105
 31
0.0
  0
POLYLINE
  5
1EDD
330
1F
100
AcDbEntity
  8
AM_0
100
AcDb2dPolyline
 66
     1
 10
0.0
 20
0.0
 30
0.0
 70
     2
  0
VERTEX
  5
1EDE
330
1EDD
100
AcDbEntity
  8
AM_0
100
AcDbVertex
100
AcDb2dVertex
 10
-16.01749305918954
 20
1.547747655851584
 30
0.0
 42
-0.0081187699035253
  0
VERTEX
  5
1EDF
330
1EDD
100
AcDbEntity
  8
AM_0
100
AcDbVertex
100
AcDb2dVertex
 10
-16.20712601550569
 20
1.614278596284307
 30
0.0
 42
-0.0114464127740034
 70
     1
  0
VERTEX
  5
1EE0
330
1EDD
100
AcDbEntity
  8
AM_0
100
AcDbVertex
100
AcDb2dVertex
 10
-16.3407324007892
 20
1.670487635347715
 30
0.0
 42
-0.0078685702839493
  0
VERTEX
  5
1EE1
330
1EDD
100
AcDbEntity
  8
AM_0
100
AcDbVertex
100
AcDb2dVertex
 10
-16.78138231001198
 20
1.901664570271984
 30
0.0
 42
-0.2726804491113656
 70
     1
  0
VERTEX
  5
1EE2
330
1EDD
100
AcDbEntity
  8
AM_0
100
AcDbVertex
100
AcDb2dVertex
 10
-16.79053356254264
 20
1.914521626428428
 30
0.0
 42
-0.4014058829339297
  0
VERTEX
  5
1EE3
330
1EDD
100
AcDbEntity
  8
AM_0
100
AcDbVertex
100
AcDb2dVertex
 10
-16.77394363989384
 20
1.937061617048925
 30
0.0
 42
-0.0313656446754737
 70
     1
  0
VERTEX
  5
1EE4
330
1EDD
100
AcDbEntity
  8
AM_0
100
AcDbVertex
100
AcDb2dVertex
 10
-16.47504542297181
 20
1.964847929869061
 30
0.0
 42
-0.0039726403541645
  0
VERTEX
  5
1EE5
330
1EDD
100
AcDbEntity
  8
AM_0
100
AcDbVertex
100
AcDb2dVertex
 10
-16.20284438752687
 20
1.969974068181187
 30
0.0
 42
0.0019401889352083
 70
     1
  0
VERTEX
  5
1EE6
330
1EDD
100
AcDbEntity
  8
AM_0
100
AcDbVertex
100
AcDb2dVertex
 10
-15.64546875000005
 20
1.978100742636172
 30
0.0
 42
0.0036525506412497
  0
VERTEX
  5
1EE7
330
1EDD
100
AcDbEntity
  8
AM_0
100
AcDbVertex
100
AcDb2dVertex
 10
-15.42628857111282
 20
1.983861242182124
 30
0.0
 42
0.0018773371428962
 70
     1
  0
VERTEX
  5
1EE8
330
1EDD
100
AcDbEntity
  8
AM_0
100
AcDbVertex
100
AcDb2dVertex
 10
-15.00000000000006
 20
2.000000000000823
 30
0.0
  0
SEQEND
  5
1EE9
330
1EDD
100
AcDbEntity
  8
AM_0
  0
LINE
  5
1EEE
330
1F
100
AcDbEntity
  8
AM_0
100
AcDbLine
 10
-15.00000000000004
 20
-1.32820727935344
 30
0.0
 11
-15.00000000000008
 21
-1.944854996729191
 31
0.0
  0
LINE
  5
1EEF
330
1F
100
AcDbEntity
  8
AM_11
100
AcDbLine
 10
-0.0000000000003778
 20
2.000000000000833
 30
0.0
 11
-15.00000000000006
 21
2.000000000000823
 31
0.0
  0
LINE
  5
1EF0
330
1F
100
AcDbEntity
  8
AM_11
100
AcDbLine
 10
-15.00000000000011
 20
-1.99999999999918
 30
0.0
 11
-0.0000000000000834
 21
-1.99999999999917
 31
0.0
  0
LINE
  5
1EF1
330
1F
100
AcDbEntity
  8
AM_7
  6
AM_ISO08W050X2
100
AcDbLine
 10
1.743346271801935
 20
0.0000000000008337
 30
0.0
 11
-15.60600000000007
 21
0.0000000000008148
 31
0.0
1001
GENIUS_GENODEF_13
1002
{
1000
HIER
1070
     0
1002
}
1002
{
1000
MANEDIT
1070
     0
1002
}
1002
{
1000
NOSEL
1070
     0
1002
}
1002
{
1000
BEHIND
1070
     0
1002
}
1002
{
1000
REACTOR
1002
}
1001
GENIUS_GENOBJ-N-CEN_13
1002
{
1000
OWNER
1000
GEN
1002
}
  0
ELLIPSE
  5
1EF2
330
1F
100
AcDbEntity
  8
AM_0
100
AcDbEllipse
 10
0.7595199921253202
 20
-1.017552065886334
 30
0.0
 11
-0.0000000000000011
 21
1.21627924620642
 31
0.0
210
0.0
220
0.0
230
1.0
 40
0.9562499999999994
 41
1.211124581303826
 42
2.069278538290317
  0
ELLIPSE
  5
1EF3
330
1F
100
AcDbEntity
  8
AM_0
100
AcDbEllipse
 10
-14.99379063753166
 20
-6.214555792843384
 30
0.0
 11
0.0000000000004076
 21
4.269705733799854
 31
0.0
210
0.0
220
0.0
230
1.0
 40
0.9562500000000641
 41
0.0015208199008991
 42
0.1609004017523343
  0
SPLINE
  5
1EF5
330
1F
100
AcDbEntity
  8
AM_0
100
AcDbSpline
210
0.0
220
0.0
230
1.0
 70
     8
 71
     3
 72
     8
 73
     4
 74
     0
 42
0.0000000001
 43
0.0000000001
 40
0.315552314829147
 40
0.315552314829147
 40
0.315552314829147
 40
0.315552314829147
 40
5.496762683618151
 40
5.496762683618151
 40
5.496762683618151
 40
5.496762683618151
 10
-15.00000000000006
 20
2.000000000000823
 30
0.0
 10
-13.36742482627776
 20
1.885186123909817
 30
0.0
 10
-11.88571241313822
 20
0.9425930619549093
 30
0.0
 10
-10.40399999999869
 20
0.0000000000000018
 30
0.0
  0
SPLINE
  5
1EF6
330
1F
100
AcDbEntity
  8
AM_0
100
AcDbSpline
210
0.0
220
0.0
230
1.0
 70
     8
 71
     3
 72
     8
 73
     4
 74
     0
 42
0.0000000001
 43
0.0000000001
 40
0.0
 40
0.0
 40
0.0
 40
0.0
 40
5.635889483499305
 40
5.635889483499305
 40
5.635889483499305
 40
5.635889483499305
 10
-10.40400000000012
 20
2.000000000000866
 30
0.0
 10
-11.12257590914629
 20
2.000000000000866
 30
0.0
 10
-11.81540176459249
 20
1.848717611592524
 30
0.0
 10
-12.49447990385431
 20
1.601395413617279
 30
0.0
  0
SPLINE
  5
1EF7
330
1F
100
AcDbEntity
  8
AM_0
100
AcDbSpline
210
0.0
220
0.0
230
1.0
 70
     8
 71
     3
 72
     8
 73
     4
 74
     0
 42
0.0000000001
 43
0.0000000001
 40
1.090140354492627
 40
1.090140354492627
 40
1.090140354492627
 40
1.090140354492627
 40
14.36247867694493
 40
14.36247867694493
 40
14.36247867694493
 40
14.36247867694493
 10
-13.78439212979119
 20
1.766380835779122
 30
0.0
 10
-12.08252621125195
 20
1.706788556992592
 30
0.0
 10
-10.52505879038953
 20
0.8533942784967411
 30
0.0
 10
-8.967591369527108
 20
0.0000000000008905
 30
0.0
  0
SPLINE
  5
1EF8
330
1F
100
AcDbEntity
  8
AM_0
100
AcDbSpline
210
0.0
220
0.0
230
1.0
 70
     8
 71
     3
 72
     8
 73
     4
 74
     0
 42
0.0000000001
 43
0.0000000001
 40
0.7142832446738512
 40
0.7142832446738512
 40
0.7142832446738512
 40
0.7142832446738512
 40
9.361146747480315
 40
9.361146747480315
 40
9.361146747480315
 40
9.361146747480315
 10
-3.819761400198514
 20
1.821681566301832
 30
0.0
 10
-2.399482182961659
 20
1.786313375589458
 30
0.0
 10
-1.355748816928954
 20
1.414307953120678
 30
0.0
 10
-0.3304207907710478
 20
0.9257433797932131
 30
0.0
  0
SPLINE
  5
1EF9
330
1F
100
AcDbEntity
  8
AM_0
100
AcDbSpline
210
0.0
220
0.0
230
1.0
 70
     8
 71
     3
 72
     8
 73
     4
 74
     0
 42
0.0000000001
 43
0.0000000001
 40
0.0
 40
0.0
 40
0.0
 40
0.0
 40
5.635889483499127
 40
5.635889483499127
 40
5.635889483499127
 40
5.635889483499127
 10
-0.0000000000000834
 20
2.000000000000833
 30
0.0
 10
-0.7185759091462185
 20
2.000000000000833
 30
0.0
 10
-1.411401764592397
 20
1.848717611592481
 30
0.0
 10
-2.092824893323125
 20
1.588034684955495
 30
0.0
  0
SPLINE
  5
1EFA
330
1F
100
AcDbEntity
  8
AM_0
100
AcDbSpline
210
0.0
220
0.0
230
1.0
 70
     8
 71
     3
 72
     8
 73
     4
 74
     0
 42
0.0000000001
 43
0.0000000001
 40
4.542668862435135
 40
4.542668862435135
 40
4.542668862435135
 40
4.542668862435135
 40
14.36247867694493
 40
14.36247867694493
 40
14.36247867694493
 40
14.36247867694493
 10
-0.2620124999995498
 20
-1.599046662181824
 30
0.0
 10
-1.460943387597328
 20
-1.262802274628318
 30
0.0
 10
-2.613267378562183
 20
-0.6314011373137351
 30
0.0
 10
-3.765591369527038
 20
0.0000000000008527
 30
0.0
  0
SPLINE
  5
1EFC
330
1F
100
AcDbEntity
  8
AM_0
100
AcDbSpline
210
0.0
220
0.0
230
1.0
 70
     8
 71
     3
 72
     8
 73
     4
 74
     0
 42
0.0000000001
 43
0.0000000001
 40
0.0
 40
0.0
 40
0.0
 40
0.0
 40
5.79599861973758
 40
5.79599861973758
 40
5.79599861973758
 40
5.79599861973758
 10
-5.20200000000008
 20
2.000000000000871
 30
0.0
 10
-3.354525439958727
 20
2.000000000000872
 30
0.0
 10
-1.677262719979405
 20
1.000000000000876
 30
0.0
 10
-0.0000000000000834
 20
0.0000000000008811
 30
0.0
  0
SPLINE
  5
1EFD
330
1F
100
AcDbEntity
  8
AM_0
100
AcDbSpline
210
0.0
220
0.0
230
1.0
 70
     8
 71
     3
 72
     8
 73
     4
 74
     0
 42
0.0000000001
 43
0.0000000001
 40
0.0
 40
0.0
 40
0.0
 40
0.0
 40
5.795998619737582
 40
5.795998619737582
 40
5.795998619737582
 40
5.795998619737582
 10
-0.0000000000000834
 20
-1.99999999999917
 30
0.0
 10
-1.847474560041437
 20
-1.999999999999172
 30
0.0
 10
-3.524737280020759
 20
-0.9999999999991741
 30
0.0
 10
-5.20200000000008
 20
0.0000000000008242
 30
0.0
  0
SPLINE
  5
1EFF
330
1F
100
AcDbEntity
  8
AM_0
100
AcDbSpline
210
0.0
220
0.0
230
1.0
 70
     8
 71
     3
 72
     8
 73
     4
 74
     0
 42
0.0000000001
 43
0.0000000001
 40
0.0
 40
0.0
 40
0.0
 40
0.0
 40
1.034626129446689
 40
1.034626129446689
 40
1.034626129446689
 40
1.034626129446689
 10
-0.0000000000000834
 20
1.629881074674415
 30
0.0
 10
-0.2116247730424604
 20
1.365377278461232
 30
0.0
 10
-0.5748667105539541
 20
1.251789518770568
 30
0.0
 10
-0.9013888783659583
 20
1.203381369012058
 30
0.0
  0
SPLINE
  5
1F00
330
1F
100
AcDbEntity
  8
AM_0
100
AcDbSpline
210
0.0
220
0.0
230
1.0
 70
     8
 71
     3
 72
     8
 73
     4
 74
     0
 42
0.0000000001
 43
0.0000000001
 40
0.0
 40
0.0
 40
0.0
 40
0.0
 40
2.130230809022907
 40
2.130230809022907
 40
2.130230809022907
 40
2.130230809022907
 10
-5.202000000000153
 20
-1.99999999999918
 30
0.0
 10
-4.930395571849734
 20
-1.99999999999918
 30
0.0
 10
-4.662469946644776
 20
-1.978386915127245
 30
0.0
 10
-4.397682289240982
 20
-1.938338169140199
 30
0.0
  0
SPLINE
  5
1F01
330
1F
100
AcDbEntity
  8
AM_0
100
AcDbSpline
210
0.0
220
0.0
230
1.0
 70
     8
 71
     3
 72
     8
 73
     4
 74
     0
 42
0.0000000001
 43
0.0000000001
 40
0.0
 40
0.0
 40
0.0
 40
0.0
 40
5.635889483499305
 40
5.635889483499305
 40
5.635889483499305
 40
5.635889483499305
 10
-5.202000000000153
 20
2.000000000000871
 30
0.0
 10
-5.920575909146325
 20
2.000000000000871
 30
0.0
 10
-6.613401764592518
 20
1.848717611592528
 30
0.0
 10
-7.300010000482219
 20
1.568787524170186
 30
0.0
  0
SPLINE
  5
1F04
330
1F
100
AcDbEntity
  8
AM_0
100
AcDbSpline
210
0.0
220
0.0
230
1.0
 70
     8
 71
     3
 72
     8
 73
     4
 74
     0
 42
0.0000000001
 43
0.0000000001
 40
0.0
 40
0.0
 40
0.0
 40
0.0
 40
4.451443990518192
 40
4.451443990518192
 40
4.451443990518192
 40
4.451443990518192
 10
-3.76559136952711
 20
-1.846977801520253
 30
0.0
 10
-3.198032260736031
 20
-1.846977801520253
 30
0.0
 10
-2.64448102442618
 20
-1.75826736569815
 30
0.0
 10
-2.100596121704497
 20
-1.608341019568565
 30
0.0
  0
SPLINE
  5
1F05
330
1F
100
AcDbEntity
  8
AM_0
100
AcDbSpline
210
0.0
220
0.0
230
1.0
 70
     8
 71
     3
 72
     8
 73
     4
 74
     0
 42
0.0000000001
 43
0.0000000001
 40
0.0
 40
0.0
 40
0.0
 40
0.0
 40
5.744991470777974
 40
5.744991470777974
 40
5.744991470777974
 40
5.744991470777974
 10
-3.76559136952711
 20
-1.846977801520205
 30
0.0
 10
-5.596807400837588
 20
-1.846977801520207
 30
0.0
 10
-7.282199385182348
 20
-0.9234889007596585
 30
0.0
 10
-8.967591369527108
 20
0.0000000000008905
 30
0.0
  0
SPLINE
  5
1F06
330
1F
100
AcDbEntity
  8
AM_0
100
AcDbSpline
210
0.0
220
0.0
230
1.0
 70
     8
 71
     3
 72
     8
 73
     4
 74
     0
 42
0.0000000001
 43
0.0000000001
 40
0.7142832446738512
 40
0.7142832446738512
 40
0.7142832446738512
 40
0.7142832446738512
 40
14.36247867694493
 40
14.36247867694493
 40
14.36247867694493
 40
14.36247867694493
 10
-9.059634482064179
 20
1.831070518098226
 30
0.0
 10
-6.968737525523748
 20
1.755122814191035
 30
0.0
 10
-5.367164447525393
 20
0.8775614070959438
 30
0.0
 10
-3.765591369527038
 20
0.0000000000008527
 30
0.0
  0
SPLINE
  5
1F07
330
1F
100
AcDbEntity
  8
AM_0
100
AcDbSpline
210
0.0
220
0.0
230
1.0
 70
     8
 71
     3
 72
     8
 73
     4
 74
     0
 42
0.0000000001
 43
0.0000000001
 40
0.0
 40
0.0
 40
0.0
 40
0.0
 40
2.764560748519282
 40
2.764560748519282
 40
2.764560748519282
 40
2.764560748519282
 10
-4.534365840887218
 20
-1.940113468133333
 30
0.0
 10
-4.181884345451018
 20
-1.940113468133333
 30
0.0
 10
-3.835285186366815
 20
-1.904552459403196
 30
0.0
 10
-3.49344210451062
 20
-1.840239115936417
 30
0.0
  0
SPLINE
  5
1F08
330
1F
100
AcDbEntity
  8
AM_0
100
AcDbSpline
210
0.0
220
0.0
230
1.0
 70
     8
 71
     3
 72
     8
 73
     4
 74
     0
 42
0.0000000001
 43
0.0000000001
 40
0.0
 40
0.0
 40
0.0
 40
0.0
 40
5.79599861973758
 40
5.79599861973758
 40
5.79599861973758
 40
5.79599861973758
 10
-10.40400000000007
 20
2.000000000000861
 30
0.0
 10
-8.556525439958726
 20
2.000000000000863
 30
0.0
 10
-6.879262719979403
 20
1.000000000000867
 30
0.0
 10
-5.20200000000008
 20
0.0000000000008716
 30
0.0
  0
SPLINE
  5
1F09
330
1F
100
AcDbEntity
  8
AM_0
100
AcDbSpline
210
0.0
220
0.0
230
1.0
 70
     8
 71
     3
 72
     8
 73
     4
 74
     0
 42
0.0000000001
 43
0.0000000001
 40
0.0
 40
0.0
 40
0.0
 40
0.0
 40
5.795998619737585
 40
5.795998619737585
 40
5.795998619737585
 40
5.795998619737585
 10
-5.202000000000153
 20
-1.999999999999133
 30
0.0
 10
-7.049474560041509
 20
-1.999999999999134
 30
0.0
 10
-8.726737280020829
 20
-0.9999999999991315
 30
0.0
 10
-10.40400000000015
 20
0.0000000000008716
 30
0.0
  0
SPLINE
  5
1F0A
330
1F
100
AcDbEntity
  8
AM_0
100
AcDbSpline
210
0.0
220
0.0
230
1.0
 70
     8
 71
     3
 72
     8
 73
     4
 74
     0
 42
0.0000000001
 43
0.0000000001
 40
4.48458745047074
 40
4.48458745047074
 40
4.48458745047074
 40
4.48458745047074
 40
14.36247867694493
 40
14.36247867694493
 40
14.36247867694493
 40
14.36247867694493
 10
-16.01749305918954
 20
1.547747655851584
 30
0.0
 10
-15.08762578145302
 20
1.230010022108642
 30
0.0
 10
-13.95173103265862
 20
0.6351356973795817
 30
0.0
 10
-12.792591369527
 20
0.0000000000008337
 30
0.0
  0
SPLINE
  5
1F0B
330
1F
100
AcDbEntity
  8
AM_0
100
AcDbSpline
210
0.0
220
0.0
230
1.0
 70
     8
 71
     3
 72
     8
 73
     4
 74
     0
 42
0.0000000001
 43
0.0000000001
 40
0.0
 40
0.0
 40
0.0
 40
0.0
 40
1.412269715655734
 40
1.412269715655734
 40
1.412269715655734
 40
1.412269715655734
 10
-14.46450000000011
 20
-1.972427498364159
 30
0.0
 10
-14.64456438874621
 20
-1.972427498364159
 30
0.0
 10
-14.82301185763292
 20
-1.96292804251657
 30
0.0
 10
-15.00000000000004
 20
-1.944854996729181
 30
0.0
  0
SPLINE
  5
1F0C
330
1F
100
AcDbEntity
  8
AM_0
100
AcDbSpline
210
0.0
220
0.0
230
1.0
 70
     8
 71
     3
 72
     8
 73
     4
 74
     0
 42
0.0000000001
 43
0.0000000001
 40
0.0
 40
0.0
 40
0.0
 40
0.0
 40
2.130230809022907
 40
2.130230809022907
 40
2.130230809022907
 40
2.130230809022907
 10
-13.92900000000012
 20
-1.999999999999185
 30
0.0
 10
-13.65739557184969
 20
-1.999999999999185
 30
0.0
 10
-13.38946994664473
 20
-1.97838691512725
 30
0.0
 10
-13.12468228924094
 20
-1.938338169140213
 30
0.0
  0
SPLINE
  5
1F0D
330
1F
100
AcDbEntity
  8
AM_0
100
AcDbSpline
210
0.0
220
0.0
230
1.0
 70
     8
 71
     3
 72
     8
 73
     4
 74
     0
 42
0.0000000001
 43
0.0000000001
 40
0.0
 40
0.0
 40
0.0
 40
0.0
 40
6.769478140335353
 40
6.769478140335353
 40
6.769478140335353
 40
6.769478140335353
 10
-12.49259136952706
 20
-1.84697780152021
 30
0.0
 10
-13.35569983241983
 20
-1.84697780152021
 30
0.0
 10
-14.1864130902585
 20
-1.641822253256388
 30
0.0
 10
-15.00000000000004
 20
-1.32820727935344
 30
0.0
  0
SPLINE
  5
1F0F
330
1F
100
AcDbEntity
  8
AM_0
100
AcDbSpline
210
0.0
220
0.0
230
1.0
 70
     8
 71
     3
 72
     8
 73
     4
 74
     0
 42
0.0000000001
 43
0.0000000001
 40
0.0
 40
0.0
 40
0.0
 40
0.0
 40
4.019049797461661
 40
4.019049797461661
 40
4.019049797461661
 40
4.019049797461661
 10
-12.49259136952706
 20
-1.846977801520258
 30
0.0
 10
-11.9801625203507
 20
-1.846977801520258
 30
0.0
 10
-11.47915238338668
 20
-1.774664255102547
 30
0.0
 10
-10.98636566247223
 20
-1.650272648816535
 30
0.0
  0
SPLINE
  5
1F10
330
1F
100
AcDbEntity
  8
AM_0
100
AcDbSpline
210
0.0
220
0.0
230
1.0
 70
     8
 71
     3
 72
     8
 73
     4
 74
     0
 42
0.0000000001
 43
0.0000000001
 40
0.0
 40
0.0
 40
0.0
 40
0.0
 40
2.764560748519282
 40
2.764560748519282
 40
2.764560748519282
 40
2.764560748519282
 10
-13.26136584088717
 20
-1.940113468133337
 30
0.0
 10
-12.90888434545097
 20
-1.940113468133337
 30
0.0
 10
-12.56228518636678
 20
-1.90455245940321
 30
0.0
 10
-12.22044210451058
 20
-1.840239115936431
 30
0.0
  0
SPLINE
  5
1F11
330
1F
100
AcDbEntity
  8
AM_0
100
AcDbSpline
210
0.0
220
0.0
230
1.0
 70
     8
 71
     3
 72
     8
 73
     4
 74
     0
 42
0.0000000001
 43
0.0000000001
 40
0.0
 40
0.0
 40
0.0
 40
0.0
 40
1.412269715655931
 40
1.412269715655931
 40
1.412269715655931
 40
1.412269715655931
 10
-13.92900000000012
 20
-1.999999999999137
 30
0.0
 10
-14.10906438874625
 20
-1.999999999999137
 30
0.0
 10
-14.28751185763298
 20
-1.990500544151558
 30
0.0
 10
-14.46450000000012
 20
-1.972427498364159
 30
0.0
  0
SPLINE
  5
1F13
330
1F
100
AcDbEntity
  8
AM_0
100
AcDbSpline
210
0.0
220
0.0
230
1.0
 70
     8
 71
     3
 72
     8
 73
     4
 74
     0
 42
0.0000000001
 43
0.0000000001
 40
12.27151369755375
 40
12.27151369755375
 40
12.27151369755375
 40
12.27151369755375
 40
14.48999654934393
 40
14.48999654934393
 40
14.48999654934393
 40
14.48999654934393
 10
-15.00000000000005
 20
0.5012828888470105
 30
0.0
 10
-14.72408962783792
 20
0.3062088861431543
 30
0.0
 10
-14.45657994654669
 20
0.169972555688636
 30
0.0
 10
-14.22900000000005
 20
0.0000000000008621
 30
0.0
  0
SPLINE
  5
1F14
330
1F
100
AcDbEntity
  8
AM_0
100
AcDbSpline
210
0.0
220
0.0
230
1.0
 70
     8
 71
     3
 72
     8
 73
     4
 74
     0
 42
0.0000000001
 43
0.0000000001
 40
0.0
 40
0.0
 40
0.0
 40
0.0
 40
5.795998619737575
 40
5.795998619737575
 40
5.795998619737575
 40
5.795998619737575
 10
-9.02700000000015
 20
-1.999999999999137
 30
0.0
 10
-10.8744745600415
 20
-1.999999999999137
 30
0.0
 10
-12.55173728002082
 20
-0.9999999999991377
 30
0.0
 10
-14.22900000000014
 20
0.0000000000008621
 30
0.0
  0
SPLINE
  5
1F15
330
1F
100
AcDbEntity
  8
AM_0
100
AcDbSpline
210
0.0
220
0.0
230
1.0
 70
     8
 71
     3
 72
     8
 73
     4
 74
     0
 42
0.0000000001
 43
0.0000000001
 40
0.0
 40
0.0
 40
0.0
 40
0.0
 40
5.744991470777963
 40
5.744991470777963
 40
5.744991470777963
 40
5.744991470777963
 10
-7.590591369527099
 20
-1.84697780152021
 30
0.0
 10
-9.421807400837575
 20
-1.84697780152021
 30
0.0
 10
-11.10719938518233
 20
-0.9234889007596647
 30
0.0
 10
-12.79259136952708
 20
0.0000000000008811
 30
0.0
  0
SPLINE
  5
1F17
330
1F
100
AcDbEntity
  8
AM_0
100
AcDbSpline
210
0.0
220
0.0
230
1.0
 70
     8
 71
     3
 72
     8
 73
     4
 74
     0
 42
0.0000000001
 43
0.0000000001
 40
0.0
 40
0.0
 40
0.0
 40
0.0
 40
2.764560748519282
 40
2.764560748519282
 40
2.764560748519282
 40
2.764560748519282
 10
-8.359365840887218
 20
-1.940113468133333
 30
0.0
 10
-8.006884345451016
 20
-1.940113468133333
 30
0.0
 10
-7.660285186366811
 20
-1.904552459403205
 30
0.0
 10
-7.318442104510628
 20
-1.840239115936427
 30
0.0
  0
SPLINE
  5
1F18
330
1F
100
AcDbEntity
  8
AM_0
100
AcDbSpline
210
0.0
220
0.0
230
1.0
 70
     8
 71
     3
 72
     8
 73
     4
 74
     0
 42
0.0000000001
 43
0.0000000001
 40
0.0
 40
0.0
 40
0.0
 40
0.0
 40
2.130230809022907
 40
2.130230809022907
 40
2.130230809022907
 40
2.130230809022907
 10
-9.02700000000016
 20
-1.99999999999918
 30
0.0
 10
-8.755395571849723
 20
-1.99999999999918
 30
0.0
 10
-8.487469946644775
 20
-1.978386915127245
 30
0.0
 10
-8.22268228924098
 20
-1.938338169140209
 30
0.0
  0
SPLINE
  5
1F19
330
1F
100
AcDbEntity
  8
AM_0
100
AcDbSpline
210
0.0
220
0.0
230
1.0
 70
     8
 71
     3
 72
     8
 73
     4
 74
     0
 42
0.0000000001
 43
0.0000000001
 40
0.0
 40
0.0
 40
0.0
 40
0.0
 40
2.262448627968059
 40
2.262448627968059
 40
2.262448627968059
 40
2.262448627968059
 10
-7.590591369527109
 20
-1.846977801520253
 30
0.0
 10
-7.302129169461181
 20
-1.846977801520253
 30
0.0
 10
-7.017285462974866
 20
-1.824062248648279
 30
0.0
 10
-6.735490247075047
 20
-1.781840914053205
 30
0.0
  0
LINE
  5
1F2B
330
1F
100
AcDbEntity
  8
AM_11
100
AcDbLine
 10
-15.00000000000011
 20
-1.99999999999918
 30
0.0
 11
-15.00000000000006
 21
2.000000000000823
 31
0.0
  0
LINE
  5
1F38
330
1F
100
AcDbEntity
  8
AM_0
100
AcDbLine
 10
-15.00000000000006
 20
2.000000000000823
 30
0.0
 11
-18.76794919243524
 21
2.000000000000821
 31
0.0
  0
LINE
  5
1F39
330
1F
100
AcDbEntity
  8
AM_0
100
AcDbLine
 10
-15.64790095229353
 20
-1.99999999999918
 30
0.0
 11
-18.76794919243741
 21
-1.999999999999184
 31
0.0
  0
POLYLINE
  5
2106
330
1F
100
AcDbEntity
  8
AM_0
100
AcDb2dPolyline
 66
     1
 10
0.0
 20
0.0
 30
0.0
 70
     2
  0
VERTEX
  5
2108
330
2106
100
AcDbEntity
  8
AM_0
100
AcDbVertex
100
AcDb2dVertex
 10
-15.00000000000004
 20
-1.32820727935344
 30
0.0
 42
-0.0195102484266393
  0
VERTEX
  5
2110
330
2106
100
AcDbEntity
  8
AM_0
100
AcDbVertex
100
AcDb2dVertex
 10
-15.37812298788352
 20
-1.128578994477187
 30
0.0
 42
-0.0322237274940238
 70
     1
  0
VERTEX
  5
2109
330
2106
100
AcDbEntity
  8
AM_0
100
AcDbVertex
100
AcDb2dVertex
 10
-15.5934996148562
 20
-0.9846236755933107
 30
0.0
 42
-0.0226736278003952
  0
VERTEX
  5
2111
330
2106
100
AcDbEntity
  8
AM_0
100
AcDbVertex
100
AcDb2dVertex
 10
-16.18099830101399
 20
-0.4908253890702384
 30
0.0
 42
-0.0366426310314437
 70
     1
  0
VERTEX
  5
210A
330
2106
100
AcDbEntity
  8
AM_0
100
AcDbVertex
100
AcDb2dVertex
 10
-16.50609375000004
 20
-0.1441226063048494
 30
0.0
 42
-0.0634924289260051
  0
VERTEX
  5
2112
330
2106
100
AcDbEntity
  8
AM_0
100
AcDbVertex
100
AcDb2dVertex
 10
-16.68732986713144
 20
0.1493831988446175
 30
0.0
 42
-0.1207183488701451
 70
     1
  0
VERTEX
  5
210B
330
2106
100
AcDbEntity
  8
AM_0
100
AcDbVertex
100
AcDb2dVertex
 10
-16.72125000000004
 20
0.3295523335837232
 30
0.0
 42
-0.1569278393120127
  0
VERTEX
  5
2113
330
2106
100
AcDbEntity
  8
AM_0
100
AcDbVertex
100
AcDb2dVertex
 10
-16.66544301925855
 20
0.4753782129313926
 30
0.0
 42
-0.1209082901948307
 70
     1
  0
VERTEX
  5
210C
330
2106
100
AcDbEntity
  8
AM_0
100
AcDbVertex
100
AcDb2dVertex
 10
-16.50609375000004
 20
0.597355759237045
 30
0.0
 42
-0.0897655028910276
  0
VERTEX
  5
2115
330
2106
100
AcDbEntity
  8
AM_0
100
AcDbVertex
100
AcDb2dVertex
 10
-16.27524974152967
 20
0.6522912242751406
 30
0.0
 42
-0.0335869420858705
 70
     1
  0
VERTEX
  5
210D
330
2106
100
AcDbEntity
  8
AM_0
100
AcDbVertex
100
AcDb2dVertex
 10
-15.64546875000004
 20
0.6443751657493408
 30
0.0
 42
-0.0346242499257518
  0
VERTEX
  5
2114
330
2106
100
AcDbEntity
  8
AM_0
100
AcDbVertex
100
AcDb2dVertex
 10
-15.34357593478456
 20
0.5990762963486707
 30
0.0
 42
-0.0295793438403447
 70
     1
  0
VERTEX
  5
210E
330
2106
100
AcDbEntity
  8
AM_0
100
AcDbVertex
100
AcDb2dVertex
 10
-15.00000000000004
 20
0.5012828888470229
 30
0.0
  0
SEQEND
  5
210F
330
2106
100
AcDbEntity
  8
AM_0
  0
VIEWPORT
  5
110
330
101
100
AcDbEntity
 67
     1
  8
0
100
AcDbViewport
 10
420.5
 20
297.0
 30
0.0
 40
948.9782706766916
 41
628.452
 68
     1
 69
     1
1001
ACAD
1000
MVIEW
1002
{
1070
    16
1010
0.0
1020
0.0
1030
0.0
1010
0.0
1020
0.0
1030
1.0
1040
0.0
1040
628.452
1040
420.5
1040
297.0
1040
50.0
1040
0.0
1040
0.0
1070
     0
1070
   100
1070
     1
1070
     1
1070
     0
1070
     0
1070
     0
1070
     0
1040
0.0
1040
0.0
1040
0.0
1040
10.0
1040
10.0
1040
10.0
1040
10.0
1070
     0
1002
{
1002
}
1002
}
  0
ENDSEC
  0
SECTION
  2
OBJECTS
  0
DICTIONARY
  5
C
330
0
100
AcDbDictionary
  3
ACAD_GROUP
350
D
  3
ACAD_LAYOUT
350
1A
  3
ACAD_MLINESTYLE
350
17
  3
ACAD_PLOTSETTINGS
350
19
  3
ACAD_PLOTSTYLENAME
350
E
  3
ACDBVARIABLEDICTIONARY
350
34
  3
ACMDICTIONARY
350
43
  3
AMG
350
2B
  3
AMGSNAPSETTINGS
350
6E
  3
DWGPROPS
350
2143
  3
ACDBHEADERROUNDTRIPXREC
350
214F
  0
DICTIONARY
  5
74
330
1F
100
AcDbDictionary
280
     1
  3
ACAD_INDEX
360
2145
  3
ACAD_LAYOUTSELFREF
360
2172
  0
DICTIONARY
  5
2177
330
101
100
AcDbDictionary
280
     1
  3
ACAD_LAYOUTSELFREF
360
2178
  0
DICTIONARY
  5
D
102
{ACAD_REACTORS
330
C
102
}
330
C
100
AcDbDictionary
  0
DICTIONARY
  5
1A
102
{ACAD_REACTORS
330
C
102
}
330
C
100
AcDbDictionary
  0
DICTIONARY
  5
17
102
{ACAD_REACTORS
330
C
102
}
330
C
100
AcDbDictionary
  3
STANDARD
350
18
  0
DICTIONARY
  5
19
102
{ACAD_REACTORS
330
C
102
}
330
C
100
AcDbDictionary
  0
ACDBDICTIONARYWDFLT
  5
E
102
{ACAD_REACTORS
330
C
102
}
330
C
100
AcDbDictionary
281
     1
  3
Normal
350
F
100
AcDbDictionaryWithDefault
340
F
  0
DICTIONARY
  5
34
102
{ACAD_REACTORS
330
C
102
}
330
C
100
AcDbDictionary
  3
INDEXCTL
350
35
  3
SORTENTS
350
B5E
  0
DICTIONARY
  5
43
102
{ACAD_REACTORS
330
C
102
}
330
C
100
AcDbDictionary
  3
ACMSTDDICTIONARY
350
260
  0
DICTIONARY
  5
2B
102
{ACAD_REACTORS
330
C
102
}
330
C
100
AcDbDictionary
  3
ACMGSETTINGS
350
2C
  0
DICTIONARY
  5
6E
102
{ACAD_REACTORS
330
C
102
}
330
C
100
AcDbDictionary
  0
XRECORD
  5
2143
102
{ACAD_REACTORS
330
C
102
}
330
C
100
AcDbXrecord
  1
DWGPROPS COOKIE
  2

  3

  4

  6

  7

  8

  9

300
AmdtFileType=82
301
=
302
=
303
=
304
=
305
=
306
=
307
=
308
=
309
=
 40
0.1033697569444445
 41
2452836.771637361
 42
2453045.536752164
  1

 90
        1
  0
DICTIONARY
  5
214F
102
{ACAD_REACTORS
330
C
102
}
330
C
100
AcDbDictionary
  3
TSTACKALIGN
350
2150
  3
TSTACKSIZE
350
2151
  3
HYPERLINKBASE
350
2152
  3
STYLESHEET
350
2153
  3
LAYOUTDICT
350
2154
  3
PLOTSETDICT
350
2155
  3
PLOTSTYLNAMDICT
350
2156
  3
LWETCUNION
350
2157
  3
INSUNITS
350
2158
  3
CEPSNTYPE
350
2159
  3
FINGERPRINTGUID
350
215A
  3
VERSIONGUID
350
215B
  3
PSVPSCALE
350
215C
  3
DIMSTYLEDATA
350
215D
  3
PUCSORTHOREF
350
215E
  3
PUCSORTHOVIEW
350
215F
  3
PUCSBASE
350
2160
  3
PUCSORGTOP
350
2161
  3
PUCSORGBOTTOM
350
2162
  3
PUCSORGLEFT
350
2163
  3
PUCSORGRIGHT
350
2164
  3
PUCSORGFRONT
350
2165
  3
PUCSORGBACK
350
2166
  3
UCSORTHOREF
350
2167
  3
UCSORTHOVIEW
350
2168
  3
UCSBASE
350
2169
  3
UCSORGTOP
350
216A
  3
UCSORGBOTTOM
350
216B
  3
UCSORGLEFT
350
216C
  3
UCSORGRIGHT
350
216D
  3
UCSORGFRONT
350
216E
  3
UCSORGBACK
350
216F
  0
DICTIONARY
  5
2145
102
{ACAD_REACTORS
330
74
102
}
330
74
100
AcDbDictionary
  3
*A1
350
2146
  0
XRECORD
  5
2172
102
{ACAD_REACTORS
330
74
102
}
330
74
100
AcDbXrecord
340
1F
  0
XRECORD
  5
2178
102
{ACAD_REACTORS
330
2177
102
}
330
2177
100
AcDbXrecord
340
101
  0
MLINESTYLE
  5
18
102
{ACAD_REACTORS
330
17
102
}
330
17
100
AcDbMlineStyle
  2
STANDARD
 70
     0
  3

 62
   256
 51
90.0
 52
90.0
 71
     2
 49
0.5
 62
   256
  6
BYLAYER
 49
-0.5
 62
   256
  6
BYLAYER
  0
ACDBPLACEHOLDER
  5
F
102
{ACAD_REACTORS
330
E
102
}
330
E
100
AcDbPlaceHolder
280
     0
  0
DICTIONARYVAR
  5
35
102
{ACAD_REACTORS
330
34
102
}
330
34
100
DictionaryVariables
280
     0
  1
1
  0
DICTIONARYVAR
  5
B5E
102
{ACAD_REACTORS
330
34
102
}
330
34
100
DictionaryVariables
280
     0
  1
96
  0
DICTIONARY
  5
260
102
{ACAD_REACTORS
330
43
102
}
330
43
100
AcDbDictionary
  0
DICTIONARY
  5
2C
102
{ACAD_REACTORS
330
2B
102
}
330
2B
100
AcDbDictionary
  3
DWGSETTINGS
350
2D
  0
XRECORD
  5
2150
102
{ACAD_REACTORS
330
214F
102
}
330
214F
100
AcDbXrecord
 90
        1
  0
XRECORD
  5
2151
102
{ACAD_REACTORS
330
214F
102
}
330
214F
100
AcDbXrecord
 90
       70
  0
XRECORD
  5
2152
102
{ACAD_REACTORS
330
214F
102
}
330
214F
100
AcDbXrecord
  1

  0
XRECORD
  5
2153
102
{ACAD_REACTORS
330
214F
102
}
330
214F
100
AcDbXrecord
  1
ASAMI.ctb
  0
XRECORD
  5
2154
102
{ACAD_REACTORS
330
214F
102
}
330
214F
100
AcDbXrecord
340
1A
  0
XRECORD
  5
2155
102
{ACAD_REACTORS
330
214F
102
}
330
214F
100
AcDbXrecord
340
19
  0
XRECORD
  5
2156
102
{ACAD_REACTORS
330
214F
102
}
330
214F
100
AcDbXrecord
340
E
  0
XRECORD
  5
2157
102
{ACAD_REACTORS
330
214F
102
}
330
214F
100
AcDbXrecord
 90
    10781
  0
XRECORD
  5
2158
102
{ACAD_REACTORS
330
214F
102
}
330
214F
100
AcDbXrecord
 90
        4
  0
XRECORD
  5
2159
102
{ACAD_REACTORS
330
214F
102
}
330
214F
100
AcDbXrecord
 90
        0
  0
XRECORD
  5
215A
102
{ACAD_REACTORS
330
214F
102
}
330
214F
100
AcDbXrecord
  1
{AFB28963-8C59-40AE-9337-C84526B81ACE}
  0
XRECORD
  5
215B
102
{ACAD_REACTORS
330
214F
102
}
330
214F
100
AcDbXrecord
  1
{52BC46CF-0119-4A9D-B7E1-F56A22BFFB84}
  0
XRECORD
  5
215C
102
{ACAD_REACTORS
330
214F
102
}
330
214F
100
AcDbXrecord
 40
0.0
  0
XRECORD
  5
215D
102
{ACAD_REACTORS
330
214F
102
}
330
214F
100
AcDbXrecord
1000
DSTYLE
1002
{
1070
    79
 70
     2
1070
   341
340
59
1070
   342
340
59
1070
   371
 70
    -1
1070
   372
 70
    -1
1002
}
  0
XRECORD
  5
215E
102
{ACAD_REACTORS
330
214F
102
}
330
214F
100
AcDbXrecord
340
0
  0
XRECORD
  5
215F
102
{ACAD_REACTORS
330
214F
102
}
330
214F
100
AcDbXrecord
 70
     0
  0
XRECORD
  5
2160
102
{ACAD_REACTORS
330
214F
102
}
330
214F
100
AcDbXrecord
340
0
  0
XRECORD
  5
2161
102
{ACAD_REACTORS
330
214F
102
}
330
214F
100
AcDbXrecord
 10
0.0
 20
0.0
 30
0.0
  0
XRECORD
  5
2162
102
{ACAD_REACTORS
330
214F
102
}
330
214F
100
AcDbXrecord
 10
0.0
 20
0.0
 30
0.0
  0
XRECORD
  5
2163
102
{ACAD_REACTORS
330
214F
102
}
330
214F
100
AcDbXrecord
 10
0.0
 20
0.0
 30
0.0
  0
XRECORD
  5
2164
102
{ACAD_REACTORS
330
214F
102
}
330
214F
100
AcDbXrecord
 10
0.0
 20
0.0
 30
0.0
  0
XRECORD
  5
2165
102
{ACAD_REACTORS
330
214F
102
}
330
214F
100
AcDbXrecord
 10
0.0
 20
0.0
 30
0.0
  0
XRECORD
  5
2166
102
{ACAD_REACTORS
330
214F
102
}
330
214F
100
AcDbXrecord
 10
0.0
 20
0.0
 30
0.0
  0
XRECORD
  5
2167
102
{ACAD_REACTORS
330
214F
102
}
330
214F
100
AcDbXrecord
340
0
  0
XRECORD
  5
2168
102
{ACAD_REACTORS
330
214F
102
}
330
214F
100
AcDbXrecord
 70
     0
  0
XRECORD
  5
2169
102
{ACAD_REACTORS
330
214F
102
}
330
214F
100
AcDbXrecord
340
0
  0
XRECORD
  5
216A
102
{ACAD_REACTORS
330
214F
102
}
330
214F
100
AcDbXrecord
 10
0.0
 20
0.0
 30
0.0
  0
XRECORD
  5
216B
102
{ACAD_REACTORS
330
214F
102
}
330
214F
100
AcDbXrecord
 10
0.0
 20
0.0
 30
0.0
  0
XRECORD
  5
216C
102
{ACAD_REACTORS
330
214F
102
}
330
214F
100
AcDbXrecord
 10
0.0
 20
0.0
 30
0.0
  0
XRECORD
  5
216D
102
{ACAD_REACTORS
330
214F
102
}
330
214F
100
AcDbXrecord
 10
0.0
 20
0.0
 30
0.0
  0
XRECORD
  5
216E
102
{ACAD_REACTORS
330
214F
102
}
330
214F
100
AcDbXrecord
 10
0.0
 20
0.0
 30
0.0
  0
XRECORD
  5
216F
102
{ACAD_REACTORS
330
214F
102
}
330
214F
100
AcDbXrecord
 10
0.0
 20
0.0
 30
0.0
  0
LAYER_INDEX
  5
2146
102
{ACAD_REACTORS
330
2145
102
}
330
2145
100
AcDbIndex
 40
2453152.443456944
100
AcDbLayerIndex
  8
0
360
2147
 90
        0
  8
AM_0
360
2148
 90
       64
  8
AM_11
360
2149
 90
        3
  8
AM_7
360
214A
 90
        2
  8
AM_5
360
214B
 90
        4
  8
Defpoints
360
214C
 90
        0
  8
AM_6
360
214D
 90
        1
  0
XRECORD
  5
2D
102
{ACAD_REACTORS
330
2C
102
}
330
2C
100
AcDbXrecord
  1
VERSION
140
15.0
  1
PRODUCT
  2
AutoCAD Mechanical 2000
  0
IDBUFFER
  5
2147
330
0
100
AcDbIdBuffer
  0
IDBUFFER
  5
2148
330
0
100
AcDbIdBuffer
330
1F0A
330
1F0B
330
1F0C
330
1F0D
330
1F0F
330
1F10
330
1F11
330
1F13
330
1F14
330
1F15
330
1F17
330
1F18
330
1F19
330
1F38
330
1F39
330
2106
330
139D
330
139E
330
13A1
330
13A2
330
13C4
330
13C7
330
1571
330
158A
330
158B
330
16CC
330
1EC8
330
1EC9
330
1ECA
330
1ECB
330
1ECC
330
1ECD
330
1ECE
330
1ECF
330
1ED0
330
1ED1
330
1ED2
330
1ED3
330
1ED4
330
1ED5
330
1ED6
330
1ED7
330
1EDA
330
1EDD
330
1EEE
330
1EF2
330
1EF3
330
1EF5
330
1EF6
330
1EF7
330
1EF8
330
1EF9
330
1EFA
330
1EFC
330
1EFD
330
1EFF
330
1F00
330
1F01
330
1F04
330
1F05
330
1F06
330
1F07
330
1F08
330
1F09
  0
IDBUFFER
  5
2149
330
0
100
AcDbIdBuffer
330
1EEF
330
1EF0
330
1F2B
  0
IDBUFFER
  5
214A
330
0
100
AcDbIdBuffer
330
F47
330
1EF1
  0
IDBUFFER
  5
214B
330
0
100
AcDbIdBuffer
330
105F
330
10EF
330
1180
330
13A3
  0
IDBUFFER
  5
214C
330
0
100
AcDbIdBuffer
  0
IDBUFFER
  5
214D
330
0
100
AcDbIdBuffer
330
E5A
  0
ENDSEC
  0
EOF
