  0
SECTION
  2
HEADER
  9
$ACADVER
  1
AC1014
  9
$ACADMAINTVER
 70
     9
  9
$DWGCODEPAGE
  3
ANSI_932
  9
$INSBASE
 10
0.0
 20
0.0
 30
0.0
  9
$EXTMIN
 10
-67.13823125971979
 20
-27.25000100000005
 30
-0.00000001
  9
$EXTMAX
 10
12.05776903085495
 20
3.017599531364971
 30
0.00000001
  9
$LIMMIN
 10
-69.50096567735272
 20
-32.45181884571588
  9
$LIMMAX
 10
14.14649237102816
 20
12.31146803384802
  9
$ORTHOMODE
 70
     0
  9
$REGENMODE
 70
     1
  9
$FILLMODE
 70
     1
  9
$QTEXTMODE
 70
     0
  9
$MIRRTEXT
 70
     0
  9
$DRAGMODE
 70
     2
  9
$LTSCALE
 40
1.0
  9
$OSMODE
 70
    55
  9
$ATTMODE
 70
     1
  9
$TEXTSIZE
 40
2.5
  9
$TRACEWID
 40
1.0
  9
$TEXTSTYLE
  7
STANDARD
  9
$CLAYER
  8
AM_0
  9
$CELTYPE
  6
BYLAYER
  9
$CECOLOR
 62
   256
  9
$CELTSCALE
 40
1.0
  9
$DELOBJ
 70
     1
  9
$DISPSILH
 70
     0
  9
$DIMSCALE
 40
0.5
  9
$DIMASZ
 40
2.5
  9
$DIMEXO
 40
1.0
  9
$DIMDLI
 40
12.0
  9
$DIMRND
 40
0.0
  9
$DIMDLE
 40
0.0
  9
$DIMEXE
 40
1.0
  9
$DIMTP
 40
0.1
  9
$DIMTM
 40
0.1
  9
$DIMTXT
 40
3.2
  9
$DIMCEN
 40
0.0
  9
$DIMTSZ
 40
0.0
  9
$DIMTOL
 70
     0
  9
$DIMLIM
 70
     0
  9
$DIMTIH
 70
     0
  9
$DIMTOH
 70
     0
  9
$DIMSE1
 70
     0
  9
$DIMSE2
 70
     0
  9
$DIMTAD
 70
     3
  9
$DIMZIN
 70
     8
  9
$DIMBLK
  1
OPEN30
  9
$DIMASO
 70
     1
  9
$DIMSHO
 70
     1
  9
$DIMPOST
  1

  9
$DIMAPOST
  1
"
  9
$DIMALT
 70
     0
  9
$DIMALTD
 70
     2
  9
$DIMALTF
 40
0.0393701
  9
$DIMLFAC
 40
1.0
  9
$DIMTOFL
 70
     1
  9
$DIMTVP
 40
0.0
  9
$DIMTIX
 70
     0
  9
$DIMSOXD
 70
     0
  9
$DIMSAH
 70
     0
  9
$DIMBLK1
  1

  9
$DIMBLK2
  1

  9
$DIMSTYLE
  2
AM_JIS
  9
$DIMCLRD
 70
   256
  9
$DIMCLRE
 70
   256
  9
$DIMCLRT
 70
     2
  9
$DIMTFAC
 40
0.71
  9
$DIMGAP
 40
1.5
  9
$DIMJUST
 70
     0
  9
$DIMSD1
 70
     0
  9
$DIMSD2
 70
     0
  9
$DIMTOLJ
 70
     0
  9
$DIMTZIN
 70
     0
  9
$DIMALTZ
 70
     0
  9
$DIMALTTZ
 70
     0
  9
$DIMFIT
 70
     3
  9
$DIMUPT
 70
     0
  9
$DIMUNIT
 70
     2
  9
$DIMDEC
 70
     3
  9
$DIMTDEC
 70
     3
  9
$DIMALTU
 70
     2
  9
$DIMALTTD
 70
     2
  9
$DIMTXSTY
  7
ASAMI
  9
$DIMAUNIT
 70
     0
  9
$LUNITS
 70
     2
  9
$LUPREC
 70
     2
  9
$SKETCHINC
 40
1.0
  9
$FILLETRAD
 40
2.5
  9
$AUNITS
 70
     0
  9
$AUPREC
 70
     0
  9
$MENU
  1
.
  9
$ELEVATION
 40
0.0
  9
$PELEVATION
 40
0.0
  9
$THICKNESS
 40
0.0
  9
$LIMCHECK
 70
     0
  9
$BLIPMODE
 70
     0
  9
$CHAMFERA
 40
0.5
  9
$CHAMFERB
 40
0.5
  9
$CHAMFERC
 40
20.0
  9
$CHAMFERD
 40
0.0
  9
$SKPOLY
 70
     0
  9
$TDCREATE
 40
2452836.771637361
  9
$TDUPDATE
 40
2453152.443609942
  9
$TDINDWG
 40
0.1076195370
  9
$TDUSRTIMER
 40
0.1076195370
  9
$USRTIMER
 70
     1
  9
$ANGBASE
 50
0.0
  9
$ANGDIR
 70
     0
  9
$PDMODE
 70
     0
  9
$PDSIZE
 40
0.0
  9
$PLINEWID
 40
0.0
  9
$COORDS
 70
     1
  9
$SPLFRAME
 70
     0
  9
$SPLINETYPE
 70
     6
  9
$SPLINESEGS
 70
     8
  9
$ATTDIA
 70
     1
  9
$ATTREQ
 70
     1
  9
$HANDLING
 70
 12289
  9
$HANDSEED
  5
237E
  9
$SURFTAB1
 70
     6
  9
$SURFTAB2
 70
     6
  9
$SURFTYPE
 70
     6
  9
$SURFU
 70
     6
  9
$SURFV
 70
     6
  9
$UCSNAME
  2

  9
$UCSORG
 10
0.0
 20
0.0
 30
0.0
  9
$UCSXDIR
 10
1.0
 20
0.0
 30
0.0
  9
$UCSYDIR
 10
0.0
 20
1.0
 30
0.0
  9
$PUCSNAME
  2

  9
$PUCSORG
 10
0.0
 20
0.0
 30
0.0
  9
$PUCSXDIR
 10
1.0
 20
0.0
 30
0.0
  9
$PUCSYDIR
 10
0.0
 20
1.0
 30
0.0
  9
$USERI1
 70
     0
  9
$USERI2
 70
     0
  9
$USERI3
 70
     0
  9
$USERI4
 70
     0
  9
$USERI5
 70
     0
  9
$USERR1
 40
0.0
  9
$USERR2
 40
0.0
  9
$USERR3
 40
0.0
  9
$USERR4
 40
0.0
  9
$USERR5
 40
0.0
  9
$WORLDVIEW
 70
     1
  9
$SHADEDGE
 70
     3
  9
$SHADEDIF
 70
    70
  9
$TILEMODE
 70
     1
  9
$MAXACTVP
 70
    64
  9
$PINSBASE
 10
0.0
 20
0.0
 30
0.0
  9
$PLIMCHECK
 70
     0
  9
$PEXTMIN
 10
1.000000000000000E+20
 20
1.000000000000000E+20
 30
1.000000000000000E+20
  9
$PEXTMAX
 10
-1.000000000000000E+20
 20
-1.000000000000000E+20
 30
-1.000000000000000E+20
  9
$PLIMMIN
 10
0.0
 20
0.0
  9
$PLIMMAX
 10
841.0
 20
594.0
  9
$UNITMODE
 70
     0
  9
$VISRETAIN
 70
     1
  9
$PLINEGEN
 70
     0
  9
$PSLTSCALE
 70
     0
  9
$TREEDEPTH
 70
  3020
  9
$PICKSTYLE
 70
     0
  9
$CMLSTYLE
  2
STANDARD
  9
$CMLJUST
 70
     0
  9
$CMLSCALE
 40
20.0
  9
$PROXYGRAPHICS
 70
     1
  9
$MEASUREMENT
 70
     1
  0
ENDSEC
  0
SECTION
  2
CLASSES
  0
CLASS
  1
ACDBDICTIONARYWDFLT
  2
AcDbDictionaryWithDefault
  3
AutoCAD 2000
 90
        0
280
     0
281
     0
  0
CLASS
  1
ACDBPLACEHOLDER
  2
AcDbPlaceHolder
  3
AutoCAD 2000
 90
        0
280
     0
281
     0
  0
CLASS
  1
LAYOUT
  2
AcDbLayout
  3
AutoCAD 2000
 90
        0
280
     0
281
     0
  0
CLASS
  1
AMGSETTINGSOBJ
  2
AmgSettingsObj
  3
"AcadM|Product Description: AutoCAD Mechanical 2000|Company: Autodesk"
 90
        0
280
     0
281
     0
  0
CLASS
  1
ACME_DOCUMENT
  2
AcMeDbDoc
  3
AcMeServices
 90
        0
280
     0
281
     0
  0
CLASS
  1
ACMESCOPE
  2
AcMeScope
  3
AcMeServices
 90
        0
280
     0
281
     0
  0
CLASS
  1
ACMECOMMANDHISTORY
  2
AcMeCommandHistory
  3
AcMeServices
 90
        0
280
     0
281
     0
  0
CLASS
  1
DICTIONARYVAR
  2
AcDbDictionaryVar
  3
AutoCAD 2000
 90
        0
280
     0
281
     0
  0
CLASS
  1
ACIMSYSVARMAN
  2
AcImSysVarManager
  3
AcMeServices
 90
        0
280
     0
281
     0
  0
CLASS
  1
ACIMREALSYSVAR
  2
AcImRealSysVar
  3
AcMeServices
 90
        0
280
     0
281
     0
  0
CLASS
  1
ACIMINTSYSVAR
  2
AcImIntSysVar
  3
AcMeServices
 90
        0
280
     0
281
     0
  0
CLASS
  1
ACMEDRAWINGMAN
  2
AcMeDrawingMan
  3
AcMeServices
 90
        0
280
     0
281
     0
  0
CLASS
  1
ACMEVIEW
  2
AcMeView
  3
AcMeServices
 90
        0
280
     0
281
     0
  0
CLASS
  1
ACDBENTITYCACHE
  2
AcMeEntityCache
  3
AcMeServices
 90
        0
280
     0
281
     0
  0
CLASS
  1
GSMANAGER
  2
AcMeGSManager
  3
AcMeServices
 90
        0
280
     0
281
     0
  0
CLASS
  1
AmdtInternalReactor
  2
AmdtInternalReactor
  3
AcMeServices
 90
        0
280
     0
281
     0
  0
CLASS
  1
ACMESTATEMGR
  2
AcMeStateMgr
  3
AcMeServices
 90
        0
280
     0
281
     0
  0
CLASS
  1
ACME_DATABASE
  2
AcMeDbDatabase
  3
AcMeServices
 90
        0
280
     0
281
     0
  0
CLASS
  1
ACRFINSADJUSTERMGR
  2
AcRfInsAdjusterMgr
  3
AcMeServices
 90
        0
280
     0
281
     0
  0
CLASS
  1
ACMDATADICTIONARY
  2
AcmDataDictionary
  3
"AcmSymBB|Product Description: AutoCAD Mechanical 2000|Company: Autodesk"
 90
        0
280
     0
281
     0
  0
CLASS
  1
ACMDATAENTRYBLOCK
  2
AcmDataEntryBlock
  3
"AcmSymBB|Product Description: AutoCAD Mechanical 2000|Company: Autodesk"
 90
        0
280
     0
281
     0
  0
CLASS
  1
AMGOBJPROPCFG
  2
AmgObjPropCfg
  3
"AmgLay|Product Description: AutoCAD Mechanical 2000|Company: Autodesk"
 90
        1
280
     0
281
     0
  0
CLASS
  1
ACAMGFILTERDAT
  2
AcAmgFilterDat
  3
"AcadM|Product Description: AutoCAD Mechanical 2000|Company: Autodesk"
 90
        0
280
     0
281
     0
  0
CLASS
  1
LAYER_INDEX
  2
AcDbLayerIndex
  3
AutoCAD 2000
 90
        0
280
     0
281
     0
  0
CLASS
  1
IDBUFFER
  2
AcDbIdBuffer
  3
AutoCAD 2000
 90
        0
280
     0
281
     0
  0
CLASS
  1
ACIMSTRSYSVAR
  2
AcImStrSysVar
  3
AcMeServices
 90
        0
280
     0
281
     0
  0
CLASS
  1
ACMSTANDARDJIS
  2
AcmStandardJIS
  3
"AcmSymBB|Product Description: AutoCAD Mechanical 2000|Company: Autodesk"
 90
        0
280
     0
281
     0
  0
CLASS
  1
ACMSURFSTANDARDJIS
  2
AcmSurfTextStdJIS
  3
"AcmSymBB|Product Description: AutoCAD Mechanical 2000|Company: Autodesk"
 90
        0
280
     0
281
     0
  0
CLASS
  1
ACMFCFSTANDARDJIS
  2
AcmFCFStdJIS
  3
"AcmSymBB|Product Description: AutoCAD Mechanical 2000|Company: Autodesk"
 90
        0
280
     0
281
     0
  0
CLASS
  1
ACMWELDSTANDARDJIS
  2
AcmWeldingStdJIS
  3
"AcmSymBB|Product Description: AutoCAD Mechanical 2000|Company: Autodesk"
 90
        0
280
     0
281
     0
  0
CLASS
  1
ACMIDSTANDARDJIS
  2
AcmIdStdJIS
  3
"AcmSymBB|Product Description: AutoCAD Mechanical 2000|Company: Autodesk"
 90
        0
280
     0
281
     0
  0
CLASS
  1
ACMDATUMSTANDARDJIS
  2
AcmDatumStdJIS
  3
"AcmSymBB|Product Description: AutoCAD Mechanical 2000|Company: Autodesk"
 90
        0
280
     0
281
     0
  0
CLASS
  1
ACMBOMSTANDARDJIS
  2
AcmBOMStdJIS
  3
"AcmSymBB|Product Description: AutoCAD Mechanical 2000|Company: Autodesk"
 90
        0
280
     0
281
     0
  0
CLASS
  1
ACMSTANDARDANSI
  2
AcmStandardANSI
  3
"AcmSymBB|Product Description: AutoCAD Mechanical 2000|Company: Autodesk"
 90
        0
280
     0
281
     0
  0
CLASS
  1
ACMSURFSTANDARDANSI
  2
AcmSurfTextStdANSI
  3
"AcmSymBB|Product Description: AutoCAD Mechanical 2000|Company: Autodesk"
 90
        0
280
     0
281
     0
  0
CLASS
  1
ACMFCFSTANDARDANSI
  2
AcmFCFStdANSI
  3
"AcmSymBB|Product Description: AutoCAD Mechanical 2000|Company: Autodesk"
 90
        0
280
     0
281
     0
  0
CLASS
  1
ACMWELDSTANDARDANSI
  2
AcmWeldingStdANSI
  3
"AcmSymBB|Product Description: AutoCAD Mechanical 2000|Company: Autodesk"
 90
        0
280
     0
281
     0
  0
CLASS
  1
ACMIDSTANDARDANSI
  2
AcmIdStdANSI
  3
"AcmSymBB|Product Description: AutoCAD Mechanical 2000|Company: Autodesk"
 90
        0
280
     0
281
     0
  0
CLASS
  1
ACMDATUMSTANDARDANSI
  2
AcmDatumStdANSI
  3
"AcmSymBB|Product Description: AutoCAD Mechanical 2000|Company: Autodesk"
 90
        0
280
     0
281
     0
  0
CLASS
  1
ACMBOMSTANDARDANSI
  2
AcmBOMStdANSI
  3
"AcmSymBB|Product Description: AutoCAD Mechanical 2000|Company: Autodesk"
 90
        0
280
     0
281
     0
  0
CLASS
  1
ACMSTANDARDBSI
  2
AcmStandardBSI
  3
"AcmSymBB|Product Description: AutoCAD Mechanical 2000|Company: Autodesk"
 90
        0
280
     0
281
     0
  0
CLASS
  1
ACMSURFSTANDARDBSI
  2
AcmSurfTextStdBSI
  3
"AcmSymBB|Product Description: AutoCAD Mechanical 2000|Company: Autodesk"
 90
        0
280
     0
281
     0
  0
CLASS
  1
ACMFCFSTANDARDBSI
  2
AcmFCFStdBSI
  3
"AcmSymBB|Product Description: AutoCAD Mechanical 2000|Company: Autodesk"
 90
        0
280
     0
281
     0
  0
CLASS
  1
ACMWELDSTANDARDBSI
  2
AcmWeldingStdBSI
  3
"AcmSymBB|Product Description: AutoCAD Mechanical 2000|Company: Autodesk"
 90
        0
280
     0
281
     0
  0
CLASS
  1
ACMIDSTANDARDBSI
  2
AcmIdStdBSI
  3
"AcmSymBB|Product Description: AutoCAD Mechanical 2000|Company: Autodesk"
 90
        0
280
     0
281
     0
  0
CLASS
  1
ACMDATUMSTANDARDBSI
  2
AcmDatumStdBSI
  3
"AcmSymBB|Product Description: AutoCAD Mechanical 2000|Company: Autodesk"
 90
        0
280
     0
281
     0
  0
CLASS
  1
ACMBOMSTANDARDBSI
  2
AcmBOMStdBSI
  3
"AcmSymBB|Product Description: AutoCAD Mechanical 2000|Company: Autodesk"
 90
        0
280
     0
281
     0
  0
CLASS
  1
LONG_TRANSACTION
  2
AcDbLongTransaction
  3
AutoCAD 2000
 90
        0
280
     0
281
     0
  0
CLASS
  1
LWPOLYLINE
  2
AcDbPolyline
  3
AutoCAD 2000
 90
        0
280
     0
281
     1
  0
CLASS
  1
HATCH
  2
AcDbHatch
  3
AutoCAD 2000
 90
        0
280
     0
281
     1
  0
CLASS
  1
XRECORD
  2
AcDbXrecord
  3
AutoCAD 2000
 90
        0
280
     0
281
     0
  0
ENDSEC
  0
SECTION
  2
TABLES
  0
TABLE
  2
VPORT
  5
8
330
0
100
AcDbSymbolTable
 70
     3
  0
VPORT
  5
2353
330
8
100
AcDbSymbolTableRecord
100
AcDbViewportTableRecord
  2
*ACTIVE
 70
     0
 10
0.0
 20
0.0
 11
1.0
 21
1.0
 12
-27.54002787456335
 22
-12.11586079304988
 13
0.0
 23
0.0
 14
2.5
 24
2.5
 15
10.0
 25
10.0
 16
0.0
 26
0.0
 36
1.0
 17
0.0
 27
0.0
 37
0.0
 40
50.78580159108676
 41
1.56570841889117
 42
50.0
 43
0.0
 44
0.0
 50
0.0
 51
0.0
 71
     0
 72
   100
 73
     1
 74
     3
 75
     0
 76
     0
 77
     0
 78
     0
  0
ENDTAB
  0
TABLE
  2
LTYPE
  5
5
330
0
100
AcDbSymbolTable
 70
    10
  0
LTYPE
  5
14
330
5
100
AcDbSymbolTableRecord
100
AcDbLinetypeTableRecord
  2
BYBLOCK
 70
     0
  3

 72
    65
 73
     0
 40
0.0
  0
LTYPE
  5
15
330
5
100
AcDbSymbolTableRecord
100
AcDbLinetypeTableRecord
  2
BYLAYER
 70
     0
  3

 72
    65
 73
     0
 40
0.0
  0
LTYPE
  5
16
330
5
100
AcDbSymbolTableRecord
100
AcDbLinetypeTableRecord
  2
CONTINUOUS
 70
     0
  3
Solid line
 72
    65
 73
     0
 40
0.0
  0
LTYPE
  5
4B
330
5
100
AcDbSymbolTableRecord
100
AcDbLinetypeTableRecord
  2
AM_ISO02W050
 70
     0
  3
__ __ __ __ __ __ __ __ __ __ __ __ __ __ __
 72
    65
 73
     2
 40
7.5
 49
6.0
 74
     0
 49
-1.5
 74
     0
  0
LTYPE
  5
4C
330
5
100
AcDbSymbolTableRecord
100
AcDbLinetypeTableRecord
  2
AM_ISO08W050
 70
     0
  3
____ . ____ . ____ . ____ . ____ . ____ . ____
 72
    65
 73
     4
 40
18.0
 49
12.0
 74
     0
 49
-1.5
 74
     0
 49
3.0
 74
     0
 49
-1.5
 74
     0
  0
LTYPE
  5
4D
330
5
100
AcDbSymbolTableRecord
100
AcDbLinetypeTableRecord
  2
AM_ISO09W050
 70
     0
  3
_____ . . _____ . . _____ . . ____ .. ____
 72
    65
 73
     6
 40
22.5
 49
12.0
 74
     0
 49
-1.5
 74
     0
 49
3.0
 74
     0
 49
-1.5
 74
     0
 49
3.0
 74
     0
 49
-1.5
 74
     0
  0
LTYPE
  5
4E
330
5
100
AcDbSymbolTableRecord
100
AcDbLinetypeTableRecord
  2
AMCONSTR
 70
     0
  3
_______________________
 72
    65
 73
     2
 40
9999.0
 49
9999.0
 74
     0
 49
0.0
 74
     0
  0
LTYPE
  5
4F
330
5
100
AcDbSymbolTableRecord
100
AcDbLinetypeTableRecord
  2
AM_ISO02W050X2
 70
     0
  3
 _ _ _ _ _ _ _ _ _ _ _ _
 72
    65
 73
     2
 40
3.75
 49
3.0
 74
     0
 49
-0.75
 74
     0
  0
LTYPE
  5
50
330
5
100
AcDbSymbolTableRecord
100
AcDbLinetypeTableRecord
  2
AM_ISO08W050X2
 70
     0
  3
__ . __ . __ . __ . __ . __
 72
    65
 73
     4
 40
9.0
 49
6.0
 74
     0
 49
-0.75
 74
     0
 49
1.5
 74
     0
 49
-0.75
 74
     0
  0
LTYPE
  5
53
330
5
100
AcDbSymbolTableRecord
100
AcDbLinetypeTableRecord
  2
AMZIGZAG
 70
     0
  3
/\/-/\/-/\/-/\/-/\/-/\/
 72
    65
 73
     2
 40
11.00009999999999
 49
0.0001
 74
     4
 75
   135
340
52
 46
0.04
 50
0.0
 44
0.0
 45
0.0
 49
-11.0
 74
     0
  0
LTYPE
  5
166
330
5
100
AcDbSymbolTableRecord
100
AcDbLinetypeTableRecord
  2
ACJISTGL
 70
     0
  3
_ _ _ _ _
 72
    65
 73
     2
 40
3.0
 49
2.0
 74
     0
 49
-1.0
 74
     0
  0
LTYPE
  5
26A
330
5
100
AcDbSymbolTableRecord
100
AcDbLinetypeTableRecord
  2
ACJISTGB
 70
     0
  3
__ . . __ . .
 72
    65
 73
     6
 40
9.0
 49
4.0
 74
     0
 49
-1.0
 74
     0
 49
1.0
 74
     0
 49
-1.0
 74
     0
 49
1.0
 74
     0
 49
-1.0
 74
     0
  0
ENDTAB
  0
TABLE
  2
LAYER
  5
2
330
0
100
AcDbSymbolTable
 70
     7
  0
LAYER
  5
10
330
2
100
AcDbSymbolTableRecord
100
AcDbLayerTableRecord
  2
0
 70
     0
 62
     7
  6
CONTINUOUS
  0
LAYER
  5
3F9
330
2
100
AcDbSymbolTableRecord
100
AcDbLayerTableRecord
  2
AM_0
 70
     0
 62
     7
  6
CONTINUOUS
  0
LAYER
  5
BD4
330
2
100
AcDbSymbolTableRecord
100
AcDbLayerTableRecord
  2
AM_11
 70
     0
 62
     3
  6
AM_ISO09W050
  0
LAYER
  5
BD5
330
2
100
AcDbSymbolTableRecord
100
AcDbLayerTableRecord
  2
AM_7
 70
     0
 62
     4
  6
AM_ISO08W050
  0
LAYER
  5
BD6
330
2
100
AcDbSymbolTableRecord
100
AcDbLayerTableRecord
  2
AM_5
 70
     0
 62
     3
  6
CONTINUOUS
  0
LAYER
  5
BD7
330
2
100
AcDbSymbolTableRecord
100
AcDbLayerTableRecord
  2
DEFPOINTS
 70
     0
 62
     7
  6
CONTINUOUS
  0
LAYER
  5
E59
330
2
100
AcDbSymbolTableRecord
100
AcDbLayerTableRecord
  2
AM_6
 70
     0
 62
     2
  6
CONTINUOUS
  0
ENDTAB
  0
TABLE
  2
STYLE
  5
3
330
0
100
AcDbSymbolTable
 70
     5
  0
STYLE
  5
11
330
3
100
AcDbSymbolTableRecord
100
AcDbTextStyleTableRecord
  2
STANDARD
 70
     0
 40
0.0
 41
1.0
 50
0.0
 71
     0
 42
2.5
  3
simplex.shx
  4
EXTFONT.SHX
  0
STYLE
  5
52
330
3
100
AcDbSymbolTableRecord
100
AcDbTextStyleTableRecord
  2

 70
     1
 40
0.0
 41
1.0
 50
0.0
 71
     0
 42
2.5
  3
ltypeshp.shx
  4

  0
STYLE
  5
6B
330
3
100
AcDbSymbolTableRecord
100
AcDbTextStyleTableRecord
  2
ASAMI
 70
     0
 40
0.0
 41
1.0
 50
0.0
 71
     0
 42
2.5
  3
simplex.shx
  4
EXTFONT.SHX
  0
STYLE
  5
262
330
3
100
AcDbSymbolTableRecord
100
AcDbTextStyleTableRecord
  2
ACJISTS
 70
     0
 40
1.0
 41
1.0
 50
0.0
 71
     0
 42
2.5
  3
simplex.shx
  4
bigfont.shx
  0
STYLE
  5
269
330
3
100
AcDbSymbolTableRecord
100
AcDbTextStyleTableRecord
  2
ACJISGDT
 70
     0
 40
0.0
 41
1.0
 50
0.0
 71
     0
 42
2.5
  3
amgdtans.shx
  4

  0
ENDTAB
  0
TABLE
  2
VIEW
  5
6
330
0
100
AcDbSymbolTable
 70
     0
  0
ENDTAB
  0
TABLE
  2
UCS
  5
7
330
0
100
AcDbSymbolTable
 70
     0
  0
ENDTAB
  0
TABLE
  2
APPID
  5
9
330
0
100
AcDbSymbolTable
 70
    12
  0
APPID
  5
12
330
9
100
AcDbSymbolTableRecord
100
AcDbRegAppTableRecord
  2
ACAD
 70
     0
  0
APPID
  5
30
330
9
100
AcDbSymbolTableRecord
100
AcDbRegAppTableRecord
  2
MCAD_NO_VIS
 70
     0
  0
APPID
  5
31
330
9
100
AcDbSymbolTableRecord
100
AcDbRegAppTableRecord
  2
ACAD_TEMP_GRAPHIC
 70
     0
  0
APPID
  5
2C2
330
9
100
AcDbSymbolTableRecord
100
AcDbRegAppTableRecord
  2
GENIUS_GENDTOL_13
 70
     0
  0
APPID
  5
339
330
9
100
AcDbSymbolTableRecord
100
AcDbRegAppTableRecord
  2
GENIUS_GENODEF_13
 70
     0
  0
APPID
  5
33A
330
9
100
AcDbSymbolTableRecord
100
AcDbRegAppTableRecord
  2
GENIUS_GENOBJ-N-RSBK_13
 70
     0
  0
APPID
  5
33B
330
9
100
AcDbSymbolTableRecord
100
AcDbRegAppTableRecord
  2
GENIUS_GENOBJ-N-LIB_13
 70
     0
  0
APPID
  5
33C
330
9
100
AcDbSymbolTableRecord
100
AcDbRegAppTableRecord
  2
GENIUS_GENSCALE_13
 70
     0
  0
APPID
  5
378
330
9
100
AcDbSymbolTableRecord
100
AcDbRegAppTableRecord
  2
GENIUS_GENDIMSH_14
 70
     0
  0
APPID
  5
BD8
330
9
100
AcDbSymbolTableRecord
100
AcDbRegAppTableRecord
  2
GENIUS_GENOBJ-N-CEN_13
 70
     0
  0
APPID
  5
BD9
330
9
100
AcDbSymbolTableRecord
100
AcDbRegAppTableRecord
  2
GENIUS_GENFIL_13
 70
     0
  0
APPID
  5
BDA
330
9
100
AcDbSymbolTableRecord
100
AcDbRegAppTableRecord
  2
GENIUS_GENOBJ-N-CHA_13
 70
     0
  0
ENDTAB
  0
TABLE
  2
DIMSTYLE
  5
A
330
0
100
AcDbSymbolTable
 70
     8
  0
DIMSTYLE
105
58
102
{ACAD_REACTORS
330
105F
330
10EF
330
13A3
330
207F
102
}
330
A
100
AcDbSymbolTableRecord
100
AcDbDimStyleTableRecord
  2
AM_JIS
 70
     0
  3

  4
"
  5
OPEN30
  6

  7

 40
0.5
 41
2.5
 42
1.0
 43
12.0
 44
1.0
 45
0.0
 46
0.0
 47
0.1
 48
0.1
140
3.2
141
0.0
142
0.0
143
0.0393701
144
1.0
145
0.0
146
0.71
147
1.5
 71
     0
 72
     0
 73
     0
 74
     0
 75
     0
 76
     0
 77
     3
 78
     8
170
     0
171
     2
172
     1
173
     0
174
     0
175
     0
176
   256
177
   256
178
     2
270
     2
271
     3
272
     3
273
     2
274
     2
340
6B
275
     0
280
     0
281
     0
282
     0
283
     0
284
     0
285
     0
286
     0
287
     3
288
     0
  0
DIMSTYLE
105
5F
330
A
100
AcDbSymbolTableRecord
100
AcDbDimStyleTableRecord
  2
AM_JIS$3
 70
     0
  3

  4
"
  5
OPEN30
  6

  7

 40
0.5
 41
2.5
 42
1.0
 43
10.0
 44
1.0
 45
0.0
 46
0.0
 47
0.1
 48
0.1
140
3.2
141
0.0
142
0.0
143
0.0393701
144
1.0
145
0.0
146
0.71
147
1.5
 71
     0
 72
     0
 73
     0
 74
     1
 75
     0
 76
     0
 77
     3
 78
     8
170
     0
171
     2
172
     0
173
     0
174
     0
175
     0
176
   256
177
   256
178
     2
270
     2
271
     2
272
     3
273
     2
274
     2
340
6B
275
     0
280
     0
281
     0
282
     0
283
     0
284
     0
285
     0
286
     0
287
     0
288
     1
  0
DIMSTYLE
105
60
330
A
100
AcDbSymbolTableRecord
100
AcDbDimStyleTableRecord
  2
AM_JIS$4
 70
     0
  3

  4
"
  5
OPEN30
  6

  7

 40
0.5
 41
2.5
 42
1.0
 43
10.0
 44
1.0
 45
0.0
 46
0.0
 47
0.1
 48
0.1
140
3.2
141
0.0
142
0.0
143
0.0393701
144
1.0
145
0.0
146
0.71
147
1.5
 71
     0
 72
     0
 73
     0
 74
     1
 75
     0
 76
     0
 77
     3
 78
     8
170
     0
171
     2
172
     0
173
     0
174
     0
175
     0
176
   256
177
   256
178
     2
270
     2
271
     2
272
     3
273
     2
274
     2
340
6B
275
     0
280
     0
281
     0
282
     0
283
     0
284
     0
285
     0
286
     0
287
     0
288
     1
  0
DIMSTYLE
105
61
330
A
100
AcDbSymbolTableRecord
100
AcDbDimStyleTableRecord
  2
AM_JIS$6
 70
     0
  3

  4
"
  5
OPEN30
  6

  7

 40
0.5
 41
2.5
 42
1.0
 43
10.0
 44
1.0
 45
0.0
 46
0.0
 47
0.1
 48
0.1
140
3.2
141
0.0
142
0.0
143
0.0393701
144
1.0
145
0.0
146
0.71
147
1.5
 71
     0
 72
     0
 73
     0
 74
     0
 75
     0
 76
     0
 77
     0
 78
     8
170
     0
171
     2
172
     1
173
     0
174
     0
175
     0
176
   256
177
   256
178
     2
270
     2
271
     2
272
     2
273
     2
274
     2
340
6B
275
     0
280
     0
281
     0
282
     0
283
     0
284
     0
285
     0
286
     0
287
     3
288
     0
  0
DIMSTYLE
105
62
330
A
100
AcDbSymbolTableRecord
100
AcDbDimStyleTableRecord
  2
AM_JIS$7
 70
     0
  3

  4
"
  5
OPEN30
  6

  7

 40
0.5
 41
2.5
 42
1.0
 43
10.0
 44
1.0
 45
0.0
 46
0.0
 47
0.1
 48
0.1
140
3.2
141
0.0
142
0.0
143
0.0393701
144
1.0
145
0.0
146
0.71
147
1.5
 71
     0
 72
     0
 73
     0
 74
     0
 75
     0
 76
     0
 77
     3
 78
     8
170
     0
171
     2
172
     1
173
     0
174
     0
175
     0
176
   256
177
   256
178
     2
270
     2
271
     2
272
     3
273
     2
274
     2
340
6B
275
     0
280
     0
281
     0
282
     0
283
     0
284
     0
285
     0
286
     0
287
     3
288
     0
  0
DIMSTYLE
105
63
330
A
100
AcDbSymbolTableRecord
100
AcDbDimStyleTableRecord
  2
AM_JIS$SF
 70
     0
  3

  4
"
  5
OPEN30
  6

  7

 40
0.5
 41
2.5
 42
1.0
 43
10.0
 44
1.0
 45
0.0
 46
0.0
 47
0.1
 48
0.1
140
3.2
141
0.0
142
0.0
143
0.0393701
144
1.0
145
0.0
146
0.71
147
1.5
 71
     0
 72
     0
 73
     0
 74
     0
 75
     1
 76
     1
 77
     3
 78
     8
170
     0
171
     2
172
     1
173
     0
174
     0
175
     0
176
   256
177
   256
178
     2
270
     2
271
     2
272
     2
273
     2
274
     2
340
6B
275
     0
280
     0
281
     0
282
     0
283
     0
284
     0
285
     0
286
     0
287
     3
288
     0
  0
DIMSTYLE
105
68
330
A
100
AcDbSymbolTableRecord
100
AcDbDimStyleTableRecord
  2
AM_JIS$SH
 70
     0
  3

  4
"
  5

  6
GENAXEH
  7
OPEN30
 40
0.5
 41
2.5
 42
1.0
 43
10.0
 44
1.0
 45
0.0
 46
0.0
 47
0.1
 48
0.1
140
3.2
141
0.0
142
0.0
143
0.0393701
144
2.0
145
0.0
146
0.71
147
1.5
 71
     0
 72
     0
 73
     0
 74
     0
 75
     1
 76
     1
 77
     3
 78
     8
170
     0
171
     2
172
     1
173
     1
174
     0
175
     0
176
   256
177
   256
178
     2
270
     2
271
     2
272
     2
273
     2
274
     2
340
6B
275
     0
280
     0
281
     0
282
     0
283
     0
284
     0
285
     0
286
     0
287
     3
288
     0
  0
DIMSTYLE
105
B34
330
A
100
AcDbSymbolTableRecord
100
AcDbDimStyleTableRecord
  2
AM_JIS$2
 70
     0
  3

  4
"
  5
OPEN30
  6

  7

 40
0.5
 41
2.5
 42
1.0
 43
12.0
 44
1.0
 45
0.0
 46
0.0
 47
0.1
 48
0.1
140
3.2
141
0.0
142
0.0
143
0.0393701
144
1.0
145
0.0
146
0.71
147
1.5
 71
     0
 72
     0
 73
     0
 74
     0
 75
     0
 76
     0
 77
     3
 78
     8
170
     0
171
     2
172
     1
173
     0
174
     0
175
     0
176
   256
177
   256
178
     2
270
     2
271
     3
272
     3
273
     2
274
     2
340
6B
275
     0
280
     0
281
     0
282
     0
283
     0
284
     0
285
     0
286
     0
287
     3
288
     0
  0
ENDTAB
  0
TABLE
  2
BLOCK_RECORD
  5
1
330
0
100
AcDbSymbolTable
 70
     9
  0
BLOCK_RECORD
  5
1F
102
{ACAD_XDICTIONARY
360
74
102
}
330
1
100
AcDbSymbolTableRecord
100
AcDbBlockTableRecord
  2
*MODEL_SPACE
  0
BLOCK_RECORD
  5
101
102
{ACAD_XDICTIONARY
360
237C
102
}
330
1
100
AcDbSymbolTableRecord
100
AcDbBlockTableRecord
  2
*PAPER_SPACE
  0
BLOCK_RECORD
  5
59
330
1
100
AcDbSymbolTableRecord
100
AcDbBlockTableRecord
  2
_OPEN30
  0
BLOCK_RECORD
  5
64
330
1
100
AcDbSymbolTableRecord
100
AcDbBlockTableRecord
  2
GENAXEH
  0
BLOCK_RECORD
  5
1060
330
1
100
AcDbSymbolTableRecord
100
AcDbBlockTableRecord
  2
*D5
  0
BLOCK_RECORD
  5
10F0
330
1
100
AcDbSymbolTableRecord
100
AcDbBlockTableRecord
  2
*D6
  0
BLOCK_RECORD
  5
13A4
330
1
100
AcDbSymbolTableRecord
100
AcDbBlockTableRecord
  2
*D7
  0
BLOCK_RECORD
  5
2080
330
1
100
AcDbSymbolTableRecord
100
AcDbBlockTableRecord
  2
*D8
  0
ENDTAB
  0
ENDSEC
  0
SECTION
  2
BLOCKS
  0
BLOCK
  5
20
330
1F
100
AcDbEntity
  8
0
100
AcDbBlockBegin
  2
*MODEL_SPACE
 70
     0
 10
0.0
 20
0.0
 30
0.0
  3
*MODEL_SPACE
  1

  0
ENDBLK
  5
21
330
1F
100
AcDbEntity
  8
0
100
AcDbBlockEnd
  0
BLOCK
  5
103
330
101
100
AcDbEntity
 67
     1
  8
0
100
AcDbBlockBegin
  2
*PAPER_SPACE
 70
     0
 10
0.0
 20
0.0
 30
0.0
  3
*PAPER_SPACE
  1

  0
ENDBLK
  5
104
330
101
100
AcDbEntity
 67
     1
  8
0
100
AcDbBlockEnd
  0
BLOCK
  5
5D
330
59
100
AcDbEntity
  8
0
100
AcDbBlockBegin
  2
_OPEN30
 70
     0
 10
0.0
 20
0.0
 30
0.0
  3
_OPEN30
  1

  0
LINE
  5
5A
330
59
100
AcDbEntity
  8
0
 62
     0
100
AcDbLine
 10
-1.0
 20
0.26794919
 30
0.0
 11
0.0
 21
0.0
 31
0.0
  0
LINE
  5
5B
330
59
100
AcDbEntity
  8
0
 62
     0
100
AcDbLine
 10
0.0
 20
0.0
 30
0.0
 11
-1.0
 21
-0.26794919
 31
0.0
  0
LINE
  5
5C
330
59
100
AcDbEntity
  8
0
 62
     0
100
AcDbLine
 10
0.0
 20
0.0
 30
0.0
 11
-1.0
 21
0.0
 31
0.0
  0
ENDBLK
  5
5E
330
59
100
AcDbEntity
  8
0
100
AcDbBlockEnd
  0
BLOCK
  5
66
330
64
100
AcDbEntity
  8
0
100
AcDbBlockBegin
  2
GENAXEH
 70
     0
 10
0.0
 20
0.0
 30
0.0
  3
GENAXEH
  1

  0
LINE
  5
65
330
64
100
AcDbEntity
  8
0
100
AcDbLine
 10
-1.0
 20
0.0
 30
0.0
 11
1.0
 21
0.0
 31
0.0
  0
ENDBLK
  5
67
330
64
100
AcDbEntity
  8
0
100
AcDbBlockEnd
  0
BLOCK
  5
106A
330
1060
100
AcDbEntity
  8
0
100
AcDbBlockBegin
  2
*D5
 70
     1
 10
0.0
 20
0.0
 30
0.0
  3
*D5
  1

  0
LINE
  5
20E7
330
1060
100
AcDbEntity
  8
AM_5
100
AcDbLine
 10
-18.00000000000013
 20
-2.999999999998975
 30
0.0
 11
-18.00000000000013
 21
-10.50000100000005
 31
0.0
  0
LINE
  5
20E8
330
1060
100
AcDbEntity
  8
AM_5
100
AcDbLine
 10
-0.0000000000007854
 20
-2.499999999998004
 30
0.0
 11
-0.0000000000007859
 21
-10.50000100000004
 31
0.0
  0
LINE
  5
20E9
330
1060
100
AcDbEntity
  8
AM_5
100
AcDbLine
 10
-16.75000000000013
 20
-10.00000100000004
 30
0.0
 11
-1.250000000000785
 21
-10.00000100000004
 31
0.0
  0
INSERT
  5
20EA
330
1060
100
AcDbEntity
  8
AM_5
100
AcDbBlockReference
  2
_OPEN30
 10
-18.00000000000013
 20
-10.00000100000004
 30
0.0
 41
1.25
 42
1.25
 43
1.25
 50
180.0
  0
INSERT
  5
20EB
330
1060
100
AcDbEntity
  8
AM_5
100
AcDbBlockReference
  2
_OPEN30
 10
-0.0000000000007858
 20
-10.00000100000004
 30
0.0
 41
1.25
 42
1.25
 43
1.25
  0
MTEXT
  5
20EC
330
1060
100
AcDbEntity
  8
AM_5
 62
     2
100
AcDbMText
 10
-9.000000000000458
 20
-8.450001000000048
 30
0.0
 40
1.6
 41
0.0
 71
     5
 72
     1
  1
18
  7
ASAMI
1001
ACAD
1000
MTEXTBEGIN
1070
    73
1070
     1
1070
    44
1040
1.0
1070
    74
1070
     0
1000
MTEXTEND
  0
POINT
  5
20ED
330
1060
100
AcDbEntity
  8
DEFPOINTS
 62
     0
100
AcDbPoint
 10
-18.00000000000013
 20
-2.499999999998975
 30
0.0
  0
POINT
  5
20EE
330
1060
100
AcDbEntity
  8
DEFPOINTS
 62
     0
100
AcDbPoint
 10
-0.0000000000007853
 20
-1.999999999998004
 30
0.0
  0
POINT
  5
20EF
330
1060
100
AcDbEntity
  8
DEFPOINTS
 62
     0
100
AcDbPoint
 10
-0.0000000000007858
 20
-10.00000100000004
 30
0.0
  0
ENDBLK
  5
106B
330
1060
100
AcDbEntity
  8
0
100
AcDbBlockEnd
  0
BLOCK
  5
10FA
330
10F0
100
AcDbEntity
  8
0
100
AcDbBlockBegin
  2
*D6
 70
     1
 10
0.0
 20
0.0
 30
0.0
  3
*D6
  1

  0
LINE
  5
200C
330
10F0
100
AcDbEntity
  8
AM_5
100
AcDbLine
 10
-55.0
 20
-2.999999999999268
 30
0.0
 11
-55.0
 21
-16.50000100000004
 31
0.0
  0
LINE
  5
200D
330
10F0
100
AcDbEntity
  8
AM_5
100
AcDbLine
 10
-0.0000000000006306
 20
-2.499999999999998
 30
0.0
 11
-0.0000000000006315
 21
-16.50000100000004
 31
0.0
  0
LINE
  5
200E
330
10F0
100
AcDbEntity
  8
AM_5
100
AcDbLine
 10
-53.75
 20
-16.00000100000004
 30
0.0
 11
-1.250000000000631
 21
-16.00000100000004
 31
0.0
  0
INSERT
  5
200F
330
10F0
100
AcDbEntity
  8
AM_5
100
AcDbBlockReference
  2
_OPEN30
 10
-55.0
 20
-16.00000100000004
 30
0.0
 41
1.25
 42
1.25
 43
1.25
 50
180.0
  0
INSERT
  5
2010
330
10F0
100
AcDbEntity
  8
AM_5
100
AcDbBlockReference
  2
_OPEN30
 10
-0.0000000000006315
 20
-16.00000100000004
 30
0.0
 41
1.25
 42
1.25
 43
1.25
  0
MTEXT
  5
2011
330
10F0
100
AcDbEntity
  8
AM_5
 62
     2
100
AcDbMText
 10
-27.50000000000031
 20
-14.45000100000004
 30
0.0
 40
1.6
 41
0.0
 71
     5
 72
     1
  1
55
  7
ASAMI
1001
ACAD
1000
MTEXTBEGIN
1070
    73
1070
     1
1070
    44
1040
1.0
1070
    74
1070
     0
1000
MTEXTEND
  0
POINT
  5
2012
330
10F0
100
AcDbEntity
  8
DEFPOINTS
 62
     0
100
AcDbPoint
 10
-55.0
 20
-2.499999999999268
 30
0.0
  0
POINT
  5
2013
330
10F0
100
AcDbEntity
  8
DEFPOINTS
 62
     0
100
AcDbPoint
 10
-0.0000000000006306
 20
-1.999999999999998
 30
0.0
  0
POINT
  5
2014
330
10F0
100
AcDbEntity
  8
DEFPOINTS
 62
     0
100
AcDbPoint
 10
-0.0000000000006315
 20
-16.00000100000004
 30
0.0
  0
ENDBLK
  5
10FB
330
10F0
100
AcDbEntity
  8
0
100
AcDbBlockEnd
  0
BLOCK
  5
13AE
330
13A4
100
AcDbEntity
  8
0
100
AcDbBlockBegin
  2
*D7
 70
     1
 10
0.0
 20
0.0
 30
0.0
  3
*D7
  1

  0
LINE
  5
2015
330
13A4
100
AcDbEntity
  8
AM_5
100
AcDbLine
 10
-55.0
 20
2.999999999999973
 30
0.0
 11
-65.28823125971979
 21
2.999999999999976
 31
0.0
  0
LINE
  5
2016
330
13A4
100
AcDbEntity
  8
AM_5
100
AcDbLine
 10
-55.0
 20
-2.999999999999267
 30
0.0
 11
-65.28823125971979
 21
-2.999999999999264
 31
0.0
  0
LINE
  5
2017
330
13A4
100
AcDbEntity
  8
AM_5
100
AcDbLine
 10
-64.78823125971979
 20
1.749999999999976
 30
0.0
 11
-64.78823125971979
 21
-1.749999999999264
 31
0.0
  0
INSERT
  5
2018
330
13A4
100
AcDbEntity
  8
AM_5
100
AcDbBlockReference
  2
_OPEN30
 10
-64.78823125971979
 20
2.999999999999976
 30
0.0
 41
1.25
 42
1.25
 43
1.25
 50
90.0
  0
INSERT
  5
2019
330
13A4
100
AcDbEntity
  8
AM_5
100
AcDbBlockReference
  2
_OPEN30
 10
-64.78823125971979
 20
-2.999999999999264
 30
0.0
 41
1.25
 42
1.25
 43
1.25
 50
270.0
  0
MTEXT
  5
201A
330
13A4
100
AcDbEntity
  8
AM_5
 62
     2
100
AcDbMText
 10
-66.33823125971979
 20
0.0000000000003454
 30
0.0
 40
1.6
 41
0.0
 71
     5
 72
     1
  1
%%c6
  7
ASAMI
 11
0.0000000000000001
 21
1.0
 31
0.0
1001
ACAD
1000
MTEXTBEGIN
1070
    73
1070
     1
1070
    44
1040
1.0
1070
    74
1070
     0
1000
MTEXTEND
  0
POINT
  5
201B
330
13A4
100
AcDbEntity
  8
DEFPOINTS
 62
     0
100
AcDbPoint
 10
-54.50000000000001
 20
2.999999999999973
 30
0.0
  0
POINT
  5
201C
330
13A4
100
AcDbEntity
  8
DEFPOINTS
 62
     0
100
AcDbPoint
 10
-54.50000000000001
 20
-2.999999999999267
 30
0.0
  0
POINT
  5
201D
330
13A4
100
AcDbEntity
  8
DEFPOINTS
 62
     0
100
AcDbPoint
 10
-64.78823125971979
 20
-2.999999999999264
 30
0.0
  0
ENDBLK
  5
13AF
330
13A4
100
AcDbEntity
  8
0
100
AcDbBlockEnd
  0
BLOCK
  5
208A
330
2080
100
AcDbEntity
  8
0
100
AcDbBlockBegin
  2
*D8
 70
     1
 10
0.0
 20
0.0
 30
0.0
  3
*D8
  1

  0
LINE
  5
20F1
330
2080
100
AcDbEntity
  8
AM_5
100
AcDbLine
 10
0.4999999999992256
 20
2.500000000000002
 30
0.0
 11
12.05776903085495
 21
2.499999999999998
 31
0.0
  0
LINE
  5
20F2
330
2080
100
AcDbEntity
  8
AM_5
100
AcDbLine
 10
0.4999999999999999
 20
-2.499999999997507
 30
0.0
 11
12.05776903085495
 21
-2.499999999997511
 31
0.0
  0
LINE
  5
20F3
330
2080
100
AcDbEntity
  8
AM_5
100
AcDbLine
 10
11.55776903085495
 20
1.249999999999998
 30
0.0
 11
11.55776903085495
 21
-1.249999999997511
 31
0.0
  0
INSERT
  5
20F4
330
2080
100
AcDbEntity
  8
AM_5
100
AcDbBlockReference
  2
_OPEN30
 10
11.55776903085495
 20
2.499999999999998
 30
0.0
 41
1.25
 42
1.25
 43
1.25
 50
90.0
  0
INSERT
  5
20F5
330
2080
100
AcDbEntity
  8
AM_5
100
AcDbBlockReference
  2
_OPEN30
 10
11.55776903085495
 20
-2.499999999997511
 30
0.0
 41
1.25
 42
1.25
 43
1.25
 50
270.0
  0
MTEXT
  5
20F6
330
2080
100
AcDbEntity
  8
AM_5
 62
     2
100
AcDbMText
 10
10.00776903085495
 20
0.0000000000012458
 30
0.0
 40
1.6
 41
0.0
 71
     5
 72
     1
  1
%%c5
  7
ASAMI
 11
0.0000000000000001
 21
1.0
 31
0.0
1001
ACAD
1000
MTEXTBEGIN
1070
    73
1070
     1
1070
    44
1040
1.0
1070
    74
1070
     0
1000
MTEXTEND
  0
POINT
  5
20F7
330
2080
100
AcDbEntity
  8
DEFPOINTS
 62
     0
100
AcDbPoint
 10
-0.0000000000007744
 20
2.500000000000002
 30
0.0
  0
POINT
  5
20F8
330
2080
100
AcDbEntity
  8
DEFPOINTS
 62
     0
100
AcDbPoint
 10
-0.0000000000000002
 20
-2.499999999997507
 30
0.0
  0
POINT
  5
20F9
330
2080
100
AcDbEntity
  8
DEFPOINTS
 62
     0
100
AcDbPoint
 10
11.55776903085495
 20
-2.499999999997511
 30
0.0
  0
ENDBLK
  5
208B
330
2080
100
AcDbEntity
  8
0
100
AcDbBlockEnd
  0
ENDSEC
  0
SECTION
  2
ENTITIES
  0
TEXT
  5
E5A
330
1F
100
AcDbEntity
  8
AM_6
100
AcDbText
 10
-35.53571428571459
 20
-27.25000100000004
 30
0.0
 40
2.5
  1
LSM4050
 72
     4
 11
-27.50000000000031
 21
-26.00000100000004
 31
0.0
100
AcDbText
  0
LINE
  5
F47
330
1F
100
AcDbEntity
  8
AM_7
  6
AM_ISO08W050X2
100
AcDbLine
 10
4.557768030854958
 20
0.0
 30
0.0
 11
-57.7882302597198
 21
0.0000000000000058
 31
0.0
1001
GENIUS_GENODEF_13
1002
{
1000
HIER
1070
     0
1002
}
1002
{
1000
MANEDIT
1070
     0
1002
}
1002
{
1000
NOSEL
1070
     0
1002
}
1002
{
1000
BEHIND
1070
     0
1002
}
1002
{
1000
REACTOR
1002
}
1001
GENIUS_GENOBJ-N-CEN_13
1002
{
1000
OWNER
1000
GEN
1002
}
  0
DIMENSION
  5
105F
330
1F
100
AcDbEntity
  8
AM_5
100
AcDbDimension
  2
*D5
 10
-0.0000000000007858
 20
-10.00000100000004
 30
0.0
 11
-9.000000000000458
 21
-8.450001000000048
 31
0.0
 70
    32
  1
<>
  3
AM_JIS
100
AcDbAlignedDimension
 13
-18.00000000000013
 23
-2.499999999998975
 33
0.0
 14
-0.0000000000007853
 24
-1.999999999998004
 34
0.0
 50
0.0000000000001132
100
AcDbRotatedDimension
1001
GENIUS_GENDTOL_13
1000

1000
h7
1000

1040
0.0
  0
DIMENSION
  5
10EF
330
1F
100
AcDbEntity
  8
AM_5
100
AcDbDimension
  2
*D6
 10
-0.0000000000006315
 20
-16.00000100000004
 30
0.0
 11
-27.50000000000031
 21
-14.45000100000004
 31
0.0
 70
    32
  1
<>
  3
AM_JIS
100
AcDbAlignedDimension
 13
-55.0
 23
-2.499999999999268
 33
0.0
 14
-0.0000000000006306
 24
-1.999999999999998
 34
0.0
 50
0.0000000000001132
100
AcDbRotatedDimension
1001
GENIUS_GENDTOL_13
1000

1000
h7
1000

1040
0.0
  0
LINE
  5
139D
330
1F
100
AcDbEntity
  8
AM_0
100
AcDbLine
 10
-25.0
 20
3.000000000000018
 30
0.0
 11
-54.50000000000001
 21
2.999999999999973
 31
0.0
  0
LINE
  5
139E
330
1F
100
AcDbEntity
  8
AM_0
100
AcDbLine
 10
-25.0
 20
-2.99999999999925
 30
0.0
 11
-54.50000000000001
 21
-2.999999999999267
 31
0.0
  0
LINE
  5
13A1
330
1F
100
AcDbEntity
  8
AM_0
100
AcDbLine
 10
-54.50000000000001
 20
2.999999999999973
 30
0.0
 11
-54.50000000000002
 21
-2.999999999999267
 31
0.0
  0
LINE
  5
13A2
330
1F
100
AcDbEntity
  8
AM_0
100
AcDbLine
 10
-55.0
 20
2.499999999999972
 30
0.0
 11
-55.0
 21
-2.499999999999268
 31
0.0
  0
DIMENSION
  5
13A3
330
1F
100
AcDbEntity
  8
AM_5
100
AcDbDimension
  2
*D7
 10
-64.78823125971979
 20
-2.999999999999264
 30
0.0
 11
-66.33823125971979
 21
0.0000000000003454
 31
0.0
 70
    32
  1
%%c<>
  3
AM_JIS
100
AcDbAlignedDimension
 13
-54.50000000000001
 23
2.999999999999973
 33
0.0
 14
-54.50000000000001
 24
-2.999999999999267
 34
0.0
 50
270.0
100
AcDbRotatedDimension
1001
GENIUS_GENDTOL_13
1000

1000
h7
1000

1040
0.0
  0
LINE
  5
13C4
330
1F
100
AcDbEntity
  8
AM_0
100
AcDbLine
 10
-54.50000000000001
 20
2.999999999999973
 30
0.0
 11
-55.0
 21
2.499999999999972
 31
0.0
1001
GENIUS_GENFIL_13
1070
     0
1040
0.5
1040
0.5
1040
20.0
1040
0.0
1002
{
1002
}
1001
GENIUS_GENODEF_13
1002
{
1000
HIER
1070
     0
1002
}
1002
{
1000
MANEDIT
1070
     0
1002
}
1002
{
1000
NOSEL
1070
     0
1002
}
1002
{
1000
BEHIND
1070
     0
1002
}
1002
{
1000
REACTOR
1002
}
1001
GENIUS_GENOBJ-N-CHA_13
1002
{
1000
OWNER
1000
GEN
1002
}
  0
LINE
  5
13C7
330
1F
100
AcDbEntity
  8
AM_0
100
AcDbLine
 10
-55.0
 20
-2.499999999999268
 30
0.0
 11
-54.50000000000001
 21
-2.999999999999267
 31
0.0
1001
GENIUS_GENFIL_13
1070
     0
1040
0.5
1040
0.5
1040
20.0
1040
0.0
1002
{
1002
}
1001
GENIUS_GENODEF_13
1002
{
1000
HIER
1070
     0
1002
}
1002
{
1000
MANEDIT
1070
     0
1002
}
1002
{
1000
NOSEL
1070
     0
1002
}
1002
{
1000
BEHIND
1070
     0
1002
}
1002
{
1000
REACTOR
1002
}
1001
GENIUS_GENOBJ-N-CHA_13
1002
{
1000
OWNER
1000
GEN
1002
}
  0
LINE
  5
1571
330
1F
100
AcDbEntity
  8
AM_0
100
AcDbLine
 10
-25.0
 20
3.000000000000009
 30
0.0
 11
-25.0
 21
-2.999999999999256
 31
0.0
  0
LINE
  5
158A
330
1F
100
AcDbEntity
  8
AM_0
100
AcDbLine
 10
-25.0
 20
3.000000000000009
 30
0.0
 11
-23.13397459621933
 21
2.500000000001018
 31
0.0
  0
LINE
  5
158B
330
1F
100
AcDbEntity
  8
AM_0
100
AcDbLine
 10
-25.0
 20
-2.999999999999256
 30
0.0
 11
-23.13397459621453
 21
-2.499999999998981
 31
0.0
  0
LINE
  5
16CC
330
1F
100
AcDbEntity
  8
AM_0
100
AcDbLine
 10
-23.13397459621933
 20
2.500000000001019
 30
0.0
 11
-23.13397459622204
 21
-2.500000000000992
 31
0.0
  0
LINE
  5
1F38
330
1F
100
AcDbEntity
  8
AM_0
100
AcDbLine
 10
-18.00000000000003
 20
2.500000000001023
 30
0.0
 11
-23.13397459621933
 21
2.500000000001018
 31
0.0
  0
LINE
  5
1F39
330
1F
100
AcDbEntity
  8
AM_0
100
AcDbLine
 10
-18.77748114275224
 20
-2.499999999998977
 30
0.0
 11
-23.13397459622204
 21
-2.499999999998982
 31
0.0
  0
DIMENSION
  5
207F
330
1F
100
AcDbEntity
  8
AM_5
100
AcDbDimension
  2
*D8
 10
11.55776903085495
 20
-2.499999999997511
 30
0.0
 11
10.00776903085495
 21
0.0000000000012458
 31
0.0
 70
    32
  1
%%c<>
  3
AM_JIS
100
AcDbAlignedDimension
 13
-0.0000000000007744
 23
2.500000000000002
 33
0.0
 14
-0.0000000000000002
 24
-2.499999999997507
 34
0.0
 50
90.0
100
AcDbRotatedDimension
1001
GENIUS_GENDTOL_13
1000

1000
h7
1000

1040
0.0
  0
LINE
  5
208C
330
1F
100
AcDbEntity
  8
AM_0
100
AcDbLine
 10
-0.0000000000001001
 20
0.0000000000010421
 30
0.0
 11
-0.0481950000000965
 21
0.5000000000010966
 31
0.0
  0
LINE
  5
208D
330
1F
100
AcDbEntity
  8
AM_0
100
AcDbLine
 10
-0.0000000000001001
 20
0.0000000000010421
 30
0.0
 11
-0.0407787575971831
 21
-0.4230600435418334
 31
0.0
  0
LINE
  5
208E
330
1F
100
AcDbEntity
  8
AM_0
100
AcDbLine
 10
-0.0000000000001001
 20
-0.499999999998965
 30
0.0
 11
-0.2650037735581531
 21
0.0000000000010658
 31
0.0
  0
LINE
  5
208F
330
1F
100
AcDbEntity
  8
AM_0
100
AcDbLine
 10
-0.0481950000000965
 20
0.5000000000010966
 30
0.0
 11
-0.4899936067654482
 21
1.333570407006234
 31
0.0
  0
LINE
  5
2090
330
1F
100
AcDbEntity
  8
AM_0
100
AcDbLine
 10
-1.081666654039149
 20
0.0000000000010421
 30
0.0
 11
-1.081666654039149
 21
-0.3999999999989612
 31
0.0
  0
LINE
  5
2091
330
1F
100
AcDbEntity
  8
AM_0
100
AcDbLine
 10
-1.081666654039149
 20
-0.3999999999989612
 30
0.0
 11
-0.0530007547117107
 21
-0.3999999999989612
 31
0.0
  0
LINE
  5
2092
330
1F
100
AcDbEntity
  8
AM_0
100
AcDbLine
 10
-0.0000000000001001
 20
0.0000000000010421
 30
0.0
 11
-1.081666654039149
 21
0.0000000000010421
 31
0.0
  0
LINE
  5
2093
330
1F
100
AcDbEntity
  8
AM_0
100
AcDbLine
 10
-0.4899936067654482
 20
1.333570407006234
 30
0.0
 11
-1.081666654039149
 21
1.504226711265073
 31
0.0
  0
LINE
  5
2094
330
1F
100
AcDbEntity
  8
AM_0
100
AcDbLine
 10
-0.0481950000000965
 20
-2.366720578809881
 30
0.0
 11
-0.0481950000000965
 21
-0.6634489272805528
 31
0.0
  0
LINE
  5
2095
330
1F
100
AcDbEntity
  8
AM_0
100
AcDbLine
 10
-0.0481950000000965
 20
-2.366720578809845
 30
0.0
 11
-0.3144150000001011
 21
-1.998808327729921
 31
0.0
  0
LINE
  5
2096
330
1F
100
AcDbEntity
  8
AM_0
100
AcDbLine
 10
-0.0000000000001001
 20
-2.499999999998963
 30
0.0
 11
-0.0481950000000965
 21
-2.366720578809881
 31
0.0
  0
LINE
  5
2097
330
1F
100
AcDbEntity
  8
AM_0
100
AcDbLine
 10
-0.3949502154323469
 20
-0.7368273825822353
 30
0.0
 11
-0.0481950000000965
 21
-0.6634489272805528
 31
0.0
  0
LINE
  5
2098
330
1F
100
AcDbEntity
  8
AM_0
100
AcDbLine
 10
-0.0000000000001001
 20
-2.499999999998963
 30
0.0
 11
-0.0000000000001001
 21
-0.499999999998965
 31
0.0
  0
LINE
  5
2099
330
1F
100
AcDbEntity
  8
AM_0
100
AcDbLine
 10
-1.081666654039149
 20
-0.3999999999989612
 30
0.0
 11
-0.3949502154323469
 21
-0.7368273825822353
 31
0.0
  0
LINE
  5
209A
330
1F
100
AcDbEntity
  8
AM_0
100
AcDbLine
 10
-0.0481950000000965
 20
-0.6634489272805528
 30
0.0
 11
-0.0000000000001001
 21
-0.499999999998965
 31
0.0
  0
LINE
  5
209B
330
1F
100
AcDbEntity
  8
AM_0
100
AcDbLine
 10
-0.0000000000001001
 20
0.0000000000010421
 30
0.0
 11
-0.0000000000001001
 21
2.500000000001041
 31
0.0
  0
POLYLINE
  5
209C
330
1F
100
AcDbEntity
  8
AM_0
100
AcDb2dPolyline
 66
     1
 10
0.0
 20
0.0
 30
0.0
 70
     2
  0
VERTEX
  5
209D
330
209C
100
AcDbEntity
  8
AM_0
100
AcDbVertex
100
AcDb2dVertex
 10
-19.22099167102745
 20
1.93468456981448
 30
0.0
 42
-0.0081187699035253
  0
VERTEX
  5
209E
330
209C
100
AcDbEntity
  8
AM_0
100
AcDbVertex
100
AcDb2dVertex
 10
-19.44855121860683
 20
2.017848245355384
 30
0.0
 42
-0.0114464127740034
 70
     1
  0
VERTEX
  5
209F
330
209C
100
AcDbEntity
  8
AM_0
100
AcDbVertex
100
AcDb2dVertex
 10
-19.60887888094704
 20
2.088109544184643
 30
0.0
 42
-0.0078685702839493
  0
VERTEX
  5
20A0
330
209C
100
AcDbEntity
  8
AM_0
100
AcDbVertex
100
AcDb2dVertex
 10
-20.13765877201437
 20
2.377080712839981
 30
0.0
 42
-0.2726804491113656
 70
     1
  0
VERTEX
  5
20A1
330
209C
100
AcDbEntity
  8
AM_0
100
AcDbVertex
100
AcDb2dVertex
 10
-20.14864027505117
 20
2.393152033035535
 30
0.0
 42
-0.4014058829339297
  0
VERTEX
  5
20A2
330
209C
100
AcDbEntity
  8
AM_0
100
AcDbVertex
100
AcDb2dVertex
 10
-20.12873236787261
 20
2.421327021311156
 30
0.0
 42
-0.0313656446754737
 70
     1
  0
VERTEX
  5
20A3
330
209C
100
AcDbEntity
  8
AM_0
100
AcDbVertex
100
AcDb2dVertex
 10
-19.77005450756617
 20
2.456059912336326
 30
0.0
 42
-0.0039726403541645
  0
VERTEX
  5
20A4
330
209C
100
AcDbEntity
  8
AM_0
100
AcDbVertex
100
AcDb2dVertex
 10
-19.44341326503224
 20
2.462467585226483
 30
0.0
 42
0.0019401889352083
 70
     1
  0
VERTEX
  5
20A5
330
209C
100
AcDbEntity
  8
AM_0
100
AcDbVertex
100
AcDb2dVertex
 10
-18.77456250000006
 20
2.472625928295215
 30
0.0
 42
0.0036525506412497
  0
VERTEX
  5
20A6
330
209C
100
AcDbEntity
  8
AM_0
100
AcDbVertex
100
AcDb2dVertex
 10
-18.51154628533538
 20
2.479826552727655
 30
0.0
 42
0.0018773371428962
 70
     1
  0
VERTEX
  5
20A7
330
209C
100
AcDbEntity
  8
AM_0
100
AcDbVertex
100
AcDb2dVertex
 10
-18.00000000000007
 20
2.500000000001029
 30
0.0
  0
SEQEND
  5
20A8
330
209C
100
AcDbEntity
  8
AM_0
  0
LINE
  5
20AA
330
1F
100
AcDbEntity
  8
AM_0
100
AcDbLine
 10
-18.16287237475716
 20
1.126708730387596
 30
0.0
 11
-18.00000000000006
 21
0.6266036110587631
 31
0.0
  0
LINE
  5
20AB
330
1F
100
AcDbEntity
  8
AM_0
100
AcDbLine
 10
-18.00000000000008
 20
1.418349385342032
 30
0.0
 11
-18.16287237475716
 21
1.126708730387596
 31
0.0
  0
LINE
  5
20AF
330
1F
100
AcDbEntity
  8
AM_0
100
AcDbLine
 10
-18.00000000000005
 20
-1.6602590991918
 30
0.0
 11
-18.0000000000001
 21
-2.431068745911488
 31
0.0
  0
LINE
  5
20B2
330
1F
100
AcDbEntity
  8
AM_11
100
AcDbLine
 10
-18.00000000000013
 20
-2.499999999998975
 30
0.0
 11
-18.00000000000007
 21
2.500000000001029
 31
0.0
  0
LINE
  5
20B3
330
1F
100
AcDbEntity
  8
AM_7
  6
AM_ISO08W050X2
100
AcDbLine
 10
2.092015526162322
 20
0.0000000000010421
 30
0.0
 11
-18.72720000000009
 21
0.0000000000010184
 31
0.0
1001
GENIUS_GENODEF_13
1002
{
1000
HIER
1070
     0
1002
}
1002
{
1000
MANEDIT
1070
     0
1002
}
1002
{
1000
NOSEL
1070
     0
1002
}
1002
{
1000
BEHIND
1070
     0
1002
}
1002
{
1000
REACTOR
1002
}
1001
GENIUS_GENOBJ-N-CEN_13
1002
{
1000
OWNER
1000
GEN
1002
}
  0
LINE
  5
20B4
330
1F
100
AcDbEntity
  8
AM_11
100
AcDbLine
 10
-18.00000000000013
 20
-2.499999999998975
 30
0.0
 11
-0.0000000000001001
 21
-2.499999999998963
 31
0.0
  0
LINE
  5
20B5
330
1F
100
AcDbEntity
  8
AM_11
100
AcDbLine
 10
-0.0000000000004534
 20
2.500000000001041
 30
0.0
 11
-18.00000000000007
 21
2.500000000001029
 31
0.0
  0
SPLINE
  5
20B6
330
1F
100
AcDbEntity
  8
AM_0
100
AcDbSpline
210
0.0
220
0.0
230
1.0
 70
     8
 71
     3
 72
     8
 73
     4
 74
     0
 42
0.0000000001
 43
0.0000000001
 40
0.7699064471122945
 40
0.7699064471122945
 40
0.7699064471122945
 40
0.7699064471122945
 40
14.43901837670146
 40
14.43901837670146
 40
14.43901837670146
 40
14.43901837670146
 10
-17.6311287905494
 20
2.450745867906769
 30
0.0
 10
-15.5018123394285
 20
2.29583025142083
 30
0.0
 10
-13.59272567424658
 20
1.147915125710966
 30
0.0
 10
-11.68363900906466
 20
0.0000000000011132
 30
0.0
  0
SPLINE
  5
20B7
330
1F
100
AcDbEntity
  8
AM_0
100
AcDbSpline
210
0.0
220
0.0
230
1.0
 70
     8
 71
     3
 72
     8
 73
     4
 74
     0
 42
0.0000000001
 43
0.0000000001
 40
0.0
 40
0.0
 40
0.0
 40
0.0
 40
5.635889483499305
 40
5.635889483499305
 40
5.635889483499305
 40
5.635889483499305
 10
-12.48480000000015
 20
2.500000000001083
 30
0.0
 10
-13.34709109097556
 20
2.500000000001083
 30
0.0
 10
-14.17848211751098
 20
2.310897014490655
 30
0.0
 10
-14.99337588462517
 20
2.001744267021599
 30
0.0
  0
SPLINE
  5
20B8
330
1F
100
AcDbEntity
  8
AM_0
100
AcDbSpline
210
0.0
220
0.0
230
1.0
 70
     8
 71
     3
 72
     8
 73
     4
 74
     0
 42
0.0000000001
 43
0.0000000001
 40
1.090140354492627
 40
1.090140354492627
 40
1.090140354492627
 40
1.090140354492627
 40
14.36247867694493
 40
14.36247867694493
 40
14.36247867694493
 40
14.36247867694493
 10
-16.51982103408913
 20
2.280635739128042
 30
0.0
 10
-14.49903145350234
 20
2.13348569624074
 30
0.0
 10
-12.63007054846744
 20
1.066742848120926
 30
0.0
 10
-10.76110964343252
 20
0.0000000000011132
 30
0.0
  0
SPLINE
  5
20B9
330
1F
100
AcDbEntity
  8
AM_0
100
AcDbSpline
210
0.0
220
0.0
230
1.0
 70
     8
 71
     3
 72
     8
 73
     4
 74
     0
 42
0.0000000001
 43
0.0000000001
 40
0.7142832446738512
 40
0.7142832446738512
 40
0.7142832446738512
 40
0.7142832446738512
 40
9.361146747480315
 40
9.361146747480315
 40
9.361146747480315
 40
9.361146747480315
 10
-4.192130525364313
 20
2.300298894913185
 30
0.0
 10
-2.879378619553991
 20
2.232891719486822
 30
0.0
 10
-1.626898580314745
 20
1.767884941400848
 30
0.0
 10
-0.3965049489252573
 20
1.157179224741516
 30
0.0
  0
SPLINE
  5
20BA
330
1F
100
AcDbEntity
  8
AM_0
100
AcDbSpline
210
0.0
220
0.0
230
1.0
 70
     8
 71
     3
 72
     8
 73
     4
 74
     0
 42
0.0000000001
 43
0.0000000001
 40
0.0
 40
0.0
 40
0.0
 40
0.0
 40
5.635889483499127
 40
5.635889483499127
 40
5.635889483499127
 40
5.635889483499127
 10
-0.0000000000001001
 20
2.500000000001041
 30
0.0
 10
-0.8622910909754622
 20
2.500000000001041
 30
0.0
 10
-1.693682117510877
 20
2.310897014490601
 30
0.0
 10
-2.506191671027219
 20
2.006242719186654
 30
0.0
  0
SPLINE
  5
20BB
330
1F
100
AcDbEntity
  8
AM_0
100
AcDbSpline
210
0.0
220
0.0
230
1.0
 70
     8
 71
     3
 72
     8
 73
     4
 74
     0
 42
0.0000000001
 43
0.0000000001
 40
4.542668862435135
 40
4.542668862435135
 40
4.542668862435135
 40
4.542668862435135
 40
14.36247867694493
 40
14.36247867694493
 40
14.36247867694493
 40
14.36247867694493
 10
-0.3144149999994597
 20
-1.99880832772728
 30
0.0
 10
-1.753132065116794
 20
-1.578502843285397
 30
0.0
 10
-3.135920854274619
 20
-0.7892514216421689
 30
0.0
 10
-4.518709643432446
 20
0.0000000000010658
 30
0.0
  0
SPLINE
  5
20BC
330
1F
100
AcDbEntity
  8
AM_0
100
AcDbSpline
210
0.0
220
0.0
230
1.0
 70
     8
 71
     3
 72
     8
 73
     4
 74
     0
 42
0.0000000001
 43
0.0000000001
 40
0.3581103616548037
 40
0.3581103616548037
 40
0.3581103616548037
 40
0.3581103616548037
 40
12.40023413887867
 40
12.40023413887867
 40
12.40023413887867
 40
12.40023413887867
 10
-5.277218747088993
 20
2.422922711427375
 30
0.0
 10
-3.442640816053274
 20
2.373381968532453
 30
0.0
 10
-1.738673354570956
 20
1.501350564243537
 30
0.0
 10
-0.0536170717097813
 20
0.5102301783055197
 30
0.0
  0
SPLINE
  5
20BD
330
1F
100
AcDbEntity
  8
AM_0
100
AcDbSpline
210
0.0
220
0.0
230
1.0
 70
     8
 71
     3
 72
     8
 73
     4
 74
     0
 42
0.0000000001
 43
0.0000000001
 40
0.0
 40
0.0
 40
0.0
 40
0.0
 40
5.79599861973758
 40
5.79599861973758
 40
5.79599861973758
 40
5.79599861973758
 10
-6.242400000000096
 20
2.500000000001088
 30
0.0
 10
-4.025430527950472
 20
2.50000000000109
 30
0.0
 10
-2.012715263975286
 20
1.250000000001096
 30
0.0
 10
-0.0000000000001001
 20
0.0000000000011013
 30
0.0
  0
SPLINE
  5
20BE
330
1F
100
AcDbEntity
  8
AM_0
100
AcDbSpline
210
0.0
220
0.0
230
1.0
 70
     8
 71
     3
 72
     8
 73
     4
 74
     0
 42
0.0000000001
 43
0.0000000001
 40
0.0
 40
0.0
 40
0.0
 40
0.0
 40
5.795998619737582
 40
5.795998619737582
 40
5.795998619737582
 40
5.795998619737582
 10
-0.0000000000001001
 20
-2.499999999998963
 30
0.0
 10
-2.216969472049724
 20
-2.499999999998965
 30
0.0
 10
-4.229684736024911
 20
-1.249999999998967
 30
0.0
 10
-6.242400000000096
 20
0.0000000000010303
 30
0.0
  0
SPLINE
  5
20BF
330
1F
100
AcDbEntity
  8
AM_0
100
AcDbSpline
210
0.0
220
0.0
230
1.0
 70
     8
 71
     3
 72
     8
 73
     4
 74
     0
 42
0.0000000001
 43
0.0000000001
 40
1.870660592686466
 40
1.870660592686466
 40
1.870660592686466
 40
1.870660592686466
 40
14.43901837670146
 40
14.43901837670146
 40
14.43901837670146
 40
14.43901837670146
 10
-0.0481950000000911
 20
-2.366720578809845
 30
0.0
 10
-1.930537747374123
 20
-2.110950306049712
 30
0.0
 10
-3.68588837821936
 20
-1.055475153024326
 30
0.0
 10
-5.441239009064585
 20
0.0000000000010658
 30
0.0
  0
SPLINE
  5
20C0
330
1F
100
AcDbEntity
  8
AM_0
100
AcDbSpline
210
0.0
220
0.0
230
1.0
 70
     8
 71
     3
 72
     8
 73
     4
 74
     0
 42
0.0000000001
 43
0.0000000001
 40
0.0
 40
0.0
 40
0.0
 40
0.0
 40
1.034626129446689
 40
1.034626129446689
 40
1.034626129446689
 40
1.034626129446689
 10
-0.0000000000001001
 20
2.037351343343019
 30
0.0
 10
-0.2539497276509524
 20
1.70672159807654
 30
0.0
 10
-0.6898400526647449
 20
1.56473689846321
 30
0.0
 10
-1.081666654039149
 20
1.504226711265073
 30
0.0
  0
SPLINE
  5
20C1
330
1F
100
AcDbEntity
  8
AM_0
100
AcDbSpline
210
0.0
220
0.0
230
1.0
 70
     8
 71
     3
 72
     8
 73
     4
 74
     0
 42
0.0000000001
 43
0.0000000001
 40
0.0
 40
0.0
 40
0.0
 40
0.0
 40
2.130230809022907
 40
2.130230809022907
 40
2.130230809022907
 40
2.130230809022907
 10
-6.242400000000183
 20
-2.499999999998975
 30
0.0
 10
-5.916474686219681
 20
-2.499999999998975
 30
0.0
 10
-5.594963935973731
 20
-2.472983643909056
 30
0.0
 10
-5.277218747089179
 20
-2.422922711425249
 30
0.0
  0
SPLINE
  5
20C2
330
1F
100
AcDbEntity
  8
AM_0
100
AcDbSpline
210
0.0
220
0.0
230
1.0
 70
     8
 71
     3
 72
     8
 73
     4
 74
     0
 42
0.0000000001
 43
0.0000000001
 40
0.0
 40
0.0
 40
0.0
 40
0.0
 40
5.635889483499305
 40
5.635889483499305
 40
5.635889483499305
 40
5.635889483499305
 10
-6.242400000000183
 20
2.500000000001088
 30
0.0
 10
-7.10469109097559
 20
2.500000000001088
 30
0.0
 10
-7.936082117511022
 20
2.31089701449066
 30
0.0
 10
-8.74859167102738
 20
2.006242719186677
 30
0.0
  0
SPLINE
  5
20C3
330
1F
100
AcDbEntity
  8
AM_0
100
AcDbSpline
210
0.0
220
0.0
230
1.0
 70
     8
 71
     3
 72
     8
 73
     4
 74
     0
 42
0.0000000001
 43
0.0000000001
 40
0.3581103616548037
 40
0.3581103616548037
 40
0.3581103616548037
 40
0.3581103616548037
 40
14.43901837670146
 40
14.43901837670146
 40
14.43901837670146
 40
14.43901837670146
 10
-11.51961874708899
 20
2.422922711427363
 30
0.0
 10
-9.374438746347967
 20
2.364994504027642
 30
0.0
 10
-7.407838877706271
 20
1.182497252014359
 30
0.0
 10
-5.441239009064585
 20
0.0000000000010658
 30
0.0
  0
SPLINE
  5
20C4
330
1F
100
AcDbEntity
  8
AM_0
100
AcDbSpline
210
0.0
220
0.0
230
1.0
 70
     8
 71
     3
 72
     8
 73
     4
 74
     0
 42
0.0000000001
 43
0.0000000001
 40
0.0
 40
0.0
 40
0.0
 40
0.0
 40
5.775607350680602
 40
5.775607350680602
 40
5.775607350680602
 40
5.775607350680602
 10
-5.441239009064662
 20
-2.425141835166606
 30
0.0
 10
-7.650408820699991
 20
-2.425141835166609
 30
0.0
 10
-9.667023914882335
 20
-1.212570917582747
 30
0.0
 10
-11.68363900906468
 20
0.0000000000011132
 30
0.0
  0
SPLINE
  5
20C5
330
1F
100
AcDbEntity
  8
AM_0
100
AcDbSpline
210
0.0
220
0.0
230
1.0
 70
     8
 71
     3
 72
     8
 73
     4
 74
     0
 42
0.0000000001
 43
0.0000000001
 40
0.0
 40
0.0
 40
0.0
 40
0.0
 40
4.451443990518192
 40
4.451443990518192
 40
4.451443990518192
 40
4.451443990518192
 10
-4.518709643432532
 20
-2.308722251900316
 30
0.0
 10
-3.837638712883237
 20
-2.308722251900316
 30
0.0
 10
-3.173377229311416
 20
-2.197834207122687
 30
0.0
 10
-2.520715346045397
 20
-2.010426274460706
 30
0.0
  0
SPLINE
  5
20C6
330
1F
100
AcDbEntity
  8
AM_0
100
AcDbSpline
210
0.0
220
0.0
230
1.0
 70
     8
 71
     3
 72
     8
 73
     4
 74
     0
 42
0.0000000001
 43
0.0000000001
 40
0.0
 40
0.0
 40
0.0
 40
0.0
 40
5.744991470777974
 40
5.744991470777974
 40
5.744991470777974
 40
5.744991470777974
 10
-4.518709643432532
 20
-2.308722251900257
 30
0.0
 10
-6.716168881005106
 20
-2.308722251900259
 30
0.0
 10
-8.738639262218818
 20
-1.154361125949573
 30
0.0
 10
-10.76110964343252
 20
0.0000000000011132
 30
0.0
  0
SPLINE
  5
20C7
330
1F
100
AcDbEntity
  8
AM_0
100
AcDbSpline
210
0.0
220
0.0
230
1.0
 70
     8
 71
     3
 72
     8
 73
     4
 74
     0
 42
0.0000000001
 43
0.0000000001
 40
0.7142832446738512
 40
0.7142832446738512
 40
0.7142832446738512
 40
0.7142832446738512
 40
14.36247867694493
 40
14.36247867694493
 40
14.36247867694493
 40
14.36247867694493
 10
-10.43453052536431
 20
2.300298894913173
 30
0.0
 10
-8.362485030628498
 20
2.193903517738793
 30
0.0
 10
-6.440597337030472
 20
1.096951758869929
 30
0.0
 10
-4.518709643432446
 20
0.0000000000010658
 30
0.0
  0
SPLINE
  5
20C8
330
1F
100
AcDbEntity
  8
AM_0
100
AcDbSpline
210
0.0
220
0.0
230
1.0
 70
     8
 71
     3
 72
     8
 73
     4
 74
     0
 42
0.0000000001
 43
0.0000000001
 40
0.0
 40
0.0
 40
0.0
 40
0.0
 40
2.764560748519282
 40
2.764560748519282
 40
2.764560748519282
 40
2.764560748519282
 10
-5.441239009064662
 20
-2.425141835166666
 30
0.0
 10
-5.018261214541221
 20
-2.425141835166666
 30
0.0
 10
-4.602342223640177
 20
-2.380690574253995
 30
0.0
 10
-4.192130525412745
 20
-2.300298894920521
 30
0.0
  0
SPLINE
  5
20C9
330
1F
100
AcDbEntity
  8
AM_0
100
AcDbSpline
210
0.0
220
0.0
230
1.0
 70
     8
 71
     3
 72
     8
 73
     4
 74
     0
 42
0.0000000001
 43
0.0000000001
 40
0.0
 40
0.0
 40
0.0
 40
0.0
 40
5.79599861973758
 40
5.79599861973758
 40
5.79599861973758
 40
5.79599861973758
 10
-12.48480000000009
 20
2.500000000001077
 30
0.0
 10
-10.26783052795047
 20
2.500000000001079
 30
0.0
 10
-8.255115263975284
 20
1.250000000001084
 30
0.0
 10
-6.242400000000096
 20
0.0000000000010895
 30
0.0
  0
SPLINE
  5
20CA
330
1F
100
AcDbEntity
  8
AM_0
100
AcDbSpline
210
0.0
220
0.0
230
1.0
 70
     8
 71
     3
 72
     8
 73
     4
 74
     0
 42
0.0000000001
 43
0.0000000001
 40
0.0
 40
0.0
 40
0.0
 40
0.0
 40
5.795998619737585
 40
5.795998619737585
 40
5.795998619737585
 40
5.795998619737585
 10
-6.242400000000183
 20
-2.499999999998916
 30
0.0
 10
-8.459369472049811
 20
-2.499999999998918
 30
0.0
 10
-10.47208473602499
 20
-1.249999999998914
 30
0.0
 10
-12.48480000000018
 20
0.0000000000010895
 30
0.0
  0
SPLINE
  5
20CB
330
1F
100
AcDbEntity
  8
AM_0
100
AcDbSpline
210
0.0
220
0.0
230
1.0
 70
     8
 71
     3
 72
     8
 73
     4
 74
     0
 42
0.0000000001
 43
0.0000000001
 40
0.0
 40
0.0
 40
0.0
 40
0.0
 40
5.795998619737575
 40
5.795998619737575
 40
5.795998619737575
 40
5.795998619737575
 10
-10.83240000000017
 20
-2.499999999998922
 30
0.0
 10
-13.0493694720498
 20
-2.499999999998921
 30
0.0
 10
-15.06208473602498
 20
-1.249999999998922
 30
0.0
 10
-17.07480000000016
 20
0.0000000000010777
 30
0.0
  0
SPLINE
  5
20CC
330
1F
100
AcDbEntity
  8
AM_0
100
AcDbSpline
210
0.0
220
0.0
230
1.0
 70
     8
 71
     3
 72
     8
 73
     4
 74
     0
 42
0.0000000001
 43
0.0000000001
 40
0.0
 40
0.0
 40
0.0
 40
0.0
 40
5.744991470777963
 40
5.744991470777963
 40
5.744991470777963
 40
5.744991470777963
 10
-9.108709643432518
 20
-2.308722251900263
 30
0.0
 10
-11.30616888100509
 20
-2.308722251900263
 30
0.0
 10
-13.3286392622188
 20
-1.15436112594958
 30
0.0
 10
-15.3511096434325
 20
0.0000000000011013
 30
0.0
  0
SPLINE
  5
20CD
330
1F
100
AcDbEntity
  8
AM_0
100
AcDbSpline
210
0.0
220
0.0
230
1.0
 70
     8
 71
     3
 72
     8
 73
     4
 74
     0
 42
0.0000000001
 43
0.0000000001
 40
0.0
 40
0.0
 40
0.0
 40
0.0
 40
5.775607350680592
 40
5.775607350680592
 40
5.775607350680592
 40
5.775607350680592
 10
-10.03123900906464
 20
-2.425141835166613
 30
0.0
 10
-12.24040882069997
 20
-2.425141835166612
 30
0.0
 10
-14.25702391488231
 20
-1.212570917582755
 30
0.0
 10
-16.27363900906465
 20
0.0000000000011013
 30
0.0
  0
SPLINE
  5
20CE
330
1F
100
AcDbEntity
  8
AM_0
100
AcDbSpline
210
0.0
220
0.0
230
1.0
 70
     8
 71
     3
 72
     8
 73
     4
 74
     0
 42
0.0000000001
 43
0.0000000001
 40
0.0
 40
0.0
 40
0.0
 40
0.0
 40
2.764560748519282
 40
2.764560748519282
 40
2.764560748519282
 40
2.764560748519282
 10
-10.03123900906466
 20
-2.425141835166666
 30
0.0
 10
-9.608261214541219
 20
-2.425141835166666
 30
0.0
 10
-9.192342223640173
 20
-2.380690574254007
 30
0.0
 10
-8.782130525412753
 20
-2.300298894920533
 30
0.0
  0
SPLINE
  5
20CF
330
1F
100
AcDbEntity
  8
AM_0
100
AcDbSpline
210
0.0
220
0.0
230
1.0
 70
     8
 71
     3
 72
     8
 73
     4
 74
     0
 42
0.0000000001
 43
0.0000000001
 40
0.0
 40
0.0
 40
0.0
 40
0.0
 40
2.130230809022907
 40
2.130230809022907
 40
2.130230809022907
 40
2.130230809022907
 10
-10.83240000000019
 20
-2.499999999998975
 30
0.0
 10
-10.50647468621966
 20
-2.499999999998975
 30
0.0
 10
-10.18496393597372
 20
-2.472983643909056
 30
0.0
 10
-9.867218747089175
 20
-2.422922711425261
 30
0.0
  0
SPLINE
  5
20D0
330
1F
100
AcDbEntity
  8
AM_0
100
AcDbSpline
210
0.0
220
0.0
230
1.0
 70
     8
 71
     3
 72
     8
 73
     4
 74
     0
 42
0.0000000001
 43
0.0000000001
 40
0.0
 40
0.0
 40
0.0
 40
0.0
 40
2.262448627968059
 40
2.262448627968059
 40
2.262448627968059
 40
2.262448627968059
 10
-9.108709643432531
 20
-2.308722251900316
 30
0.0
 10
-8.762555003353417
 20
-2.308722251900316
 30
0.0
 10
-8.420742555569839
 20
-2.280077810810349
 30
0.0
 10
-8.082588296490056
 20
-2.227301142566506
 30
0.0
  0
SPLINE
  5
20D1
330
1F
100
AcDbEntity
  8
AM_0
100
AcDbSpline
210
0.0
220
0.0
230
1.0
 70
     8
 71
     3
 72
     8
 73
     4
 74
     0
 42
0.0000000001
 43
0.0000000001
 40
0.0
 40
0.0
 40
0.0
 40
0.0
 40
1.412269715655931
 40
1.412269715655931
 40
1.412269715655931
 40
1.412269715655931
 10
-16.71480000000014
 20
-2.499999999998922
 30
0.0
 10
-16.9308772664955
 20
-2.499999999998922
 30
0.0
 10
-17.14501422915957
 20
-2.488125680189448
 30
0.0
 10
-17.35740000000014
 20
-2.465534372955199
 30
0.0
  0
SPLINE
  5
20D2
330
1F
100
AcDbEntity
  8
AM_0
100
AcDbSpline
210
0.0
220
0.0
230
1.0
 70
     8
 71
     3
 72
     8
 73
     4
 74
     0
 42
0.0000000001
 43
0.0000000001
 40
0.0
 40
0.0
 40
0.0
 40
0.0
 40
2.764560748519282
 40
2.764560748519282
 40
2.764560748519282
 40
2.764560748519282
 10
-15.9136390090646
 20
-2.425141835166672
 30
0.0
 10
-15.49066121454116
 20
-2.425141835166672
 30
0.0
 10
-15.07474222364013
 20
-2.380690574254013
 30
0.0
 10
-14.6645305254127
 20
-2.300298894920539
 30
0.0
  0
SPLINE
  5
20D3
330
1F
100
AcDbEntity
  8
AM_0
100
AcDbSpline
210
0.0
220
0.0
230
1.0
 70
     8
 71
     3
 72
     8
 73
     4
 74
     0
 42
0.0000000001
 43
0.0000000001
 40
0.0
 40
0.0
 40
0.0
 40
0.0
 40
4.662554012798695
 40
4.662554012798695
 40
4.662554012798695
 40
4.662554012798695
 10
-15.9136390090646
 20
-2.425141835166613
 30
0.0
 10
-16.6270097730228
 20
-2.425141835166613
 30
0.0
 10
-17.32030225373846
 20
-2.298703269251707
 30
0.0
 10
-18.00000000000005
 20
-2.086654857733662
 30
0.0
  0
SPLINE
  5
20D4
330
1F
100
AcDbEntity
  8
AM_0
100
AcDbSpline
210
0.0
220
0.0
230
1.0
 70
     8
 71
     3
 72
     8
 73
     4
 74
     0
 42
0.0000000001
 43
0.0000000001
 40
0.0
 40
0.0
 40
0.0
 40
0.0
 40
6.769478140335353
 40
6.769478140335353
 40
6.769478140335353
 40
6.769478140335353
 10
-14.99110964343248
 20
-2.308722251900263
 30
0.0
 10
-16.02683979890379
 20
-2.308722251900263
 30
0.0
 10
-17.02369570831021
 20
-2.052277816570485
 30
0.0
 10
-18.00000000000005
 20
-1.6602590991918
 30
0.0
  0
SPLINE
  5
20D5
330
1F
100
AcDbEntity
  8
AM_0
100
AcDbSpline
210
0.0
220
0.0
230
1.0
 70
     8
 71
     3
 72
     8
 73
     4
 74
     0
 42
0.0000000001
 43
0.0000000001
 40
0.0
 40
0.0
 40
0.0
 40
0.0
 40
2.130230809022907
 40
2.130230809022907
 40
2.130230809022907
 40
2.130230809022907
 10
-16.71480000000014
 20
-2.499999999998981
 30
0.0
 10
-16.38887468621962
 20
-2.499999999998981
 30
0.0
 10
-16.06736393597367
 20
-2.472983643909062
 30
0.0
 10
-15.74961874708913
 20
-2.422922711425267
 30
0.0
  0
SPLINE
  5
20D6
330
1F
100
AcDbEntity
  8
AM_0
100
AcDbSpline
210
0.0
220
0.0
230
1.0
 70
     8
 71
     3
 72
     8
 73
     4
 74
     0
 42
0.0000000001
 43
0.0000000001
 40
0.0
 40
0.0
 40
0.0
 40
0.0
 40
1.412269715655734
 40
1.412269715655734
 40
1.412269715655734
 40
1.412269715655734
 10
-17.35740000000013
 20
-2.465534372955199
 30
0.0
 10
-17.57347726649546
 20
-2.465534372955199
 30
0.0
 10
-17.7876142291595
 20
-2.453660053145713
 30
0.0
 10
-18.00000000000005
 20
-2.431068745911476
 30
0.0
  0
SPLINE
  5
20D7
330
1F
100
AcDbEntity
  8
AM_0
100
AcDbSpline
210
0.0
220
0.0
230
1.0
 70
     8
 71
     3
 72
     8
 73
     4
 74
     0
 42
0.0000000001
 43
0.0000000001
 40
9.094138221207366
 40
9.094138221207366
 40
9.094138221207366
 40
9.094138221207366
 40
14.43901837670146
 40
14.43901837670146
 40
14.43901837670146
 40
14.43901837670146
 10
-18.16287237475716
 20
1.126708730387596
 30
0.0
 10
-17.76661667790069
 20
0.8977128590664307
 30
0.0
 10
-17.02012784348261
 20
0.4488564295337483
 30
0.0
 10
-16.27363900906455
 20
0.0000000000010421
 30
0.0
  0
SPLINE
  5
20D8
330
1F
100
AcDbEntity
  8
AM_0
100
AcDbSpline
210
0.0
220
0.0
230
1.0
 70
     8
 71
     3
 72
     8
 73
     4
 74
     0
 42
0.0000000001
 43
0.0000000001
 40
12.27151369755375
 40
12.27151369755375
 40
12.27151369755375
 40
12.27151369755375
 40
14.48999654934393
 40
14.48999654934393
 40
14.48999654934393
 40
14.48999654934393
 10
-18.00000000000006
 20
0.6266036110587631
 30
0.0
 10
-17.6689075534055
 20
0.3827611076789429
 30
0.0
 10
-17.34789593585603
 20
0.212465694610795
 30
0.0
 10
-17.07480000000006
 20
0.0000000000010777
 30
0.0
  0
SPLINE
  5
20D9
330
1F
100
AcDbEntity
  8
AM_0
100
AcDbSpline
210
0.0
220
0.0
230
1.0
 70
     8
 71
     3
 72
     8
 73
     4
 74
     0
 42
0.0000000001
 43
0.0000000001
 40
0.315552314829147
 40
0.315552314829147
 40
0.315552314829147
 40
0.315552314829147
 40
5.496762683618151
 40
5.496762683618151
 40
5.496762683618151
 40
5.496762683618151
 10
-18.00000000000007
 20
2.500000000001029
 30
0.0
 10
-16.04090979153331
 20
2.356482654887271
 30
0.0
 10
-14.26285489576587
 20
1.178241327443636
 30
0.0
 10
-12.48479999999843
 20
0.0000000000000022
 30
0.0
  0
SPLINE
  5
20DA
330
1F
100
AcDbEntity
  8
AM_0
100
AcDbSpline
210
0.0
220
0.0
230
1.0
 70
     8
 71
     3
 72
     8
 73
     4
 74
     0
 42
0.0000000001
 43
0.0000000001
 40
4.48458745047074
 40
4.48458745047074
 40
4.48458745047074
 40
4.48458745047074
 40
14.36247867694493
 40
14.36247867694493
 40
14.36247867694493
 40
14.36247867694493
 10
-19.22099167102745
 20
1.93468456981448
 30
0.0
 10
-18.10515093774362
 20
1.537512527635803
 30
0.0
 10
-16.74207723919034
 20
0.7939196217244771
 30
0.0
 10
-15.3511096434324
 20
0.0000000000010421
 30
0.0
  0
ELLIPSE
  5
20DB
330
1F
100
AcDbEntity
  8
AM_0
100
AcDbEllipse
 10
0.9114239905503842
 20
-1.271940082357918
 30
0.0
 11
-0.000000000000001
 21
1.520349057758024
 31
0.0
210
0.0
220
0.0
230
1.0
 40
0.9179999999999999
 41
1.211124581303826
 42
2.069278538290317
  0
ELLIPSE
  5
20DC
330
1F
100
AcDbEntity
  8
AM_0
100
AcDbEllipse
 10
-17.99254876503799
 20
-7.76819474105423
 30
0.0
 11
0.0000000000003608
 21
5.337132167249818
 31
0.0
210
0.0
220
0.0
230
1.0
 40
0.9180000000000687
 41
0.0015208199008732
 42
0.1609004017523059
  0
SPLINE
  5
20DD
330
1F
100
AcDbEntity
  8
AM_0
100
AcDbSpline
210
0.0
220
0.0
230
1.0
 70
     8
 71
     3
 72
     8
 73
     4
 74
     0
 42
0.0000000001
 43
0.0000000001
 40
0.0
 40
0.0
 40
0.0
 40
0.0
 40
4.019049797461661
 40
4.019049797461661
 40
4.019049797461661
 40
4.019049797461661
 10
-14.99110964343248
 20
-2.308722251900322
 30
0.0
 10
-14.37619502442084
 20
-2.308722251900322
 30
0.0
 10
-13.77498286006402
 20
-2.218330318878183
 30
0.0
 10
-13.18363879496668
 20
-2.062840811020669
 30
0.0
  0
POLYLINE
  5
2328
330
1F
100
AcDbEntity
  8
AM_0
100
AcDb2dPolyline
 66
     1
 10
0.0
 20
0.0
 30
0.0
 70
     2
  0
VERTEX
  5
232A
330
2328
100
AcDbEntity
  8
AM_0
100
AcDbVertex
100
AcDb2dVertex
 10
-18.00000000000009
 20
0.6266036110587882
 30
0.0
 42
0.0308094710891422
  0
VERTEX
  5
2332
330
2328
100
AcDbEntity
  8
AM_0
100
AcDbVertex
100
AcDb2dVertex
 10
-18.4103548012867
 20
0.7484090368516628
 30
0.0
 42
0.0357856430127648
 70
     1
  0
VERTEX
  5
232B
330
2328
100
AcDbEntity
  8
AM_0
100
AcDbVertex
100
AcDb2dVertex
 10
-18.77456250000004
 20
0.8054689571866759
 30
0.0
 42
0.0351929507163228
  0
VERTEX
  5
2333
330
2328
100
AcDbEntity
  8
AM_0
100
AcDbVertex
100
AcDb2dVertex
 10
-19.52927907011544
 20
0.8156640958609237
 30
0.0
 42
0.0934225086450383
 70
     1
  0
VERTEX
  5
232C
330
2328
100
AcDbEntity
  8
AM_0
100
AcDbVertex
100
AcDb2dVertex
 10
-19.80731250000004
 20
0.7466946990463063
 30
0.0
 42
0.1216853883834844
  0
VERTEX
  5
2334
330
2328
100
AcDbEntity
  8
AM_0
100
AcDbVertex
100
AcDb2dVertex
 10
-19.99801067904991
 20
0.5951042584955211
 30
0.0
 42
0.1531559657400902
 70
     1
  0
VERTEX
  5
232D
330
2328
100
AcDbEntity
  8
AM_0
100
AcDbVertex
100
AcDb2dVertex
 10
-20.06550000000004
 20
0.411940416979654
 30
0.0
 42
0.1155801455052283
  0
VERTEX
  5
2335
330
2328
100
AcDbEntity
  8
AM_0
100
AcDbVertex
100
AcDb2dVertex
 10
-20.02391034230236
 20
0.1847560385426305
 30
0.0
 42
0.0623182123275551
 70
     1
  0
VERTEX
  5
232E
330
2328
100
AcDbEntity
  8
AM_0
100
AcDbVertex
100
AcDb2dVertex
 10
-19.80731250000004
 20
-0.1801532578810618
 30
0.0
 42
0.03651043688243
  0
VERTEX
  5
2337
330
2328
100
AcDbEntity
  8
AM_0
100
AcDbVertex
100
AcDb2dVertex
 10
-19.41522162260153
 20
-0.6155258609118875
 30
0.0
 42
0.0228792196602764
 70
     1
  0
VERTEX
  5
232F
330
2328
100
AcDbEntity
  8
AM_0
100
AcDbVertex
100
AcDb2dVertex
 10
-18.71219953782744
 20
-1.230779594491638
 30
0.0
 42
0.0326419216753277
  0
VERTEX
  5
2336
330
2328
100
AcDbEntity
  8
AM_0
100
AcDbVertex
100
AcDb2dVertex
 10
-18.45546049603854
 20
-1.409420677149242
 30
0.0
 42
0.0196216924945422
 70
     1
  0
VERTEX
  5
2330
330
2328
100
AcDbEntity
  8
AM_0
100
AcDbVertex
100
AcDb2dVertex
 10
-18.00000000000005
 20
-1.660259099192177
 30
0.0
  0
SEQEND
  5
2331
330
2328
100
AcDbEntity
  8
AM_0
  0
VIEWPORT
  5
110
330
101
100
AcDbEntity
 67
     1
  8
0
100
AcDbViewport
 10
420.5
 20
297.0
 30
0.0
 40
948.9782706766916
 41
628.452
 68
     1
 69
     1
1001
ACAD
1000
MVIEW
1002
{
1070
    16
1010
0.0
1020
0.0
1030
0.0
1010
0.0
1020
0.0
1030
1.0
1040
0.0
1040
628.452
1040
420.5
1040
297.0
1040
50.0
1040
0.0
1040
0.0
1070
     0
1070
   100
1070
     1
1070
     1
1070
     0
1070
     0
1070
     0
1070
     0
1040
0.0
1040
0.0
1040
0.0
1040
10.0
1040
10.0
1040
10.0
1040
10.0
1070
     0
1002
{
1002
}
1002
}
  0
ENDSEC
  0
SECTION
  2
OBJECTS
  0
DICTIONARY
  5
C
330
0
100
AcDbDictionary
  3
ACAD_GROUP
350
D
  3
ACAD_LAYOUT
350
1A
  3
ACAD_MLINESTYLE
350
17
  3
ACAD_PLOTSETTINGS
350
19
  3
ACAD_PLOTSTYLENAME
350
E
  3
ACDBVARIABLEDICTIONARY
350
34
  3
ACMDICTIONARY
350
43
  3
AMG
350
2B
  3
AMGSNAPSETTINGS
350
6E
  3
DWGPROPS
350
2348
  3
ACDBHEADERROUNDTRIPXREC
350
2354
  0
DICTIONARY
  5
74
330
1F
100
AcDbDictionary
280
     1
  3
ACAD_INDEX
360
234A
  3
ACAD_LAYOUTSELFREF
360
2377
  0
DICTIONARY
  5
237C
330
101
100
AcDbDictionary
280
     1
  3
ACAD_LAYOUTSELFREF
360
237D
  0
DICTIONARY
  5
D
102
{ACAD_REACTORS
330
C
102
}
330
C
100
AcDbDictionary
  0
DICTIONARY
  5
1A
102
{ACAD_REACTORS
330
C
102
}
330
C
100
AcDbDictionary
  0
DICTIONARY
  5
17
102
{ACAD_REACTORS
330
C
102
}
330
C
100
AcDbDictionary
  3
STANDARD
350
18
  0
DICTIONARY
  5
19
102
{ACAD_REACTORS
330
C
102
}
330
C
100
AcDbDictionary
  0
ACDBDICTIONARYWDFLT
  5
E
102
{ACAD_REACTORS
330
C
102
}
330
C
100
AcDbDictionary
281
     1
  3
Normal
350
F
100
AcDbDictionaryWithDefault
340
F
  0
DICTIONARY
  5
34
102
{ACAD_REACTORS
330
C
102
}
330
C
100
AcDbDictionary
  3
INDEXCTL
350
35
  3
SORTENTS
350
B5E
  0
DICTIONARY
  5
43
102
{ACAD_REACTORS
330
C
102
}
330
C
100
AcDbDictionary
  3
ACMSTDDICTIONARY
350
260
  0
DICTIONARY
  5
2B
102
{ACAD_REACTORS
330
C
102
}
330
C
100
AcDbDictionary
  3
ACMGSETTINGS
350
2C
  0
DICTIONARY
  5
6E
102
{ACAD_REACTORS
330
C
102
}
330
C
100
AcDbDictionary
  0
XRECORD
  5
2348
102
{ACAD_REACTORS
330
C
102
}
330
C
100
AcDbXrecord
  1
DWGPROPS COOKIE
  2

  3

  4

  6

  7

  8

  9

300
AmdtFileType=82
301
=
302
=
303
=
304
=
305
=
306
=
307
=
308
=
309
=
 40
0.1074980092592592
 41
2452836.771637361
 42
2452846.460407257
  1

 90
        1
  0
DICTIONARY
  5
2354
102
{ACAD_REACTORS
330
C
102
}
330
C
100
AcDbDictionary
  3
TSTACKALIGN
350
2355
  3
TSTACKSIZE
350
2356
  3
HYPERLINKBASE
350
2357
  3
STYLESHEET
350
2358
  3
LAYOUTDICT
350
2359
  3
PLOTSETDICT
350
235A
  3
PLOTSTYLNAMDICT
350
235B
  3
LWETCUNION
350
235C
  3
INSUNITS
350
235D
  3
CEPSNTYPE
350
235E
  3
FINGERPRINTGUID
350
235F
  3
VERSIONGUID
350
2360
  3
PSVPSCALE
350
2361
  3
DIMSTYLEDATA
350
2362
  3
PUCSORTHOREF
350
2363
  3
PUCSORTHOVIEW
350
2364
  3
PUCSBASE
350
2365
  3
PUCSORGTOP
350
2366
  3
PUCSORGBOTTOM
350
2367
  3
PUCSORGLEFT
350
2368
  3
PUCSORGRIGHT
350
2369
  3
PUCSORGFRONT
350
236A
  3
PUCSORGBACK
350
236B
  3
UCSORTHOREF
350
236C
  3
UCSORTHOVIEW
350
236D
  3
UCSBASE
350
236E
  3
UCSORGTOP
350
236F
  3
UCSORGBOTTOM
350
2370
  3
UCSORGLEFT
350
2371
  3
UCSORGRIGHT
350
2372
  3
UCSORGFRONT
350
2373
  3
UCSORGBACK
350
2374
  0
DICTIONARY
  5
234A
102
{ACAD_REACTORS
330
74
102
}
330
74
100
AcDbDictionary
  3
*A1
350
234B
  0
XRECORD
  5
2377
102
{ACAD_REACTORS
330
74
102
}
330
74
100
AcDbXrecord
340
1F
  0
XRECORD
  5
237D
102
{ACAD_REACTORS
330
237C
102
}
330
237C
100
AcDbXrecord
340
101
  0
MLINESTYLE
  5
18
102
{ACAD_REACTORS
330
17
102
}
330
17
100
AcDbMlineStyle
  2
STANDARD
 70
     0
  3

 62
   256
 51
90.0
 52
90.0
 71
     2
 49
0.5
 62
   256
  6
BYLAYER
 49
-0.5
 62
   256
  6
BYLAYER
  0
ACDBPLACEHOLDER
  5
F
102
{ACAD_REACTORS
330
E
102
}
330
E
100
AcDbPlaceHolder
280
     0
  0
DICTIONARYVAR
  5
35
102
{ACAD_REACTORS
330
34
102
}
330
34
100
DictionaryVariables
280
     0
  1
1
  0
DICTIONARYVAR
  5
B5E
102
{ACAD_REACTORS
330
34
102
}
330
34
100
DictionaryVariables
280
     0
  1
96
  0
DICTIONARY
  5
260
102
{ACAD_REACTORS
330
43
102
}
330
43
100
AcDbDictionary
  0
DICTIONARY
  5
2C
102
{ACAD_REACTORS
330
2B
102
}
330
2B
100
AcDbDictionary
  3
DWGSETTINGS
350
2D
  0
XRECORD
  5
2355
102
{ACAD_REACTORS
330
2354
102
}
330
2354
100
AcDbXrecord
 90
        1
  0
XRECORD
  5
2356
102
{ACAD_REACTORS
330
2354
102
}
330
2354
100
AcDbXrecord
 90
       70
  0
XRECORD
  5
2357
102
{ACAD_REACTORS
330
2354
102
}
330
2354
100
AcDbXrecord
  1

  0
XRECORD
  5
2358
102
{ACAD_REACTORS
330
2354
102
}
330
2354
100
AcDbXrecord
  1
ASAMI.ctb
  0
XRECORD
  5
2359
102
{ACAD_REACTORS
330
2354
102
}
330
2354
100
AcDbXrecord
340
1A
  0
XRECORD
  5
235A
102
{ACAD_REACTORS
330
2354
102
}
330
2354
100
AcDbXrecord
340
19
  0
XRECORD
  5
235B
102
{ACAD_REACTORS
330
2354
102
}
330
2354
100
AcDbXrecord
340
E
  0
XRECORD
  5
235C
102
{ACAD_REACTORS
330
2354
102
}
330
2354
100
AcDbXrecord
 90
    10781
  0
XRECORD
  5
235D
102
{ACAD_REACTORS
330
2354
102
}
330
2354
100
AcDbXrecord
 90
        4
  0
XRECORD
  5
235E
102
{ACAD_REACTORS
330
2354
102
}
330
2354
100
AcDbXrecord
 90
        0
  0
XRECORD
  5
235F
102
{ACAD_REACTORS
330
2354
102
}
330
2354
100
AcDbXrecord
  1
{AFB28963-8C59-40AE-9337-C84526B81ACE}
  0
XRECORD
  5
2360
102
{ACAD_REACTORS
330
2354
102
}
330
2354
100
AcDbXrecord
  1
{09183D8C-1D18-4E9F-A0C4-0F362E6B8A5E}
  0
XRECORD
  5
2361
102
{ACAD_REACTORS
330
2354
102
}
330
2354
100
AcDbXrecord
 40
0.0
  0
XRECORD
  5
2362
102
{ACAD_REACTORS
330
2354
102
}
330
2354
100
AcDbXrecord
1000
DSTYLE
1002
{
1070
    79
 70
     2
1070
   341
340
59
1070
   342
340
59
1070
   371
 70
    -1
1070
   372
 70
    -1
1002
}
  0
XRECORD
  5
2363
102
{ACAD_REACTORS
330
2354
102
}
330
2354
100
AcDbXrecord
340
0
  0
XRECORD
  5
2364
102
{ACAD_REACTORS
330
2354
102
}
330
2354
100
AcDbXrecord
 70
     0
  0
XRECORD
  5
2365
102
{ACAD_REACTORS
330
2354
102
}
330
2354
100
AcDbXrecord
340
0
  0
XRECORD
  5
2366
102
{ACAD_REACTORS
330
2354
102
}
330
2354
100
AcDbXrecord
 10
0.0
 20
0.0
 30
0.0
  0
XRECORD
  5
2367
102
{ACAD_REACTORS
330
2354
102
}
330
2354
100
AcDbXrecord
 10
0.0
 20
0.0
 30
0.0
  0
XRECORD
  5
2368
102
{ACAD_REACTORS
330
2354
102
}
330
2354
100
AcDbXrecord
 10
0.0
 20
0.0
 30
0.0
  0
XRECORD
  5
2369
102
{ACAD_REACTORS
330
2354
102
}
330
2354
100
AcDbXrecord
 10
0.0
 20
0.0
 30
0.0
  0
XRECORD
  5
236A
102
{ACAD_REACTORS
330
2354
102
}
330
2354
100
AcDbXrecord
 10
0.0
 20
0.0
 30
0.0
  0
XRECORD
  5
236B
102
{ACAD_REACTORS
330
2354
102
}
330
2354
100
AcDbXrecord
 10
0.0
 20
0.0
 30
0.0
  0
XRECORD
  5
236C
102
{ACAD_REACTORS
330
2354
102
}
330
2354
100
AcDbXrecord
340
0
  0
XRECORD
  5
236D
102
{ACAD_REACTORS
330
2354
102
}
330
2354
100
AcDbXrecord
 70
     0
  0
XRECORD
  5
236E
102
{ACAD_REACTORS
330
2354
102
}
330
2354
100
AcDbXrecord
340
0
  0
XRECORD
  5
236F
102
{ACAD_REACTORS
330
2354
102
}
330
2354
100
AcDbXrecord
 10
0.0
 20
0.0
 30
0.0
  0
XRECORD
  5
2370
102
{ACAD_REACTORS
330
2354
102
}
330
2354
100
AcDbXrecord
 10
0.0
 20
0.0
 30
0.0
  0
XRECORD
  5
2371
102
{ACAD_REACTORS
330
2354
102
}
330
2354
100
AcDbXrecord
 10
0.0
 20
0.0
 30
0.0
  0
XRECORD
  5
2372
102
{ACAD_REACTORS
330
2354
102
}
330
2354
100
AcDbXrecord
 10
0.0
 20
0.0
 30
0.0
  0
XRECORD
  5
2373
102
{ACAD_REACTORS
330
2354
102
}
330
2354
100
AcDbXrecord
 10
0.0
 20
0.0
 30
0.0
  0
XRECORD
  5
2374
102
{ACAD_REACTORS
330
2354
102
}
330
2354
100
AcDbXrecord
 10
0.0
 20
0.0
 30
0.0
  0
LAYER_INDEX
  5
234B
102
{ACAD_REACTORS
330
234A
102
}
330
234A
100
AcDbIndex
 40
2453152.443609942
100
AcDbLayerIndex
  8
0
360
234C
 90
        0
  8
AM_0
360
234D
 90
       73
  8
AM_11
360
234E
 90
        3
  8
AM_7
360
234F
 90
        2
  8
AM_5
360
2350
 90
        4
  8
Defpoints
360
2351
 90
        0
  8
AM_6
360
2352
 90
        1
  0
XRECORD
  5
2D
102
{ACAD_REACTORS
330
2C
102
}
330
2C
100
AcDbXrecord
  1
VERSION
140
15.0
  1
PRODUCT
  2
AutoCAD Mechanical 2000
  0
IDBUFFER
  5
234C
330
0
100
AcDbIdBuffer
  0
IDBUFFER
  5
234D
330
0
100
AcDbIdBuffer
330
20C6
330
20C7
330
20C8
330
20C9
330
20CA
330
20CB
330
20CC
330
20CD
330
20CE
330
20CF
330
20D0
330
20D1
330
20D2
330
20D3
330
20D4
330
20D5
330
20D6
330
20D7
330
20D8
330
20D9
330
20DA
330
20DB
330
20DC
330
20DD
330
2328
330
139D
330
139E
330
13A1
330
13A2
330
13C4
330
13C7
330
1571
330
158A
330
158B
330
16CC
330
1F38
330
1F39
330
208C
330
208D
330
208E
330
208F
330
2090
330
2091
330
2092
330
2093
330
2094
330
2095
330
2096
330
2097
330
2098
330
2099
330
209A
330
209B
330
209C
330
20AA
330
20AB
330
20AF
330
20B6
330
20B7
330
20B8
330
20B9
330
20BA
330
20BB
330
20BC
330
20BD
330
20BE
330
20BF
330
20C0
330
20C1
330
20C2
330
20C3
330
20C4
330
20C5
  0
IDBUFFER
  5
234E
330
0
100
AcDbIdBuffer
330
20B2
330
20B4
330
20B5
  0
IDBUFFER
  5
234F
330
0
100
AcDbIdBuffer
330
F47
330
20B3
  0
IDBUFFER
  5
2350
330
0
100
AcDbIdBuffer
330
105F
330
10EF
330
13A3
330
207F
  0
IDBUFFER
  5
2351
330
0
100
AcDbIdBuffer
  0
IDBUFFER
  5
2352
330
0
100
AcDbIdBuffer
330
E5A
  0
ENDSEC
  0
EOF
