  0
SECTION
  2
HEADER
  9
$ACADVER
  1
AC1014
  9
$ACADMAINTVER
 70
     9
  9
$DWGCODEPAGE
  3
ANSI_932
  9
$INSBASE
 10
0.0
 20
0.0
 30
0.0
  9
$EXTMIN
 10
-92.08320585933192
 20
-30.25000099999978
 30
-0.00000001
  9
$EXTMAX
 10
12.05776903085531
 20
7.289533826547357
 30
0.00000001
  9
$LIMMIN
 10
-96.43712032207412
 20
-37.27092828395655
  9
$LIMMAX
 10
19.52719522358006
 20
18.37053775224791
  9
$ORTHOMODE
 70
     0
  9
$REGENMODE
 70
     1
  9
$FILLMODE
 70
     1
  9
$QTEXTMODE
 70
     0
  9
$MIRRTEXT
 70
     0
  9
$DRAGMODE
 70
     2
  9
$LTSCALE
 40
1.0
  9
$OSMODE
 70
    55
  9
$ATTMODE
 70
     1
  9
$TEXTSIZE
 40
2.5
  9
$TRACEWID
 40
1.0
  9
$TEXTSTYLE
  7
STANDARD
  9
$CLAYER
  8
AM_0
  9
$CELTYPE
  6
BYLAYER
  9
$CECOLOR
 62
   256
  9
$CELTSCALE
 40
1.0
  9
$DELOBJ
 70
     1
  9
$DISPSILH
 70
     0
  9
$DIMSCALE
 40
0.5
  9
$DIMASZ
 40
2.5
  9
$DIMEXO
 40
1.0
  9
$DIMDLI
 40
12.0
  9
$DIMRND
 40
0.0
  9
$DIMDLE
 40
0.0
  9
$DIMEXE
 40
1.0
  9
$DIMTP
 40
0.1
  9
$DIMTM
 40
0.1
  9
$DIMTXT
 40
3.2
  9
$DIMCEN
 40
0.0
  9
$DIMTSZ
 40
0.0
  9
$DIMTOL
 70
     0
  9
$DIMLIM
 70
     0
  9
$DIMTIH
 70
     0
  9
$DIMTOH
 70
     0
  9
$DIMSE1
 70
     0
  9
$DIMSE2
 70
     0
  9
$DIMTAD
 70
     3
  9
$DIMZIN
 70
     8
  9
$DIMBLK
  1
OPEN30
  9
$DIMASO
 70
     1
  9
$DIMSHO
 70
     1
  9
$DIMPOST
  1

  9
$DIMAPOST
  1
"
  9
$DIMALT
 70
     0
  9
$DIMALTD
 70
     2
  9
$DIMALTF
 40
0.0393701
  9
$DIMLFAC
 40
1.0
  9
$DIMTOFL
 70
     1
  9
$DIMTVP
 40
0.0
  9
$DIMTIX
 70
     0
  9
$DIMSOXD
 70
     0
  9
$DIMSAH
 70
     0
  9
$DIMBLK1
  1

  9
$DIMBLK2
  1

  9
$DIMSTYLE
  2
AM_JIS
  9
$DIMCLRD
 70
   256
  9
$DIMCLRE
 70
   256
  9
$DIMCLRT
 70
     2
  9
$DIMTFAC
 40
0.71
  9
$DIMGAP
 40
1.5
  9
$DIMJUST
 70
     0
  9
$DIMSD1
 70
     0
  9
$DIMSD2
 70
     0
  9
$DIMTOLJ
 70
     0
  9
$DIMTZIN
 70
     0
  9
$DIMALTZ
 70
     0
  9
$DIMALTTZ
 70
     0
  9
$DIMFIT
 70
     3
  9
$DIMUPT
 70
     0
  9
$DIMUNIT
 70
     2
  9
$DIMDEC
 70
     3
  9
$DIMTDEC
 70
     3
  9
$DIMALTU
 70
     2
  9
$DIMALTTD
 70
     2
  9
$DIMTXSTY
  7
ASAMI
  9
$DIMAUNIT
 70
     0
  9
$LUNITS
 70
     2
  9
$LUPREC
 70
     2
  9
$SKETCHINC
 40
1.0
  9
$FILLETRAD
 40
2.5
  9
$AUNITS
 70
     0
  9
$AUPREC
 70
     0
  9
$MENU
  1
.
  9
$ELEVATION
 40
0.0
  9
$PELEVATION
 40
0.0
  9
$THICKNESS
 40
0.0
  9
$LIMCHECK
 70
     0
  9
$BLIPMODE
 70
     0
  9
$CHAMFERA
 40
0.75
  9
$CHAMFERB
 40
0.75
  9
$CHAMFERC
 40
20.0
  9
$CHAMFERD
 40
0.0
  9
$SKPOLY
 70
     0
  9
$TDCREATE
 40
2452836.771637361
  9
$TDUPDATE
 40
2453152.444691250
  9
$TDINDWG
 40
0.0265471296
  9
$TDUSRTIMER
 40
0.0265471296
  9
$USRTIMER
 70
     1
  9
$ANGBASE
 50
0.0
  9
$ANGDIR
 70
     0
  9
$PDMODE
 70
     0
  9
$PDSIZE
 40
0.0
  9
$PLINEWID
 40
0.0
  9
$COORDS
 70
     1
  9
$SPLFRAME
 70
     0
  9
$SPLINETYPE
 70
     6
  9
$SPLINESEGS
 70
     8
  9
$ATTDIA
 70
     1
  9
$ATTREQ
 70
     1
  9
$HANDLING
 70
 12289
  9
$HANDSEED
  5
19B7
  9
$SURFTAB1
 70
     6
  9
$SURFTAB2
 70
     6
  9
$SURFTYPE
 70
     6
  9
$SURFU
 70
     6
  9
$SURFV
 70
     6
  9
$UCSNAME
  2

  9
$UCSORG
 10
0.0
 20
0.0
 30
0.0
  9
$UCSXDIR
 10
1.0
 20
0.0
 30
0.0
  9
$UCSYDIR
 10
0.0
 20
1.0
 30
0.0
  9
$PUCSNAME
  2

  9
$PUCSORG
 10
0.0
 20
0.0
 30
0.0
  9
$PUCSXDIR
 10
1.0
 20
0.0
 30
0.0
  9
$PUCSYDIR
 10
0.0
 20
1.0
 30
0.0
  9
$USERI1
 70
     0
  9
$USERI2
 70
     0
  9
$USERI3
 70
     0
  9
$USERI4
 70
     0
  9
$USERI5
 70
     0
  9
$USERR1
 40
0.0
  9
$USERR2
 40
0.0
  9
$USERR3
 40
0.0
  9
$USERR4
 40
0.0
  9
$USERR5
 40
0.0
  9
$WORLDVIEW
 70
     1
  9
$SHADEDGE
 70
     3
  9
$SHADEDIF
 70
    70
  9
$TILEMODE
 70
     1
  9
$MAXACTVP
 70
    64
  9
$PINSBASE
 10
0.0
 20
0.0
 30
0.0
  9
$PLIMCHECK
 70
     0
  9
$PEXTMIN
 10
1.000000000000000E+20
 20
1.000000000000000E+20
 30
1.000000000000000E+20
  9
$PEXTMAX
 10
-1.000000000000000E+20
 20
-1.000000000000000E+20
 30
-1.000000000000000E+20
  9
$PLIMMIN
 10
0.0
 20
0.0
  9
$PLIMMAX
 10
841.0
 20
594.0
  9
$UNITMODE
 70
     0
  9
$VISRETAIN
 70
     1
  9
$PLINEGEN
 70
     0
  9
$PSLTSCALE
 70
     0
  9
$TREEDEPTH
 70
  3020
  9
$PICKSTYLE
 70
     0
  9
$CMLSTYLE
  2
STANDARD
  9
$CMLJUST
 70
     0
  9
$CMLSCALE
 40
20.0
  9
$PROXYGRAPHICS
 70
     1
  9
$MEASUREMENT
 70
     1
  0
ENDSEC
  0
SECTION
  2
CLASSES
  0
CLASS
  1
ACDBDICTIONARYWDFLT
  2
AcDbDictionaryWithDefault
  3
AutoCAD 2000
 90
        0
280
     0
281
     0
  0
CLASS
  1
ACDBPLACEHOLDER
  2
AcDbPlaceHolder
  3
AutoCAD 2000
 90
        0
280
     0
281
     0
  0
CLASS
  1
LAYOUT
  2
AcDbLayout
  3
AutoCAD 2000
 90
        0
280
     0
281
     0
  0
CLASS
  1
AMGSETTINGSOBJ
  2
AmgSettingsObj
  3
"AcadM|Product Description: AutoCAD Mechanical 2000|Company: Autodesk"
 90
        0
280
     0
281
     0
  0
CLASS
  1
ACME_DOCUMENT
  2
AcMeDbDoc
  3
AcMeServices
 90
        0
280
     0
281
     0
  0
CLASS
  1
ACMESCOPE
  2
AcMeScope
  3
AcMeServices
 90
        0
280
     0
281
     0
  0
CLASS
  1
ACMECOMMANDHISTORY
  2
AcMeCommandHistory
  3
AcMeServices
 90
        0
280
     0
281
     0
  0
CLASS
  1
DICTIONARYVAR
  2
AcDbDictionaryVar
  3
AutoCAD 2000
 90
        0
280
     0
281
     0
  0
CLASS
  1
ACIMSYSVARMAN
  2
AcImSysVarManager
  3
AcMeServices
 90
        0
280
     0
281
     0
  0
CLASS
  1
ACIMREALSYSVAR
  2
AcImRealSysVar
  3
AcMeServices
 90
        0
280
     0
281
     0
  0
CLASS
  1
ACIMINTSYSVAR
  2
AcImIntSysVar
  3
AcMeServices
 90
        0
280
     0
281
     0
  0
CLASS
  1
ACMEDRAWINGMAN
  2
AcMeDrawingMan
  3
AcMeServices
 90
        0
280
     0
281
     0
  0
CLASS
  1
ACMEVIEW
  2
AcMeView
  3
AcMeServices
 90
        0
280
     0
281
     0
  0
CLASS
  1
ACDBENTITYCACHE
  2
AcMeEntityCache
  3
AcMeServices
 90
        0
280
     0
281
     0
  0
CLASS
  1
GSMANAGER
  2
AcMeGSManager
  3
AcMeServices
 90
        0
280
     0
281
     0
  0
CLASS
  1
AmdtInternalReactor
  2
AmdtInternalReactor
  3
AcMeServices
 90
        0
280
     0
281
     0
  0
CLASS
  1
ACMESTATEMGR
  2
AcMeStateMgr
  3
AcMeServices
 90
        0
280
     0
281
     0
  0
CLASS
  1
ACME_DATABASE
  2
AcMeDbDatabase
  3
AcMeServices
 90
        0
280
     0
281
     0
  0
CLASS
  1
ACRFINSADJUSTERMGR
  2
AcRfInsAdjusterMgr
  3
AcMeServices
 90
        0
280
     0
281
     0
  0
CLASS
  1
ACMDATADICTIONARY
  2
AcmDataDictionary
  3
"AcmSymBB|Product Description: AutoCAD Mechanical 2000|Company: Autodesk"
 90
        0
280
     0
281
     0
  0
CLASS
  1
ACMDATAENTRYBLOCK
  2
AcmDataEntryBlock
  3
"AcmSymBB|Product Description: AutoCAD Mechanical 2000|Company: Autodesk"
 90
        0
280
     0
281
     0
  0
CLASS
  1
AMGOBJPROPCFG
  2
AmgObjPropCfg
  3
"AmgLay|Product Description: AutoCAD Mechanical 2000|Company: Autodesk"
 90
        1
280
     0
281
     0
  0
CLASS
  1
ACAMGFILTERDAT
  2
AcAmgFilterDat
  3
"AcadM|Product Description: AutoCAD Mechanical 2000|Company: Autodesk"
 90
        0
280
     0
281
     0
  0
CLASS
  1
LAYER_INDEX
  2
AcDbLayerIndex
  3
AutoCAD 2000
 90
        0
280
     0
281
     0
  0
CLASS
  1
IDBUFFER
  2
AcDbIdBuffer
  3
AutoCAD 2000
 90
        0
280
     0
281
     0
  0
CLASS
  1
ACIMSTRSYSVAR
  2
AcImStrSysVar
  3
AcMeServices
 90
        0
280
     0
281
     0
  0
CLASS
  1
ACMSTANDARDJIS
  2
AcmStandardJIS
  3
"AcmSymBB|Product Description: AutoCAD Mechanical 2000|Company: Autodesk"
 90
        0
280
     0
281
     0
  0
CLASS
  1
ACMSURFSTANDARDJIS
  2
AcmSurfTextStdJIS
  3
"AcmSymBB|Product Description: AutoCAD Mechanical 2000|Company: Autodesk"
 90
        0
280
     0
281
     0
  0
CLASS
  1
ACMFCFSTANDARDJIS
  2
AcmFCFStdJIS
  3
"AcmSymBB|Product Description: AutoCAD Mechanical 2000|Company: Autodesk"
 90
        0
280
     0
281
     0
  0
CLASS
  1
ACMWELDSTANDARDJIS
  2
AcmWeldingStdJIS
  3
"AcmSymBB|Product Description: AutoCAD Mechanical 2000|Company: Autodesk"
 90
        0
280
     0
281
     0
  0
CLASS
  1
ACMIDSTANDARDJIS
  2
AcmIdStdJIS
  3
"AcmSymBB|Product Description: AutoCAD Mechanical 2000|Company: Autodesk"
 90
        0
280
     0
281
     0
  0
CLASS
  1
ACMDATUMSTANDARDJIS
  2
AcmDatumStdJIS
  3
"AcmSymBB|Product Description: AutoCAD Mechanical 2000|Company: Autodesk"
 90
        0
280
     0
281
     0
  0
CLASS
  1
ACMBOMSTANDARDJIS
  2
AcmBOMStdJIS
  3
"AcmSymBB|Product Description: AutoCAD Mechanical 2000|Company: Autodesk"
 90
        0
280
     0
281
     0
  0
CLASS
  1
ACMSTANDARDANSI
  2
AcmStandardANSI
  3
"AcmSymBB|Product Description: AutoCAD Mechanical 2000|Company: Autodesk"
 90
        0
280
     0
281
     0
  0
CLASS
  1
ACMSURFSTANDARDANSI
  2
AcmSurfTextStdANSI
  3
"AcmSymBB|Product Description: AutoCAD Mechanical 2000|Company: Autodesk"
 90
        0
280
     0
281
     0
  0
CLASS
  1
ACMFCFSTANDARDANSI
  2
AcmFCFStdANSI
  3
"AcmSymBB|Product Description: AutoCAD Mechanical 2000|Company: Autodesk"
 90
        0
280
     0
281
     0
  0
CLASS
  1
ACMWELDSTANDARDANSI
  2
AcmWeldingStdANSI
  3
"AcmSymBB|Product Description: AutoCAD Mechanical 2000|Company: Autodesk"
 90
        0
280
     0
281
     0
  0
CLASS
  1
ACMIDSTANDARDANSI
  2
AcmIdStdANSI
  3
"AcmSymBB|Product Description: AutoCAD Mechanical 2000|Company: Autodesk"
 90
        0
280
     0
281
     0
  0
CLASS
  1
ACMDATUMSTANDARDANSI
  2
AcmDatumStdANSI
  3
"AcmSymBB|Product Description: AutoCAD Mechanical 2000|Company: Autodesk"
 90
        0
280
     0
281
     0
  0
CLASS
  1
ACMBOMSTANDARDANSI
  2
AcmBOMStdANSI
  3
"AcmSymBB|Product Description: AutoCAD Mechanical 2000|Company: Autodesk"
 90
        0
280
     0
281
     0
  0
CLASS
  1
ACMSTANDARDBSI
  2
AcmStandardBSI
  3
"AcmSymBB|Product Description: AutoCAD Mechanical 2000|Company: Autodesk"
 90
        0
280
     0
281
     0
  0
CLASS
  1
ACMSURFSTANDARDBSI
  2
AcmSurfTextStdBSI
  3
"AcmSymBB|Product Description: AutoCAD Mechanical 2000|Company: Autodesk"
 90
        0
280
     0
281
     0
  0
CLASS
  1
ACMFCFSTANDARDBSI
  2
AcmFCFStdBSI
  3
"AcmSymBB|Product Description: AutoCAD Mechanical 2000|Company: Autodesk"
 90
        0
280
     0
281
     0
  0
CLASS
  1
ACMWELDSTANDARDBSI
  2
AcmWeldingStdBSI
  3
"AcmSymBB|Product Description: AutoCAD Mechanical 2000|Company: Autodesk"
 90
        0
280
     0
281
     0
  0
CLASS
  1
ACMIDSTANDARDBSI
  2
AcmIdStdBSI
  3
"AcmSymBB|Product Description: AutoCAD Mechanical 2000|Company: Autodesk"
 90
        0
280
     0
281
     0
  0
CLASS
  1
ACMDATUMSTANDARDBSI
  2
AcmDatumStdBSI
  3
"AcmSymBB|Product Description: AutoCAD Mechanical 2000|Company: Autodesk"
 90
        0
280
     0
281
     0
  0
CLASS
  1
ACMBOMSTANDARDBSI
  2
AcmBOMStdBSI
  3
"AcmSymBB|Product Description: AutoCAD Mechanical 2000|Company: Autodesk"
 90
        0
280
     0
281
     0
  0
CLASS
  1
LONG_TRANSACTION
  2
AcDbLongTransaction
  3
AutoCAD 2000
 90
        0
280
     0
281
     0
  0
CLASS
  1
LWPOLYLINE
  2
AcDbPolyline
  3
AutoCAD 2000
 90
        0
280
     0
281
     1
  0
CLASS
  1
HATCH
  2
AcDbHatch
  3
AutoCAD 2000
 90
        0
280
     0
281
     1
  0
CLASS
  1
XRECORD
  2
AcDbXrecord
  3
AutoCAD 2000
 90
        0
280
     0
281
     0
  0
ENDSEC
  0
SECTION
  2
TABLES
  0
TABLE
  2
VPORT
  5
8
330
0
100
AcDbSymbolTable
 70
     3
  0
VPORT
  5
198C
330
8
100
AcDbSymbolTableRecord
100
AcDbViewportTableRecord
  2
*ACTIVE
 70
     0
 10
0.0
 20
0.0
 11
1.0
 21
1.0
 12
-40.01210030718501
 22
-11.47935626883173
 13
0.0
 23
0.0
 14
2.5
 24
2.5
 15
10.0
 25
10.0
 16
0.0
 26
0.0
 36
1.0
 17
0.0
 27
0.0
 37
0.0
 40
66.78169082884209
 41
1.56570841889117
 42
50.0
 43
0.0
 44
0.0
 50
0.0
 51
0.0
 71
     0
 72
   100
 73
     1
 74
     3
 75
     0
 76
     0
 77
     0
 78
     0
  0
ENDTAB
  0
TABLE
  2
LTYPE
  5
5
330
0
100
AcDbSymbolTable
 70
    10
  0
LTYPE
  5
14
330
5
100
AcDbSymbolTableRecord
100
AcDbLinetypeTableRecord
  2
BYBLOCK
 70
     0
  3

 72
    65
 73
     0
 40
0.0
  0
LTYPE
  5
15
330
5
100
AcDbSymbolTableRecord
100
AcDbLinetypeTableRecord
  2
BYLAYER
 70
     0
  3

 72
    65
 73
     0
 40
0.0
  0
LTYPE
  5
16
330
5
100
AcDbSymbolTableRecord
100
AcDbLinetypeTableRecord
  2
CONTINUOUS
 70
     0
  3
Solid line
 72
    65
 73
     0
 40
0.0
  0
LTYPE
  5
4B
330
5
100
AcDbSymbolTableRecord
100
AcDbLinetypeTableRecord
  2
AM_ISO02W050
 70
     0
  3
__ __ __ __ __ __ __ __ __ __ __ __ __ __ __
 72
    65
 73
     2
 40
7.5
 49
6.0
 74
     0
 49
-1.5
 74
     0
  0
LTYPE
  5
4C
330
5
100
AcDbSymbolTableRecord
100
AcDbLinetypeTableRecord
  2
AM_ISO08W050
 70
     0
  3
____ . ____ . ____ . ____ . ____ . ____ . ____
 72
    65
 73
     4
 40
18.0
 49
12.0
 74
     0
 49
-1.5
 74
     0
 49
3.0
 74
     0
 49
-1.5
 74
     0
  0
LTYPE
  5
4D
330
5
100
AcDbSymbolTableRecord
100
AcDbLinetypeTableRecord
  2
AM_ISO09W050
 70
     0
  3
_____ . . _____ . . _____ . . ____ .. ____
 72
    65
 73
     6
 40
22.5
 49
12.0
 74
     0
 49
-1.5
 74
     0
 49
3.0
 74
     0
 49
-1.5
 74
     0
 49
3.0
 74
     0
 49
-1.5
 74
     0
  0
LTYPE
  5
4E
330
5
100
AcDbSymbolTableRecord
100
AcDbLinetypeTableRecord
  2
AMCONSTR
 70
     0
  3
_______________________
 72
    65
 73
     2
 40
9999.0
 49
9999.0
 74
     0
 49
0.0
 74
     0
  0
LTYPE
  5
4F
330
5
100
AcDbSymbolTableRecord
100
AcDbLinetypeTableRecord
  2
AM_ISO02W050X2
 70
     0
  3
 _ _ _ _ _ _ _ _ _ _ _ _
 72
    65
 73
     2
 40
3.75
 49
3.0
 74
     0
 49
-0.75
 74
     0
  0
LTYPE
  5
50
330
5
100
AcDbSymbolTableRecord
100
AcDbLinetypeTableRecord
  2
AM_ISO08W050X2
 70
     0
  3
__ . __ . __ . __ . __ . __
 72
    65
 73
     4
 40
9.0
 49
6.0
 74
     0
 49
-0.75
 74
     0
 49
1.5
 74
     0
 49
-0.75
 74
     0
  0
LTYPE
  5
53
330
5
100
AcDbSymbolTableRecord
100
AcDbLinetypeTableRecord
  2
AMZIGZAG
 70
     0
  3
/\/-/\/-/\/-/\/-/\/-/\/
 72
    65
 73
     2
 40
11.00009999999999
 49
0.0001
 74
     4
 75
   135
340
52
 46
0.04
 50
0.0
 44
0.0
 45
0.0
 49
-11.0
 74
     0
  0
LTYPE
  5
166
330
5
100
AcDbSymbolTableRecord
100
AcDbLinetypeTableRecord
  2
ACJISTGL
 70
     0
  3
_ _ _ _ _
 72
    65
 73
     2
 40
3.0
 49
2.0
 74
     0
 49
-1.0
 74
     0
  0
LTYPE
  5
26A
330
5
100
AcDbSymbolTableRecord
100
AcDbLinetypeTableRecord
  2
ACJISTGB
 70
     0
  3
__ . . __ . .
 72
    65
 73
     6
 40
9.0
 49
4.0
 74
     0
 49
-1.0
 74
     0
 49
1.0
 74
     0
 49
-1.0
 74
     0
 49
1.0
 74
     0
 49
-1.0
 74
     0
  0
ENDTAB
  0
TABLE
  2
LAYER
  5
2
330
0
100
AcDbSymbolTable
 70
     7
  0
LAYER
  5
10
330
2
100
AcDbSymbolTableRecord
100
AcDbLayerTableRecord
  2
0
 70
     0
 62
     7
  6
CONTINUOUS
  0
LAYER
  5
3F9
330
2
100
AcDbSymbolTableRecord
100
AcDbLayerTableRecord
  2
AM_0
 70
     0
 62
     7
  6
CONTINUOUS
  0
LAYER
  5
BD4
330
2
100
AcDbSymbolTableRecord
100
AcDbLayerTableRecord
  2
AM_11
 70
     0
 62
     3
  6
AM_ISO09W050
  0
LAYER
  5
BD5
330
2
100
AcDbSymbolTableRecord
100
AcDbLayerTableRecord
  2
AM_7
 70
     0
 62
     4
  6
AM_ISO08W050
  0
LAYER
  5
BD6
330
2
100
AcDbSymbolTableRecord
100
AcDbLayerTableRecord
  2
AM_5
 70
     0
 62
     3
  6
CONTINUOUS
  0
LAYER
  5
BD7
330
2
100
AcDbSymbolTableRecord
100
AcDbLayerTableRecord
  2
DEFPOINTS
 70
     0
 62
     7
  6
CONTINUOUS
  0
LAYER
  5
E59
330
2
100
AcDbSymbolTableRecord
100
AcDbLayerTableRecord
  2
AM_6
 70
     0
 62
     2
  6
CONTINUOUS
  0
ENDTAB
  0
TABLE
  2
STYLE
  5
3
330
0
100
AcDbSymbolTable
 70
     5
  0
STYLE
  5
11
330
3
100
AcDbSymbolTableRecord
100
AcDbTextStyleTableRecord
  2
STANDARD
 70
     0
 40
0.0
 41
1.0
 50
0.0
 71
     0
 42
2.5
  3
simplex.shx
  4
EXTFONT.SHX
  0
STYLE
  5
52
330
3
100
AcDbSymbolTableRecord
100
AcDbTextStyleTableRecord
  2

 70
     1
 40
0.0
 41
1.0
 50
0.0
 71
     0
 42
2.5
  3
ltypeshp.shx
  4

  0
STYLE
  5
6B
330
3
100
AcDbSymbolTableRecord
100
AcDbTextStyleTableRecord
  2
ASAMI
 70
     0
 40
0.0
 41
1.0
 50
0.0
 71
     0
 42
2.5
  3
simplex.shx
  4
EXTFONT.SHX
  0
STYLE
  5
262
330
3
100
AcDbSymbolTableRecord
100
AcDbTextStyleTableRecord
  2
ACJISTS
 70
     0
 40
1.0
 41
1.0
 50
0.0
 71
     0
 42
2.5
  3
simplex.shx
  4
bigfont.shx
  0
STYLE
  5
269
330
3
100
AcDbSymbolTableRecord
100
AcDbTextStyleTableRecord
  2
ACJISGDT
 70
     0
 40
0.0
 41
1.0
 50
0.0
 71
     0
 42
2.5
  3
amgdtans.shx
  4

  0
ENDTAB
  0
TABLE
  2
VIEW
  5
6
330
0
100
AcDbSymbolTable
 70
     0
  0
ENDTAB
  0
TABLE
  2
UCS
  5
7
330
0
100
AcDbSymbolTable
 70
     0
  0
ENDTAB
  0
TABLE
  2
APPID
  5
9
330
0
100
AcDbSymbolTable
 70
    12
  0
APPID
  5
12
330
9
100
AcDbSymbolTableRecord
100
AcDbRegAppTableRecord
  2
ACAD
 70
     0
  0
APPID
  5
30
330
9
100
AcDbSymbolTableRecord
100
AcDbRegAppTableRecord
  2
MCAD_NO_VIS
 70
     0
  0
APPID
  5
31
330
9
100
AcDbSymbolTableRecord
100
AcDbRegAppTableRecord
  2
ACAD_TEMP_GRAPHIC
 70
     0
  0
APPID
  5
2C2
330
9
100
AcDbSymbolTableRecord
100
AcDbRegAppTableRecord
  2
GENIUS_GENDTOL_13
 70
     0
  0
APPID
  5
339
330
9
100
AcDbSymbolTableRecord
100
AcDbRegAppTableRecord
  2
GENIUS_GENODEF_13
 70
     0
  0
APPID
  5
33A
330
9
100
AcDbSymbolTableRecord
100
AcDbRegAppTableRecord
  2
GENIUS_GENOBJ-N-RSBK_13
 70
     0
  0
APPID
  5
33B
330
9
100
AcDbSymbolTableRecord
100
AcDbRegAppTableRecord
  2
GENIUS_GENOBJ-N-LIB_13
 70
     0
  0
APPID
  5
33C
330
9
100
AcDbSymbolTableRecord
100
AcDbRegAppTableRecord
  2
GENIUS_GENSCALE_13
 70
     0
  0
APPID
  5
378
330
9
100
AcDbSymbolTableRecord
100
AcDbRegAppTableRecord
  2
GENIUS_GENDIMSH_14
 70
     0
  0
APPID
  5
BD8
330
9
100
AcDbSymbolTableRecord
100
AcDbRegAppTableRecord
  2
GENIUS_GENOBJ-N-CEN_13
 70
     0
  0
APPID
  5
BD9
330
9
100
AcDbSymbolTableRecord
100
AcDbRegAppTableRecord
  2
GENIUS_GENFIL_13
 70
     0
  0
APPID
  5
BDA
330
9
100
AcDbSymbolTableRecord
100
AcDbRegAppTableRecord
  2
GENIUS_GENOBJ-N-CHA_13
 70
     0
  0
ENDTAB
  0
TABLE
  2
DIMSTYLE
  5
A
330
0
100
AcDbSymbolTable
 70
     8
  0
DIMSTYLE
105
58
102
{ACAD_REACTORS
330
13B3
330
145B
330
16DD
330
1779
102
}
330
A
100
AcDbSymbolTableRecord
100
AcDbDimStyleTableRecord
  2
AM_JIS
 70
     0
  3

  4
"
  5
OPEN30
  6

  7

 40
0.5
 41
2.5
 42
1.0
 43
12.0
 44
1.0
 45
0.0
 46
0.0
 47
0.1
 48
0.1
140
3.2
141
0.0
142
0.0
143
0.0393701
144
1.0
145
0.0
146
0.71
147
1.5
 71
     0
 72
     0
 73
     0
 74
     0
 75
     0
 76
     0
 77
     3
 78
     8
170
     0
171
     2
172
     1
173
     0
174
     0
175
     0
176
   256
177
   256
178
     2
270
     2
271
     3
272
     3
273
     2
274
     2
340
6B
275
     0
280
     0
281
     0
282
     0
283
     0
284
     0
285
     0
286
     0
287
     3
288
     0
  0
DIMSTYLE
105
5F
330
A
100
AcDbSymbolTableRecord
100
AcDbDimStyleTableRecord
  2
AM_JIS$3
 70
     0
  3

  4
"
  5
OPEN30
  6

  7

 40
0.5
 41
2.5
 42
1.0
 43
10.0
 44
1.0
 45
0.0
 46
0.0
 47
0.1
 48
0.1
140
3.2
141
0.0
142
0.0
143
0.0393701
144
1.0
145
0.0
146
0.71
147
1.5
 71
     0
 72
     0
 73
     0
 74
     1
 75
     0
 76
     0
 77
     3
 78
     8
170
     0
171
     2
172
     0
173
     0
174
     0
175
     0
176
   256
177
   256
178
     2
270
     2
271
     2
272
     3
273
     2
274
     2
340
6B
275
     0
280
     0
281
     0
282
     0
283
     0
284
     0
285
     0
286
     0
287
     0
288
     1
  0
DIMSTYLE
105
60
330
A
100
AcDbSymbolTableRecord
100
AcDbDimStyleTableRecord
  2
AM_JIS$4
 70
     0
  3

  4
"
  5
OPEN30
  6

  7

 40
0.5
 41
2.5
 42
1.0
 43
10.0
 44
1.0
 45
0.0
 46
0.0
 47
0.1
 48
0.1
140
3.2
141
0.0
142
0.0
143
0.0393701
144
1.0
145
0.0
146
0.71
147
1.5
 71
     0
 72
     0
 73
     0
 74
     1
 75
     0
 76
     0
 77
     3
 78
     8
170
     0
171
     2
172
     0
173
     0
174
     0
175
     0
176
   256
177
   256
178
     2
270
     2
271
     2
272
     3
273
     2
274
     2
340
6B
275
     0
280
     0
281
     0
282
     0
283
     0
284
     0
285
     0
286
     0
287
     0
288
     1
  0
DIMSTYLE
105
61
330
A
100
AcDbSymbolTableRecord
100
AcDbDimStyleTableRecord
  2
AM_JIS$6
 70
     0
  3

  4
"
  5
OPEN30
  6

  7

 40
0.5
 41
2.5
 42
1.0
 43
10.0
 44
1.0
 45
0.0
 46
0.0
 47
0.1
 48
0.1
140
3.2
141
0.0
142
0.0
143
0.0393701
144
1.0
145
0.0
146
0.71
147
1.5
 71
     0
 72
     0
 73
     0
 74
     0
 75
     0
 76
     0
 77
     0
 78
     8
170
     0
171
     2
172
     1
173
     0
174
     0
175
     0
176
   256
177
   256
178
     2
270
     2
271
     2
272
     2
273
     2
274
     2
340
6B
275
     0
280
     0
281
     0
282
     0
283
     0
284
     0
285
     0
286
     0
287
     3
288
     0
  0
DIMSTYLE
105
62
330
A
100
AcDbSymbolTableRecord
100
AcDbDimStyleTableRecord
  2
AM_JIS$7
 70
     0
  3

  4
"
  5
OPEN30
  6

  7

 40
0.5
 41
2.5
 42
1.0
 43
10.0
 44
1.0
 45
0.0
 46
0.0
 47
0.1
 48
0.1
140
3.2
141
0.0
142
0.0
143
0.0393701
144
1.0
145
0.0
146
0.71
147
1.5
 71
     0
 72
     0
 73
     0
 74
     0
 75
     0
 76
     0
 77
     3
 78
     8
170
     0
171
     2
172
     1
173
     0
174
     0
175
     0
176
   256
177
   256
178
     2
270
     2
271
     2
272
     3
273
     2
274
     2
340
6B
275
     0
280
     0
281
     0
282
     0
283
     0
284
     0
285
     0
286
     0
287
     3
288
     0
  0
DIMSTYLE
105
63
330
A
100
AcDbSymbolTableRecord
100
AcDbDimStyleTableRecord
  2
AM_JIS$SF
 70
     0
  3

  4
"
  5
OPEN30
  6

  7

 40
0.5
 41
2.5
 42
1.0
 43
10.0
 44
1.0
 45
0.0
 46
0.0
 47
0.1
 48
0.1
140
3.2
141
0.0
142
0.0
143
0.0393701
144
1.0
145
0.0
146
0.71
147
1.5
 71
     0
 72
     0
 73
     0
 74
     0
 75
     1
 76
     1
 77
     3
 78
     8
170
     0
171
     2
172
     1
173
     0
174
     0
175
     0
176
   256
177
   256
178
     2
270
     2
271
     2
272
     2
273
     2
274
     2
340
6B
275
     0
280
     0
281
     0
282
     0
283
     0
284
     0
285
     0
286
     0
287
     3
288
     0
  0
DIMSTYLE
105
68
330
A
100
AcDbSymbolTableRecord
100
AcDbDimStyleTableRecord
  2
AM_JIS$SH
 70
     0
  3

  4
"
  5

  6
GENAXEH
  7
OPEN30
 40
0.5
 41
2.5
 42
1.0
 43
10.0
 44
1.0
 45
0.0
 46
0.0
 47
0.1
 48
0.1
140
3.2
141
0.0
142
0.0
143
0.0393701
144
2.0
145
0.0
146
0.71
147
1.5
 71
     0
 72
     0
 73
     0
 74
     0
 75
     1
 76
     1
 77
     3
 78
     8
170
     0
171
     2
172
     1
173
     1
174
     0
175
     0
176
   256
177
   256
178
     2
270
     2
271
     2
272
     2
273
     2
274
     2
340
6B
275
     0
280
     0
281
     0
282
     0
283
     0
284
     0
285
     0
286
     0
287
     3
288
     0
  0
DIMSTYLE
105
B34
330
A
100
AcDbSymbolTableRecord
100
AcDbDimStyleTableRecord
  2
AM_JIS$2
 70
     0
  3

  4
"
  5
OPEN30
  6

  7

 40
0.5
 41
2.5
 42
1.0
 43
12.0
 44
1.0
 45
0.0
 46
0.0
 47
0.1
 48
0.1
140
3.2
141
0.0
142
0.0
143
0.0393701
144
1.0
145
0.0
146
0.71
147
1.5
 71
     0
 72
     0
 73
     0
 74
     0
 75
     0
 76
     0
 77
     3
 78
     8
170
     0
171
     2
172
     1
173
     0
174
     0
175
     0
176
   256
177
   256
178
     2
270
     2
271
     3
272
     3
273
     2
274
     2
340
6B
275
     0
280
     0
281
     0
282
     0
283
     0
284
     0
285
     0
286
     0
287
     3
288
     0
  0
ENDTAB
  0
TABLE
  2
BLOCK_RECORD
  5
1
330
0
100
AcDbSymbolTable
 70
     9
  0
BLOCK_RECORD
  5
1F
102
{ACAD_XDICTIONARY
360
74
102
}
330
1
100
AcDbSymbolTableRecord
100
AcDbBlockTableRecord
  2
*MODEL_SPACE
  0
BLOCK_RECORD
  5
101
102
{ACAD_XDICTIONARY
360
19B5
102
}
330
1
100
AcDbSymbolTableRecord
100
AcDbBlockTableRecord
  2
*PAPER_SPACE
  0
BLOCK_RECORD
  5
59
330
1
100
AcDbSymbolTableRecord
100
AcDbBlockTableRecord
  2
_OPEN30
  0
BLOCK_RECORD
  5
64
330
1
100
AcDbSymbolTableRecord
100
AcDbBlockTableRecord
  2
GENAXEH
  0
BLOCK_RECORD
  5
13C0
330
1
100
AcDbSymbolTableRecord
100
AcDbBlockTableRecord
  2
*D5
  0
BLOCK_RECORD
  5
145C
330
1
100
AcDbSymbolTableRecord
100
AcDbBlockTableRecord
  2
*D6
  0
BLOCK_RECORD
  5
16DE
330
1
100
AcDbSymbolTableRecord
100
AcDbBlockTableRecord
  2
*D7
  0
BLOCK_RECORD
  5
177A
330
1
100
AcDbSymbolTableRecord
100
AcDbBlockTableRecord
  2
*D8
  0
ENDTAB
  0
ENDSEC
  0
SECTION
  2
BLOCKS
  0
BLOCK
  5
20
330
1F
100
AcDbEntity
  8
0
100
AcDbBlockBegin
  2
*MODEL_SPACE
 70
     0
 10
0.0
 20
0.0
 30
0.0
  3
*MODEL_SPACE
  1

  0
ENDBLK
  5
21
330
1F
100
AcDbEntity
  8
0
100
AcDbBlockEnd
  0
BLOCK
  5
103
330
101
100
AcDbEntity
 67
     1
  8
0
100
AcDbBlockBegin
  2
*PAPER_SPACE
 70
     0
 10
0.0
 20
0.0
 30
0.0
  3
*PAPER_SPACE
  1

  0
ENDBLK
  5
104
330
101
100
AcDbEntity
 67
     1
  8
0
100
AcDbBlockEnd
  0
BLOCK
  5
5D
330
59
100
AcDbEntity
  8
0
100
AcDbBlockBegin
  2
_OPEN30
 70
     0
 10
0.0
 20
0.0
 30
0.0
  3
_OPEN30
  1

  0
LINE
  5
5A
330
59
100
AcDbEntity
  8
0
 62
     0
100
AcDbLine
 10
-1.0
 20
0.26794919
 30
0.0
 11
0.0
 21
0.0
 31
0.0
  0
LINE
  5
5B
330
59
100
AcDbEntity
  8
0
 62
     0
100
AcDbLine
 10
0.0
 20
0.0
 30
0.0
 11
-1.0
 21
-0.26794919
 31
0.0
  0
LINE
  5
5C
330
59
100
AcDbEntity
  8
0
 62
     0
100
AcDbLine
 10
0.0
 20
0.0
 30
0.0
 11
-1.0
 21
0.0
 31
0.0
  0
ENDBLK
  5
5E
330
59
100
AcDbEntity
  8
0
100
AcDbBlockEnd
  0
BLOCK
  5
66
330
64
100
AcDbEntity
  8
0
100
AcDbBlockBegin
  2
GENAXEH
 70
     0
 10
0.0
 20
0.0
 30
0.0
  3
GENAXEH
  1

  0
LINE
  5
65
330
64
100
AcDbEntity
  8
0
100
AcDbLine
 10
-1.0
 20
0.0
 30
0.0
 11
1.0
 21
0.0
 31
0.0
  0
ENDBLK
  5
67
330
64
100
AcDbEntity
  8
0
100
AcDbBlockEnd
  0
BLOCK
  5
13CA
330
13C0
100
AcDbEntity
  8
0
100
AcDbBlockBegin
  2
*D5
 70
     1
 10
0.0
 20
0.0
 30
0.0
  3
*D5
  1

  0
LINE
  5
17EE
330
13C0
100
AcDbEntity
  8
AM_5
100
AcDbLine
 10
-79.99999999999978
 20
-5.749999999998682
 30
0.0
 11
-79.99999999999978
 21
-19.50000099999978
 31
0.0
  0
LINE
  5
17EF
330
13C0
100
AcDbEntity
  8
AM_5
100
AcDbLine
 10
0.0000000000002238
 20
-5.500000000000135
 30
0.0
 11
0.0000000000002229
 21
-19.50000099999978
 31
0.0
  0
LINE
  5
17F0
330
13C0
100
AcDbEntity
  8
AM_5
100
AcDbLine
 10
-78.74999999999978
 20
-19.00000099999978
 30
0.0
 11
-1.249999999999777
 21
-19.00000099999978
 31
0.0
  0
INSERT
  5
17F1
330
13C0
100
AcDbEntity
  8
AM_5
100
AcDbBlockReference
  2
_OPEN30
 10
-79.99999999999978
 20
-19.00000099999978
 30
0.0
 41
1.25
 42
1.25
 43
1.25
 50
180.0
  0
INSERT
  5
17F2
330
13C0
100
AcDbEntity
  8
AM_5
100
AcDbBlockReference
  2
_OPEN30
 10
0.000000000000223
 20
-19.00000099999978
 30
0.0
 41
1.25
 42
1.25
 43
1.25
  0
MTEXT
  5
17F3
330
13C0
100
AcDbEntity
  8
AM_5
 62
     2
100
AcDbMText
 10
-39.99999999999978
 20
-17.45000099999978
 30
0.0
 40
1.6
 41
0.0
 71
     5
 72
     1
  1
80
  7
ASAMI
1001
ACAD
1000
MTEXTBEGIN
1070
    73
1070
     1
1070
    44
1040
1.0
1070
    74
1070
     0
1000
MTEXTEND
  0
POINT
  5
17F4
330
13C0
100
AcDbEntity
  8
DEFPOINTS
 62
     0
100
AcDbPoint
 10
-79.99999999999978
 20
-5.249999999998682
 30
0.0
  0
POINT
  5
17F5
330
13C0
100
AcDbEntity
  8
DEFPOINTS
 62
     0
100
AcDbPoint
 10
0.0000000000002238
 20
-5.000000000000135
 30
0.0
  0
POINT
  5
17F6
330
13C0
100
AcDbEntity
  8
DEFPOINTS
 62
     0
100
AcDbPoint
 10
0.000000000000223
 20
-19.00000099999978
 30
0.0
  0
ENDBLK
  5
13CB
330
13C0
100
AcDbEntity
  8
0
100
AcDbBlockEnd
  0
BLOCK
  5
1466
330
145C
100
AcDbEntity
  8
0
100
AcDbBlockBegin
  2
*D6
 70
     1
 10
0.0
 20
0.0
 30
0.0
  3
*D6
  1

  0
LINE
  5
17F7
330
145C
100
AcDbEntity
  8
AM_5
100
AcDbLine
 10
-30.00000000000027
 20
-5.500000000000035
 30
0.0
 11
-30.00000000000027
 21
-13.50000100000149
 31
0.0
  0
LINE
  5
17F8
330
145C
100
AcDbEntity
  8
AM_5
100
AcDbLine
 10
0.0000000000000248
 20
-5.500000000000135
 30
0.0
 11
0.0000000000000243
 21
-13.50000100000149
 31
0.0
  0
LINE
  5
17F9
330
145C
100
AcDbEntity
  8
AM_5
100
AcDbLine
 10
-28.75000000000028
 20
-13.00000100000149
 30
0.0
 11
-1.249999999999975
 21
-13.00000100000149
 31
0.0
  0
INSERT
  5
17FA
330
145C
100
AcDbEntity
  8
AM_5
100
AcDbBlockReference
  2
_OPEN30
 10
-30.00000000000027
 20
-13.00000100000149
 30
0.0
 41
1.25
 42
1.25
 43
1.25
 50
180.0
  0
INSERT
  5
17FB
330
145C
100
AcDbEntity
  8
AM_5
100
AcDbBlockReference
  2
_OPEN30
 10
0.0000000000000244
 20
-13.00000100000149
 30
0.0
 41
1.25
 42
1.25
 43
1.25
  0
MTEXT
  5
17FC
330
145C
100
AcDbEntity
  8
AM_5
 62
     2
100
AcDbMText
 10
-15.00000000000012
 20
-11.45000100000149
 30
0.0
 40
1.6
 41
0.0
 71
     5
 72
     1
  1
30
  7
ASAMI
1001
ACAD
1000
MTEXTBEGIN
1070
    73
1070
     1
1070
    44
1040
1.0
1070
    74
1070
     0
1000
MTEXTEND
  0
POINT
  5
17FD
330
145C
100
AcDbEntity
  8
DEFPOINTS
 62
     0
100
AcDbPoint
 10
-30.00000000000027
 20
-5.000000000000035
 30
0.0
  0
POINT
  5
17FE
330
145C
100
AcDbEntity
  8
DEFPOINTS
 62
     0
100
AcDbPoint
 10
0.0000000000000249
 20
-5.000000000000135
 30
0.0
  0
POINT
  5
17FF
330
145C
100
AcDbEntity
  8
DEFPOINTS
 62
     0
100
AcDbPoint
 10
0.0000000000000244
 20
-13.00000100000149
 30
0.0
  0
ENDBLK
  5
1467
330
145C
100
AcDbEntity
  8
0
100
AcDbBlockEnd
  0
BLOCK
  5
16E8
330
16DE
100
AcDbEntity
  8
0
100
AcDbBlockBegin
  2
*D7
 70
     1
 10
0.0
 20
0.0
 30
0.0
  3
*D7
  1

  0
LINE
  5
16FC
330
16DE
100
AcDbEntity
  8
AM_5
100
AcDbLine
 10
-79.74999999999977
 20
5.999999999999808
 30
0.0
 11
-90.23320585933191
 21
5.999999999999811
 31
0.0
  0
LINE
  5
16FD
330
16DE
100
AcDbEntity
  8
AM_5
100
AcDbLine
 10
-79.74999999999977
 20
-5.999999999998673
 30
0.0
 11
-90.23320585933191
 21
-5.99999999999867
 31
0.0
  0
LINE
  5
16FE
330
16DE
100
AcDbEntity
  8
AM_5
100
AcDbLine
 10
-89.73320585933192
 20
4.74999999999981
 30
0.0
 11
-89.73320585933192
 21
-4.749999999998671
 31
0.0
  0
INSERT
  5
16FF
330
16DE
100
AcDbEntity
  8
AM_5
100
AcDbBlockReference
  2
_OPEN30
 10
-89.73320585933192
 20
5.99999999999981
 30
0.0
 41
1.25
 42
1.25
 43
1.25
 50
90.0
  0
INSERT
  5
1700
330
16DE
100
AcDbEntity
  8
AM_5
100
AcDbBlockReference
  2
_OPEN30
 10
-89.73320585933192
 20
-5.999999999998671
 30
0.0
 41
1.25
 42
1.25
 43
1.25
 50
270.0
  0
MTEXT
  5
1701
330
16DE
100
AcDbEntity
  8
AM_5
 62
     2
100
AcDbMText
 10
-91.28320585933192
 20
0.0000000000005559
 30
0.0
 40
1.6
 41
0.0
 71
     5
 72
     1
  1
%%c12
  7
ASAMI
 11
0.0000000000000001
 21
1.0
 31
0.0
1001
ACAD
1000
MTEXTBEGIN
1070
    73
1070
     1
1070
    44
1040
1.0
1070
    74
1070
     0
1000
MTEXTEND
  0
POINT
  5
1702
330
16DE
100
AcDbEntity
  8
DEFPOINTS
 62
     0
100
AcDbPoint
 10
-79.24999999999977
 20
5.999999999999808
 30
0.0
  0
POINT
  5
1703
330
16DE
100
AcDbEntity
  8
DEFPOINTS
 62
     0
100
AcDbPoint
 10
-79.24999999999977
 20
-5.999999999998673
 30
0.0
  0
POINT
  5
1704
330
16DE
100
AcDbEntity
  8
DEFPOINTS
 62
     0
100
AcDbPoint
 10
-89.73320585933192
 20
-5.999999999998671
 30
0.0
  0
ENDBLK
  5
16E9
330
16DE
100
AcDbEntity
  8
0
100
AcDbBlockEnd
  0
BLOCK
  5
1784
330
177A
100
AcDbEntity
  8
0
100
AcDbBlockBegin
  2
*D8
 70
     1
 10
0.0
 20
0.0
 30
0.0
  3
*D8
  1

  0
LINE
  5
18FF
330
177A
100
AcDbEntity
  8
AM_5
100
AcDbLine
 10
0.5000000000000117
 20
5.999999999999855
 30
0.0
 11
12.05776903085531
 21
5.999999999999851
 31
0.0
  0
LINE
  5
1900
330
177A
100
AcDbEntity
  8
AM_5
100
AcDbLine
 10
0.5000000000000195
 20
-6.000000000000144
 30
0.0
 11
12.05776903085531
 21
-6.000000000000148
 31
0.0
  0
LINE
  5
1901
330
177A
100
AcDbEntity
  8
AM_5
100
AcDbLine
 10
11.55776903085531
 20
4.749999999999851
 30
0.0
 11
11.55776903085531
 21
-4.750000000000148
 31
0.0
  0
INSERT
  5
1902
330
177A
100
AcDbEntity
  8
AM_5
100
AcDbBlockReference
  2
_OPEN30
 10
11.55776903085531
 20
5.999999999999851
 30
0.0
 41
1.25
 42
1.25
 43
1.25
 50
90.0
  0
INSERT
  5
1903
330
177A
100
AcDbEntity
  8
AM_5
100
AcDbBlockReference
  2
_OPEN30
 10
11.55776903085531
 20
-6.000000000000148
 30
0.0
 41
1.25
 42
1.25
 43
1.25
 50
270.0
  0
MTEXT
  5
1904
330
177A
100
AcDbEntity
  8
AM_5
 62
     2
100
AcDbMText
 10
10.00776903085531
 20
-0.0000000000001462
 30
0.0
 40
1.6
 41
0.0
 71
     5
 72
     1
  1
%%c12
  7
ASAMI
 11
0.0000000000000001
 21
1.0
 31
0.0
1001
ACAD
1000
MTEXTBEGIN
1070
    73
1070
     1
1070
    44
1040
1.0
1070
    74
1070
     0
1000
MTEXTEND
  0
POINT
  5
1905
330
177A
100
AcDbEntity
  8
DEFPOINTS
 62
     0
100
AcDbPoint
 10
0.0000000000000116
 20
5.999999999999855
 30
0.0
  0
POINT
  5
1906
330
177A
100
AcDbEntity
  8
DEFPOINTS
 62
     0
100
AcDbPoint
 10
0.0000000000000194
 20
-6.000000000000144
 30
0.0
  0
POINT
  5
1907
330
177A
100
AcDbEntity
  8
DEFPOINTS
 62
     0
100
AcDbPoint
 10
11.55776903085531
 20
-6.000000000000148
 30
0.0
  0
ENDBLK
  5
1785
330
177A
100
AcDbEntity
  8
0
100
AcDbBlockEnd
  0
ENDSEC
  0
SECTION
  2
ENTITIES
  0
TEXT
  5
E5A
330
1F
100
AcDbEntity
  8
AM_6
100
AcDbText
 10
-47.79761904761882
 20
-30.25000099999978
 30
0.0
 40
2.5
  1
LSM4120
 72
     4
 11
-39.99999999999977
 21
-29.00000099999978
 31
0.0
100
AcDbText
  0
LINE
  5
132B
330
1F
100
AcDbEntity
  8
AM_7
  6
AM_ISO08W050X2
100
AcDbLine
 10
4.557768030854969
 20
-0.0000000000001137
 30
0.0
 11
-82.73320485933165
 21
-0.0000000000001492
 31
0.0
1001
GENIUS_GENODEF_13
1002
{
1000
HIER
1070
     0
1002
}
1002
{
1000
MANEDIT
1070
     0
1002
}
1002
{
1000
NOSEL
1070
     0
1002
}
1002
{
1000
BEHIND
1070
     0
1002
}
1002
{
1000
REACTOR
1002
}
1001
GENIUS_GENOBJ-N-CEN_13
1002
{
1000
OWNER
1000
GEN
1002
}
  0
DIMENSION
  5
13B3
330
1F
100
AcDbEntity
  8
AM_5
100
AcDbDimension
  2
*D5
 10
0.000000000000223
 20
-19.00000099999978
 30
0.0
 11
-39.99999999999978
 21
-17.45000099999978
 31
0.0
 70
    32
  1
<>
  3
AM_JIS
100
AcDbAlignedDimension
 13
-79.99999999999978
 23
-5.249999999998682
 33
0.0
 14
0.0000000000002238
 24
-5.000000000000135
 34
0.0
100
AcDbRotatedDimension
1001
GENIUS_GENDTOL_13
1000

1000
h7
1000

1040
0.0
  0
DIMENSION
  5
145B
330
1F
100
AcDbEntity
  8
AM_5
100
AcDbDimension
  2
*D6
 10
0.0000000000000244
 20
-13.00000100000149
 30
0.0
 11
-15.00000000000012
 21
-11.45000100000149
 31
0.0
 70
    32
  1
<>
  3
AM_JIS
100
AcDbAlignedDimension
 13
-30.00000000000027
 23
-5.000000000000035
 33
0.0
 14
0.0000000000000249
 24
-5.000000000000135
 34
0.0
 50
359.9999999999967
100
AcDbRotatedDimension
1001
GENIUS_GENDTOL_13
1000

1000
h7
1000

1040
0.0
  0
LINE
  5
16D7
330
1F
100
AcDbEntity
  8
AM_0
100
AcDbLine
 10
-30.00000000000027
 20
5.999999999999993
 30
0.0
 11
-79.24999999999977
 21
5.999999999999807
 31
0.0
  0
LINE
  5
16D8
330
1F
100
AcDbEntity
  8
AM_0
100
AcDbLine
 10
-31.98487346484368
 20
-6.0
 30
0.0
 11
-79.24999999999982
 21
-5.999999999998674
 31
0.0
  0
LINE
  5
16DA
330
1F
100
AcDbEntity
  8
AM_0
100
AcDbLine
 10
-79.99999999999977
 20
5.249999999999804
 30
0.0
 11
-79.99999999999982
 21
-5.249999999998654
 31
0.0
  0
LINE
  5
16DB
330
1F
100
AcDbEntity
  8
AM_0
100
AcDbLine
 10
-79.24999999999977
 20
5.999999999999808
 30
0.0
 11
-79.24999999999979
 21
-5.999999999998673
 31
0.0
  0
DIMENSION
  5
16DD
330
1F
100
AcDbEntity
  8
AM_5
100
AcDbDimension
  2
*D7
 10
-89.73320585933192
 20
-5.999999999998671
 30
0.0
 11
-91.28320585933192
 21
0.0000000000005559
 31
0.0
 70
    32
  1
%%c<>
  3
AM_JIS
100
AcDbAlignedDimension
 13
-79.24999999999977
 23
5.999999999999808
 33
0.0
 14
-79.24999999999977
 24
-5.999999999998673
 34
0.0
 50
270.0
100
AcDbRotatedDimension
1001
GENIUS_GENDTOL_13
1000

1000
h7
1000

1040
0.0
  0
LINE
  5
1707
330
1F
100
AcDbEntity
  8
AM_0
100
AcDbLine
 10
-79.24999999999977
 20
5.999999999999807
 30
0.0
 11
-79.99999999999977
 21
5.249999999999804
 31
0.0
1001
GENIUS_GENFIL_13
1070
     0
1040
0.75
1040
0.75
1040
20.0
1040
0.0
1002
{
1002
}
1001
GENIUS_GENODEF_13
1002
{
1000
HIER
1070
     0
1002
}
1002
{
1000
MANEDIT
1070
     0
1002
}
1002
{
1000
NOSEL
1070
     0
1002
}
1002
{
1000
BEHIND
1070
     0
1002
}
1002
{
1000
REACTOR
1002
}
1001
GENIUS_GENOBJ-N-CHA_13
1002
{
1000
OWNER
1000
GEN
1002
}
  0
LINE
  5
170A
330
1F
100
AcDbEntity
  8
AM_0
100
AcDbLine
 10
-79.99999999999982
 20
-5.249999999998654
 30
0.0
 11
-79.24999999999982
 21
-5.999999999998674
 31
0.0
1001
GENIUS_GENFIL_13
1070
     0
1040
0.75
1040
0.75
1040
20.0
1040
0.0
1002
{
1002
}
1001
GENIUS_GENODEF_13
1002
{
1000
HIER
1070
     0
1002
}
1002
{
1000
MANEDIT
1070
     0
1002
}
1002
{
1000
NOSEL
1070
     0
1002
}
1002
{
1000
BEHIND
1070
     0
1002
}
1002
{
1000
REACTOR
1002
}
1001
GENIUS_GENOBJ-N-CHA_13
1002
{
1000
OWNER
1000
GEN
1002
}
  0
LINE
  5
1768
330
1F
100
AcDbEntity
  8
AM_0
100
AcDbLine
 10
-1.16457185208661
 20
3.200568976812473
 30
0.0
 11
-2.570806070205918
 21
3.610144107033693
 31
0.0
  0
LINE
  5
1769
330
1F
100
AcDbEntity
  8
AM_0
100
AcDbLine
 10
-0.000000000000217
 20
-1.199999999999999
 30
0.0
 11
-0.6298366572980181
 21
0.0000000000000682
 31
0.0
  0
LINE
  5
176A
330
1F
100
AcDbEntity
  8
AM_0
100
AcDbLine
 10
-0.000000000000217
 20
0.0
 30
0.0
 11
-0.0969192099754537
 21
-1.015344104502901
 31
0.0
  0
LINE
  5
176B
330
1F
100
AcDbEntity
  8
AM_0
100
AcDbLine
 10
-0.000000000000217
 20
0.0
 30
0.0
 11
-0.1145454545456682
 21
1.200000000000136
 31
0.0
  0
LINE
  5
176C
330
1F
100
AcDbEntity
  8
AM_0
100
AcDbLine
 10
-2.57080607020591
 20
0.0
 30
0.0
 11
-2.57080607020591
 21
-0.9600000000000136
 31
0.0
  0
LINE
  5
176D
330
1F
100
AcDbEntity
  8
AM_0
100
AcDbLine
 10
-0.000000000000217
 20
0.0
 30
0.0
 11
-2.57080607020591
 21
0.0
 31
0.0
  0
LINE
  5
176E
330
1F
100
AcDbEntity
  8
AM_0
100
AcDbLine
 10
-2.57080607020591
 20
-0.9600000000000136
 30
0.0
 11
-0.125967331459771
 21
-0.9600000000000136
 31
0.0
  0
LINE
  5
176F
330
1F
100
AcDbEntity
  8
AM_0
100
AcDbLine
 10
-0.9386814389360386
 20
-1.768385718199852
 30
0.0
 11
-0.1145454545456604
 21
-1.592277425475822
 31
0.0
  0
ELLIPSE
  5
1770
330
1F
100
AcDbEntity
  8
AM_0
100
AcDbEllipse
 10
2.166188925847636
 20
-3.052656197661485
 30
0.0
 11
-0.0000000000000017
 21
3.648837738619259
 31
0.0
210
0.0
220
0.0
230
1.0
 40
0.9090909090909093
 41
1.211124581303824
 42
2.06927853829032
  0
LINE
  5
1771
330
1F
100
AcDbEntity
  8
AM_0
100
AcDbLine
 10
-2.57080607020591
 20
-0.9600000000000136
 30
0.0
 11
-0.9386814389360386
 21
-1.768385718199852
 31
0.0
  0
LINE
  5
1772
330
1F
100
AcDbEntity
  8
AM_0
100
AcDbLine
 10
-0.1145454545456604
 20
-1.592277425475822
 30
0.0
 11
-0.000000000000217
 21
-1.199999999999999
 31
0.0
  0
LINE
  5
1773
330
1F
100
AcDbEntity
  8
AM_0
100
AcDbLine
 10
-0.000000000000217
 20
0.0
 30
0.0
 11
-0.0000000000002248
 21
6.0
 31
0.0
  0
LINE
  5
1774
330
1F
100
AcDbEntity
  8
AM_0
100
AcDbLine
 10
-0.1145454545456682
 20
1.200000000000136
 30
0.0
 11
-1.16457185208661
 21
3.200568976812473
 31
0.0
  0
LINE
  5
1775
330
1F
100
AcDbEntity
  8
AM_0
100
AcDbLine
 10
-0.0000000000002093
 20
-6.0
 30
0.0
 11
-0.1145454545456527
 21
-5.68012938914619
 31
0.0
  0
LINE
  5
1776
330
1F
100
AcDbEntity
  8
AM_0
100
AcDbLine
 10
-0.1145454545456527
 20
-5.68012938914619
 30
0.0
 11
-0.1145454545456604
 21
-1.592277425475822
 31
0.0
  0
LINE
  5
1777
330
1F
100
AcDbEntity
  8
AM_0
100
AcDbLine
 10
-0.0000000000002093
 20
-6.0
 30
0.0
 11
-0.000000000000217
 21
-1.199999999999999
 31
0.0
  0
LINE
  5
1778
330
1F
100
AcDbEntity
  8
AM_0
100
AcDbLine
 10
-0.1145454545456527
 20
-5.680129389146123
 30
0.0
 11
-0.747272727272939
 21
-4.797139986554292
 31
0.0
  0
DIMENSION
  5
1779
330
1F
100
AcDbEntity
  8
AM_5
100
AcDbDimension
  2
*D8
 10
11.55776903085531
 20
-6.000000000000148
 30
0.0
 11
10.00776903085531
 21
-0.0000000000001462
 31
0.0
 70
    32
  1
%%c<>
  3
AM_JIS
100
AcDbAlignedDimension
 13
0.0000000000000116
 23
5.999999999999855
 33
0.0
 14
0.0000000000000194
 24
-6.000000000000144
 34
0.0
 50
90.0
100
AcDbRotatedDimension
1001
GENIUS_GENDTOL_13
1000

1000
h7
1000

1040
0.0
  0
SPLINE
  5
1786
330
1F
100
AcDbEntity
  8
AM_0
100
AcDbSpline
210
0.0
220
0.0
230
1.0
 70
     8
 71
     3
 72
     8
 73
     4
 74
     0
 42
0.0000000001
 43
0.0000000001
 40
0.0
 40
0.0
 40
0.0
 40
0.0
 40
14.39315234083324
 40
14.39315234083324
 40
14.39315234083324
 40
14.39315234083324
 10
-14.83636363636405
 20
-5.99999999999988
 30
0.0
 10
-20.07023721484887
 20
-5.999999999999888
 30
0.0
 10
-24.82512551210685
 20
-3.039967122693257
 30
0.0
 10
-29.5420844196345
 20
0.0000000000000931
 30
0.0
  0
SPLINE
  5
1787
330
1F
100
AcDbEntity
  8
AM_0
100
AcDbSpline
210
0.0
220
0.0
230
1.0
 70
     8
 71
     3
 72
     8
 73
     4
 74
     0
 42
0.0000000001
 43
0.0000000001
 40
0.0
 40
0.0
 40
0.0
 40
0.0
 40
14.48999654934396
 40
14.48999654934396
 40
14.48999654934396
 40
14.48999654934396
 10
-29.9999999999701
 20
6.000000000000102
 30
0.0
 10
-24.40363761842059
 20
6.000000000000109
 30
0.0
 10
-19.62000062739221
 20
3.000000000000114
 30
0.0
 10
-14.83636363636384
 20
0.0000000000001194
 30
0.0
  0
SPLINE
  5
1789
330
1F
100
AcDbEntity
  8
AM_0
100
AcDbSpline
210
0.0
220
0.0
230
1.0
 70
     8
 71
     3
 72
     8
 73
     4
 74
     0
 42
0.0000000001
 43
0.0000000001
 40
0.0
 40
0.0
 40
0.0
 40
0.0
 40
2.764560748519282
 40
2.764560748519282
 40
2.764560748519282
 40
2.764560748519282
 10
-12.93223769236993
 20
-5.82034040440248
 30
0.0
 10
-11.92694287472657
 20
-5.82034040440248
 30
0.0
 10
-10.93842477395166
 20
-5.713657378212073
 30
0.0
 10
-9.963471242811023
 20
-5.520717347811737
 30
0.0
  0
SPLINE
  5
178A
330
1F
100
AcDbEntity
  8
AM_0
100
AcDbSpline
210
0.0
220
0.0
230
1.0
 70
     8
 71
     3
 72
     8
 73
     4
 74
     0
 42
0.0000000001
 43
0.0000000001
 40
1.870660592686466
 40
1.870660592686466
 40
1.870660592686466
 40
1.870660592686466
 40
14.43901837670146
 40
14.43901837670146
 40
14.43901837670146
 40
14.43901837670146
 10
-0.1145454545456527
 20
-5.680129389146123
 30
0.0
 10
-4.588325008613467
 20
-5.066280734521782
 30
0.0
 10
-8.760281350491615
 20
-2.533140367260861
 30
0.0
 10
-12.93223769236975
 20
0.0000000000000512
 30
0.0
  0
SPLINE
  5
178B
330
1F
100
AcDbEntity
  8
AM_0
100
AcDbSpline
210
0.0
220
0.0
230
1.0
 70
     8
 71
     3
 72
     8
 73
     4
 74
     0
 42
0.0000000001
 43
0.0000000001
 40
0.7142832446738512
 40
0.7142832446738512
 40
0.7142832446738512
 40
0.7142832446738512
 40
14.36247867694493
 40
14.36247867694493
 40
14.36247867694493
 40
14.36247867694493
 10
-24.91559363301378
 20
5.520717347789116
 30
0.0
 10
-19.8751872385704
 20
5.265368442570612
 30
0.0
 10
-15.30742088420788
 20
2.632684221285336
 30
0.0
 10
-10.73965452984535
 20
0.0000000000000597
 30
0.0
  0
SPLINE
  5
178C
330
1F
100
AcDbEntity
  8
AM_0
100
AcDbSpline
210
0.0
220
0.0
230
1.0
 70
     8
 71
     3
 72
     8
 73
     4
 74
     0
 42
0.0000000001
 43
0.0000000001
 40
0.0
 40
0.0
 40
0.0
 40
0.0
 40
14.36247867694493
 40
14.36247867694493
 40
14.36247867694493
 40
14.36247867694493
 10
-10.73965452984556
 20
-5.540933404563097
 30
0.0
 10
-15.96237404873463
 20
-5.540933404563103
 30
0.0
 10
-20.76919610747191
 20
-2.770466702281466
 30
0.0
 10
-25.5760181662092
 20
0.0000000000001705
 30
0.0
  0
SPLINE
  5
178D
330
1F
100
AcDbEntity
  8
AM_0
100
AcDbSpline
210
0.0
220
0.0
230
1.0
 70
     8
 71
     3
 72
     8
 73
     4
 74
     0
 42
0.0000000001
 43
0.0000000001
 40
0.0
 40
0.0
 40
0.0
 40
0.0
 40
14.48999654934396
 40
14.48999654934396
 40
14.48999654934396
 40
14.48999654934396
 10
-0.0000000000002093
 20
-6.0
 30
0.0
 10
-5.269089654307102
 20
-6.000000000000007
 30
0.0
 10
-10.05272664533547
 20
-3.000000000000012
 30
0.0
 10
-14.83636363636384
 20
-0.0000000000000171
 30
0.0
  0
SPLINE
  5
178E
330
1F
100
AcDbEntity
  8
AM_0
100
AcDbSpline
210
0.0
220
0.0
230
1.0
 70
     8
 71
     3
 72
     8
 73
     4
 74
     0
 42
0.0000000001
 43
0.0000000001
 40
0.0
 40
0.0
 40
0.0
 40
0.0
 40
14.48999654934396
 40
14.48999654934396
 40
14.48999654934396
 40
14.48999654934396
 10
-14.83636363636385
 20
6.000000000000119
 30
0.0
 10
-9.56727398205696
 20
6.000000000000125
 30
0.0
 10
-4.783636991028589
 20
3.000000000000131
 30
0.0
 10
-0.000000000000217
 20
0.0000000000001364
 30
0.0
  0
SPLINE
  5
178F
330
1F
100
AcDbEntity
  8
AM_0
100
AcDbSpline
210
0.0
220
0.0
230
1.0
 70
     8
 71
     3
 72
     8
 73
     4
 74
     0
 42
0.0000000001
 43
0.0000000001
 40
0.3581103616548037
 40
0.3581103616548037
 40
0.3581103616548037
 40
0.3581103616548037
 40
12.40023413887867
 40
12.40023413887867
 40
12.40023413887867
 40
12.40023413887867
 10
-12.542409381079
 20
5.815014507423193
 30
0.0
 10
-8.182152860494994
 20
5.696116724475396
 30
0.0
 10
-4.132319321618428
 20
3.603241354182
 30
0.0
 10
-0.1274321371593007
 20
1.224552427930757
 30
0.0
  0
SPLINE
  5
1790
330
1F
100
AcDbEntity
  8
AM_0
100
AcDbSpline
210
0.0
220
0.0
230
1.0
 70
     8
 71
     3
 72
     8
 73
     4
 74
     0
 42
0.0000000001
 43
0.0000000001
 40
4.542668862435135
 40
4.542668862435135
 40
4.542668862435135
 40
4.542668862435135
 40
14.36247867694493
 40
14.36247867694493
 40
14.36247867694493
 40
14.36247867694493
 10
-0.7472727272714197
 20
-4.797139986547949
 30
0.0
 10
-4.166683458388074
 20
-3.78840682388743
 30
0.0
 10
-7.453168994116718
 20
-1.894203411943689
 30
0.0
 10
-10.73965452984535
 20
0.0000000000000597
 30
0.0
  0
SPLINE
  5
1791
330
1F
100
AcDbEntity
  8
AM_0
100
AcDbSpline
210
0.0
220
0.0
230
1.0
 70
     8
 71
     3
 72
     8
 73
     4
 74
     0
 42
0.0000000001
 43
0.0000000001
 40
0.0
 40
0.0
 40
0.0
 40
0.0
 40
5.635889483499127
 40
5.635889483499127
 40
5.635889483499127
 40
5.635889483499127
 10
-0.0000000000002248
 20
6.0
 30
0.0
 10
-2.049414357636266
 20
6.0
 30
0.0
 10
-4.02538827691235
 20
5.546152834774965
 30
0.0
 10
-5.956486443320765
 20
4.814982526045483
 30
0.0
  0
SPLINE
  5
1792
330
1F
100
AcDbEntity
  8
AM_0
100
AcDbSpline
210
0.0
220
0.0
230
1.0
 70
     8
 71
     3
 72
     8
 73
     4
 74
     0
 42
0.0000000001
 43
0.0000000001
 40
0.0
 40
0.0
 40
0.0
 40
0.0
 40
2.586565323616714
 40
2.586565323616714
 40
2.586565323616714
 40
2.586565323616714
 10
-0.0000000000002248
 20
4.889643224020756
 30
0.0
 10
-0.6035644150943452
 20
4.096131835381209
 30
0.0
 10
-1.639548550599493
 20
3.755368556309222
 30
0.0
 10
-2.570806070205918
 20
3.610144107033693
 30
0.0
  0
SPLINE
  5
1793
330
1F
100
AcDbEntity
  8
AM_0
100
AcDbSpline
210
0.0
220
0.0
230
1.0
 70
     8
 71
     3
 72
     8
 73
     4
 74
     0
 42
0.0000000001
 43
0.0000000001
 40
0.7142832446738512
 40
0.7142832446738512
 40
0.7142832446738512
 40
0.7142832446738512
 40
9.361146747480315
 40
9.361146747480315
 40
9.361146747480315
 40
9.361146747480315
 10
-9.963471242695915
 20
5.520717347789141
 30
0.0
 10
-6.843442946058186
 20
5.358940126765893
 30
0.0
 10
-3.866663292488983
 20
4.242923859359552
 30
0.0
 10
-0.9423765868692802
 20
2.777230139377138
 30
0.0
  0
SPLINE
  5
1794
330
1F
100
AcDbEntity
  8
AM_0
100
AcDbSpline
210
0.0
220
0.0
230
1.0
 70
     8
 71
     3
 72
     8
 73
     4
 74
     0
 42
0.0000000001
 43
0.0000000001
 40
0.0
 40
0.0
 40
0.0
 40
0.0
 40
4.451443990518192
 40
4.451443990518192
 40
4.451443990518192
 40
4.451443990518192
 10
-10.73965452984556
 20
-5.540933404563233
 30
0.0
 10
-9.120947624202566
 20
-5.540933404563233
 30
0.0
 10
-7.542191870021158
 20
-5.274802097096935
 30
0.0
 10
-5.991004981688374
 20
-4.825023058708175
 30
0.0
  0
SPLINE
  5
1795
330
1F
100
AcDbEntity
  8
AM_0
100
AcDbSpline
210
0.0
220
0.0
230
1.0
 70
     8
 71
     3
 72
     8
 73
     4
 74
     0
 42
0.0000000001
 43
0.0000000001
 40
0.0
 40
0.0
 40
0.0
 40
0.0
 40
14.43901837670149
 40
14.43901837670149
 40
14.43901837670149
 40
14.43901837670149
 10
-12.93223769236993
 20
-5.820340404402344
 30
0.0
 10
-18.18278982935229
 20
-5.820340404402351
 30
0.0
 10
-22.97569557904294
 20
-2.91017020220109
 30
0.0
 10
-27.7686013287336
 20
0.0000000000001705
 30
0.0
  0
SPLINE
  5
1796
330
1F
100
AcDbEntity
  8
AM_0
100
AcDbSpline
210
0.0
220
0.0
230
1.0
 70
     8
 71
     3
 72
     8
 73
     4
 74
     0
 42
0.0000000001
 43
0.0000000001
 40
0.3581103616548037
 40
0.3581103616548037
 40
0.3581103616548037
 40
0.3581103616548037
 40
14.43901837670146
 40
14.43901837670146
 40
14.43901837670146
 40
14.43901837670146
 10
-27.58188506666606
 20
5.815014507423177
 30
0.0
 10
-22.28030599250853
 20
5.675986809663842
 30
0.0
 10
-17.60627184243913
 20
2.837993404831942
 30
0.0
 10
-12.93223769236975
 20
0.0000000000000512
 30
0.0
  0
SPLINE
  5
1797
330
1F
100
AcDbEntity
  8
AM_0
100
AcDbSpline
210
0.0
220
0.0
230
1.0
 70
     8
 71
     3
 72
     8
 73
     4
 74
     0
 42
0.0000000001
 43
0.0000000001
 40
0.0
 40
0.0
 40
0.0
 40
0.0
 40
5.635889483499305
 40
5.635889483499305
 40
5.635889483499305
 40
5.635889483499305
 10
-14.83636363636407
 20
6.000000000000119
 30
0.0
 10
-16.8857779940002
 20
6.000000000000119
 30
0.0
 10
-18.86175191327632
 20
5.546152834775077
 30
0.0
 10
-20.83673715755521
 20
4.814982526045533
 30
0.0
  0
SPLINE
  5
1798
330
1F
100
AcDbEntity
  8
AM_0
100
AcDbSpline
210
0.0
220
0.0
230
1.0
 70
     8
 71
     3
 72
     8
 73
     4
 74
     0
 42
0.0000000001
 43
0.0000000001
 40
0.0
 40
0.0
 40
0.0
 40
0.0
 40
2.130230809022907
 40
2.130230809022907
 40
2.130230809022907
 40
2.130230809022907
 10
-14.83636363636405
 20
-6.000000000000016
 30
0.0
 10
-14.0617342512648
 20
-6.000000000000016
 30
0.0
 10
-13.2975969957783
 20
-5.935160745384217
 30
0.0
 10
-12.54240938107942
 20
-5.815014507423092
 30
0.0
  0
SPLINE
  5
17B9
330
1F
100
AcDbEntity
  8
AM_0
100
AcDbSpline
210
0.0
220
0.0
230
1.0
 70
     8
 71
     3
 72
     8
 73
     4
 74
     0
 42
0.0000000001
 43
0.0000000001
 40
11.55072632565947
 40
11.55072632565947
 40
11.55072632565947
 40
11.55072632565947
 40
14.43901837670146
 40
14.43901837670146
 40
14.43901837670146
 40
14.43901837670146
 10
-30.67803530952034
 20
1.785552560774977
 30
0.0
 10
-29.68608785268762
 20
1.164264944182103
 30
0.0
 10
-28.58959636891416
 20
0.5821324720910703
 30
0.0
 10
-27.7686013287336
 20
0.0000000000000341
 30
0.0
  0
SPLINE
  5
17BB
330
1F
100
AcDbEntity
  8
AM_0
100
AcDbSpline
210
0.0
220
0.0
230
1.0
 70
     8
 71
     3
 72
     8
 73
     4
 74
     0
 42
0.0000000001
 43
0.0000000001
 40
14.15955778658863
 40
14.15955778658863
 40
14.15955778658863
 40
14.15955778658863
 40
14.48999654934393
 40
14.48999654934393
 40
14.48999654934393
 40
14.48999654934393
 10
-30.00000000000027
 20
0.3522250476695667
 30
0.0
 10
-29.80738800944091
 20
0.1995783395481246
 30
0.0
 10
-29.68341132046996
 20
0.0621858480078311
 30
0.0
 10
-29.54208441963499
 20
0.0000000000001023
 30
0.0
  0
LINE
  5
17BC
330
1F
100
AcDbEntity
  8
AM_11
100
AcDbLine
 10
-30.00000000000039
 20
-6.000000000000036
 30
0.0
 11
-0.0000000000002093
 21
-6.0
 31
0.0
  0
LINE
  5
17BD
330
1F
100
AcDbEntity
  8
AM_11
100
AcDbLine
 10
-0.0000000000010619
 20
6.0
 30
0.0
 11
-29.99999999999932
 21
5.999999999999964
 31
0.0
  0
LINE
  5
18CB
330
1F
100
AcDbEntity
  8
AM_11
100
AcDbLine
 10
-30.00000000000038
 20
-6.000000000000037
 30
0.0
 11
-30.00000000000027
 21
5.999999999999962
 31
0.0
  0
POLYLINE
  5
18CE
330
1F
100
AcDbEntity
  8
AM_0
100
AcDb2dPolyline
 66
     1
 10
0.0
 20
0.0
 30
0.0
 70
     2
  0
VERTEX
  5
18CF
330
18CE
100
AcDbEntity
  8
AM_0
100
AcDbVertex
100
AcDb2dVertex
 10
-33.05698519018679
 20
3.984507818690843
 30
0.0
 42
-0.019094378630325
  0
VERTEX
  5
18D0
330
18CE
100
AcDbEntity
  8
AM_0
100
AcDbVertex
100
AcDb2dVertex
 10
-34.50049161685192
 20
4.60791904663095
 30
0.0
 42
-0.0111716247241469
 70
     1
  0
VERTEX
  5
18D1
330
18CE
100
AcDbEntity
  8
AM_0
100
AcDbVertex
100
AcDb2dVertex
 10
-34.98786987249581
 20
4.890101433141904
 30
0.0
 42
-0.0056817162269327
  0
VERTEX
  5
18D2
330
18CE
100
AcDbEntity
  8
AM_0
100
AcDbVertex
100
AcDb2dVertex
 10
-35.63201863623858
 20
5.292628768471455
 30
0.0
 42
-0.1012800428637157
 70
     1
  0
VERTEX
  5
18D3
330
18CE
100
AcDbEntity
  8
AM_0
100
AcDbVertex
100
AcDb2dVertex
 10
-35.66286987249579
 20
5.322649831600653
 30
0.0
 42
-0.5091829191374789
  0
VERTEX
  5
18D4
330
18CE
100
AcDbEntity
  8
AM_0
100
AcDbVertex
100
AcDb2dVertex
 10
-35.64316747839341
 20
5.37751385061848
 30
0.0
 42
-0.0249753010314636
 70
     1
  0
VERTEX
  5
18D5
330
18CE
100
AcDbEntity
  8
AM_0
100
AcDbVertex
100
AcDb2dVertex
 10
-34.72499999999971
 20
5.600906920068617
 30
0.0
 42
-0.0113449746844164
  0
VERTEX
  5
18D6
330
18CE
100
AcDbEntity
  8
AM_0
100
AcDbVertex
100
AcDb2dVertex
 10
-34.13944438463949
 20
5.742233755620979
 30
0.0
 42
-0.0032183393648243
 70
     1
  0
VERTEX
  5
18D7
330
18CE
100
AcDbEntity
  8
AM_0
100
AcDbVertex
100
AcDb2dVertex
 10
-32.02499999999971
 20
5.934302227905988
 30
0.0
 42
-0.0129305071352978
  0
VERTEX
  5
18D8
330
18CE
100
AcDbEntity
  8
AM_0
100
AcDbVertex
100
AcDb2dVertex
 10
-31.32079893475342
 20
5.975397750332042
 30
0.0
 42
-0.0069037738036377
 70
     1
  0
VERTEX
  5
18D9
330
18CE
100
AcDbEntity
  8
AM_0
100
AcDbVertex
100
AcDb2dVertex
 10
-29.99999999999971
 20
5.999999999999957
 30
0.0
  0
SEQEND
  5
18DA
330
18CE
100
AcDbEntity
  8
AM_0
  0
SPLINE
  5
18DB
330
1F
100
AcDbEntity
  8
AM_0
100
AcDbSpline
210
0.0
220
0.0
230
1.0
 70
     8
 71
     3
 72
     8
 73
     4
 74
     0
 42
0.0000000001
 43
0.0000000001
 40
7.728766038578525
 40
7.728766038578525
 40
7.728766038578525
 40
7.728766038578525
 40
14.36247867694493
 40
14.36247867694493
 40
14.36247867694493
 40
14.36247867694493
 10
-33.05698519018679
 20
3.984507818690843
 30
0.0
 10
-30.33076456989141
 20
2.726771747296146
 30
0.0
 10
-27.86231230445449
 20
1.435505214429361
 30
0.0
 10
-25.57601816620872
 20
-0.0000000000001079
 30
0.0
  0
LINE
  5
18DC
330
1F
100
AcDbEntity
  8
AM_0
100
AcDbLine
 10
-30.67803530952034
 20
1.785552560774977
 30
0.0
 11
-30.00000000000027
 21
0.3522250476695667
 31
0.0
  0
LINE
  5
18DD
330
1F
100
AcDbEntity
  8
AM_0
100
AcDbLine
 10
-30.00000000000029
 20
2.46358787029504
 30
0.0
 11
-30.67803530952034
 21
1.785552560774977
 31
0.0
  0
POLYLINE
  5
18E3
330
1F
100
AcDbEntity
  8
AM_0
100
AcDb2dPolyline
 66
     1
 10
0.0
 20
0.0
 30
0.0
 70
     2
  0
VERTEX
  5
18E4
330
18E3
100
AcDbEntity
  8
AM_0
100
AcDbVertex
100
AcDb2dVertex
 10
-30.00000000000027
 20
0.3522250476695668
 30
0.0
 42
0.0084392402479093
  0
VERTEX
  5
18E5
330
18E3
100
AcDbEntity
  8
AM_0
100
AcDbVertex
100
AcDb2dVertex
 10
-31.43357745219222
 20
1.129100668940471
 30
0.0
 42
0.0471002254929013
 70
     1
  0
VERTEX
  5
18E6
330
18E3
100
AcDbEntity
  8
AM_0
100
AcDbVertex
100
AcDb2dVertex
 10
-32.39144946483469
 20
1.404614526713129
 30
0.0
 42
0.0443214214461838
  0
VERTEX
  5
18E7
330
18E3
100
AcDbEntity
  8
AM_0
100
AcDbVertex
100
AcDb2dVertex
 10
-34.29804905608105
 20
1.474023534867062
 30
0.0
 42
0.1039236762820958
 70
     1
  0
VERTEX
  5
18E8
330
18E3
100
AcDbEntity
  8
AM_0
100
AcDbVertex
100
AcDb2dVertex
 10
-35.09144946483469
 20
1.263556307176235
 30
0.0
 42
0.1017574481668659
  0
VERTEX
  5
18E9
330
18E3
100
AcDbEntity
  8
AM_0
100
AcDbVertex
100
AcDb2dVertex
 10
-35.6213527602098
 20
0.8444097456689734
 30
0.0
 42
0.1704800302432918
 70
     1
  0
VERTEX
  5
18EA
330
18E3
100
AcDbEntity
  8
AM_0
100
AcDbVertex
100
AcDb2dVertex
 10
-35.76644946483467
 20
0.4601460302162624
 30
0.0
 42
0.1172295991725115
  0
VERTEX
  5
18EB
330
18E3
100
AcDbEntity
  8
AM_0
100
AcDbVertex
100
AcDb2dVertex
 10
-35.65875542424608
 20
-0.0449683038087896
 30
0.0
 42
0.0556068033830928
 70
     1
  0
VERTEX
  5
18EC
330
18E3
100
AcDbEntity
  8
AM_0
100
AcDbVertex
100
AcDb2dVertex
 10
-35.09144946483469
 20
-0.9608787894494689
 30
0.0
 42
0.0336216056662732
  0
VERTEX
  5
18ED
330
18E3
100
AcDbEntity
  8
AM_0
100
AcDbVertex
100
AcDb2dVertex
 10
-34.04580730519597
 20
-1.990317533176073
 30
0.0
 42
0.0201905946038378
 70
     1
  0
VERTEX
  5
18EE
330
18E3
100
AcDbEntity
  8
AM_0
100
AcDbVertex
100
AcDb2dVertex
 10
-32.02500000000027
 20
-3.360825482642849
 30
0.0
 42
0.0380483921513513
  0
VERTEX
  5
18EF
330
18E3
100
AcDbEntity
  8
AM_0
100
AcDbVertex
100
AcDb2dVertex
 10
-31.30073337508471
 20
-3.864373920158787
 30
0.0
 42
0.022795517676966
 70
     1
  0
VERTEX
  5
18F0
330
18E3
100
AcDbEntity
  8
AM_0
100
AcDbVertex
100
AcDb2dVertex
 10
-30.00000000000024
 20
-4.551317053337048
 30
0.0
  0
SEQEND
  5
18F1
330
18E3
100
AcDbEntity
  8
AM_0
  0
SPLINE
  5
18F2
330
1F
100
AcDbEntity
  8
AM_0
100
AcDbSpline
210
0.0
220
0.0
230
1.0
 70
     8
 71
     3
 72
     8
 73
     4
 74
     0
 42
0.0000000001
 43
0.0000000001
 40
0.0
 40
0.0
 40
0.0
 40
0.0
 40
2.130230809022907
 40
2.130230809022907
 40
2.130230809022907
 40
2.130230809022907
 10
-28.32000000000051
 20
-6.000000000000035
 30
0.0
 10
-27.46790767639132
 20
-6.000000000000035
 30
0.0
 10
-26.62735669535618
 20
-5.935160745384237
 30
0.0
 10
-25.79665031918742
 20
-5.815014507423114
 30
0.0
  0
SPLINE
  5
18F3
330
1F
100
AcDbEntity
  8
AM_0
100
AcDbSpline
210
0.0
220
0.0
230
1.0
 70
     8
 71
     3
 72
     8
 73
     4
 74
     0
 42
0.0000000001
 43
0.0000000001
 40
0.0
 40
0.0
 40
0.0
 40
0.0
 40
3.20279236890966
 40
3.20279236890966
 40
3.20279236890966
 40
3.20279236890966
 10
-26.22546146160698
 20
-5.820340404402365
 30
0.0
 10
-27.50657840917083
 20
-5.820340404402365
 30
0.0
 10
-28.76292655736142
 20
-5.677154383130272
 30
0.0
 10
-29.99999999999796
 20
-5.422543162845563
 30
0.0
  0
SPLINE
  5
18F4
330
1F
100
AcDbEntity
  8
AM_0
100
AcDbSpline
210
0.0
220
0.0
230
1.0
 70
     8
 71
     3
 72
     8
 73
     4
 74
     0
 42
0.0000000001
 43
0.0000000001
 40
0.0
 40
0.0
 40
0.0
 40
0.0
 40
4.451443990518192
 40
4.451443990518192
 40
4.451443990518192
 40
4.451443990518192
 10
-23.81361998283017
 20
-5.540933404563261
 30
0.0
 10
-22.03304238662288
 20
-5.540933404563254
 30
0.0
 10
-20.29641105702332
 20
-5.274802097096959
 30
0.0
 10
-19.89503865601316
 20
-5.13058019030125
 30
0.0
  0
SPLINE
  5
18F5
330
1F
100
AcDbEntity
  8
AM_0
100
AcDbSpline
210
0.0
220
0.0
230
1.0
 70
     8
 71
     3
 72
     8
 73
     4
 74
     0
 42
0.0000000001
 43
0.0000000001
 40
0.0
 40
0.0
 40
0.0
 40
0.0
 40
5.291496149500158
 40
5.291496149500158
 40
5.291496149500158
 40
5.291496149500158
 10
-23.81361998283017
 20
-5.540933404563126
 30
0.0
 10
-25.93021844263023
 20
-5.540933404563126
 30
0.0
 10
-27.98471897172968
 20
-5.164878627582602
 30
0.0
 10
-30.00000000000023
 20
-4.551317053336756
 30
0.0
  0
SPLINE
  5
18F6
330
1F
100
AcDbEntity
  8
AM_0
100
AcDbSpline
210
0.0
220
0.0
230
1.0
 70
     8
 71
     3
 72
     8
 73
     4
 74
     0
 42
0.0000000001
 43
0.0000000001
 40
0.0
 40
0.0
 40
0.0
 40
0.0
 40
2.764560748519282
 40
2.764560748519282
 40
2.764560748519282
 40
2.764560748519282
 10
-26.22546146160698
 20
-5.8203404044025
 30
0.0
 10
-25.11963716219928
 20
-5.8203404044025
 30
0.0
 10
-24.03226725134688
 20
-5.713657378212104
 30
0.0
 10
-22.95981836709218
 20
-5.520717347811761
 30
0.0
  0
SPLINE
  5
18F7
330
1F
100
AcDbEntity
  8
AM_0
100
AcDbSpline
210
0.0
220
0.0
230
1.0
 70
     8
 71
     3
 72
     8
 73
     4
 74
     0
 42
0.0000000001
 43
0.0000000001
 40
0.0
 40
0.0
 40
0.0
 40
0.0
 40
1.412269715655734
 40
1.412269715655734
 40
1.412269715655734
 40
1.412269715655734
 10
-28.32000000000051
 20
-5.9999999999999
 30
0.0
 10
-28.88490788626278
 20
-5.9999999999999
 30
0.0
 10
-29.44474308277009
 20
-5.971501632457183
 30
0.0
 10
-30.00000000000027
 20
-5.917282495094987
 30
0.0
  0
LINE
  5
18F8
330
1F
100
AcDbEntity
  8
AM_0
100
AcDbLine
 10
-30.00000000000024
 20
-4.551317053336756
 30
0.0
 11
-30.00000000000027
 21
-5.917282495094983
 31
0.0
  0
ARC
  5
18F9
330
1F
100
AcDbEntity
  8
AM_0
100
AcDbCircle
 10
-15.63089585150121
 20
-374.5712451777317
 30
0.0
 40
368.9338902237653
100
AcDbArc
 50
92.23209992593767
 51
92.54062056902693
  0
VIEWPORT
  5
110
330
101
100
AcDbEntity
 67
     1
  8
0
100
AcDbViewport
 10
420.5
 20
297.0
 30
0.0
 40
948.9782706766916
 41
628.452
 68
     1
 69
     1
1001
ACAD
1000
MVIEW
1002
{
1070
    16
1010
0.0
1020
0.0
1030
0.0
1010
0.0
1020
0.0
1030
1.0
1040
0.0
1040
628.452
1040
420.5
1040
297.0
1040
50.0
1040
0.0
1040
0.0
1070
     0
1070
   100
1070
     1
1070
     1
1070
     0
1070
     0
1070
     0
1070
     0
1040
0.0
1040
0.0
1040
0.0
1040
10.0
1040
10.0
1040
10.0
1040
10.0
1070
     0
1002
{
1002
}
1002
}
  0
ENDSEC
  0
SECTION
  2
OBJECTS
  0
DICTIONARY
  5
C
330
0
100
AcDbDictionary
  3
ACAD_GROUP
350
D
  3
ACAD_LAYOUT
350
1A
  3
ACAD_MLINESTYLE
350
17
  3
ACAD_PLOTSETTINGS
350
19
  3
ACAD_PLOTSTYLENAME
350
E
  3
ACDBVARIABLEDICTIONARY
350
34
  3
ACMDICTIONARY
350
43
  3
AMG
350
2B
  3
AMGSNAPSETTINGS
350
6E
  3
DWGPROPS
350
1981
  3
ACDBHEADERROUNDTRIPXREC
350
198D
  0
DICTIONARY
  5
74
330
1F
100
AcDbDictionary
280
     1
  3
ACAD_INDEX
360
1983
  3
ACAD_LAYOUTSELFREF
360
19B0
  0
DICTIONARY
  5
19B5
330
101
100
AcDbDictionary
280
     1
  3
ACAD_LAYOUTSELFREF
360
19B6
  0
DICTIONARY
  5
D
102
{ACAD_REACTORS
330
C
102
}
330
C
100
AcDbDictionary
  0
DICTIONARY
  5
1A
102
{ACAD_REACTORS
330
C
102
}
330
C
100
AcDbDictionary
  0
DICTIONARY
  5
17
102
{ACAD_REACTORS
330
C
102
}
330
C
100
AcDbDictionary
  3
STANDARD
350
18
  0
DICTIONARY
  5
19
102
{ACAD_REACTORS
330
C
102
}
330
C
100
AcDbDictionary
  0
ACDBDICTIONARYWDFLT
  5
E
102
{ACAD_REACTORS
330
C
102
}
330
C
100
AcDbDictionary
281
     1
  3
Normal
350
F
100
AcDbDictionaryWithDefault
340
F
  0
DICTIONARY
  5
34
102
{ACAD_REACTORS
330
C
102
}
330
C
100
AcDbDictionary
  3
INDEXCTL
350
35
  3
SORTENTS
350
B5E
  0
DICTIONARY
  5
43
102
{ACAD_REACTORS
330
C
102
}
330
C
100
AcDbDictionary
  3
ACMSTDDICTIONARY
350
260
  0
DICTIONARY
  5
2B
102
{ACAD_REACTORS
330
C
102
}
330
C
100
AcDbDictionary
  3
ACMGSETTINGS
350
2C
  0
DICTIONARY
  5
6E
102
{ACAD_REACTORS
330
C
102
}
330
C
100
AcDbDictionary
  0
XRECORD
  5
1981
102
{ACAD_REACTORS
330
C
102
}
330
C
100
AcDbXrecord
  1
DWGPROPS COOKIE
  2

  3

  4

  6

  7

  8

  9

300
AmdtFileType=82
301
=
302
=
303
=
304
=
305
=
306
=
307
=
308
=
309
=
 40
0.0264239699074074
 41
2452836.771637361
 42
2452846.459022523
  1

 90
        1
  0
DICTIONARY
  5
198D
102
{ACAD_REACTORS
330
C
102
}
330
C
100
AcDbDictionary
  3
TSTACKALIGN
350
198E
  3
TSTACKSIZE
350
198F
  3
HYPERLINKBASE
350
1990
  3
STYLESHEET
350
1991
  3
LAYOUTDICT
350
1992
  3
PLOTSETDICT
350
1993
  3
PLOTSTYLNAMDICT
350
1994
  3
LWETCUNION
350
1995
  3
INSUNITS
350
1996
  3
CEPSNTYPE
350
1997
  3
FINGERPRINTGUID
350
1998
  3
VERSIONGUID
350
1999
  3
PSVPSCALE
350
199A
  3
DIMSTYLEDATA
350
199B
  3
PUCSORTHOREF
350
199C
  3
PUCSORTHOVIEW
350
199D
  3
PUCSBASE
350
199E
  3
PUCSORGTOP
350
199F
  3
PUCSORGBOTTOM
350
19A0
  3
PUCSORGLEFT
350
19A1
  3
PUCSORGRIGHT
350
19A2
  3
PUCSORGFRONT
350
19A3
  3
PUCSORGBACK
350
19A4
  3
UCSORTHOREF
350
19A5
  3
UCSORTHOVIEW
350
19A6
  3
UCSBASE
350
19A7
  3
UCSORGTOP
350
19A8
  3
UCSORGBOTTOM
350
19A9
  3
UCSORGLEFT
350
19AA
  3
UCSORGRIGHT
350
19AB
  3
UCSORGFRONT
350
19AC
  3
UCSORGBACK
350
19AD
  0
DICTIONARY
  5
1983
102
{ACAD_REACTORS
330
74
102
}
330
74
100
AcDbDictionary
  3
*A1
350
1984
  0
XRECORD
  5
19B0
102
{ACAD_REACTORS
330
74
102
}
330
74
100
AcDbXrecord
340
1F
  0
XRECORD
  5
19B6
102
{ACAD_REACTORS
330
19B5
102
}
330
19B5
100
AcDbXrecord
340
101
  0
MLINESTYLE
  5
18
102
{ACAD_REACTORS
330
17
102
}
330
17
100
AcDbMlineStyle
  2
STANDARD
 70
     0
  3

 62
   256
 51
90.0
 52
90.0
 71
     2
 49
0.5
 62
   256
  6
BYLAYER
 49
-0.5
 62
   256
  6
BYLAYER
  0
ACDBPLACEHOLDER
  5
F
102
{ACAD_REACTORS
330
E
102
}
330
E
100
AcDbPlaceHolder
280
     0
  0
DICTIONARYVAR
  5
35
102
{ACAD_REACTORS
330
34
102
}
330
34
100
DictionaryVariables
280
     0
  1
1
  0
DICTIONARYVAR
  5
B5E
102
{ACAD_REACTORS
330
34
102
}
330
34
100
DictionaryVariables
280
     0
  1
96
  0
DICTIONARY
  5
260
102
{ACAD_REACTORS
330
43
102
}
330
43
100
AcDbDictionary
  0
DICTIONARY
  5
2C
102
{ACAD_REACTORS
330
2B
102
}
330
2B
100
AcDbDictionary
  3
DWGSETTINGS
350
2D
  0
XRECORD
  5
198E
102
{ACAD_REACTORS
330
198D
102
}
330
198D
100
AcDbXrecord
 90
        1
  0
XRECORD
  5
198F
102
{ACAD_REACTORS
330
198D
102
}
330
198D
100
AcDbXrecord
 90
       70
  0
XRECORD
  5
1990
102
{ACAD_REACTORS
330
198D
102
}
330
198D
100
AcDbXrecord
  1

  0
XRECORD
  5
1991
102
{ACAD_REACTORS
330
198D
102
}
330
198D
100
AcDbXrecord
  1
ASAMI.ctb
  0
XRECORD
  5
1992
102
{ACAD_REACTORS
330
198D
102
}
330
198D
100
AcDbXrecord
340
1A
  0
XRECORD
  5
1993
102
{ACAD_REACTORS
330
198D
102
}
330
198D
100
AcDbXrecord
340
19
  0
XRECORD
  5
1994
102
{ACAD_REACTORS
330
198D
102
}
330
198D
100
AcDbXrecord
340
E
  0
XRECORD
  5
1995
102
{ACAD_REACTORS
330
198D
102
}
330
198D
100
AcDbXrecord
 90
    10781
  0
XRECORD
  5
1996
102
{ACAD_REACTORS
330
198D
102
}
330
198D
100
AcDbXrecord
 90
        4
  0
XRECORD
  5
1997
102
{ACAD_REACTORS
330
198D
102
}
330
198D
100
AcDbXrecord
 90
        0
  0
XRECORD
  5
1998
102
{ACAD_REACTORS
330
198D
102
}
330
198D
100
AcDbXrecord
  1
{AFB28963-8C59-40AE-9337-C84526B81ACE}
  0
XRECORD
  5
1999
102
{ACAD_REACTORS
330
198D
102
}
330
198D
100
AcDbXrecord
  1
{8AB2B87D-AEF9-4E5C-A079-8E4BADE4AF7F}
  0
XRECORD
  5
199A
102
{ACAD_REACTORS
330
198D
102
}
330
198D
100
AcDbXrecord
 40
0.0
  0
XRECORD
  5
199B
102
{ACAD_REACTORS
330
198D
102
}
330
198D
100
AcDbXrecord
1000
DSTYLE
1002
{
1070
    79
 70
     2
1070
   341
340
59
1070
   342
340
59
1070
   371
 70
    -1
1070
   372
 70
    -1
1002
}
  0
XRECORD
  5
199C
102
{ACAD_REACTORS
330
198D
102
}
330
198D
100
AcDbXrecord
340
0
  0
XRECORD
  5
199D
102
{ACAD_REACTORS
330
198D
102
}
330
198D
100
AcDbXrecord
 70
     0
  0
XRECORD
  5
199E
102
{ACAD_REACTORS
330
198D
102
}
330
198D
100
AcDbXrecord
340
0
  0
XRECORD
  5
199F
102
{ACAD_REACTORS
330
198D
102
}
330
198D
100
AcDbXrecord
 10
0.0
 20
0.0
 30
0.0
  0
XRECORD
  5
19A0
102
{ACAD_REACTORS
330
198D
102
}
330
198D
100
AcDbXrecord
 10
0.0
 20
0.0
 30
0.0
  0
XRECORD
  5
19A1
102
{ACAD_REACTORS
330
198D
102
}
330
198D
100
AcDbXrecord
 10
0.0
 20
0.0
 30
0.0
  0
XRECORD
  5
19A2
102
{ACAD_REACTORS
330
198D
102
}
330
198D
100
AcDbXrecord
 10
0.0
 20
0.0
 30
0.0
  0
XRECORD
  5
19A3
102
{ACAD_REACTORS
330
198D
102
}
330
198D
100
AcDbXrecord
 10
0.0
 20
0.0
 30
0.0
  0
XRECORD
  5
19A4
102
{ACAD_REACTORS
330
198D
102
}
330
198D
100
AcDbXrecord
 10
0.0
 20
0.0
 30
0.0
  0
XRECORD
  5
19A5
102
{ACAD_REACTORS
330
198D
102
}
330
198D
100
AcDbXrecord
340
0
  0
XRECORD
  5
19A6
102
{ACAD_REACTORS
330
198D
102
}
330
198D
100
AcDbXrecord
 70
     0
  0
XRECORD
  5
19A7
102
{ACAD_REACTORS
330
198D
102
}
330
198D
100
AcDbXrecord
340
0
  0
XRECORD
  5
19A8
102
{ACAD_REACTORS
330
198D
102
}
330
198D
100
AcDbXrecord
 10
0.0
 20
0.0
 30
0.0
  0
XRECORD
  5
19A9
102
{ACAD_REACTORS
330
198D
102
}
330
198D
100
AcDbXrecord
 10
0.0
 20
0.0
 30
0.0
  0
XRECORD
  5
19AA
102
{ACAD_REACTORS
330
198D
102
}
330
198D
100
AcDbXrecord
 10
0.0
 20
0.0
 30
0.0
  0
XRECORD
  5
19AB
102
{ACAD_REACTORS
330
198D
102
}
330
198D
100
AcDbXrecord
 10
0.0
 20
0.0
 30
0.0
  0
XRECORD
  5
19AC
102
{ACAD_REACTORS
330
198D
102
}
330
198D
100
AcDbXrecord
 10
0.0
 20
0.0
 30
0.0
  0
XRECORD
  5
19AD
102
{ACAD_REACTORS
330
198D
102
}
330
198D
100
AcDbXrecord
 10
0.0
 20
0.0
 30
0.0
  0
LAYER_INDEX
  5
1984
102
{ACAD_REACTORS
330
1983
102
}
330
1983
100
AcDbIndex
 40
2453152.44469125
100
AcDbLayerIndex
  8
0
360
1985
 90
        0
  8
AM_0
360
1986
 90
       56
  8
AM_11
360
1987
 90
        3
  8
AM_7
360
1988
 90
        1
  8
AM_5
360
1989
 90
        4
  8
Defpoints
360
198A
 90
        0
  8
AM_6
360
198B
 90
        1
  0
XRECORD
  5
2D
102
{ACAD_REACTORS
330
2C
102
}
330
2C
100
AcDbXrecord
  1
VERSION
140
15.0
  1
PRODUCT
  2
AutoCAD Mechanical 2000
  0
IDBUFFER
  5
1985
330
0
100
AcDbIdBuffer
  0
IDBUFFER
  5
1986
330
0
100
AcDbIdBuffer
330
18F2
330
18F3
330
18F4
330
18F5
330
18F6
330
18F7
330
18F8
330
18F9
330
16D7
330
16D8
330
16DA
330
16DB
330
1707
330
170A
330
1768
330
1769
330
176A
330
176B
330
176C
330
176D
330
176E
330
176F
330
1770
330
1771
330
1772
330
1773
330
1774
330
1775
330
1776
330
1777
330
1778
330
1786
330
1787
330
1789
330
178A
330
178B
330
178C
330
178D
330
178E
330
178F
330
1790
330
1791
330
1792
330
1793
330
1794
330
1795
330
1796
330
1797
330
1798
330
17B9
330
17BB
330
18CE
330
18DB
330
18DC
330
18DD
330
18E3
  0
IDBUFFER
  5
1987
330
0
100
AcDbIdBuffer
330
17BC
330
17BD
330
18CB
  0
IDBUFFER
  5
1988
330
0
100
AcDbIdBuffer
330
132B
  0
IDBUFFER
  5
1989
330
0
100
AcDbIdBuffer
330
13B3
330
145B
330
16DD
330
1779
  0
IDBUFFER
  5
198A
330
0
100
AcDbIdBuffer
  0
IDBUFFER
  5
198B
330
0
100
AcDbIdBuffer
330
E5A
  0
ENDSEC
  0
EOF
