  0
SECTION
  2
HEADER
  9
$ACADVER
  1
AC1014
  9
$ACADMAINTVER
 70
     9
  9
$DWGCODEPAGE
  3
ANSI_932
  9
$INSBASE
 10
0.0
 20
0.0
 30
0.0
  9
$EXTMIN
 10
-116.4332058593316
 20
-56.50000099999967
 30
-0.00000001
  9
$EXTMAX
 10
19.55776903085496
 20
8.295728341404871
 30
0.00000001
  9
$LIMMIN
 10
-120.4678844982326
 20
-64.80706836834187
  9
$LIMMAX
 10
25.75196630140777
 20
19.39188064251806
  9
$ORTHOMODE
 70
     0
  9
$REGENMODE
 70
     1
  9
$FILLMODE
 70
     1
  9
$QTEXTMODE
 70
     0
  9
$MIRRTEXT
 70
     0
  9
$DRAGMODE
 70
     2
  9
$LTSCALE
 40
1.0
  9
$OSMODE
 70
    55
  9
$ATTMODE
 70
     1
  9
$TEXTSIZE
 40
2.5
  9
$TRACEWID
 40
1.0
  9
$TEXTSTYLE
  7
STANDARD
  9
$CLAYER
  8
AM_0
  9
$CELTYPE
  6
BYLAYER
  9
$CECOLOR
 62
   256
  9
$CELTSCALE
 40
1.0
  9
$DELOBJ
 70
     1
  9
$DISPSILH
 70
     0
  9
$DIMSCALE
 40
1.0
  9
$DIMASZ
 40
2.5
  9
$DIMEXO
 40
1.0
  9
$DIMDLI
 40
12.0
  9
$DIMRND
 40
0.0
  9
$DIMDLE
 40
0.0
  9
$DIMEXE
 40
1.0
  9
$DIMTP
 40
0.1
  9
$DIMTM
 40
0.1
  9
$DIMTXT
 40
3.2
  9
$DIMCEN
 40
0.0
  9
$DIMTSZ
 40
0.0
  9
$DIMTOL
 70
     0
  9
$DIMLIM
 70
     0
  9
$DIMTIH
 70
     0
  9
$DIMTOH
 70
     0
  9
$DIMSE1
 70
     0
  9
$DIMSE2
 70
     0
  9
$DIMTAD
 70
     3
  9
$DIMZIN
 70
     8
  9
$DIMBLK
  1
OPEN30
  9
$DIMASO
 70
     1
  9
$DIMSHO
 70
     1
  9
$DIMPOST
  1

  9
$DIMAPOST
  1
"
  9
$DIMALT
 70
     0
  9
$DIMALTD
 70
     2
  9
$DIMALTF
 40
0.0393701
  9
$DIMLFAC
 40
1.0
  9
$DIMTOFL
 70
     1
  9
$DIMTVP
 40
0.0
  9
$DIMTIX
 70
     0
  9
$DIMSOXD
 70
     0
  9
$DIMSAH
 70
     0
  9
$DIMBLK1
  1

  9
$DIMBLK2
  1

  9
$DIMSTYLE
  2
AM_JIS
  9
$DIMCLRD
 70
   256
  9
$DIMCLRE
 70
   256
  9
$DIMCLRT
 70
     2
  9
$DIMTFAC
 40
0.71
  9
$DIMGAP
 40
1.5
  9
$DIMJUST
 70
     0
  9
$DIMSD1
 70
     0
  9
$DIMSD2
 70
     0
  9
$DIMTOLJ
 70
     0
  9
$DIMTZIN
 70
     0
  9
$DIMALTZ
 70
     0
  9
$DIMALTTZ
 70
     0
  9
$DIMFIT
 70
     3
  9
$DIMUPT
 70
     0
  9
$DIMUNIT
 70
     2
  9
$DIMDEC
 70
     3
  9
$DIMTDEC
 70
     3
  9
$DIMALTU
 70
     2
  9
$DIMALTTD
 70
     2
  9
$DIMTXSTY
  7
ASAMI
  9
$DIMAUNIT
 70
     0
  9
$LUNITS
 70
     2
  9
$LUPREC
 70
     2
  9
$SKETCHINC
 40
1.0
  9
$FILLETRAD
 40
2.5
  9
$AUNITS
 70
     0
  9
$AUPREC
 70
     0
  9
$MENU
  1
.
  9
$ELEVATION
 40
0.0
  9
$PELEVATION
 40
0.0
  9
$THICKNESS
 40
0.0
  9
$LIMCHECK
 70
     0
  9
$BLIPMODE
 70
     0
  9
$CHAMFERA
 40
1.0
  9
$CHAMFERB
 40
1.0
  9
$CHAMFERC
 40
20.0
  9
$CHAMFERD
 40
0.0
  9
$SKPOLY
 70
     0
  9
$TDCREATE
 40
2452836.771637361
  9
$TDUPDATE
 40
2453152.444850034
  9
$TDINDWG
 40
0.0428964005
  9
$TDUSRTIMER
 40
0.0428964005
  9
$USRTIMER
 70
     1
  9
$ANGBASE
 50
0.0
  9
$ANGDIR
 70
     0
  9
$PDMODE
 70
     0
  9
$PDSIZE
 40
0.0
  9
$PLINEWID
 40
0.0
  9
$COORDS
 70
     1
  9
$SPLFRAME
 70
     0
  9
$SPLINETYPE
 70
     6
  9
$SPLINESEGS
 70
     8
  9
$ATTDIA
 70
     1
  9
$ATTREQ
 70
     1
  9
$HANDLING
 70
 12289
  9
$HANDSEED
  5
1C76
  9
$SURFTAB1
 70
     6
  9
$SURFTAB2
 70
     6
  9
$SURFTYPE
 70
     6
  9
$SURFU
 70
     6
  9
$SURFV
 70
     6
  9
$UCSNAME
  2

  9
$UCSORG
 10
0.0
 20
0.0
 30
0.0
  9
$UCSXDIR
 10
1.0
 20
0.0
 30
0.0
  9
$UCSYDIR
 10
0.0
 20
1.0
 30
0.0
  9
$PUCSNAME
  2

  9
$PUCSORG
 10
0.0
 20
0.0
 30
0.0
  9
$PUCSXDIR
 10
1.0
 20
0.0
 30
0.0
  9
$PUCSYDIR
 10
0.0
 20
1.0
 30
0.0
  9
$USERI1
 70
     0
  9
$USERI2
 70
     0
  9
$USERI3
 70
     0
  9
$USERI4
 70
     0
  9
$USERI5
 70
     0
  9
$USERR1
 40
0.0
  9
$USERR2
 40
0.0
  9
$USERR3
 40
0.0
  9
$USERR4
 40
0.0
  9
$USERR5
 40
0.0
  9
$WORLDVIEW
 70
     1
  9
$SHADEDGE
 70
     3
  9
$SHADEDIF
 70
    70
  9
$TILEMODE
 70
     1
  9
$MAXACTVP
 70
    64
  9
$PINSBASE
 10
0.0
 20
0.0
 30
0.0
  9
$PLIMCHECK
 70
     0
  9
$PEXTMIN
 10
1.000000000000000E+20
 20
1.000000000000000E+20
 30
1.000000000000000E+20
  9
$PEXTMAX
 10
-1.000000000000000E+20
 20
-1.000000000000000E+20
 30
-1.000000000000000E+20
  9
$PLIMMIN
 10
0.0
 20
0.0
  9
$PLIMMAX
 10
841.0
 20
594.0
  9
$UNITMODE
 70
     0
  9
$VISRETAIN
 70
     1
  9
$PLINEGEN
 70
     0
  9
$PSLTSCALE
 70
     0
  9
$TREEDEPTH
 70
  3020
  9
$PICKSTYLE
 70
     0
  9
$CMLSTYLE
  2
STANDARD
  9
$CMLJUST
 70
     0
  9
$CMLSCALE
 40
20.0
  9
$PROXYGRAPHICS
 70
     1
  9
$MEASUREMENT
 70
     1
  0
ENDSEC
  0
SECTION
  2
CLASSES
  0
CLASS
  1
ACDBDICTIONARYWDFLT
  2
AcDbDictionaryWithDefault
  3
AutoCAD 2000
 90
        0
280
     0
281
     0
  0
CLASS
  1
ACDBPLACEHOLDER
  2
AcDbPlaceHolder
  3
AutoCAD 2000
 90
        0
280
     0
281
     0
  0
CLASS
  1
LAYOUT
  2
AcDbLayout
  3
AutoCAD 2000
 90
        0
280
     0
281
     0
  0
CLASS
  1
AMGSETTINGSOBJ
  2
AmgSettingsObj
  3
"AcadM|Product Description: AutoCAD Mechanical 2000|Company: Autodesk"
 90
        0
280
     0
281
     0
  0
CLASS
  1
ACME_DOCUMENT
  2
AcMeDbDoc
  3
AcMeServices
 90
        0
280
     0
281
     0
  0
CLASS
  1
ACMESCOPE
  2
AcMeScope
  3
AcMeServices
 90
        0
280
     0
281
     0
  0
CLASS
  1
ACMECOMMANDHISTORY
  2
AcMeCommandHistory
  3
AcMeServices
 90
        0
280
     0
281
     0
  0
CLASS
  1
DICTIONARYVAR
  2
AcDbDictionaryVar
  3
AutoCAD 2000
 90
        0
280
     0
281
     0
  0
CLASS
  1
ACIMSYSVARMAN
  2
AcImSysVarManager
  3
AcMeServices
 90
        0
280
     0
281
     0
  0
CLASS
  1
ACIMREALSYSVAR
  2
AcImRealSysVar
  3
AcMeServices
 90
        0
280
     0
281
     0
  0
CLASS
  1
ACIMINTSYSVAR
  2
AcImIntSysVar
  3
AcMeServices
 90
        0
280
     0
281
     0
  0
CLASS
  1
ACMEDRAWINGMAN
  2
AcMeDrawingMan
  3
AcMeServices
 90
        0
280
     0
281
     0
  0
CLASS
  1
ACMEVIEW
  2
AcMeView
  3
AcMeServices
 90
        0
280
     0
281
     0
  0
CLASS
  1
ACDBENTITYCACHE
  2
AcMeEntityCache
  3
AcMeServices
 90
        0
280
     0
281
     0
  0
CLASS
  1
GSMANAGER
  2
AcMeGSManager
  3
AcMeServices
 90
        0
280
     0
281
     0
  0
CLASS
  1
AmdtInternalReactor
  2
AmdtInternalReactor
  3
AcMeServices
 90
        0
280
     0
281
     0
  0
CLASS
  1
ACMESTATEMGR
  2
AcMeStateMgr
  3
AcMeServices
 90
        0
280
     0
281
     0
  0
CLASS
  1
ACME_DATABASE
  2
AcMeDbDatabase
  3
AcMeServices
 90
        0
280
     0
281
     0
  0
CLASS
  1
ACRFINSADJUSTERMGR
  2
AcRfInsAdjusterMgr
  3
AcMeServices
 90
        0
280
     0
281
     0
  0
CLASS
  1
ACMDATADICTIONARY
  2
AcmDataDictionary
  3
"AcmSymBB|Product Description: AutoCAD Mechanical 2000|Company: Autodesk"
 90
        0
280
     0
281
     0
  0
CLASS
  1
ACMDATAENTRYBLOCK
  2
AcmDataEntryBlock
  3
"AcmSymBB|Product Description: AutoCAD Mechanical 2000|Company: Autodesk"
 90
        0
280
     0
281
     0
  0
CLASS
  1
AMGOBJPROPCFG
  2
AmgObjPropCfg
  3
"AmgLay|Product Description: AutoCAD Mechanical 2000|Company: Autodesk"
 90
        1
280
     0
281
     0
  0
CLASS
  1
ACAMGFILTERDAT
  2
AcAmgFilterDat
  3
"AcadM|Product Description: AutoCAD Mechanical 2000|Company: Autodesk"
 90
        0
280
     0
281
     0
  0
CLASS
  1
LAYER_INDEX
  2
AcDbLayerIndex
  3
AutoCAD 2000
 90
        0
280
     0
281
     0
  0
CLASS
  1
IDBUFFER
  2
AcDbIdBuffer
  3
AutoCAD 2000
 90
        0
280
     0
281
     0
  0
CLASS
  1
ACIMSTRSYSVAR
  2
AcImStrSysVar
  3
AcMeServices
 90
        0
280
     0
281
     0
  0
CLASS
  1
ACMSTANDARDJIS
  2
AcmStandardJIS
  3
"AcmSymBB|Product Description: AutoCAD Mechanical 2000|Company: Autodesk"
 90
        0
280
     0
281
     0
  0
CLASS
  1
ACMSURFSTANDARDJIS
  2
AcmSurfTextStdJIS
  3
"AcmSymBB|Product Description: AutoCAD Mechanical 2000|Company: Autodesk"
 90
        0
280
     0
281
     0
  0
CLASS
  1
ACMFCFSTANDARDJIS
  2
AcmFCFStdJIS
  3
"AcmSymBB|Product Description: AutoCAD Mechanical 2000|Company: Autodesk"
 90
        0
280
     0
281
     0
  0
CLASS
  1
ACMWELDSTANDARDJIS
  2
AcmWeldingStdJIS
  3
"AcmSymBB|Product Description: AutoCAD Mechanical 2000|Company: Autodesk"
 90
        0
280
     0
281
     0
  0
CLASS
  1
ACMIDSTANDARDJIS
  2
AcmIdStdJIS
  3
"AcmSymBB|Product Description: AutoCAD Mechanical 2000|Company: Autodesk"
 90
        0
280
     0
281
     0
  0
CLASS
  1
ACMDATUMSTANDARDJIS
  2
AcmDatumStdJIS
  3
"AcmSymBB|Product Description: AutoCAD Mechanical 2000|Company: Autodesk"
 90
        0
280
     0
281
     0
  0
CLASS
  1
ACMBOMSTANDARDJIS
  2
AcmBOMStdJIS
  3
"AcmSymBB|Product Description: AutoCAD Mechanical 2000|Company: Autodesk"
 90
        0
280
     0
281
     0
  0
CLASS
  1
ACMSTANDARDANSI
  2
AcmStandardANSI
  3
"AcmSymBB|Product Description: AutoCAD Mechanical 2000|Company: Autodesk"
 90
        0
280
     0
281
     0
  0
CLASS
  1
ACMSURFSTANDARDANSI
  2
AcmSurfTextStdANSI
  3
"AcmSymBB|Product Description: AutoCAD Mechanical 2000|Company: Autodesk"
 90
        0
280
     0
281
     0
  0
CLASS
  1
ACMFCFSTANDARDANSI
  2
AcmFCFStdANSI
  3
"AcmSymBB|Product Description: AutoCAD Mechanical 2000|Company: Autodesk"
 90
        0
280
     0
281
     0
  0
CLASS
  1
ACMWELDSTANDARDANSI
  2
AcmWeldingStdANSI
  3
"AcmSymBB|Product Description: AutoCAD Mechanical 2000|Company: Autodesk"
 90
        0
280
     0
281
     0
  0
CLASS
  1
ACMIDSTANDARDANSI
  2
AcmIdStdANSI
  3
"AcmSymBB|Product Description: AutoCAD Mechanical 2000|Company: Autodesk"
 90
        0
280
     0
281
     0
  0
CLASS
  1
ACMDATUMSTANDARDANSI
  2
AcmDatumStdANSI
  3
"AcmSymBB|Product Description: AutoCAD Mechanical 2000|Company: Autodesk"
 90
        0
280
     0
281
     0
  0
CLASS
  1
ACMBOMSTANDARDANSI
  2
AcmBOMStdANSI
  3
"AcmSymBB|Product Description: AutoCAD Mechanical 2000|Company: Autodesk"
 90
        0
280
     0
281
     0
  0
CLASS
  1
ACMSTANDARDBSI
  2
AcmStandardBSI
  3
"AcmSymBB|Product Description: AutoCAD Mechanical 2000|Company: Autodesk"
 90
        0
280
     0
281
     0
  0
CLASS
  1
ACMSURFSTANDARDBSI
  2
AcmSurfTextStdBSI
  3
"AcmSymBB|Product Description: AutoCAD Mechanical 2000|Company: Autodesk"
 90
        0
280
     0
281
     0
  0
CLASS
  1
ACMFCFSTANDARDBSI
  2
AcmFCFStdBSI
  3
"AcmSymBB|Product Description: AutoCAD Mechanical 2000|Company: Autodesk"
 90
        0
280
     0
281
     0
  0
CLASS
  1
ACMWELDSTANDARDBSI
  2
AcmWeldingStdBSI
  3
"AcmSymBB|Product Description: AutoCAD Mechanical 2000|Company: Autodesk"
 90
        0
280
     0
281
     0
  0
CLASS
  1
ACMIDSTANDARDBSI
  2
AcmIdStdBSI
  3
"AcmSymBB|Product Description: AutoCAD Mechanical 2000|Company: Autodesk"
 90
        0
280
     0
281
     0
  0
CLASS
  1
ACMDATUMSTANDARDBSI
  2
AcmDatumStdBSI
  3
"AcmSymBB|Product Description: AutoCAD Mechanical 2000|Company: Autodesk"
 90
        0
280
     0
281
     0
  0
CLASS
  1
ACMBOMSTANDARDBSI
  2
AcmBOMStdBSI
  3
"AcmSymBB|Product Description: AutoCAD Mechanical 2000|Company: Autodesk"
 90
        0
280
     0
281
     0
  0
CLASS
  1
LONG_TRANSACTION
  2
AcDbLongTransaction
  3
AutoCAD 2000
 90
        0
280
     0
281
     0
  0
CLASS
  1
LWPOLYLINE
  2
AcDbPolyline
  3
AutoCAD 2000
 90
        0
280
     0
281
     1
  0
CLASS
  1
HATCH
  2
AcDbHatch
  3
AutoCAD 2000
 90
        0
280
     0
281
     1
  0
CLASS
  1
XRECORD
  2
AcDbXrecord
  3
AutoCAD 2000
 90
        0
280
     0
281
     0
  0
ENDSEC
  0
SECTION
  2
TABLES
  0
TABLE
  2
VPORT
  5
8
330
0
100
AcDbSymbolTable
 70
     3
  0
VPORT
  5
1C4B
330
8
100
AcDbSymbolTableRecord
100
AcDbViewportTableRecord
  2
*ACTIVE
 70
     0
 10
0.0
 20
0.0
 11
1.0
 21
1.0
 12
-48.43448277672024
 22
-24.10157346092516
 13
0.0
 23
0.0
 14
2.5
 24
2.5
 15
10.0
 25
10.0
 16
0.0
 26
0.0
 36
1.0
 17
0.0
 27
0.0
 37
0.0
 40
87.2024036343498
 41
1.56570841889117
 42
50.0
 43
0.0
 44
0.0
 50
0.0
 51
0.0
 71
     0
 72
   100
 73
     1
 74
     3
 75
     0
 76
     0
 77
     0
 78
     0
  0
ENDTAB
  0
TABLE
  2
LTYPE
  5
5
330
0
100
AcDbSymbolTable
 70
    10
  0
LTYPE
  5
14
330
5
100
AcDbSymbolTableRecord
100
AcDbLinetypeTableRecord
  2
BYBLOCK
 70
     0
  3

 72
    65
 73
     0
 40
0.0
  0
LTYPE
  5
15
330
5
100
AcDbSymbolTableRecord
100
AcDbLinetypeTableRecord
  2
BYLAYER
 70
     0
  3

 72
    65
 73
     0
 40
0.0
  0
LTYPE
  5
16
330
5
100
AcDbSymbolTableRecord
100
AcDbLinetypeTableRecord
  2
CONTINUOUS
 70
     0
  3
Solid line
 72
    65
 73
     0
 40
0.0
  0
LTYPE
  5
4B
330
5
100
AcDbSymbolTableRecord
100
AcDbLinetypeTableRecord
  2
AM_ISO02W050
 70
     0
  3
__ __ __ __ __ __ __ __ __ __ __ __ __ __ __
 72
    65
 73
     2
 40
7.5
 49
6.0
 74
     0
 49
-1.5
 74
     0
  0
LTYPE
  5
4C
330
5
100
AcDbSymbolTableRecord
100
AcDbLinetypeTableRecord
  2
AM_ISO08W050
 70
     0
  3
____ . ____ . ____ . ____ . ____ . ____ . ____
 72
    65
 73
     4
 40
18.0
 49
12.0
 74
     0
 49
-1.5
 74
     0
 49
3.0
 74
     0
 49
-1.5
 74
     0
  0
LTYPE
  5
4D
330
5
100
AcDbSymbolTableRecord
100
AcDbLinetypeTableRecord
  2
AM_ISO09W050
 70
     0
  3
_____ . . _____ . . _____ . . ____ .. ____
 72
    65
 73
     6
 40
22.5
 49
12.0
 74
     0
 49
-1.5
 74
     0
 49
3.0
 74
     0
 49
-1.5
 74
     0
 49
3.0
 74
     0
 49
-1.5
 74
     0
  0
LTYPE
  5
4E
330
5
100
AcDbSymbolTableRecord
100
AcDbLinetypeTableRecord
  2
AMCONSTR
 70
     0
  3
_______________________
 72
    65
 73
     2
 40
9999.0
 49
9999.0
 74
     0
 49
0.0
 74
     0
  0
LTYPE
  5
4F
330
5
100
AcDbSymbolTableRecord
100
AcDbLinetypeTableRecord
  2
AM_ISO02W050X2
 70
     0
  3
 _ _ _ _ _ _ _ _ _ _ _ _
 72
    65
 73
     2
 40
3.75
 49
3.0
 74
     0
 49
-0.75
 74
     0
  0
LTYPE
  5
50
330
5
100
AcDbSymbolTableRecord
100
AcDbLinetypeTableRecord
  2
AM_ISO08W050X2
 70
     0
  3
__ . __ . __ . __ . __ . __
 72
    65
 73
     4
 40
9.0
 49
6.0
 74
     0
 49
-0.75
 74
     0
 49
1.5
 74
     0
 49
-0.75
 74
     0
  0
LTYPE
  5
53
330
5
100
AcDbSymbolTableRecord
100
AcDbLinetypeTableRecord
  2
AMZIGZAG
 70
     0
  3
/\/-/\/-/\/-/\/-/\/-/\/
 72
    65
 73
     2
 40
11.00009999999999
 49
0.0001
 74
     4
 75
   135
340
52
 46
0.04
 50
0.0
 44
0.0
 45
0.0
 49
-11.0
 74
     0
  0
LTYPE
  5
166
330
5
100
AcDbSymbolTableRecord
100
AcDbLinetypeTableRecord
  2
ACJISTGL
 70
     0
  3
_ _ _ _ _
 72
    65
 73
     2
 40
3.0
 49
2.0
 74
     0
 49
-1.0
 74
     0
  0
LTYPE
  5
26A
330
5
100
AcDbSymbolTableRecord
100
AcDbLinetypeTableRecord
  2
ACJISTGB
 70
     0
  3
__ . . __ . .
 72
    65
 73
     6
 40
9.0
 49
4.0
 74
     0
 49
-1.0
 74
     0
 49
1.0
 74
     0
 49
-1.0
 74
     0
 49
1.0
 74
     0
 49
-1.0
 74
     0
  0
ENDTAB
  0
TABLE
  2
LAYER
  5
2
330
0
100
AcDbSymbolTable
 70
     7
  0
LAYER
  5
10
330
2
100
AcDbSymbolTableRecord
100
AcDbLayerTableRecord
  2
0
 70
     0
 62
     7
  6
CONTINUOUS
  0
LAYER
  5
3F9
330
2
100
AcDbSymbolTableRecord
100
AcDbLayerTableRecord
  2
AM_0
 70
     0
 62
     7
  6
CONTINUOUS
  0
LAYER
  5
BD4
330
2
100
AcDbSymbolTableRecord
100
AcDbLayerTableRecord
  2
AM_11
 70
     0
 62
     3
  6
AM_ISO09W050
  0
LAYER
  5
BD5
330
2
100
AcDbSymbolTableRecord
100
AcDbLayerTableRecord
  2
AM_7
 70
     0
 62
     4
  6
AM_ISO08W050
  0
LAYER
  5
BD6
330
2
100
AcDbSymbolTableRecord
100
AcDbLayerTableRecord
  2
AM_5
 70
     0
 62
     3
  6
CONTINUOUS
  0
LAYER
  5
BD7
330
2
100
AcDbSymbolTableRecord
100
AcDbLayerTableRecord
  2
DEFPOINTS
 70
     0
 62
     7
  6
CONTINUOUS
  0
LAYER
  5
E59
330
2
100
AcDbSymbolTableRecord
100
AcDbLayerTableRecord
  2
AM_6
 70
     0
 62
     2
  6
CONTINUOUS
  0
ENDTAB
  0
TABLE
  2
STYLE
  5
3
330
0
100
AcDbSymbolTable
 70
     5
  0
STYLE
  5
11
330
3
100
AcDbSymbolTableRecord
100
AcDbTextStyleTableRecord
  2
STANDARD
 70
     0
 40
0.0
 41
1.0
 50
0.0
 71
     0
 42
2.5
  3
simplex.shx
  4
EXTFONT.SHX
  0
STYLE
  5
52
330
3
100
AcDbSymbolTableRecord
100
AcDbTextStyleTableRecord
  2

 70
     1
 40
0.0
 41
1.0
 50
0.0
 71
     0
 42
2.5
  3
ltypeshp.shx
  4

  0
STYLE
  5
6B
330
3
100
AcDbSymbolTableRecord
100
AcDbTextStyleTableRecord
  2
ASAMI
 70
     0
 40
0.0
 41
1.0
 50
0.0
 71
     0
 42
2.5
  3
simplex.shx
  4
EXTFONT.SHX
  0
STYLE
  5
262
330
3
100
AcDbSymbolTableRecord
100
AcDbTextStyleTableRecord
  2
ACJISTS
 70
     0
 40
1.0
 41
1.0
 50
0.0
 71
     0
 42
2.5
  3
simplex.shx
  4
bigfont.shx
  0
STYLE
  5
269
330
3
100
AcDbSymbolTableRecord
100
AcDbTextStyleTableRecord
  2
ACJISGDT
 70
     0
 40
0.0
 41
1.0
 50
0.0
 71
     0
 42
2.5
  3
amgdtans.shx
  4

  0
ENDTAB
  0
TABLE
  2
VIEW
  5
6
330
0
100
AcDbSymbolTable
 70
     0
  0
ENDTAB
  0
TABLE
  2
UCS
  5
7
330
0
100
AcDbSymbolTable
 70
     0
  0
ENDTAB
  0
TABLE
  2
APPID
  5
9
330
0
100
AcDbSymbolTable
 70
    12
  0
APPID
  5
12
330
9
100
AcDbSymbolTableRecord
100
AcDbRegAppTableRecord
  2
ACAD
 70
     0
  0
APPID
  5
30
330
9
100
AcDbSymbolTableRecord
100
AcDbRegAppTableRecord
  2
MCAD_NO_VIS
 70
     0
  0
APPID
  5
31
330
9
100
AcDbSymbolTableRecord
100
AcDbRegAppTableRecord
  2
ACAD_TEMP_GRAPHIC
 70
     0
  0
APPID
  5
2C2
330
9
100
AcDbSymbolTableRecord
100
AcDbRegAppTableRecord
  2
GENIUS_GENDTOL_13
 70
     0
  0
APPID
  5
339
330
9
100
AcDbSymbolTableRecord
100
AcDbRegAppTableRecord
  2
GENIUS_GENODEF_13
 70
     0
  0
APPID
  5
33A
330
9
100
AcDbSymbolTableRecord
100
AcDbRegAppTableRecord
  2
GENIUS_GENOBJ-N-RSBK_13
 70
     0
  0
APPID
  5
33B
330
9
100
AcDbSymbolTableRecord
100
AcDbRegAppTableRecord
  2
GENIUS_GENOBJ-N-LIB_13
 70
     0
  0
APPID
  5
33C
330
9
100
AcDbSymbolTableRecord
100
AcDbRegAppTableRecord
  2
GENIUS_GENSCALE_13
 70
     0
  0
APPID
  5
378
330
9
100
AcDbSymbolTableRecord
100
AcDbRegAppTableRecord
  2
GENIUS_GENDIMSH_14
 70
     0
  0
APPID
  5
BD8
330
9
100
AcDbSymbolTableRecord
100
AcDbRegAppTableRecord
  2
GENIUS_GENOBJ-N-CEN_13
 70
     0
  0
APPID
  5
BD9
330
9
100
AcDbSymbolTableRecord
100
AcDbRegAppTableRecord
  2
GENIUS_GENFIL_13
 70
     0
  0
APPID
  5
BDA
330
9
100
AcDbSymbolTableRecord
100
AcDbRegAppTableRecord
  2
GENIUS_GENOBJ-N-CHA_13
 70
     0
  0
ENDTAB
  0
TABLE
  2
DIMSTYLE
  5
A
330
0
100
AcDbSymbolTable
 70
     8
  0
DIMSTYLE
105
58
102
{ACAD_REACTORS
330
13B3
330
145B
330
1920
330
1A14
102
}
330
A
100
AcDbSymbolTableRecord
100
AcDbDimStyleTableRecord
  2
AM_JIS
 70
     0
  3

  4
"
  5
OPEN30
  6

  7

 40
1.0
 41
2.5
 42
1.0
 43
12.0
 44
1.0
 45
0.0
 46
0.0
 47
0.1
 48
0.1
140
3.2
141
0.0
142
0.0
143
0.0393701
144
1.0
145
0.0
146
0.71
147
1.5
 71
     0
 72
     0
 73
     0
 74
     0
 75
     0
 76
     0
 77
     3
 78
     8
170
     0
171
     2
172
     1
173
     0
174
     0
175
     0
176
   256
177
   256
178
     2
270
     2
271
     3
272
     3
273
     2
274
     2
340
6B
275
     0
280
     0
281
     0
282
     0
283
     0
284
     0
285
     0
286
     0
287
     3
288
     0
  0
DIMSTYLE
105
5F
330
A
100
AcDbSymbolTableRecord
100
AcDbDimStyleTableRecord
  2
AM_JIS$3
 70
     0
  3

  4
"
  5
OPEN30
  6

  7

 40
1.0
 41
2.5
 42
1.0
 43
10.0
 44
1.0
 45
0.0
 46
0.0
 47
0.1
 48
0.1
140
3.2
141
0.0
142
0.0
143
0.0393701
144
1.0
145
0.0
146
0.71
147
1.5
 71
     0
 72
     0
 73
     0
 74
     1
 75
     0
 76
     0
 77
     3
 78
     8
170
     0
171
     2
172
     0
173
     0
174
     0
175
     0
176
   256
177
   256
178
     2
270
     2
271
     2
272
     3
273
     2
274
     2
340
6B
275
     0
280
     0
281
     0
282
     0
283
     0
284
     0
285
     0
286
     0
287
     0
288
     1
  0
DIMSTYLE
105
60
330
A
100
AcDbSymbolTableRecord
100
AcDbDimStyleTableRecord
  2
AM_JIS$4
 70
     0
  3

  4
"
  5
OPEN30
  6

  7

 40
1.0
 41
2.5
 42
1.0
 43
10.0
 44
1.0
 45
0.0
 46
0.0
 47
0.1
 48
0.1
140
3.2
141
0.0
142
0.0
143
0.0393701
144
1.0
145
0.0
146
0.71
147
1.5
 71
     0
 72
     0
 73
     0
 74
     1
 75
     0
 76
     0
 77
     3
 78
     8
170
     0
171
     2
172
     0
173
     0
174
     0
175
     0
176
   256
177
   256
178
     2
270
     2
271
     2
272
     3
273
     2
274
     2
340
6B
275
     0
280
     0
281
     0
282
     0
283
     0
284
     0
285
     0
286
     0
287
     0
288
     1
  0
DIMSTYLE
105
61
330
A
100
AcDbSymbolTableRecord
100
AcDbDimStyleTableRecord
  2
AM_JIS$6
 70
     0
  3

  4
"
  5
OPEN30
  6

  7

 40
1.0
 41
2.5
 42
1.0
 43
10.0
 44
1.0
 45
0.0
 46
0.0
 47
0.1
 48
0.1
140
3.2
141
0.0
142
0.0
143
0.0393701
144
1.0
145
0.0
146
0.71
147
1.5
 71
     0
 72
     0
 73
     0
 74
     0
 75
     0
 76
     0
 77
     0
 78
     8
170
     0
171
     2
172
     1
173
     0
174
     0
175
     0
176
   256
177
   256
178
     2
270
     2
271
     2
272
     2
273
     2
274
     2
340
6B
275
     0
280
     0
281
     0
282
     0
283
     0
284
     0
285
     0
286
     0
287
     3
288
     0
  0
DIMSTYLE
105
62
330
A
100
AcDbSymbolTableRecord
100
AcDbDimStyleTableRecord
  2
AM_JIS$7
 70
     0
  3

  4
"
  5
OPEN30
  6

  7

 40
1.0
 41
2.5
 42
1.0
 43
10.0
 44
1.0
 45
0.0
 46
0.0
 47
0.1
 48
0.1
140
3.2
141
0.0
142
0.0
143
0.0393701
144
1.0
145
0.0
146
0.71
147
1.5
 71
     0
 72
     0
 73
     0
 74
     0
 75
     0
 76
     0
 77
     3
 78
     8
170
     0
171
     2
172
     1
173
     0
174
     0
175
     0
176
   256
177
   256
178
     2
270
     2
271
     2
272
     3
273
     2
274
     2
340
6B
275
     0
280
     0
281
     0
282
     0
283
     0
284
     0
285
     0
286
     0
287
     3
288
     0
  0
DIMSTYLE
105
63
330
A
100
AcDbSymbolTableRecord
100
AcDbDimStyleTableRecord
  2
AM_JIS$SF
 70
     0
  3

  4
"
  5
OPEN30
  6

  7

 40
1.0
 41
2.5
 42
1.0
 43
10.0
 44
1.0
 45
0.0
 46
0.0
 47
0.1
 48
0.1
140
3.2
141
0.0
142
0.0
143
0.0393701
144
1.0
145
0.0
146
0.71
147
1.5
 71
     0
 72
     0
 73
     0
 74
     0
 75
     1
 76
     1
 77
     3
 78
     8
170
     0
171
     2
172
     1
173
     0
174
     0
175
     0
176
   256
177
   256
178
     2
270
     2
271
     2
272
     2
273
     2
274
     2
340
6B
275
     0
280
     0
281
     0
282
     0
283
     0
284
     0
285
     0
286
     0
287
     3
288
     0
  0
DIMSTYLE
105
68
330
A
100
AcDbSymbolTableRecord
100
AcDbDimStyleTableRecord
  2
AM_JIS$SH
 70
     0
  3

  4
"
  5

  6
GENAXEH
  7
OPEN30
 40
1.0
 41
2.5
 42
1.0
 43
10.0
 44
1.0
 45
0.0
 46
0.0
 47
0.1
 48
0.1
140
3.2
141
0.0
142
0.0
143
0.0393701
144
2.0
145
0.0
146
0.71
147
1.5
 71
     0
 72
     0
 73
     0
 74
     0
 75
     1
 76
     1
 77
     3
 78
     8
170
     0
171
     2
172
     1
173
     1
174
     0
175
     0
176
   256
177
   256
178
     2
270
     2
271
     2
272
     2
273
     2
274
     2
340
6B
275
     0
280
     0
281
     0
282
     0
283
     0
284
     0
285
     0
286
     0
287
     3
288
     0
  0
DIMSTYLE
105
B34
330
A
100
AcDbSymbolTableRecord
100
AcDbDimStyleTableRecord
  2
AM_JIS$2
 70
     0
  3

  4
"
  5
OPEN30
  6

  7

 40
1.0
 41
2.5
 42
1.0
 43
12.0
 44
1.0
 45
0.0
 46
0.0
 47
0.1
 48
0.1
140
3.2
141
0.0
142
0.0
143
0.0393701
144
1.0
145
0.0
146
0.71
147
1.5
 71
     0
 72
     0
 73
     0
 74
     0
 75
     0
 76
     0
 77
     3
 78
     8
170
     0
171
     2
172
     1
173
     0
174
     0
175
     0
176
   256
177
   256
178
     2
270
     2
271
     3
272
     3
273
     2
274
     2
340
6B
275
     0
280
     0
281
     0
282
     0
283
     0
284
     0
285
     0
286
     0
287
     3
288
     0
  0
ENDTAB
  0
TABLE
  2
BLOCK_RECORD
  5
1
330
0
100
AcDbSymbolTable
 70
     9
  0
BLOCK_RECORD
  5
1F
102
{ACAD_XDICTIONARY
360
74
102
}
330
1
100
AcDbSymbolTableRecord
100
AcDbBlockTableRecord
  2
*MODEL_SPACE
  0
BLOCK_RECORD
  5
101
102
{ACAD_XDICTIONARY
360
1C74
102
}
330
1
100
AcDbSymbolTableRecord
100
AcDbBlockTableRecord
  2
*PAPER_SPACE
  0
BLOCK_RECORD
  5
59
330
1
100
AcDbSymbolTableRecord
100
AcDbBlockTableRecord
  2
_OPEN30
  0
BLOCK_RECORD
  5
64
330
1
100
AcDbSymbolTableRecord
100
AcDbBlockTableRecord
  2
GENAXEH
  0
BLOCK_RECORD
  5
13C0
330
1
100
AcDbSymbolTableRecord
100
AcDbBlockTableRecord
  2
*D5
  0
BLOCK_RECORD
  5
145C
330
1
100
AcDbSymbolTableRecord
100
AcDbBlockTableRecord
  2
*D6
  0
BLOCK_RECORD
  5
1921
330
1
100
AcDbSymbolTableRecord
100
AcDbBlockTableRecord
  2
*D7
  0
BLOCK_RECORD
  5
1A15
330
1
100
AcDbSymbolTableRecord
100
AcDbBlockTableRecord
  2
*D8
  0
ENDTAB
  0
ENDSEC
  0
SECTION
  2
BLOCKS
  0
BLOCK
  5
20
330
1F
100
AcDbEntity
  8
0
100
AcDbBlockBegin
  2
*MODEL_SPACE
 70
     0
 10
0.0
 20
0.0
 30
0.0
  3
*MODEL_SPACE
  1

  0
ENDBLK
  5
21
330
1F
100
AcDbEntity
  8
0
100
AcDbBlockEnd
  0
BLOCK
  5
103
330
101
100
AcDbEntity
 67
     1
  8
0
100
AcDbBlockBegin
  2
*PAPER_SPACE
 70
     0
 10
0.0
 20
0.0
 30
0.0
  3
*PAPER_SPACE
  1

  0
ENDBLK
  5
104
330
101
100
AcDbEntity
 67
     1
  8
0
100
AcDbBlockEnd
  0
BLOCK
  5
5D
330
59
100
AcDbEntity
  8
0
100
AcDbBlockBegin
  2
_OPEN30
 70
     0
 10
0.0
 20
0.0
 30
0.0
  3
_OPEN30
  1

  0
LINE
  5
5A
330
59
100
AcDbEntity
  8
0
 62
     0
100
AcDbLine
 10
-1.0
 20
0.26794919
 30
0.0
 11
0.0
 21
0.0
 31
0.0
  0
LINE
  5
5B
330
59
100
AcDbEntity
  8
0
 62
     0
100
AcDbLine
 10
0.0
 20
0.0
 30
0.0
 11
-1.0
 21
-0.26794919
 31
0.0
  0
LINE
  5
5C
330
59
100
AcDbEntity
  8
0
 62
     0
100
AcDbLine
 10
0.0
 20
0.0
 30
0.0
 11
-1.0
 21
0.0
 31
0.0
  0
ENDBLK
  5
5E
330
59
100
AcDbEntity
  8
0
100
AcDbBlockEnd
  0
BLOCK
  5
66
330
64
100
AcDbEntity
  8
0
100
AcDbBlockBegin
  2
GENAXEH
 70
     0
 10
0.0
 20
0.0
 30
0.0
  3
GENAXEH
  1

  0
LINE
  5
65
330
64
100
AcDbEntity
  8
0
100
AcDbLine
 10
-1.0
 20
0.0
 30
0.0
 11
1.0
 21
0.0
 31
0.0
  0
ENDBLK
  5
67
330
64
100
AcDbEntity
  8
0
100
AcDbBlockEnd
  0
BLOCK
  5
13CA
330
13C0
100
AcDbEntity
  8
0
100
AcDbBlockBegin
  2
*D5
 70
     1
 10
0.0
 20
0.0
 30
0.0
  3
*D5
  1

  0
LINE
  5
1A97
330
13C0
100
AcDbEntity
  8
AM_5
100
AcDbLine
 10
-94.99999999999978
 20
-7.999999999998206
 30
0.0
 11
-94.99999999999978
 21
-35.00000099999965
 31
0.0
  0
LINE
  5
1A98
330
13C0
100
AcDbEntity
  8
AM_5
100
AcDbLine
 10
0.0000000000004226
 20
-7.500000000001265
 30
0.0
 11
0.0000000000004209
 21
-35.00000099999965
 31
0.0
  0
LINE
  5
1A99
330
13C0
100
AcDbEntity
  8
AM_5
100
AcDbLine
 10
-92.49999999999978
 20
-34.00000099999965
 30
0.0
 11
-2.499999999999579
 21
-34.00000099999965
 31
0.0
  0
INSERT
  5
1A9A
330
13C0
100
AcDbEntity
  8
AM_5
100
AcDbBlockReference
  2
_OPEN30
 10
-94.99999999999978
 20
-34.00000099999965
 30
0.0
 41
2.5
 42
2.5
 43
2.5
 50
180.0
  0
INSERT
  5
1A9B
330
13C0
100
AcDbEntity
  8
AM_5
100
AcDbBlockReference
  2
_OPEN30
 10
0.000000000000421
 20
-34.00000099999965
 30
0.0
 41
2.5
 42
2.5
 43
2.5
  0
MTEXT
  5
1A9C
330
13C0
100
AcDbEntity
  8
AM_5
 62
     2
100
AcDbMText
 10
-47.49999999999968
 20
-30.90000099999965
 30
0.0
 40
3.2
 41
0.0
 71
     5
 72
     1
  1
95
  7
ASAMI
1001
ACAD
1000
MTEXTBEGIN
1070
    73
1070
     1
1070
    44
1040
1.0
1070
    74
1070
     0
1000
MTEXTEND
  0
POINT
  5
1A9D
330
13C0
100
AcDbEntity
  8
DEFPOINTS
 62
     0
100
AcDbPoint
 10
-94.99999999999978
 20
-6.999999999998206
 30
0.0
  0
POINT
  5
1A9E
330
13C0
100
AcDbEntity
  8
DEFPOINTS
 62
     0
100
AcDbPoint
 10
0.0000000000004227
 20
-6.500000000001265
 30
0.0
  0
POINT
  5
1A9F
330
13C0
100
AcDbEntity
  8
DEFPOINTS
 62
     0
100
AcDbPoint
 10
0.000000000000421
 20
-34.00000099999965
 30
0.0
  0
ENDBLK
  5
13CB
330
13C0
100
AcDbEntity
  8
0
100
AcDbBlockEnd
  0
BLOCK
  5
1466
330
145C
100
AcDbEntity
  8
0
100
AcDbBlockBegin
  2
*D6
 70
     1
 10
0.0
 20
0.0
 30
0.0
  3
*D6
  1

  0
LINE
  5
1AA0
330
145C
100
AcDbEntity
  8
AM_5
100
AcDbLine
 10
-35.00000000000032
 20
-7.500000000000047
 30
0.0
 11
-35.00000000000032
 21
-23.00000100000136
 31
0.0
  0
LINE
  5
1AA1
330
145C
100
AcDbEntity
  8
AM_5
100
AcDbLine
 10
0.0000000000002237
 20
-7.500000000001265
 30
0.0
 11
0.0000000000002227
 21
-23.00000100000136
 31
0.0
  0
LINE
  5
1AA2
330
145C
100
AcDbEntity
  8
AM_5
100
AcDbLine
 10
-32.50000000000032
 20
-22.00000100000136
 30
0.0
 11
-2.499999999999777
 21
-22.00000100000136
 31
0.0
  0
INSERT
  5
1AA3
330
145C
100
AcDbEntity
  8
AM_5
100
AcDbBlockReference
  2
_OPEN30
 10
-35.00000000000032
 20
-22.00000100000136
 30
0.0
 41
2.5
 42
2.5
 43
2.5
 50
180.0
  0
INSERT
  5
1AA4
330
145C
100
AcDbEntity
  8
AM_5
100
AcDbBlockReference
  2
_OPEN30
 10
0.0000000000002228
 20
-22.00000100000136
 30
0.0
 41
2.5
 42
2.5
 43
2.5
  0
MTEXT
  5
1AA5
330
145C
100
AcDbEntity
  8
AM_5
 62
     2
100
AcDbMText
 10
-17.50000000000005
 20
-18.90000100000136
 30
0.0
 40
3.2
 41
0.0
 71
     5
 72
     1
  1
35
  7
ASAMI
1001
ACAD
1000
MTEXTBEGIN
1070
    73
1070
     1
1070
    44
1040
1.0
1070
    74
1070
     0
1000
MTEXTEND
  0
POINT
  5
1AA6
330
145C
100
AcDbEntity
  8
DEFPOINTS
 62
     0
100
AcDbPoint
 10
-35.00000000000032
 20
-6.500000000000047
 30
0.0
  0
POINT
  5
1AA7
330
145C
100
AcDbEntity
  8
DEFPOINTS
 62
     0
100
AcDbPoint
 10
0.0000000000002237
 20
-6.500000000001265
 30
0.0
  0
POINT
  5
1AA8
330
145C
100
AcDbEntity
  8
DEFPOINTS
 62
     0
100
AcDbPoint
 10
0.0000000000002228
 20
-22.00000100000136
 30
0.0
  0
ENDBLK
  5
1467
330
145C
100
AcDbEntity
  8
0
100
AcDbBlockEnd
  0
BLOCK
  5
192B
330
1921
100
AcDbEntity
  8
0
100
AcDbBlockBegin
  2
*D7
 70
     1
 10
0.0
 20
0.0
 30
0.0
  3
*D7
  1

  0
LINE
  5
1998
330
1921
100
AcDbEntity
  8
AM_5
100
AcDbLine
 10
-94.99999999999976
 20
7.999999999999781
 30
0.0
 11
-112.7332058593316
 21
7.999999999999785
 31
0.0
  0
LINE
  5
1999
330
1921
100
AcDbEntity
  8
AM_5
100
AcDbLine
 10
-94.99999999999978
 20
-7.999999999998193
 30
0.0
 11
-112.7332058593316
 21
-7.999999999998189
 31
0.0
  0
LINE
  5
199A
330
1921
100
AcDbEntity
  8
AM_5
100
AcDbLine
 10
-111.7332058593316
 20
5.499999999999785
 30
0.0
 11
-111.7332058593316
 21
-5.499999999998189
 31
0.0
  0
INSERT
  5
199B
330
1921
100
AcDbEntity
  8
AM_5
100
AcDbBlockReference
  2
_OPEN30
 10
-111.7332058593316
 20
7.999999999999785
 30
0.0
 41
2.5
 42
2.5
 43
2.5
 50
90.0
  0
INSERT
  5
199C
330
1921
100
AcDbEntity
  8
AM_5
100
AcDbBlockReference
  2
_OPEN30
 10
-111.7332058593316
 20
-7.999999999998189
 30
0.0
 41
2.5
 42
2.5
 43
2.5
 50
270.0
  0
MTEXT
  5
199D
330
1921
100
AcDbEntity
  8
AM_5
 62
     2
100
AcDbMText
 10
-114.8332058593316
 20
0.0000000000007808
 30
0.0
 40
3.2
 41
0.0
 71
     5
 72
     1
  1
%%c16
  7
ASAMI
 11
0.0000000000000001
 21
1.0
 31
0.0
1001
ACAD
1000
MTEXTBEGIN
1070
    73
1070
     1
1070
    44
1040
1.0
1070
    74
1070
     0
1000
MTEXTEND
  0
POINT
  5
199E
330
1921
100
AcDbEntity
  8
DEFPOINTS
 62
     0
100
AcDbPoint
 10
-93.99999999999977
 20
7.99999999999978
 30
0.0
  0
POINT
  5
199F
330
1921
100
AcDbEntity
  8
DEFPOINTS
 62
     0
100
AcDbPoint
 10
-93.99999999999979
 20
-7.999999999998194
 30
0.0
  0
POINT
  5
19A0
330
1921
100
AcDbEntity
  8
DEFPOINTS
 62
     0
100
AcDbPoint
 10
-111.7332058593316
 20
-7.999999999998189
 30
0.0
  0
ENDBLK
  5
192C
330
1921
100
AcDbEntity
  8
0
100
AcDbBlockEnd
  0
BLOCK
  5
1A1F
330
1A15
100
AcDbEntity
  8
0
100
AcDbBlockBegin
  2
*D8
 70
     1
 10
0.0
 20
0.0
 30
0.0
  3
*D8
  1

  0
LINE
  5
1BD8
330
1A15
100
AcDbEntity
  8
AM_5
100
AcDbLine
 10
1.000000000000012
 20
6.499999999999843
 30
0.0
 11
19.55776903085496
 21
6.499999999999838
 31
0.0
  0
LINE
  5
1BD9
330
1A15
100
AcDbEntity
  8
AM_5
100
AcDbLine
 10
1.00000000000002
 20
-6.500000000000158
 30
0.0
 11
19.55776903085496
 21
-6.500000000000163
 31
0.0
  0
LINE
  5
1BDA
330
1A15
100
AcDbEntity
  8
AM_5
100
AcDbLine
 10
18.55776903085496
 20
3.999999999999838
 30
0.0
 11
18.55776903085496
 21
-4.000000000000163
 31
0.0
  0
INSERT
  5
1BDB
330
1A15
100
AcDbEntity
  8
AM_5
100
AcDbBlockReference
  2
_OPEN30
 10
18.55776903085496
 20
6.499999999999838
 30
0.0
 41
2.5
 42
2.5
 43
2.5
 50
90.0
  0
INSERT
  5
1BDC
330
1A15
100
AcDbEntity
  8
AM_5
100
AcDbBlockReference
  2
_OPEN30
 10
18.55776903085496
 20
-6.500000000000163
 30
0.0
 41
2.5
 42
2.5
 43
2.5
 50
270.0
  0
MTEXT
  5
1BDD
330
1A15
100
AcDbEntity
  8
AM_5
 62
     2
100
AcDbMText
 10
15.45776903085496
 20
-0.0000000000001589
 30
0.0
 40
3.2
 41
0.0
 71
     5
 72
     1
  1
%%c13
  7
ASAMI
 11
0.0000000000000001
 21
1.0
 31
0.0
1001
ACAD
1000
MTEXTBEGIN
1070
    73
1070
     1
1070
    44
1040
1.0
1070
    74
1070
     0
1000
MTEXTEND
  0
POINT
  5
1BDE
330
1A15
100
AcDbEntity
  8
DEFPOINTS
 62
     0
100
AcDbPoint
 10
0.0000000000000124
 20
6.499999999999843
 30
0.0
  0
POINT
  5
1BDF
330
1A15
100
AcDbEntity
  8
DEFPOINTS
 62
     0
100
AcDbPoint
 10
0.0000000000000207
 20
-6.500000000000158
 30
0.0
  0
POINT
  5
1BE0
330
1A15
100
AcDbEntity
  8
DEFPOINTS
 62
     0
100
AcDbPoint
 10
18.55776903085496
 20
-6.500000000000163
 30
0.0
  0
ENDBLK
  5
1A20
330
1A15
100
AcDbEntity
  8
0
100
AcDbBlockEnd
  0
ENDSEC
  0
SECTION
  2
ENTITIES
  0
TEXT
  5
E5A
330
1F
100
AcDbEntity
  8
AM_6
100
AcDbText
 10
-63.09523809523774
 20
-56.50000099999965
 30
0.0
 40
5.0
  1
LSM4130
 72
     4
 11
-47.49999999999966
 21
-54.00000099999965
 31
0.0
100
AcDbText
  0
LINE
  5
132B
330
1F
100
AcDbEntity
  8
AM_7
  6
AM_ISO08W050X2
100
AcDbLine
 10
4.557768030854969
 20
-0.0000000000001137
 30
0.0
 11
-97.73320485933165
 21
-0.0000000000001634
 31
0.0
1001
GENIUS_GENODEF_13
1002
{
1000
HIER
1070
     0
1002
}
1002
{
1000
MANEDIT
1070
     0
1002
}
1002
{
1000
NOSEL
1070
     0
1002
}
1002
{
1000
BEHIND
1070
     0
1002
}
1002
{
1000
REACTOR
1002
}
1001
GENIUS_GENOBJ-N-CEN_13
1002
{
1000
OWNER
1000
GEN
1002
}
  0
DIMENSION
  5
13B3
330
1F
100
AcDbEntity
  8
AM_5
100
AcDbDimension
  2
*D5
 10
0.000000000000421
 20
-34.00000099999965
 30
0.0
 11
-47.49999999999968
 21
-30.90000099999965
 31
0.0
 70
    32
  1
<>
  3
AM_JIS
100
AcDbAlignedDimension
 13
-94.99999999999978
 23
-6.999999999998206
 33
0.0
 14
0.0000000000004227
 24
-6.500000000001265
 34
0.0
100
AcDbRotatedDimension
1001
GENIUS_GENDTOL_13
1000

1000
h7
1000

1040
0.0
  0
DIMENSION
  5
145B
330
1F
100
AcDbEntity
  8
AM_5
100
AcDbDimension
  2
*D6
 10
0.0000000000002228
 20
-22.00000100000136
 30
0.0
 11
-17.50000000000005
 21
-18.90000100000136
 31
0.0
 70
    32
  1
<>
  3
AM_JIS
100
AcDbAlignedDimension
 13
-35.00000000000032
 23
-6.500000000000047
 33
0.0
 14
0.0000000000002237
 24
-6.500000000001265
 34
0.0
 50
359.9999999999967
100
AcDbRotatedDimension
1001
GENIUS_GENDTOL_13
1000

1000
h7
1000

1040
0.0
  0
LINE
  5
17E7
330
1F
100
AcDbEntity
  8
AM_0
100
AcDbLine
 10
-43.87878387081967
 20
-6.500000000000055
 30
0.0
 11
-47.99999999999982
 21
-7.999999999999417
 31
0.0
  0
LINE
  5
17E8
330
1F
100
AcDbEntity
  8
AM_0
100
AcDbLine
 10
-47.99999999999977
 20
7.999999999999965
 30
0.0
 11
-43.8787838708178
 21
6.499999999999947
 31
0.0
  0
LINE
  5
191B
330
1F
100
AcDbEntity
  8
AM_0
100
AcDbLine
 10
-47.99999999999982
 20
-7.999999999999417
 30
0.0
 11
-93.9999999999998
 21
-7.999999999998204
 31
0.0
  0
LINE
  5
191E
330
1F
100
AcDbEntity
  8
AM_0
100
AcDbLine
 10
-93.99999999999977
 20
7.99999999999978
 30
0.0
 11
-93.99999999999979
 21
-7.999999999998194
 31
0.0
  0
LINE
  5
191F
330
1F
100
AcDbEntity
  8
AM_0
100
AcDbLine
 10
-94.99999999999976
 20
6.999999999999776
 30
0.0
 11
-94.99999999999982
 21
-6.999999999998178
 31
0.0
  0
DIMENSION
  5
1920
330
1F
100
AcDbEntity
  8
AM_5
100
AcDbDimension
  2
*D7
 10
-111.7332058593316
 20
-7.999999999998189
 30
0.0
 11
-114.8332058593316
 21
0.0000000000007808
 31
0.0
 70
    32
  1
%%c<>
  3
AM_JIS
100
AcDbAlignedDimension
 13
-93.99999999999977
 23
7.99999999999978
 33
0.0
 14
-93.99999999999979
 24
-7.999999999998194
 34
0.0
 50
270.0
100
AcDbRotatedDimension
1001
GENIUS_GENDTOL_13
1000

1000
h7
1000

1040
0.0
  0
LINE
  5
192D
330
1F
100
AcDbEntity
  8
AM_0
100
AcDbLine
 10
-47.99999999999976
 20
7.999999999999966
 30
0.0
 11
-93.99999999999977
 21
7.99999999999978
 31
0.0
  0
LINE
  5
1939
330
1F
100
AcDbEntity
  8
AM_0
100
AcDbLine
 10
-93.99999999999977
 20
7.99999999999978
 30
0.0
 11
-94.99999999999976
 21
6.999999999999776
 31
0.0
1001
GENIUS_GENFIL_13
1070
     0
1040
1.0
1040
1.0
1040
20.0
1040
0.0
1002
{
1002
}
1001
GENIUS_GENODEF_13
1002
{
1000
HIER
1070
     0
1002
}
1002
{
1000
MANEDIT
1070
     0
1002
}
1002
{
1000
NOSEL
1070
     0
1002
}
1002
{
1000
BEHIND
1070
     0
1002
}
1002
{
1000
REACTOR
1002
}
1001
GENIUS_GENOBJ-N-CHA_13
1002
{
1000
OWNER
1000
GEN
1002
}
  0
LINE
  5
193F
330
1F
100
AcDbEntity
  8
AM_0
100
AcDbLine
 10
-94.9999999999998
 20
-6.999999999998177
 30
0.0
 11
-93.9999999999998
 21
-7.999999999998204
 31
0.0
1001
GENIUS_GENFIL_13
1070
     0
1040
1.0
1040
1.0
1040
20.0
1040
0.0
1002
{
1002
}
1001
GENIUS_GENODEF_13
1002
{
1000
HIER
1070
     0
1002
}
1002
{
1000
MANEDIT
1070
     0
1002
}
1002
{
1000
NOSEL
1070
     0
1002
}
1002
{
1000
BEHIND
1070
     0
1002
}
1002
{
1000
REACTOR
1002
}
1001
GENIUS_GENOBJ-N-CHA_13
1002
{
1000
OWNER
1000
GEN
1002
}
  0
LINE
  5
194C
330
1F
100
AcDbEntity
  8
AM_0
100
AcDbLine
 10
-94.99999999999982
 20
-6.999999999998178
 30
0.0
 11
-93.99999999999982
 21
-7.999999999998204
 31
0.0
1001
GENIUS_GENFIL_13
1070
     0
1040
1.0
1040
1.0
1040
20.0
1040
0.0
1002
{
1002
}
1001
GENIUS_GENODEF_13
1002
{
1000
HIER
1070
     0
1002
}
1002
{
1000
MANEDIT
1070
     0
1002
}
1002
{
1000
NOSEL
1070
     0
1002
}
1002
{
1000
BEHIND
1070
     0
1002
}
1002
{
1000
REACTOR
1002
}
1001
GENIUS_GENOBJ-N-CHA_13
1002
{
1000
OWNER
1000
GEN
1002
}
  0
LINE
  5
1A09
330
1F
100
AcDbEntity
  8
AM_0
100
AcDbLine
 10
-0.0000000000002321
 20
0.0
 30
0.0
 11
-0.1225000000002285
 21
1.300000000000147
 31
0.0
  0
LINE
  5
1A0A
330
1F
100
AcDbEntity
  8
AM_0
100
AcDbLine
 10
-0.1225000000002285
 20
1.300000000000147
 30
0.0
 11
-1.245444897370403
 21
3.467283058213513
 31
0.0
  0
LINE
  5
1A0B
330
1F
100
AcDbEntity
  8
AM_0
100
AcDbLine
 10
-0.0000000000002321
 20
0.0
 30
0.0
 11
-0.0000000000002404
 21
6.5
 31
0.0
  0
LINE
  5
1A0C
330
1F
100
AcDbEntity
  8
AM_0
100
AcDbLine
 10
-1.003867649973263
 20
-1.915751194716506
 30
0.0
 11
-0.1225000000002202
 21
-1.724967210932141
 31
0.0
  0
LINE
  5
1A0D
330
1F
100
AcDbEntity
  8
AM_0
100
AcDbLine
 10
-0.1225000000002202
 20
-1.724967210932141
 30
0.0
 11
-0.0000000000002321
 21
-1.3
 31
0.0
  0
LINE
  5
1A0E
330
1F
100
AcDbEntity
  8
AM_0
100
AcDbLine
 10
-0.0000000000002238
 20
-6.5
 30
0.0
 11
-0.1225000000002119
 21
-6.153473504908374
 31
0.0
  0
LINE
  5
1A0F
330
1F
100
AcDbEntity
  8
AM_0
100
AcDbLine
 10
-0.1225000000002119
 20
-6.153473504908374
 30
0.0
 11
-0.1225000000002202
 21
-1.724967210932141
 31
0.0
  0
LINE
  5
1A10
330
1F
100
AcDbEntity
  8
AM_0
100
AcDbLine
 10
-0.0000000000002238
 20
-6.5
 30
0.0
 11
-0.0000000000002321
 21
-1.3
 31
0.0
  0
LINE
  5
1A11
330
1F
100
AcDbEntity
  8
AM_0
100
AcDbLine
 10
-0.1225000000002119
 20
-6.1534735049083
 30
0.0
 11
-0.7991666666668932
 21
-5.196901652100485
 31
0.0
  0
LINE
  5
1A12
330
1F
100
AcDbEntity
  8
AM_0
100
AcDbLine
 10
-0.0000000000002321
 20
-1.3
 30
0.0
 11
-0.6735753140548252
 21
0.0000000000000739
 31
0.0
  0
LINE
  5
1A13
330
1F
100
AcDbEntity
  8
AM_0
100
AcDbLine
 10
-0.0000000000002321
 20
0.0
 30
0.0
 11
-0.1036497106681935
 21
-1.099956113211476
 31
0.0
  0
DIMENSION
  5
1A14
330
1F
100
AcDbEntity
  8
AM_5
100
AcDbDimension
  2
*D8
 10
18.55776903085496
 20
-6.500000000000163
 30
0.0
 11
15.45776903085496
 21
-0.0000000000001589
 31
0.0
 70
    32
  1
%%c<>
  3
AM_JIS
100
AcDbAlignedDimension
 13
0.0000000000000124
 23
6.499999999999843
 33
0.0
 14
0.0000000000000207
 24
-6.500000000000158
 34
0.0
 50
90.0
100
AcDbRotatedDimension
1001
GENIUS_GENDTOL_13
1000

1000
h7
1000

1040
0.0
  0
LINE
  5
1A21
330
1F
100
AcDbEntity
  8
AM_0
100
AcDbLine
 10
-2.749334269525765
 20
0.0
 30
0.0
 11
-2.749334269525765
 21
-1.040000000000014
 31
0.0
  0
POLYLINE
  5
1A22
330
1F
100
AcDbEntity
  8
AM_0
100
AcDb2dPolyline
 66
     1
 10
0.0
 20
0.0
 30
0.0
 70
     2
  0
VERTEX
  5
1A23
330
1A22
100
AcDbEntity
  8
AM_0
100
AcDbVertex
100
AcDb2dVertex
 10
-38.10346466855199
 20
5.216140124223169
 30
0.0
 42
-0.0080850818469205
  0
VERTEX
  5
1A24
330
1A22
100
AcDbEntity
  8
AM_0
100
AcDbVertex
100
AcDb2dVertex
 10
-38.68840263568205
 20
5.420301623569318
 30
0.0
 42
-0.0113772357485858
 70
     1
  0
VERTEX
  5
1A25
330
1A22
100
AcDbEntity
  8
AM_0
100
AcDbVertex
100
AcDb2dVertex
 10
-39.10515461969148
 20
5.585931782199221
 30
0.0
 42
-0.0082896290467094
  0
VERTEX
  5
1A26
330
1A22
100
AcDbEntity
  8
AM_0
100
AcDbVertex
100
AcDb2dVertex
 10
-40.43341009589716
 20
6.180409853381205
 30
0.0
 42
-0.2726804491113656
 70
     1
  0
VERTEX
  5
1A27
330
1A22
100
AcDbEntity
  8
AM_0
100
AcDbVertex
100
AcDb2dVertex
 10
-40.46132241298413
 20
6.222195285889636
 30
0.0
 42
-0.4014058829339297
  0
VERTEX
  5
1A28
330
1A22
100
AcDbEntity
  8
AM_0
100
AcDbVertex
100
AcDb2dVertex
 10
-40.41072134172419
 20
6.295450255406256
 30
0.0
 42
-0.0313656446754737
 70
     1
  0
VERTEX
  5
1A29
330
1A22
100
AcDbEntity
  8
AM_0
100
AcDbVertex
100
AcDb2dVertex
 10
-39.49904922039337
 20
6.385755772071703
 30
0.0
 42
-0.0039726403541645
  0
VERTEX
  5
1A2A
330
1A22
100
AcDbEntity
  8
AM_0
100
AcDbVertex
100
AcDb2dVertex
 10
-38.66880641075735
 20
6.402415721586126
 30
0.0
 42
0.0019401889352083
 70
     1
  0
VERTEX
  5
1A2B
330
1A22
100
AcDbEntity
  8
AM_0
100
AcDbVertex
100
AcDb2dVertex
 10
-36.9687500000002
 20
6.428827413564818
 30
0.0
 42
0.0036525506412497
  0
VERTEX
  5
1A2C
330
1A22
100
AcDbEntity
  8
AM_0
100
AcDbVertex
100
AcDb2dVertex
 10
-36.30022657855763
 20
6.447549037089169
 30
0.0
 42
0.0018773371428962
 70
     1
  0
VERTEX
  5
1A2D
330
1A22
100
AcDbEntity
  8
AM_0
100
AcDbVertex
100
AcDb2dVertex
 10
-35.0000000000002
 20
6.499999999999953
 30
0.0
  0
SEQEND
  5
1A2E
330
1A22
100
AcDbEntity
  8
AM_0
  0
LINE
  5
1A2F
330
1F
100
AcDbEntity
  8
AM_0
100
AcDbLine
 10
-35.0000000000002
 20
4.075706273907977
 30
0.0
 11
-35.41398207091512
 21
3.341168021927904
 31
0.0
  0
LINE
  5
1A30
330
1F
100
AcDbEntity
  8
AM_0
100
AcDbLine
 10
-35.41398207091512
 20
3.341168021927904
 30
0.0
 11
-35.0000000000002
 21
2.04089471167293
 31
0.0
  0
LINE
  5
1A36
330
1F
100
AcDbEntity
  8
AM_0
100
AcDbLine
 10
-35.00000000000019
 20
-4.316673657901363
 30
0.0
 11
-35.00000000000032
 21
-6.320778739372578
 31
0.0
  0
LINE
  5
1A38
330
1F
100
AcDbEntity
  8
AM_11
100
AcDbLine
 10
-35.00000000000032
 20
-6.500000000000047
 30
0.0
 11
-35.0000000000002
 21
6.499999999999953
 31
0.0
  0
LINE
  5
1A39
330
1F
100
AcDbEntity
  8
AM_0
100
AcDbLine
 10
-1.245444897370403
 20
3.467283058213513
 30
0.0
 11
-2.749334269525774
 21
3.910989449286501
 31
0.0
  0
LINE
  5
1A3A
330
1F
100
AcDbEntity
  8
AM_0
100
AcDbLine
 10
-0.0000000000002321
 20
0.0
 30
0.0
 11
-2.749334269525765
 21
0.0
 31
0.0
  0
LINE
  5
1A3B
330
1F
100
AcDbEntity
  8
AM_0
100
AcDbLine
 10
-2.749334269525765
 20
-1.040000000000014
 30
0.0
 11
-0.1347150628111441
 21
-1.040000000000014
 31
0.0
  0
LINE
  5
1A3C
330
1F
100
AcDbEntity
  8
AM_0
100
AcDbLine
 10
-2.749334269525765
 20
-1.040000000000014
 30
0.0
 11
-1.003867649973263
 21
-1.915751194716506
 31
0.0
  0
LINE
  5
1A3D
330
1F
100
AcDbEntity
  8
AM_11
100
AcDbLine
 10
-35.00000000000032
 20
-6.500000000000044
 30
0.0
 11
-0.0000000000002238
 21
-6.5
 31
0.0
  0
LINE
  5
1A3E
330
1F
100
AcDbEntity
  8
AM_11
100
AcDbLine
 10
-0.0000000000011357
 20
6.5
 30
0.0
 11
-35.00000000000054
 21
6.499999999999953
 31
0.0
  0
SPLINE
  5
1A3F
330
1F
100
AcDbEntity
  8
AM_0
100
AcDbSpline
210
0.0
220
0.0
230
1.0
 70
     8
 71
     3
 72
     8
 73
     4
 74
     0
 42
0.0000000001
 43
0.0000000001
 40
0.0
 40
0.0
 40
0.0
 40
0.0
 40
14.48999654934396
 40
14.48999654934396
 40
14.48999654934396
 40
14.48999654934396
 10
-15.86666666666711
 20
-6.499999999999871
 30
0.0
 10
-21.50166532474532
 20
-6.499999999999879
 30
0.0
 10
-26.61749932903955
 20
-3.249999999999884
 30
0.0
 10
-31.73333333333378
 20
0.0000000000001108
 30
0.0
  0
SPLINE
  5
1A40
330
1F
100
AcDbEntity
  8
AM_0
100
AcDbSpline
210
0.0
220
0.0
230
1.0
 70
     8
 71
     3
 72
     8
 73
     4
 74
     0
 42
0.0000000001
 43
0.0000000001
 40
0.0
 40
0.0
 40
0.0
 40
0.0
 40
14.48999654934396
 40
14.48999654934396
 40
14.48999654934396
 40
14.48999654934396
 10
-35.28338721261894
 20
6.500000000000109
 30
0.0
 10
-26.09833467525535
 20
6.500000000000119
 30
0.0
 10
-20.98250067096112
 20
3.250000000000123
 30
0.0
 10
-15.86666666666689
 20
0.0000000000001293
 30
0.0
  0
SPLINE
  5
1A41
330
1F
100
AcDbEntity
  8
AM_0
100
AcDbSpline
210
0.0
220
0.0
230
1.0
 70
     8
 71
     3
 72
     8
 73
     4
 74
     0
 42
0.0000000001
 43
0.0000000001
 40
0.0
 40
0.0
 40
0.0
 40
0.0
 40
2.130230809022907
 40
2.130230809022907
 40
2.130230809022907
 40
2.130230809022907
 10
-31.73333333333378
 20
-6.500000000000038
 30
0.0
 10
-30.90491024093596
 20
-6.500000000000038
 30
0.0
 10
-30.08770789826289
 20
-6.429757474166255
 30
0.0
 10
-29.28007669920994
 20
-6.299599049708368
 30
0.0
  0
SPLINE
  5
1A42
330
1F
100
AcDbEntity
  8
AM_0
100
AcDbSpline
210
0.0
220
0.0
230
1.0
 70
     8
 71
     3
 72
     8
 73
     4
 74
     0
 42
0.0000000001
 43
0.0000000001
 40
0.0
 40
0.0
 40
0.0
 40
0.0
 40
2.764560748519282
 40
2.764560748519282
 40
2.764560748519282
 40
2.764560748519282
 10
-13.83030975434007
 20
-6.305368771436021
 30
0.0
 10
-12.75520279658258
 20
-6.305368771436021
 30
0.0
 10
-11.69803760547609
 20
-6.18979549306308
 30
0.0
 10
-10.65537896800623
 20
-5.980777126796049
 30
0.0
  0
SPLINE
  5
1A43
330
1F
100
AcDbEntity
  8
AM_0
100
AcDbSpline
210
0.0
220
0.0
230
1.0
 70
     8
 71
     3
 72
     8
 73
     4
 74
     0
 42
0.0000000001
 43
0.0000000001
 40
1.870660592686466
 40
1.870660592686466
 40
1.870660592686466
 40
1.870660592686466
 40
14.43901837670146
 40
14.43901837670146
 40
14.43901837670146
 40
14.43901837670146
 10
-0.1225000000002119
 20
-6.1534735049083
 30
0.0
 10
-4.906958689767181
 20
-5.488470795731931
 30
0.0
 10
-9.368634222053534
 20
-2.744235397865933
 30
0.0
 10
-13.83030975433988
 20
0.0000000000000554
 30
0.0
  0
SPLINE
  5
1A44
330
1F
100
AcDbEntity
  8
AM_0
100
AcDbSpline
210
0.0
220
0.0
230
1.0
 70
     8
 71
     3
 72
     8
 73
     4
 74
     0
 42
0.0000000001
 43
0.0000000001
 40
0.7142832446738512
 40
0.7142832446738512
 40
0.7142832446738512
 40
0.7142832446738512
 40
14.36247867694493
 40
14.36247867694493
 40
14.36247867694493
 40
14.36247867694493
 10
-27.77772562047489
 20
5.980777126771542
 30
0.0
 10
-21.25540857458223
 20
5.704149146118164
 30
0.0
 10
-16.37043622338898
 20
2.852074573059114
 30
0.0
 10
-11.48546387219572
 20
0.0000000000000647
 30
0.0
  0
SPLINE
  5
1A45
330
1F
100
AcDbEntity
  8
AM_0
100
AcDbSpline
210
0.0
220
0.0
230
1.0
 70
     8
 71
     3
 72
     8
 73
     4
 74
     0
 42
0.0000000001
 43
0.0000000001
 40
0.0
 40
0.0
 40
0.0
 40
0.0
 40
14.36247867694493
 40
14.36247867694493
 40
14.36247867694493
 40
14.36247867694493
 10
-11.48546387219595
 20
-6.002677854943356
 30
0.0
 10
-17.07087224656342
 20
-6.002677854943363
 30
0.0
 10
-22.21150139271302
 20
-3.001338927471588
 30
0.0
 10
-27.35213053886262
 20
0.0000000000001847
 30
0.0
  0
SPLINE
  5
1A46
330
1F
100
AcDbEntity
  8
AM_0
100
AcDbSpline
210
0.0
220
0.0
230
1.0
 70
     8
 71
     3
 72
     8
 73
     4
 74
     0
 42
0.0000000001
 43
0.0000000001
 40
0.0
 40
0.0
 40
0.0
 40
0.0
 40
14.48999654934396
 40
14.48999654934396
 40
14.48999654934396
 40
14.48999654934396
 10
-0.0000000000002238
 20
-6.5
 30
0.0
 10
-5.63499865807843
 20
-6.500000000000008
 30
0.0
 10
-10.75083266237266
 20
-3.250000000000013
 30
0.0
 10
-15.86666666666689
 20
-0.0000000000000185
 30
0.0
  0
SPLINE
  5
1A47
330
1F
100
AcDbEntity
  8
AM_0
100
AcDbSpline
210
0.0
220
0.0
230
1.0
 70
     8
 71
     3
 72
     8
 73
     4
 74
     0
 42
0.0000000001
 43
0.0000000001
 40
0.0
 40
0.0
 40
0.0
 40
0.0
 40
14.48999654934396
 40
14.48999654934396
 40
14.48999654934396
 40
14.48999654934396
 10
-15.8666666666669
 20
6.50000000000013
 30
0.0
 10
-10.23166800858869
 20
6.500000000000136
 30
0.0
 10
-5.115834004294463
 20
3.250000000000142
 30
0.0
 10
-0.0000000000002321
 20
0.0000000000001478
 30
0.0
  0
SPLINE
  5
1A48
330
1F
100
AcDbEntity
  8
AM_0
100
AcDbSpline
210
0.0
220
0.0
230
1.0
 70
     8
 71
     3
 72
     8
 73
     4
 74
     0
 42
0.0000000001
 43
0.0000000001
 40
0.3581103616548037
 40
0.3581103616548037
 40
0.3581103616548037
 40
0.3581103616548037
 40
12.40023413887867
 40
12.40023413887867
 40
12.40023413887867
 40
12.40023413887867
 10
-13.41341003254283
 20
6.299599049708461
 30
0.0
 10
-8.750357920251591
 20
6.17079311818168
 30
0.0
 10
-4.419285941175264
 20
3.9035114670305
 30
0.0
 10
-0.1362815911286965
 20
1.326598463591654
 30
0.0
  0
SPLINE
  5
1A49
330
1F
100
AcDbEntity
  8
AM_0
100
AcDbSpline
210
0.0
220
0.0
230
1.0
 70
     8
 71
     3
 72
     8
 73
     4
 74
     0
 42
0.0000000001
 43
0.0000000001
 40
4.542668862435135
 40
4.542668862435135
 40
4.542668862435135
 40
4.542668862435135
 40
14.36247867694493
 40
14.36247867694493
 40
14.36247867694493
 40
14.36247867694493
 10
-0.7991666666652684
 20
-5.196901652093613
 30
0.0
 10
-4.456036476331691
 20
-4.104107392544717
 30
0.0
 10
-7.970750174263714
 20
-2.05205369627233
 30
0.0
 10
-11.48546387219572
 20
0.0000000000000647
 30
0.0
  0
SPLINE
  5
1A4A
330
1F
100
AcDbEntity
  8
AM_0
100
AcDbSpline
210
0.0
220
0.0
230
1.0
 70
     8
 71
     3
 72
     8
 73
     4
 74
     0
 42
0.0000000001
 43
0.0000000001
 40
0.0
 40
0.0
 40
0.0
 40
0.0
 40
5.635889483499127
 40
5.635889483499127
 40
5.635889483499127
 40
5.635889483499127
 10
-0.0000000000002404
 20
6.5
 30
0.0
 10
-2.191734799138784
 20
6.5
 30
0.0
 10
-4.304929129475708
 20
6.00833223767288
 30
0.0
 10
-6.370131335218042
 20
5.216231069882606
 30
0.0
  0
SPLINE
  5
1A4B
330
1F
100
AcDbEntity
  8
AM_0
100
AcDbSpline
210
0.0
220
0.0
230
1.0
 70
     8
 71
     3
 72
     8
 73
     4
 74
     0
 42
0.0000000001
 43
0.0000000001
 40
0.0
 40
0.0
 40
0.0
 40
0.0
 40
2.586565323616714
 40
2.586565323616714
 40
2.586565323616714
 40
2.586565323616714
 10
-0.0000000000002404
 20
5.297113492689152
 30
0.0
 10
-0.6454786105870082
 20
4.43747615499631
 30
0.0
 10
-1.753406088835569
 20
4.068315936001658
 30
0.0
 10
-2.749334269525774
 20
3.910989449286501
 30
0.0
  0
SPLINE
  5
1A4C
330
1F
100
AcDbEntity
  8
AM_0
100
AcDbSpline
210
0.0
220
0.0
230
1.0
 70
     8
 71
     3
 72
     8
 73
     4
 74
     0
 42
0.0000000001
 43
0.0000000001
 40
0.7142832446738512
 40
0.7142832446738512
 40
0.7142832446738512
 40
0.7142832446738512
 40
9.361146747480315
 40
9.361146747480315
 40
9.361146747480315
 40
9.361146747480315
 10
-10.65537896788313
 20
5.98077712677157
 30
0.0
 10
-7.31868203953445
 20
5.805518470663051
 30
0.0
 10
-4.135181576689607
 20
4.596500847639516
 30
0.0
 10
-1.007819405401869
 20
3.008665984325233
 30
0.0
  0
SPLINE
  5
1A4D
330
1F
100
AcDbEntity
  8
AM_0
100
AcDbSpline
210
0.0
220
0.0
230
1.0
 70
     8
 71
     3
 72
     8
 73
     4
 74
     0
 42
0.0000000001
 43
0.0000000001
 40
0.0
 40
0.0
 40
0.0
 40
0.0
 40
4.451443990518192
 40
4.451443990518192
 40
4.451443990518192
 40
4.451443990518192
 10
-11.48546387219595
 20
-6.002677854943502
 30
0.0
 10
-9.75434676477219
 20
-6.002677854943502
 30
0.0
 10
-8.065955194328184
 20
-5.71436893852168
 30
0.0
 10
-6.407046994305622
 20
-5.227108313600523
 30
0.0
  0
SPLINE
  5
1A4E
330
1F
100
AcDbEntity
  8
AM_0
100
AcDbSpline
210
0.0
220
0.0
230
1.0
 70
     8
 71
     3
 72
     8
 73
     4
 74
     0
 42
0.0000000001
 43
0.0000000001
 40
0.0
 40
0.0
 40
0.0
 40
0.0
 40
14.43901837670149
 40
14.43901837670149
 40
14.43901837670149
 40
14.43901837670149
 10
-13.83030975434007
 20
-6.305368771435873
 30
0.0
 10
-19.44548356750176
 20
-6.305368771435881
 30
0.0
 10
-24.57122999425426
 20
-3.152684385717849
 30
0.0
 10
-29.69697642100677
 20
0.0000000000001847
 30
0.0
  0
SPLINE
  5
1A4F
330
1F
100
AcDbEntity
  8
AM_0
100
AcDbSpline
210
0.0
220
0.0
230
1.0
 70
     8
 71
     3
 72
     8
 73
     4
 74
     0
 42
0.0000000001
 43
0.0000000001
 40
0.3581103616548037
 40
0.3581103616548037
 40
0.3581103616548037
 40
0.3581103616548037
 40
14.43901837670146
 40
14.43901837670146
 40
14.43901837670146
 40
14.43901837670146
 10
-31.48331167191973
 20
6.299599049708443
 30
0.0
 10
-23.82754946421052
 20
6.148985710469164
 30
0.0
 10
-18.82892960927518
 20
3.074492855234605
 30
0.0
 10
-13.83030975433988
 20
0.0000000000000554
 30
0.0
  0
SPLINE
  5
1A50
330
1F
100
AcDbEntity
  8
AM_0
100
AcDbSpline
210
0.0
220
0.0
230
1.0
 70
     8
 71
     3
 72
     8
 73
     4
 74
     0
 42
0.0000000001
 43
0.0000000001
 40
0.0
 40
0.0
 40
0.0
 40
0.0
 40
5.635889483499305
 40
5.635889483499305
 40
5.635889483499305
 40
5.635889483499305
 10
-15.86666666666713
 20
6.50000000000013
 30
0.0
 10
-18.05840146580577
 20
6.50000000000013
 30
0.0
 10
-20.17159579614273
 20
6.008332237673001
 30
0.0
 10
-22.38805047066653
 20
5.128905416316103
 30
0.0
  0
SPLINE
  5
1A51
330
1F
100
AcDbEntity
  8
AM_0
100
AcDbSpline
210
0.0
220
0.0
230
1.0
 70
     8
 71
     3
 72
     8
 73
     4
 74
     0
 42
0.0000000001
 43
0.0000000001
 40
0.0
 40
0.0
 40
0.0
 40
0.0
 40
2.130230809022907
 40
2.130230809022907
 40
2.130230809022907
 40
2.130230809022907
 10
-15.86666666666711
 20
-6.500000000000019
 30
0.0
 10
-15.0382435742693
 20
-6.500000000000019
 30
0.0
 10
-14.22104123159623
 20
-6.429757474166236
 30
0.0
 10
-13.41341003254328
 20
-6.29959904970835
 30
0.0
  0
SPLINE
  5
1A52
330
1F
100
AcDbEntity
  8
AM_0
100
AcDbSpline
210
0.0
220
0.0
230
1.0
 70
     8
 71
     3
 72
     8
 73
     4
 74
     0
 42
0.0000000001
 43
0.0000000001
 40
0.0
 40
0.0
 40
0.0
 40
0.0
 40
4.451443990518192
 40
4.451443990518192
 40
4.451443990518192
 40
4.451443990518192
 10
-27.35213053886261
 20
-6.002677854943531
 30
0.0
 10
-25.62101343143885
 20
-6.002677854943531
 30
0.0
 10
-23.93262186099484
 20
-5.714368938521698
 30
0.0
 10
-22.27371366097228
 20
-5.227108313600541
 30
0.0
  0
SPLINE
  5
1A53
330
1F
100
AcDbEntity
  8
AM_0
100
AcDbSpline
210
0.0
220
0.0
230
1.0
 70
     8
 71
     3
 72
     8
 73
     4
 74
     0
 42
0.0000000001
 43
0.0000000001
 40
0.0
 40
0.0
 40
0.0
 40
0.0
 40
2.764560748519282
 40
2.764560748519282
 40
2.764560748519282
 40
2.764560748519282
 10
-29.69697642100673
 20
-6.30536877143604
 30
0.0
 10
-28.62186946324925
 20
-6.30536877143604
 30
0.0
 10
-27.56470427214275
 20
-6.189795493063107
 30
0.0
 10
-26.52204563467289
 20
-5.980777126796076
 30
0.0
  0
SPLINE
  5
1A54
330
1F
100
AcDbEntity
  8
AM_0
100
AcDbSpline
210
0.0
220
0.0
230
1.0
 70
     8
 71
     3
 72
     8
 73
     4
 74
     0
 42
0.0000000001
 43
0.0000000001
 40
0.0
 40
0.0
 40
0.0
 40
0.0
 40
1.412269715655734
 40
1.412269715655734
 40
1.412269715655734
 40
1.412269715655734
 10
-33.36666666666708
 20
-6.410389369686201
 30
0.0
 10
-33.91588266719988
 20
-6.410389369686201
 30
0.0
 10
-34.46016688602644
 20
-6.379516138181556
 30
0.0
 10
-35.00000000000019
 20
-6.320778739372541
 30
0.0
  0
SPLINE
  5
1A55
330
1F
100
AcDbEntity
  8
AM_0
100
AcDbSpline
210
0.0
220
0.0
230
1.0
 70
     8
 71
     3
 72
     8
 73
     4
 74
     0
 42
0.0000000001
 43
0.0000000001
 40
0.0
 40
0.0
 40
0.0
 40
0.0
 40
6.769478140335353
 40
6.769478140335353
 40
6.769478140335353
 40
6.769478140335353
 10
-27.35213053886261
 20
-6.002677854943383
 30
0.0
 10
-29.98470537121524
 20
-6.002677854943383
 30
0.0
 10
-32.51847129926351
 20
-5.335922323085956
 30
0.0
 10
-35.00000000000019
 20
-4.316673657901363
 30
0.0
  0
SPLINE
  5
1A56
330
1F
100
AcDbEntity
  8
AM_0
100
AcDbSpline
210
0.0
220
0.0
230
1.0
 70
     8
 71
     3
 72
     8
 73
     4
 74
     0
 42
0.0000000001
 43
0.0000000001
 40
0.0
 40
0.0
 40
0.0
 40
0.0
 40
4.662554012798695
 40
4.662554012798695
 40
4.662554012798695
 40
4.662554012798695
 10
-29.69697642100673
 20
-6.305368771435892
 30
0.0
 10
-31.51019187042841
 20
-6.305368771435892
 30
0.0
 10
-33.27237319396132
 20
-5.976628500057135
 30
0.0
 10
-35.00000000000019
 20
-5.42530263011023
 30
0.0
  0
SPLINE
  5
1A57
330
1F
100
AcDbEntity
  8
AM_0
100
AcDbSpline
210
0.0
220
0.0
230
1.0
 70
     8
 71
     3
 72
     8
 73
     4
 74
     0
 42
0.0000000001
 43
0.0000000001
 40
4.48458745047074
 40
4.48458745047074
 40
4.48458745047074
 40
4.48458745047074
 40
14.36247867694493
 40
14.36247867694493
 40
14.36247867694493
 40
14.36247867694493
 10
-38.10346466855199
 20
5.216140124223179
 30
0.0
 10
-34.42313501983988
 20
4.128382032961914
 30
0.0
 10
-30.88763277935122
 20
2.064191016480962
 30
0.0
 10
-27.35213053886262
 20
0.0000000000000369
 30
0.0
  0
SPLINE
  5
1A58
330
1F
100
AcDbEntity
  8
AM_0
100
AcDbSpline
210
0.0
220
0.0
230
1.0
 70
     8
 71
     3
 72
     8
 73
     4
 74
     0
 42
0.0000000001
 43
0.0000000001
 40
9.094138221207366
 40
9.094138221207366
 40
9.094138221207366
 40
9.094138221207366
 40
14.43901837670146
 40
14.43901837670146
 40
14.43901837670146
 40
14.43901837670146
 10
-35.41398207091506
 20
3.341168021927904
 30
0.0
 10
-33.49176352407612
 20
2.33405343357005
 30
0.0
 10
-31.59436997254141
 20
1.167026716785048
 30
0.0
 10
-29.69697642100677
 20
0.0000000000000369
 30
0.0
  0
SPLINE
  5
1A59
330
1F
100
AcDbEntity
  8
AM_0
100
AcDbSpline
210
0.0
220
0.0
230
1.0
 70
     8
 71
     3
 72
     8
 73
     4
 74
     0
 42
0.0000000001
 43
0.0000000001
 40
0.0
 40
0.0
 40
0.0
 40
0.0
 40
1.412269715655931
 40
1.412269715655931
 40
1.412269715655931
 40
1.412269715655931
 10
-31.73333333333378
 20
-6.499999999999889
 30
0.0
 10
-32.28254933386665
 20
-6.499999999999889
 30
0.0
 10
-32.82683355269326
 20
-6.469126768495253
 30
0.0
 10
-33.36666666666711
 20
-6.410389369686201
 30
0.0
  0
SPLINE
  5
1A5A
330
1F
100
AcDbEntity
  8
AM_0
100
AcDbSpline
210
0.0
220
0.0
230
1.0
 70
     8
 71
     3
 72
     8
 73
     4
 74
     0
 42
0.0000000001
 43
0.0000000001
 40
11.41055204919593
 40
11.41055204919593
 40
11.41055204919593
 40
11.41055204919593
 40
14.48999654934393
 40
14.48999654934393
 40
14.48999654934393
 40
14.48999654934393
 10
-35.00000000000027
 20
2.040894711672819
 30
0.0
 10
-33.90778890819136
 20
1.381393652013638
 30
0.0
 10
-32.82056112076257
 20
0.6906968260068704
 30
0.0
 10
-31.73333333333378
 20
0.0000000000001108
 30
0.0
  0
ELLIPSE
  5
1A5B
330
1F
100
AcDbEntity
  8
AM_0
100
AcDbEllipse
 10
2.316618712364833
 20
-3.307044214133276
 30
0.0
 11
-0.0000000000000056
 21
3.952907550170863
 31
0.0
210
0.0
220
0.0
230
1.0
 40
0.8974358974358981
 41
1.211124581303824
 42
2.069278538290318
  0
ELLIPSE
  5
1A5C
330
1F
100
AcDbEntity
  8
AM_0
100
AcDbEllipse
 10
-34.98106076807048
 20
-20.19730632674371
 30
0.0
 11
-0.0000000000003052
 21
13.87654363484953
 31
0.0
210
0.0
220
0.0
230
1.0
 40
0.8974358974358633
 41
0.0015208199007752
 42
0.1609004017522244
  0
LINE
  5
1A88
330
1F
100
AcDbEntity
  8
AM_0
100
AcDbLine
 10
-47.99999999999977
 20
7.999999999999967
 30
0.0
 11
-47.99999999999982
 21
-7.999999999999416
 31
0.0
  0
LINE
  5
1A8B
330
1F
100
AcDbEntity
  8
AM_0
100
AcDbLine
 10
-35.0000000000002
 20
6.499999999999953
 30
0.0
 11
-43.91300399491813
 21
6.499999999999947
 31
0.0
  0
LINE
  5
1A8C
330
1F
100
AcDbEntity
  8
AM_0
100
AcDbLine
 10
-36.97616848194115
 20
-6.500000000000049
 30
0.0
 11
-43.91300399491814
 21
-6.500000000000055
 31
0.0
  0
LINE
  5
1A8D
330
1F
100
AcDbEntity
  8
AM_0
100
AcDbLine
 10
-43.91300399491813
 20
6.499999999999946
 30
0.0
 11
-43.91300399491812
 21
-6.500000000000055
 31
0.0
  0
POLYLINE
  5
1C17
330
1F
100
AcDbEntity
  8
AM_0
100
AcDb2dPolyline
 66
     1
 10
0.0
 20
0.0
 30
0.0
 70
     2
  0
VERTEX
  5
1C19
330
1C17
100
AcDbEntity
  8
AM_0
100
AcDbVertex
100
AcDb2dVertex
 10
-35.00000000000024
 20
2.040894711672802
 30
0.0
 42
0.0315140299783437
  0
VERTEX
  5
1C21
330
1C17
100
AcDbEntity
  8
AM_0
100
AcDbVertex
100
AcDb2dVertex
 10
-36.04032147532028
 20
2.356980365233061
 30
0.0
 42
0.0364521612884356
 70
     1
  0
VERTEX
  5
1C1A
330
1C17
100
AcDbEntity
  8
AM_0
100
AcDbVertex
100
AcDb2dVertex
 10
-36.9687500000002
 20
2.505944611605451
 30
0.0
 42
0.0361078300137887
  0
VERTEX
  5
1C22
330
1C17
100
AcDbEntity
  8
AM_0
100
AcDbVertex
100
AcDb2dVertex
 10
-38.88560984073343
 20
2.53285032113899
 30
0.0
 42
0.0954853709496118
 70
     1
  0
VERTEX
  5
1C1B
330
1C17
100
AcDbEntity
  8
AM_0
100
AcDbVertex
100
AcDb2dVertex
 10
-39.59375000000021
 20
2.353131540440505
 30
0.0
 42
0.122052179766038
  0
VERTEX
  5
1C23
330
1C17
100
AcDbEntity
  8
AM_0
100
AcDbVertex
100
AcDb2dVertex
 10
-40.09550501535515
 20
1.945853360423051
 30
0.0
 42
0.1634545724510563
 70
     1
  0
VERTEX
  5
1C1C
330
1C17
100
AcDbEntity
  8
AM_0
100
AcDbVertex
100
AcDb2dVertex
 10
-40.25000000000021
 20
1.482770407067202
 30
0.0
 42
0.100569649428738
  0
VERTEX
  5
1C24
330
1C17
100
AcDbEntity
  8
AM_0
100
AcDbVertex
100
AcDb2dVertex
 10
-40.1339433382072
 20
0.9175002601302253
 30
0.0
 42
0.0547430123541388
 70
     1
  0
VERTEX
  5
1C1D
330
1C17
100
AcDbEntity
  8
AM_0
100
AcDbVertex
100
AcDb2dVertex
 10
-39.61790921842762
 20
-0.0000000000001352
 30
0.0
 42
0.0302469131651244
  0
VERTEX
  5
1C26
330
1C17
100
AcDbEntity
  8
AM_0
100
AcDbVertex
100
AcDb2dVertex
 10
-38.71452238202966
 20
-1.112143262050835
 30
0.0
 42
0.0174033937127764
 70
     1
  0
VERTEX
  5
1C1E
330
1C17
100
AcDbEntity
  8
AM_0
100
AcDbVertex
100
AcDb2dVertex
 10
-36.96875000000019
 20
-2.885815903793918
 30
0.0
 42
0.032522720027274
  0
VERTEX
  5
1C25
330
1C17
100
AcDbEntity
  8
AM_0
100
AcDbVertex
100
AcDb2dVertex
 10
-36.27485810679627
 20
-3.46260433466972
 30
0.0
 42
0.019110696985077
 70
     1
  0
VERTEX
  5
1C1F
330
1C17
100
AcDbEntity
  8
AM_0
100
AcDbVertex
100
AcDb2dVertex
 10
-35.00000000000019
 20
-4.316673657902347
 30
0.0
  0
SEQEND
  5
1C20
330
1C17
100
AcDbEntity
  8
AM_0
  0
VIEWPORT
  5
110
330
101
100
AcDbEntity
 67
     1
  8
0
100
AcDbViewport
 10
420.5
 20
297.0
 30
0.0
 40
948.9782706766916
 41
628.452
 68
     1
 69
     1
1001
ACAD
1000
MVIEW
1002
{
1070
    16
1010
0.0
1020
0.0
1030
0.0
1010
0.0
1020
0.0
1030
1.0
1040
0.0
1040
628.452
1040
420.5
1040
297.0
1040
50.0
1040
0.0
1040
0.0
1070
     0
1070
   100
1070
     1
1070
     1
1070
     0
1070
     0
1070
     0
1070
     0
1040
0.0
1040
0.0
1040
0.0
1040
10.0
1040
10.0
1040
10.0
1040
10.0
1070
     0
1002
{
1002
}
1002
}
  0
ENDSEC
  0
SECTION
  2
OBJECTS
  0
DICTIONARY
  5
C
330
0
100
AcDbDictionary
  3
ACAD_GROUP
350
D
  3
ACAD_LAYOUT
350
1A
  3
ACAD_MLINESTYLE
350
17
  3
ACAD_PLOTSETTINGS
350
19
  3
ACAD_PLOTSTYLENAME
350
E
  3
ACDBVARIABLEDICTIONARY
350
34
  3
ACMDICTIONARY
350
43
  3
AMG
350
2B
  3
AMGSNAPSETTINGS
350
6E
  3
DWGPROPS
350
1C40
  3
ACDBHEADERROUNDTRIPXREC
350
1C4C
  0
DICTIONARY
  5
74
330
1F
100
AcDbDictionary
280
     1
  3
ACAD_INDEX
360
1C42
  3
ACAD_LAYOUTSELFREF
360
1C6F
  0
DICTIONARY
  5
1C74
330
101
100
AcDbDictionary
280
     1
  3
ACAD_LAYOUTSELFREF
360
1C75
  0
DICTIONARY
  5
D
102
{ACAD_REACTORS
330
C
102
}
330
C
100
AcDbDictionary
  0
DICTIONARY
  5
1A
102
{ACAD_REACTORS
330
C
102
}
330
C
100
AcDbDictionary
  0
DICTIONARY
  5
17
102
{ACAD_REACTORS
330
C
102
}
330
C
100
AcDbDictionary
  3
STANDARD
350
18
  0
DICTIONARY
  5
19
102
{ACAD_REACTORS
330
C
102
}
330
C
100
AcDbDictionary
  0
ACDBDICTIONARYWDFLT
  5
E
102
{ACAD_REACTORS
330
C
102
}
330
C
100
AcDbDictionary
281
     1
  3
Normal
350
F
100
AcDbDictionaryWithDefault
340
F
  0
DICTIONARY
  5
34
102
{ACAD_REACTORS
330
C
102
}
330
C
100
AcDbDictionary
  3
INDEXCTL
350
35
  3
SORTENTS
350
B5E
  0
DICTIONARY
  5
43
102
{ACAD_REACTORS
330
C
102
}
330
C
100
AcDbDictionary
  3
ACMSTDDICTIONARY
350
260
  0
DICTIONARY
  5
2B
102
{ACAD_REACTORS
330
C
102
}
330
C
100
AcDbDictionary
  3
ACMGSETTINGS
350
2C
  0
DICTIONARY
  5
6E
102
{ACAD_REACTORS
330
C
102
}
330
C
100
AcDbDictionary
  0
XRECORD
  5
1C40
102
{ACAD_REACTORS
330
C
102
}
330
C
100
AcDbXrecord
  1
DWGPROPS COOKIE
  2

  3

  4

  6

  7

  8

  9

300
AmdtFileType=82
301
=
302
=
303
=
304
=
305
=
306
=
307
=
308
=
309
=
 40
0.0427703472222222
 41
2452836.771637361
 42
2452846.458967013
  1

 90
        1
  0
DICTIONARY
  5
1C4C
102
{ACAD_REACTORS
330
C
102
}
330
C
100
AcDbDictionary
  3
TSTACKALIGN
350
1C4D
  3
TSTACKSIZE
350
1C4E
  3
HYPERLINKBASE
350
1C4F
  3
STYLESHEET
350
1C50
  3
LAYOUTDICT
350
1C51
  3
PLOTSETDICT
350
1C52
  3
PLOTSTYLNAMDICT
350
1C53
  3
LWETCUNION
350
1C54
  3
INSUNITS
350
1C55
  3
CEPSNTYPE
350
1C56
  3
FINGERPRINTGUID
350
1C57
  3
VERSIONGUID
350
1C58
  3
PSVPSCALE
350
1C59
  3
DIMSTYLEDATA
350
1C5A
  3
PUCSORTHOREF
350
1C5B
  3
PUCSORTHOVIEW
350
1C5C
  3
PUCSBASE
350
1C5D
  3
PUCSORGTOP
350
1C5E
  3
PUCSORGBOTTOM
350
1C5F
  3
PUCSORGLEFT
350
1C60
  3
PUCSORGRIGHT
350
1C61
  3
PUCSORGFRONT
350
1C62
  3
PUCSORGBACK
350
1C63
  3
UCSORTHOREF
350
1C64
  3
UCSORTHOVIEW
350
1C65
  3
UCSBASE
350
1C66
  3
UCSORGTOP
350
1C67
  3
UCSORGBOTTOM
350
1C68
  3
UCSORGLEFT
350
1C69
  3
UCSORGRIGHT
350
1C6A
  3
UCSORGFRONT
350
1C6B
  3
UCSORGBACK
350
1C6C
  0
DICTIONARY
  5
1C42
102
{ACAD_REACTORS
330
74
102
}
330
74
100
AcDbDictionary
  3
*A1
350
1C43
  0
XRECORD
  5
1C6F
102
{ACAD_REACTORS
330
74
102
}
330
74
100
AcDbXrecord
340
1F
  0
XRECORD
  5
1C75
102
{ACAD_REACTORS
330
1C74
102
}
330
1C74
100
AcDbXrecord
340
101
  0
MLINESTYLE
  5
18
102
{ACAD_REACTORS
330
17
102
}
330
17
100
AcDbMlineStyle
  2
STANDARD
 70
     0
  3

 62
   256
 51
90.0
 52
90.0
 71
     2
 49
0.5
 62
   256
  6
BYLAYER
 49
-0.5
 62
   256
  6
BYLAYER
  0
ACDBPLACEHOLDER
  5
F
102
{ACAD_REACTORS
330
E
102
}
330
E
100
AcDbPlaceHolder
280
     0
  0
DICTIONARYVAR
  5
35
102
{ACAD_REACTORS
330
34
102
}
330
34
100
DictionaryVariables
280
     0
  1
1
  0
DICTIONARYVAR
  5
B5E
102
{ACAD_REACTORS
330
34
102
}
330
34
100
DictionaryVariables
280
     0
  1
96
  0
DICTIONARY
  5
260
102
{ACAD_REACTORS
330
43
102
}
330
43
100
AcDbDictionary
  0
DICTIONARY
  5
2C
102
{ACAD_REACTORS
330
2B
102
}
330
2B
100
AcDbDictionary
  3
DWGSETTINGS
350
2D
  0
XRECORD
  5
1C4D
102
{ACAD_REACTORS
330
1C4C
102
}
330
1C4C
100
AcDbXrecord
 90
        1
  0
XRECORD
  5
1C4E
102
{ACAD_REACTORS
330
1C4C
102
}
330
1C4C
100
AcDbXrecord
 90
       70
  0
XRECORD
  5
1C4F
102
{ACAD_REACTORS
330
1C4C
102
}
330
1C4C
100
AcDbXrecord
  1

  0
XRECORD
  5
1C50
102
{ACAD_REACTORS
330
1C4C
102
}
330
1C4C
100
AcDbXrecord
  1
ASAMI.ctb
  0
XRECORD
  5
1C51
102
{ACAD_REACTORS
330
1C4C
102
}
330
1C4C
100
AcDbXrecord
340
1A
  0
XRECORD
  5
1C52
102
{ACAD_REACTORS
330
1C4C
102
}
330
1C4C
100
AcDbXrecord
340
19
  0
XRECORD
  5
1C53
102
{ACAD_REACTORS
330
1C4C
102
}
330
1C4C
100
AcDbXrecord
340
E
  0
XRECORD
  5
1C54
102
{ACAD_REACTORS
330
1C4C
102
}
330
1C4C
100
AcDbXrecord
 90
    10781
  0
XRECORD
  5
1C55
102
{ACAD_REACTORS
330
1C4C
102
}
330
1C4C
100
AcDbXrecord
 90
        4
  0
XRECORD
  5
1C56
102
{ACAD_REACTORS
330
1C4C
102
}
330
1C4C
100
AcDbXrecord
 90
        0
  0
XRECORD
  5
1C57
102
{ACAD_REACTORS
330
1C4C
102
}
330
1C4C
100
AcDbXrecord
  1
{AFB28963-8C59-40AE-9337-C84526B81ACE}
  0
XRECORD
  5
1C58
102
{ACAD_REACTORS
330
1C4C
102
}
330
1C4C
100
AcDbXrecord
  1
{04565464-F458-42BC-AE86-3EAB4BB2CC58}
  0
XRECORD
  5
1C59
102
{ACAD_REACTORS
330
1C4C
102
}
330
1C4C
100
AcDbXrecord
 40
0.0
  0
XRECORD
  5
1C5A
102
{ACAD_REACTORS
330
1C4C
102
}
330
1C4C
100
AcDbXrecord
1000
DSTYLE
1002
{
1070
    79
 70
     2
1070
   341
340
59
1070
   342
340
59
1070
   371
 70
    -1
1070
   372
 70
    -1
1002
}
  0
XRECORD
  5
1C5B
102
{ACAD_REACTORS
330
1C4C
102
}
330
1C4C
100
AcDbXrecord
340
0
  0
XRECORD
  5
1C5C
102
{ACAD_REACTORS
330
1C4C
102
}
330
1C4C
100
AcDbXrecord
 70
     0
  0
XRECORD
  5
1C5D
102
{ACAD_REACTORS
330
1C4C
102
}
330
1C4C
100
AcDbXrecord
340
0
  0
XRECORD
  5
1C5E
102
{ACAD_REACTORS
330
1C4C
102
}
330
1C4C
100
AcDbXrecord
 10
0.0
 20
0.0
 30
0.0
  0
XRECORD
  5
1C5F
102
{ACAD_REACTORS
330
1C4C
102
}
330
1C4C
100
AcDbXrecord
 10
0.0
 20
0.0
 30
0.0
  0
XRECORD
  5
1C60
102
{ACAD_REACTORS
330
1C4C
102
}
330
1C4C
100
AcDbXrecord
 10
0.0
 20
0.0
 30
0.0
  0
XRECORD
  5
1C61
102
{ACAD_REACTORS
330
1C4C
102
}
330
1C4C
100
AcDbXrecord
 10
0.0
 20
0.0
 30
0.0
  0
XRECORD
  5
1C62
102
{ACAD_REACTORS
330
1C4C
102
}
330
1C4C
100
AcDbXrecord
 10
0.0
 20
0.0
 30
0.0
  0
XRECORD
  5
1C63
102
{ACAD_REACTORS
330
1C4C
102
}
330
1C4C
100
AcDbXrecord
 10
0.0
 20
0.0
 30
0.0
  0
XRECORD
  5
1C64
102
{ACAD_REACTORS
330
1C4C
102
}
330
1C4C
100
AcDbXrecord
340
0
  0
XRECORD
  5
1C65
102
{ACAD_REACTORS
330
1C4C
102
}
330
1C4C
100
AcDbXrecord
 70
     0
  0
XRECORD
  5
1C66
102
{ACAD_REACTORS
330
1C4C
102
}
330
1C4C
100
AcDbXrecord
340
0
  0
XRECORD
  5
1C67
102
{ACAD_REACTORS
330
1C4C
102
}
330
1C4C
100
AcDbXrecord
 10
0.0
 20
0.0
 30
0.0
  0
XRECORD
  5
1C68
102
{ACAD_REACTORS
330
1C4C
102
}
330
1C4C
100
AcDbXrecord
 10
0.0
 20
0.0
 30
0.0
  0
XRECORD
  5
1C69
102
{ACAD_REACTORS
330
1C4C
102
}
330
1C4C
100
AcDbXrecord
 10
0.0
 20
0.0
 30
0.0
  0
XRECORD
  5
1C6A
102
{ACAD_REACTORS
330
1C4C
102
}
330
1C4C
100
AcDbXrecord
 10
0.0
 20
0.0
 30
0.0
  0
XRECORD
  5
1C6B
102
{ACAD_REACTORS
330
1C4C
102
}
330
1C4C
100
AcDbXrecord
 10
0.0
 20
0.0
 30
0.0
  0
XRECORD
  5
1C6C
102
{ACAD_REACTORS
330
1C4C
102
}
330
1C4C
100
AcDbXrecord
 10
0.0
 20
0.0
 30
0.0
  0
LAYER_INDEX
  5
1C43
102
{ACAD_REACTORS
330
1C42
102
}
330
1C42
100
AcDbIndex
 40
2453152.444850034
100
AcDbLayerIndex
  8
0
360
1C44
 90
        0
  8
AM_0
360
1C45
 90
       64
  8
AM_11
360
1C46
 90
        3
  8
AM_7
360
1C47
 90
        1
  8
AM_5
360
1C48
 90
        4
  8
Defpoints
360
1C49
 90
        0
  8
AM_6
360
1C4A
 90
        1
  0
XRECORD
  5
2D
102
{ACAD_REACTORS
330
2C
102
}
330
2C
100
AcDbXrecord
  1
VERSION
140
15.0
  1
PRODUCT
  2
AutoCAD Mechanical 2000
  0
IDBUFFER
  5
1C44
330
0
100
AcDbIdBuffer
  0
IDBUFFER
  5
1C45
330
0
100
AcDbIdBuffer
330
1A52
330
1A53
330
1A54
330
1A55
330
1A56
330
1A57
330
1A58
330
1A59
330
1A5A
330
1A5B
330
1A5C
330
1A88
330
1A8B
330
1A8C
330
1A8D
330
1C17
330
17E7
330
17E8
330
191B
330
191E
330
191F
330
192D
330
1939
330
193F
330
194C
330
1A09
330
1A0A
330
1A0B
330
1A0C
330
1A0D
330
1A0E
330
1A0F
330
1A10
330
1A11
330
1A12
330
1A13
330
1A21
330
1A22
330
1A2F
330
1A30
330
1A36
330
1A39
330
1A3A
330
1A3B
330
1A3C
330
1A3F
330
1A40
330
1A41
330
1A42
330
1A43
330
1A44
330
1A45
330
1A46
330
1A47
330
1A48
330
1A49
330
1A4A
330
1A4B
330
1A4C
330
1A4D
330
1A4E
330
1A4F
330
1A50
330
1A51
  0
IDBUFFER
  5
1C46
330
0
100
AcDbIdBuffer
330
1A38
330
1A3D
330
1A3E
  0
IDBUFFER
  5
1C47
330
0
100
AcDbIdBuffer
330
132B
  0
IDBUFFER
  5
1C48
330
0
100
AcDbIdBuffer
330
13B3
330
145B
330
1920
330
1A14
  0
IDBUFFER
  5
1C49
330
0
100
AcDbIdBuffer
  0
IDBUFFER
  5
1C4A
330
0
100
AcDbIdBuffer
330
E5A
  0
ENDSEC
  0
EOF
