  0
SECTION
  2
HEADER
  9
$ACADVER
  1
AC1014
  9
$ACADMAINTVER
 70
     9
  9
$DWGCODEPAGE
  3
ANSI_932
  9
$INSBASE
 10
0.0
 20
0.0
 30
0.0
  9
$EXTMIN
 10
-113.6999999999998
 20
-56.50000099999967
 30
-0.00000001
  9
$EXTMAX
 10
15.00000000000043
 20
8.479379062792895
 30
0.00000001
  9
$LIMMIN
 10
-120.4678844982326
 20
-64.80706836834187
  9
$LIMMAX
 10
25.75196630140777
 20
19.39188064251806
  9
$ORTHOMODE
 70
     0
  9
$REGENMODE
 70
     1
  9
$FILLMODE
 70
     1
  9
$QTEXTMODE
 70
     0
  9
$MIRRTEXT
 70
     0
  9
$DRAGMODE
 70
     2
  9
$LTSCALE
 40
1.0
  9
$OSMODE
 70
    55
  9
$ATTMODE
 70
     1
  9
$TEXTSIZE
 40
2.5
  9
$TRACEWID
 40
1.0
  9
$TEXTSTYLE
  7
STANDARD
  9
$CLAYER
  8
AM_0
  9
$CELTYPE
  6
BYLAYER
  9
$CECOLOR
 62
   256
  9
$CELTSCALE
 40
1.0
  9
$DELOBJ
 70
     1
  9
$DISPSILH
 70
     0
  9
$DIMSCALE
 40
1.0
  9
$DIMASZ
 40
2.5
  9
$DIMEXO
 40
1.0
  9
$DIMDLI
 40
12.0
  9
$DIMRND
 40
0.0
  9
$DIMDLE
 40
0.0
  9
$DIMEXE
 40
1.0
  9
$DIMTP
 40
0.1
  9
$DIMTM
 40
0.1
  9
$DIMTXT
 40
3.2
  9
$DIMCEN
 40
0.0
  9
$DIMTSZ
 40
0.0
  9
$DIMTOL
 70
     0
  9
$DIMLIM
 70
     0
  9
$DIMTIH
 70
     0
  9
$DIMTOH
 70
     0
  9
$DIMSE1
 70
     0
  9
$DIMSE2
 70
     0
  9
$DIMTAD
 70
     3
  9
$DIMZIN
 70
     8
  9
$DIMBLK
  1
OPEN30
  9
$DIMASO
 70
     1
  9
$DIMSHO
 70
     1
  9
$DIMPOST
  1

  9
$DIMAPOST
  1
"
  9
$DIMALT
 70
     0
  9
$DIMALTD
 70
     2
  9
$DIMALTF
 40
0.0393701
  9
$DIMLFAC
 40
1.0
  9
$DIMTOFL
 70
     1
  9
$DIMTVP
 40
0.0
  9
$DIMTIX
 70
     0
  9
$DIMSOXD
 70
     0
  9
$DIMSAH
 70
     0
  9
$DIMBLK1
  1

  9
$DIMBLK2
  1

  9
$DIMSTYLE
  2
AM_JIS
  9
$DIMCLRD
 70
   256
  9
$DIMCLRE
 70
   256
  9
$DIMCLRT
 70
     2
  9
$DIMTFAC
 40
0.71
  9
$DIMGAP
 40
1.5
  9
$DIMJUST
 70
     0
  9
$DIMSD1
 70
     0
  9
$DIMSD2
 70
     0
  9
$DIMTOLJ
 70
     0
  9
$DIMTZIN
 70
     0
  9
$DIMALTZ
 70
     0
  9
$DIMALTTZ
 70
     0
  9
$DIMFIT
 70
     3
  9
$DIMUPT
 70
     0
  9
$DIMUNIT
 70
     2
  9
$DIMDEC
 70
     3
  9
$DIMTDEC
 70
     3
  9
$DIMALTU
 70
     2
  9
$DIMALTTD
 70
     2
  9
$DIMTXSTY
  7
ASAMI
  9
$DIMAUNIT
 70
     0
  9
$LUNITS
 70
     2
  9
$LUPREC
 70
     2
  9
$SKETCHINC
 40
1.0
  9
$FILLETRAD
 40
2.5
  9
$AUNITS
 70
     0
  9
$AUPREC
 70
     0
  9
$MENU
  1
.
  9
$ELEVATION
 40
0.0
  9
$PELEVATION
 40
0.0
  9
$THICKNESS
 40
0.0
  9
$LIMCHECK
 70
     0
  9
$BLIPMODE
 70
     0
  9
$CHAMFERA
 40
1.0
  9
$CHAMFERB
 40
1.0
  9
$CHAMFERC
 40
20.0
  9
$CHAMFERD
 40
0.0
  9
$SKPOLY
 70
     0
  9
$TDCREATE
 40
2452836.771637361
  9
$TDUPDATE
 40
2453152.442382696
  9
$TDINDWG
 40
0.0612971991
  9
$TDUSRTIMER
 40
0.0612971991
  9
$USRTIMER
 70
     1
  9
$ANGBASE
 50
0.0
  9
$ANGDIR
 70
     0
  9
$PDMODE
 70
     0
  9
$PDSIZE
 40
0.0
  9
$PLINEWID
 40
0.0
  9
$COORDS
 70
     1
  9
$SPLFRAME
 70
     0
  9
$SPLINETYPE
 70
     6
  9
$SPLINESEGS
 70
     8
  9
$ATTDIA
 70
     1
  9
$ATTREQ
 70
     1
  9
$HANDLING
 70
 12289
  9
$HANDSEED
  5
2122
  9
$SURFTAB1
 70
     6
  9
$SURFTAB2
 70
     6
  9
$SURFTYPE
 70
     6
  9
$SURFU
 70
     6
  9
$SURFV
 70
     6
  9
$UCSNAME
  2

  9
$UCSORG
 10
0.0
 20
0.0
 30
0.0
  9
$UCSXDIR
 10
1.0
 20
0.0
 30
0.0
  9
$UCSYDIR
 10
0.0
 20
1.0
 30
0.0
  9
$PUCSNAME
  2

  9
$PUCSORG
 10
0.0
 20
0.0
 30
0.0
  9
$PUCSXDIR
 10
1.0
 20
0.0
 30
0.0
  9
$PUCSYDIR
 10
0.0
 20
1.0
 30
0.0
  9
$USERI1
 70
     0
  9
$USERI2
 70
     0
  9
$USERI3
 70
     0
  9
$USERI4
 70
     0
  9
$USERI5
 70
     0
  9
$USERR1
 40
0.0
  9
$USERR2
 40
0.0
  9
$USERR3
 40
0.0
  9
$USERR4
 40
0.0
  9
$USERR5
 40
0.0
  9
$WORLDVIEW
 70
     1
  9
$SHADEDGE
 70
     3
  9
$SHADEDIF
 70
    70
  9
$TILEMODE
 70
     1
  9
$MAXACTVP
 70
    64
  9
$PINSBASE
 10
0.0
 20
0.0
 30
0.0
  9
$PLIMCHECK
 70
     0
  9
$PEXTMIN
 10
1.000000000000000E+20
 20
1.000000000000000E+20
 30
1.000000000000000E+20
  9
$PEXTMAX
 10
-1.000000000000000E+20
 20
-1.000000000000000E+20
 30
-1.000000000000000E+20
  9
$PLIMMIN
 10
0.0
 20
0.0
  9
$PLIMMAX
 10
841.0
 20
594.0
  9
$UNITMODE
 70
     0
  9
$VISRETAIN
 70
     1
  9
$PLINEGEN
 70
     0
  9
$PSLTSCALE
 70
     0
  9
$TREEDEPTH
 70
  3020
  9
$PICKSTYLE
 70
     0
  9
$CMLSTYLE
  2
STANDARD
  9
$CMLJUST
 70
     0
  9
$CMLSCALE
 40
20.0
  9
$PROXYGRAPHICS
 70
     1
  9
$MEASUREMENT
 70
     1
  0
ENDSEC
  0
SECTION
  2
CLASSES
  0
CLASS
  1
ACDBDICTIONARYWDFLT
  2
AcDbDictionaryWithDefault
  3
AutoCAD 2000
 90
        0
280
     0
281
     0
  0
CLASS
  1
ACDBPLACEHOLDER
  2
AcDbPlaceHolder
  3
AutoCAD 2000
 90
        0
280
     0
281
     0
  0
CLASS
  1
LAYOUT
  2
AcDbLayout
  3
AutoCAD 2000
 90
        0
280
     0
281
     0
  0
CLASS
  1
AMGSETTINGSOBJ
  2
AmgSettingsObj
  3
"AcadM|Product Description: AutoCAD Mechanical 2000|Company: Autodesk"
 90
        0
280
     0
281
     0
  0
CLASS
  1
ACME_DOCUMENT
  2
AcMeDbDoc
  3
AcMeServices
 90
        0
280
     0
281
     0
  0
CLASS
  1
ACMESCOPE
  2
AcMeScope
  3
AcMeServices
 90
        0
280
     0
281
     0
  0
CLASS
  1
ACMECOMMANDHISTORY
  2
AcMeCommandHistory
  3
AcMeServices
 90
        0
280
     0
281
     0
  0
CLASS
  1
DICTIONARYVAR
  2
AcDbDictionaryVar
  3
AutoCAD 2000
 90
        0
280
     0
281
     0
  0
CLASS
  1
ACIMSYSVARMAN
  2
AcImSysVarManager
  3
AcMeServices
 90
        0
280
     0
281
     0
  0
CLASS
  1
ACIMREALSYSVAR
  2
AcImRealSysVar
  3
AcMeServices
 90
        0
280
     0
281
     0
  0
CLASS
  1
ACIMINTSYSVAR
  2
AcImIntSysVar
  3
AcMeServices
 90
        0
280
     0
281
     0
  0
CLASS
  1
ACMEDRAWINGMAN
  2
AcMeDrawingMan
  3
AcMeServices
 90
        0
280
     0
281
     0
  0
CLASS
  1
ACMEVIEW
  2
AcMeView
  3
AcMeServices
 90
        0
280
     0
281
     0
  0
CLASS
  1
ACDBENTITYCACHE
  2
AcMeEntityCache
  3
AcMeServices
 90
        0
280
     0
281
     0
  0
CLASS
  1
GSMANAGER
  2
AcMeGSManager
  3
AcMeServices
 90
        0
280
     0
281
     0
  0
CLASS
  1
AmdtInternalReactor
  2
AmdtInternalReactor
  3
AcMeServices
 90
        0
280
     0
281
     0
  0
CLASS
  1
ACMESTATEMGR
  2
AcMeStateMgr
  3
AcMeServices
 90
        0
280
     0
281
     0
  0
CLASS
  1
ACME_DATABASE
  2
AcMeDbDatabase
  3
AcMeServices
 90
        0
280
     0
281
     0
  0
CLASS
  1
ACRFINSADJUSTERMGR
  2
AcRfInsAdjusterMgr
  3
AcMeServices
 90
        0
280
     0
281
     0
  0
CLASS
  1
ACMDATADICTIONARY
  2
AcmDataDictionary
  3
"AcmSymBB|Product Description: AutoCAD Mechanical 2000|Company: Autodesk"
 90
        0
280
     0
281
     0
  0
CLASS
  1
ACMDATAENTRYBLOCK
  2
AcmDataEntryBlock
  3
"AcmSymBB|Product Description: AutoCAD Mechanical 2000|Company: Autodesk"
 90
        0
280
     0
281
     0
  0
CLASS
  1
AMGOBJPROPCFG
  2
AmgObjPropCfg
  3
"AmgLay|Product Description: AutoCAD Mechanical 2000|Company: Autodesk"
 90
        1
280
     0
281
     0
  0
CLASS
  1
ACAMGFILTERDAT
  2
AcAmgFilterDat
  3
"AcadM|Product Description: AutoCAD Mechanical 2000|Company: Autodesk"
 90
        0
280
     0
281
     0
  0
CLASS
  1
LAYER_INDEX
  2
AcDbLayerIndex
  3
AutoCAD 2000
 90
        0
280
     0
281
     0
  0
CLASS
  1
IDBUFFER
  2
AcDbIdBuffer
  3
AutoCAD 2000
 90
        0
280
     0
281
     0
  0
CLASS
  1
ACIMSTRSYSVAR
  2
AcImStrSysVar
  3
AcMeServices
 90
        0
280
     0
281
     0
  0
CLASS
  1
ACMSTANDARDJIS
  2
AcmStandardJIS
  3
"AcmSymBB|Product Description: AutoCAD Mechanical 2000|Company: Autodesk"
 90
        0
280
     0
281
     0
  0
CLASS
  1
ACMSURFSTANDARDJIS
  2
AcmSurfTextStdJIS
  3
"AcmSymBB|Product Description: AutoCAD Mechanical 2000|Company: Autodesk"
 90
        0
280
     0
281
     0
  0
CLASS
  1
ACMFCFSTANDARDJIS
  2
AcmFCFStdJIS
  3
"AcmSymBB|Product Description: AutoCAD Mechanical 2000|Company: Autodesk"
 90
        0
280
     0
281
     0
  0
CLASS
  1
ACMWELDSTANDARDJIS
  2
AcmWeldingStdJIS
  3
"AcmSymBB|Product Description: AutoCAD Mechanical 2000|Company: Autodesk"
 90
        0
280
     0
281
     0
  0
CLASS
  1
ACMIDSTANDARDJIS
  2
AcmIdStdJIS
  3
"AcmSymBB|Product Description: AutoCAD Mechanical 2000|Company: Autodesk"
 90
        0
280
     0
281
     0
  0
CLASS
  1
ACMDATUMSTANDARDJIS
  2
AcmDatumStdJIS
  3
"AcmSymBB|Product Description: AutoCAD Mechanical 2000|Company: Autodesk"
 90
        0
280
     0
281
     0
  0
CLASS
  1
ACMBOMSTANDARDJIS
  2
AcmBOMStdJIS
  3
"AcmSymBB|Product Description: AutoCAD Mechanical 2000|Company: Autodesk"
 90
        0
280
     0
281
     0
  0
CLASS
  1
ACMSTANDARDANSI
  2
AcmStandardANSI
  3
"AcmSymBB|Product Description: AutoCAD Mechanical 2000|Company: Autodesk"
 90
        0
280
     0
281
     0
  0
CLASS
  1
ACMSURFSTANDARDANSI
  2
AcmSurfTextStdANSI
  3
"AcmSymBB|Product Description: AutoCAD Mechanical 2000|Company: Autodesk"
 90
        0
280
     0
281
     0
  0
CLASS
  1
ACMFCFSTANDARDANSI
  2
AcmFCFStdANSI
  3
"AcmSymBB|Product Description: AutoCAD Mechanical 2000|Company: Autodesk"
 90
        0
280
     0
281
     0
  0
CLASS
  1
ACMWELDSTANDARDANSI
  2
AcmWeldingStdANSI
  3
"AcmSymBB|Product Description: AutoCAD Mechanical 2000|Company: Autodesk"
 90
        0
280
     0
281
     0
  0
CLASS
  1
ACMIDSTANDARDANSI
  2
AcmIdStdANSI
  3
"AcmSymBB|Product Description: AutoCAD Mechanical 2000|Company: Autodesk"
 90
        0
280
     0
281
     0
  0
CLASS
  1
ACMDATUMSTANDARDANSI
  2
AcmDatumStdANSI
  3
"AcmSymBB|Product Description: AutoCAD Mechanical 2000|Company: Autodesk"
 90
        0
280
     0
281
     0
  0
CLASS
  1
ACMBOMSTANDARDANSI
  2
AcmBOMStdANSI
  3
"AcmSymBB|Product Description: AutoCAD Mechanical 2000|Company: Autodesk"
 90
        0
280
     0
281
     0
  0
CLASS
  1
ACMSTANDARDBSI
  2
AcmStandardBSI
  3
"AcmSymBB|Product Description: AutoCAD Mechanical 2000|Company: Autodesk"
 90
        0
280
     0
281
     0
  0
CLASS
  1
ACMSURFSTANDARDBSI
  2
AcmSurfTextStdBSI
  3
"AcmSymBB|Product Description: AutoCAD Mechanical 2000|Company: Autodesk"
 90
        0
280
     0
281
     0
  0
CLASS
  1
ACMFCFSTANDARDBSI
  2
AcmFCFStdBSI
  3
"AcmSymBB|Product Description: AutoCAD Mechanical 2000|Company: Autodesk"
 90
        0
280
     0
281
     0
  0
CLASS
  1
ACMWELDSTANDARDBSI
  2
AcmWeldingStdBSI
  3
"AcmSymBB|Product Description: AutoCAD Mechanical 2000|Company: Autodesk"
 90
        0
280
     0
281
     0
  0
CLASS
  1
ACMIDSTANDARDBSI
  2
AcmIdStdBSI
  3
"AcmSymBB|Product Description: AutoCAD Mechanical 2000|Company: Autodesk"
 90
        0
280
     0
281
     0
  0
CLASS
  1
ACMDATUMSTANDARDBSI
  2
AcmDatumStdBSI
  3
"AcmSymBB|Product Description: AutoCAD Mechanical 2000|Company: Autodesk"
 90
        0
280
     0
281
     0
  0
CLASS
  1
ACMBOMSTANDARDBSI
  2
AcmBOMStdBSI
  3
"AcmSymBB|Product Description: AutoCAD Mechanical 2000|Company: Autodesk"
 90
        0
280
     0
281
     0
  0
CLASS
  1
LONG_TRANSACTION
  2
AcDbLongTransaction
  3
AutoCAD 2000
 90
        0
280
     0
281
     0
  0
CLASS
  1
LWPOLYLINE
  2
AcDbPolyline
  3
AutoCAD 2000
 90
        0
280
     0
281
     1
  0
CLASS
  1
HATCH
  2
AcDbHatch
  3
AutoCAD 2000
 90
        0
280
     0
281
     1
  0
CLASS
  1
XRECORD
  2
AcDbXrecord
  3
AutoCAD 2000
 90
        0
280
     0
281
     0
  0
ENDSEC
  0
SECTION
  2
TABLES
  0
TABLE
  2
VPORT
  5
8
330
0
100
AcDbSymbolTable
 70
     3
  0
VPORT
  5
20F7
330
8
100
AcDbSymbolTableRecord
100
AcDbViewportTableRecord
  2
*ACTIVE
 70
     0
 10
0.0
 20
0.0
 11
1.0
 21
1.0
 12
-49.34924930042697
 22
-24.01163928066358
 13
0.0
 23
0.0
 14
2.5
 24
2.5
 15
10.0
 25
10.0
 16
0.0
 26
0.0
 36
1.0
 17
0.0
 27
0.0
 37
0.0
 40
82.53774724342617
 41
1.56570841889117
 42
50.0
 43
0.0
 44
0.0
 50
0.0
 51
0.0
 71
     0
 72
   100
 73
     1
 74
     3
 75
     0
 76
     0
 77
     0
 78
     0
  0
ENDTAB
  0
TABLE
  2
LTYPE
  5
5
330
0
100
AcDbSymbolTable
 70
    10
  0
LTYPE
  5
14
330
5
100
AcDbSymbolTableRecord
100
AcDbLinetypeTableRecord
  2
BYBLOCK
 70
     0
  3

 72
    65
 73
     0
 40
0.0
  0
LTYPE
  5
15
330
5
100
AcDbSymbolTableRecord
100
AcDbLinetypeTableRecord
  2
BYLAYER
 70
     0
  3

 72
    65
 73
     0
 40
0.0
  0
LTYPE
  5
16
330
5
100
AcDbSymbolTableRecord
100
AcDbLinetypeTableRecord
  2
CONTINUOUS
 70
     0
  3
Solid line
 72
    65
 73
     0
 40
0.0
  0
LTYPE
  5
4B
330
5
100
AcDbSymbolTableRecord
100
AcDbLinetypeTableRecord
  2
AM_ISO02W050
 70
     0
  3
__ __ __ __ __ __ __ __ __ __ __ __ __ __ __
 72
    65
 73
     2
 40
7.5
 49
6.0
 74
     0
 49
-1.5
 74
     0
  0
LTYPE
  5
4C
330
5
100
AcDbSymbolTableRecord
100
AcDbLinetypeTableRecord
  2
AM_ISO08W050
 70
     0
  3
____ . ____ . ____ . ____ . ____ . ____ . ____
 72
    65
 73
     4
 40
18.0
 49
12.0
 74
     0
 49
-1.5
 74
     0
 49
3.0
 74
     0
 49
-1.5
 74
     0
  0
LTYPE
  5
4D
330
5
100
AcDbSymbolTableRecord
100
AcDbLinetypeTableRecord
  2
AM_ISO09W050
 70
     0
  3
_____ . . _____ . . _____ . . ____ .. ____
 72
    65
 73
     6
 40
22.5
 49
12.0
 74
     0
 49
-1.5
 74
     0
 49
3.0
 74
     0
 49
-1.5
 74
     0
 49
3.0
 74
     0
 49
-1.5
 74
     0
  0
LTYPE
  5
4E
330
5
100
AcDbSymbolTableRecord
100
AcDbLinetypeTableRecord
  2
AMCONSTR
 70
     0
  3
_______________________
 72
    65
 73
     2
 40
9999.0
 49
9999.0
 74
     0
 49
0.0
 74
     0
  0
LTYPE
  5
4F
330
5
100
AcDbSymbolTableRecord
100
AcDbLinetypeTableRecord
  2
AM_ISO02W050X2
 70
     0
  3
 _ _ _ _ _ _ _ _ _ _ _ _
 72
    65
 73
     2
 40
3.75
 49
3.0
 74
     0
 49
-0.75
 74
     0
  0
LTYPE
  5
50
330
5
100
AcDbSymbolTableRecord
100
AcDbLinetypeTableRecord
  2
AM_ISO08W050X2
 70
     0
  3
__ . __ . __ . __ . __ . __
 72
    65
 73
     4
 40
9.0
 49
6.0
 74
     0
 49
-0.75
 74
     0
 49
1.5
 74
     0
 49
-0.75
 74
     0
  0
LTYPE
  5
53
330
5
100
AcDbSymbolTableRecord
100
AcDbLinetypeTableRecord
  2
AMZIGZAG
 70
     0
  3
/\/-/\/-/\/-/\/-/\/-/\/
 72
    65
 73
     2
 40
11.00009999999999
 49
0.0001
 74
     4
 75
   135
340
52
 46
0.04
 50
0.0
 44
0.0
 45
0.0
 49
-11.0
 74
     0
  0
LTYPE
  5
166
330
5
100
AcDbSymbolTableRecord
100
AcDbLinetypeTableRecord
  2
ACJISTGL
 70
     0
  3
_ _ _ _ _
 72
    65
 73
     2
 40
3.0
 49
2.0
 74
     0
 49
-1.0
 74
     0
  0
LTYPE
  5
26A
330
5
100
AcDbSymbolTableRecord
100
AcDbLinetypeTableRecord
  2
ACJISTGB
 70
     0
  3
__ . . __ . .
 72
    65
 73
     6
 40
9.0
 49
4.0
 74
     0
 49
-1.0
 74
     0
 49
1.0
 74
     0
 49
-1.0
 74
     0
 49
1.0
 74
     0
 49
-1.0
 74
     0
  0
ENDTAB
  0
TABLE
  2
LAYER
  5
2
330
0
100
AcDbSymbolTable
 70
     7
  0
LAYER
  5
10
330
2
100
AcDbSymbolTableRecord
100
AcDbLayerTableRecord
  2
0
 70
     0
 62
     7
  6
CONTINUOUS
  0
LAYER
  5
3F9
330
2
100
AcDbSymbolTableRecord
100
AcDbLayerTableRecord
  2
AM_0
 70
     0
 62
     7
  6
CONTINUOUS
  0
LAYER
  5
BD4
330
2
100
AcDbSymbolTableRecord
100
AcDbLayerTableRecord
  2
AM_11
 70
     0
 62
     3
  6
AM_ISO09W050
  0
LAYER
  5
BD5
330
2
100
AcDbSymbolTableRecord
100
AcDbLayerTableRecord
  2
AM_7
 70
     0
 62
     4
  6
AM_ISO08W050
  0
LAYER
  5
BD6
330
2
100
AcDbSymbolTableRecord
100
AcDbLayerTableRecord
  2
AM_5
 70
     0
 62
     3
  6
CONTINUOUS
  0
LAYER
  5
BD7
330
2
100
AcDbSymbolTableRecord
100
AcDbLayerTableRecord
  2
DEFPOINTS
 70
     0
 62
     7
  6
CONTINUOUS
  0
LAYER
  5
E59
330
2
100
AcDbSymbolTableRecord
100
AcDbLayerTableRecord
  2
AM_6
 70
     0
 62
     2
  6
CONTINUOUS
  0
ENDTAB
  0
TABLE
  2
STYLE
  5
3
330
0
100
AcDbSymbolTable
 70
     5
  0
STYLE
  5
11
330
3
100
AcDbSymbolTableRecord
100
AcDbTextStyleTableRecord
  2
STANDARD
 70
     0
 40
0.0
 41
1.0
 50
0.0
 71
     0
 42
2.5
  3
simplex.shx
  4
EXTFONT.SHX
  0
STYLE
  5
52
330
3
100
AcDbSymbolTableRecord
100
AcDbTextStyleTableRecord
  2

 70
     1
 40
0.0
 41
1.0
 50
0.0
 71
     0
 42
2.5
  3
ltypeshp.shx
  4

  0
STYLE
  5
6B
330
3
100
AcDbSymbolTableRecord
100
AcDbTextStyleTableRecord
  2
ASAMI
 70
     0
 40
0.0
 41
1.0
 50
0.0
 71
     0
 42
2.5
  3
simplex.shx
  4
EXTFONT.SHX
  0
STYLE
  5
262
330
3
100
AcDbSymbolTableRecord
100
AcDbTextStyleTableRecord
  2
ACJISTS
 70
     0
 40
1.0
 41
1.0
 50
0.0
 71
     0
 42
2.5
  3
simplex.shx
  4
bigfont.shx
  0
STYLE
  5
269
330
3
100
AcDbSymbolTableRecord
100
AcDbTextStyleTableRecord
  2
ACJISGDT
 70
     0
 40
0.0
 41
1.0
 50
0.0
 71
     0
 42
2.5
  3
amgdtans.shx
  4

  0
ENDTAB
  0
TABLE
  2
VIEW
  5
6
330
0
100
AcDbSymbolTable
 70
     0
  0
ENDTAB
  0
TABLE
  2
UCS
  5
7
330
0
100
AcDbSymbolTable
 70
     0
  0
ENDTAB
  0
TABLE
  2
APPID
  5
9
330
0
100
AcDbSymbolTable
 70
    12
  0
APPID
  5
12
330
9
100
AcDbSymbolTableRecord
100
AcDbRegAppTableRecord
  2
ACAD
 70
     0
  0
APPID
  5
30
330
9
100
AcDbSymbolTableRecord
100
AcDbRegAppTableRecord
  2
MCAD_NO_VIS
 70
     0
  0
APPID
  5
31
330
9
100
AcDbSymbolTableRecord
100
AcDbRegAppTableRecord
  2
ACAD_TEMP_GRAPHIC
 70
     0
  0
APPID
  5
2C2
330
9
100
AcDbSymbolTableRecord
100
AcDbRegAppTableRecord
  2
GENIUS_GENDTOL_13
 70
     0
  0
APPID
  5
339
330
9
100
AcDbSymbolTableRecord
100
AcDbRegAppTableRecord
  2
GENIUS_GENODEF_13
 70
     0
  0
APPID
  5
33A
330
9
100
AcDbSymbolTableRecord
100
AcDbRegAppTableRecord
  2
GENIUS_GENOBJ-N-RSBK_13
 70
     0
  0
APPID
  5
33B
330
9
100
AcDbSymbolTableRecord
100
AcDbRegAppTableRecord
  2
GENIUS_GENOBJ-N-LIB_13
 70
     0
  0
APPID
  5
33C
330
9
100
AcDbSymbolTableRecord
100
AcDbRegAppTableRecord
  2
GENIUS_GENSCALE_13
 70
     0
  0
APPID
  5
378
330
9
100
AcDbSymbolTableRecord
100
AcDbRegAppTableRecord
  2
GENIUS_GENDIMSH_14
 70
     0
  0
APPID
  5
BD8
330
9
100
AcDbSymbolTableRecord
100
AcDbRegAppTableRecord
  2
GENIUS_GENOBJ-N-CEN_13
 70
     0
  0
APPID
  5
BD9
330
9
100
AcDbSymbolTableRecord
100
AcDbRegAppTableRecord
  2
GENIUS_GENFIL_13
 70
     0
  0
APPID
  5
BDA
330
9
100
AcDbSymbolTableRecord
100
AcDbRegAppTableRecord
  2
GENIUS_GENOBJ-N-CHA_13
 70
     0
  0
ENDTAB
  0
TABLE
  2
DIMSTYLE
  5
A
330
0
100
AcDbSymbolTable
 70
     8
  0
DIMSTYLE
105
58
102
{ACAD_REACTORS
330
13B3
330
145B
330
1920
330
1A14
102
}
330
A
100
AcDbSymbolTableRecord
100
AcDbDimStyleTableRecord
  2
AM_JIS
 70
     0
  3

  4
"
  5
OPEN30
  6

  7

 40
1.0
 41
2.5
 42
1.0
 43
12.0
 44
1.0
 45
0.0
 46
0.0
 47
0.1
 48
0.1
140
3.2
141
0.0
142
0.0
143
0.0393701
144
1.0
145
0.0
146
0.71
147
1.5
 71
     0
 72
     0
 73
     0
 74
     0
 75
     0
 76
     0
 77
     3
 78
     8
170
     0
171
     2
172
     1
173
     0
174
     0
175
     0
176
   256
177
   256
178
     2
270
     2
271
     3
272
     3
273
     2
274
     2
340
6B
275
     0
280
     0
281
     0
282
     0
283
     0
284
     0
285
     0
286
     0
287
     3
288
     0
  0
DIMSTYLE
105
5F
330
A
100
AcDbSymbolTableRecord
100
AcDbDimStyleTableRecord
  2
AM_JIS$3
 70
     0
  3

  4
"
  5
OPEN30
  6

  7

 40
1.0
 41
2.5
 42
1.0
 43
10.0
 44
1.0
 45
0.0
 46
0.0
 47
0.1
 48
0.1
140
3.2
141
0.0
142
0.0
143
0.0393701
144
1.0
145
0.0
146
0.71
147
1.5
 71
     0
 72
     0
 73
     0
 74
     1
 75
     0
 76
     0
 77
     3
 78
     8
170
     0
171
     2
172
     0
173
     0
174
     0
175
     0
176
   256
177
   256
178
     2
270
     2
271
     2
272
     3
273
     2
274
     2
340
6B
275
     0
280
     0
281
     0
282
     0
283
     0
284
     0
285
     0
286
     0
287
     0
288
     1
  0
DIMSTYLE
105
60
330
A
100
AcDbSymbolTableRecord
100
AcDbDimStyleTableRecord
  2
AM_JIS$4
 70
     0
  3

  4
"
  5
OPEN30
  6

  7

 40
1.0
 41
2.5
 42
1.0
 43
10.0
 44
1.0
 45
0.0
 46
0.0
 47
0.1
 48
0.1
140
3.2
141
0.0
142
0.0
143
0.0393701
144
1.0
145
0.0
146
0.71
147
1.5
 71
     0
 72
     0
 73
     0
 74
     1
 75
     0
 76
     0
 77
     3
 78
     8
170
     0
171
     2
172
     0
173
     0
174
     0
175
     0
176
   256
177
   256
178
     2
270
     2
271
     2
272
     3
273
     2
274
     2
340
6B
275
     0
280
     0
281
     0
282
     0
283
     0
284
     0
285
     0
286
     0
287
     0
288
     1
  0
DIMSTYLE
105
61
330
A
100
AcDbSymbolTableRecord
100
AcDbDimStyleTableRecord
  2
AM_JIS$6
 70
     0
  3

  4
"
  5
OPEN30
  6

  7

 40
1.0
 41
2.5
 42
1.0
 43
10.0
 44
1.0
 45
0.0
 46
0.0
 47
0.1
 48
0.1
140
3.2
141
0.0
142
0.0
143
0.0393701
144
1.0
145
0.0
146
0.71
147
1.5
 71
     0
 72
     0
 73
     0
 74
     0
 75
     0
 76
     0
 77
     0
 78
     8
170
     0
171
     2
172
     1
173
     0
174
     0
175
     0
176
   256
177
   256
178
     2
270
     2
271
     2
272
     2
273
     2
274
     2
340
6B
275
     0
280
     0
281
     0
282
     0
283
     0
284
     0
285
     0
286
     0
287
     3
288
     0
  0
DIMSTYLE
105
62
330
A
100
AcDbSymbolTableRecord
100
AcDbDimStyleTableRecord
  2
AM_JIS$7
 70
     0
  3

  4
"
  5
OPEN30
  6

  7

 40
1.0
 41
2.5
 42
1.0
 43
10.0
 44
1.0
 45
0.0
 46
0.0
 47
0.1
 48
0.1
140
3.2
141
0.0
142
0.0
143
0.0393701
144
1.0
145
0.0
146
0.71
147
1.5
 71
     0
 72
     0
 73
     0
 74
     0
 75
     0
 76
     0
 77
     3
 78
     8
170
     0
171
     2
172
     1
173
     0
174
     0
175
     0
176
   256
177
   256
178
     2
270
     2
271
     2
272
     3
273
     2
274
     2
340
6B
275
     0
280
     0
281
     0
282
     0
283
     0
284
     0
285
     0
286
     0
287
     3
288
     0
  0
DIMSTYLE
105
63
330
A
100
AcDbSymbolTableRecord
100
AcDbDimStyleTableRecord
  2
AM_JIS$SF
 70
     0
  3

  4
"
  5
OPEN30
  6

  7

 40
1.0
 41
2.5
 42
1.0
 43
10.0
 44
1.0
 45
0.0
 46
0.0
 47
0.1
 48
0.1
140
3.2
141
0.0
142
0.0
143
0.0393701
144
1.0
145
0.0
146
0.71
147
1.5
 71
     0
 72
     0
 73
     0
 74
     0
 75
     1
 76
     1
 77
     3
 78
     8
170
     0
171
     2
172
     1
173
     0
174
     0
175
     0
176
   256
177
   256
178
     2
270
     2
271
     2
272
     2
273
     2
274
     2
340
6B
275
     0
280
     0
281
     0
282
     0
283
     0
284
     0
285
     0
286
     0
287
     3
288
     0
  0
DIMSTYLE
105
68
330
A
100
AcDbSymbolTableRecord
100
AcDbDimStyleTableRecord
  2
AM_JIS$SH
 70
     0
  3

  4
"
  5

  6
GENAXEH
  7
OPEN30
 40
1.0
 41
2.5
 42
1.0
 43
10.0
 44
1.0
 45
0.0
 46
0.0
 47
0.1
 48
0.1
140
3.2
141
0.0
142
0.0
143
0.0393701
144
2.0
145
0.0
146
0.71
147
1.5
 71
     0
 72
     0
 73
     0
 74
     0
 75
     1
 76
     1
 77
     3
 78
     8
170
     0
171
     2
172
     1
173
     1
174
     0
175
     0
176
   256
177
   256
178
     2
270
     2
271
     2
272
     2
273
     2
274
     2
340
6B
275
     0
280
     0
281
     0
282
     0
283
     0
284
     0
285
     0
286
     0
287
     3
288
     0
  0
DIMSTYLE
105
B34
330
A
100
AcDbSymbolTableRecord
100
AcDbDimStyleTableRecord
  2
AM_JIS$2
 70
     0
  3

  4
"
  5
OPEN30
  6

  7

 40
1.0
 41
2.5
 42
1.0
 43
12.0
 44
1.0
 45
0.0
 46
0.0
 47
0.1
 48
0.1
140
3.2
141
0.0
142
0.0
143
0.0393701
144
1.0
145
0.0
146
0.71
147
1.5
 71
     0
 72
     0
 73
     0
 74
     0
 75
     0
 76
     0
 77
     3
 78
     8
170
     0
171
     2
172
     1
173
     0
174
     0
175
     0
176
   256
177
   256
178
     2
270
     2
271
     3
272
     3
273
     2
274
     2
340
6B
275
     0
280
     0
281
     0
282
     0
283
     0
284
     0
285
     0
286
     0
287
     3
288
     0
  0
ENDTAB
  0
TABLE
  2
BLOCK_RECORD
  5
1
330
0
100
AcDbSymbolTable
 70
     9
  0
BLOCK_RECORD
  5
1F
102
{ACAD_XDICTIONARY
360
74
102
}
330
1
100
AcDbSymbolTableRecord
100
AcDbBlockTableRecord
  2
*MODEL_SPACE
  0
BLOCK_RECORD
  5
101
102
{ACAD_XDICTIONARY
360
2120
102
}
330
1
100
AcDbSymbolTableRecord
100
AcDbBlockTableRecord
  2
*PAPER_SPACE
  0
BLOCK_RECORD
  5
59
330
1
100
AcDbSymbolTableRecord
100
AcDbBlockTableRecord
  2
_OPEN30
  0
BLOCK_RECORD
  5
64
330
1
100
AcDbSymbolTableRecord
100
AcDbBlockTableRecord
  2
GENAXEH
  0
BLOCK_RECORD
  5
13C0
330
1
100
AcDbSymbolTableRecord
100
AcDbBlockTableRecord
  2
*D5
  0
BLOCK_RECORD
  5
145C
330
1
100
AcDbSymbolTableRecord
100
AcDbBlockTableRecord
  2
*D6
  0
BLOCK_RECORD
  5
1921
330
1
100
AcDbSymbolTableRecord
100
AcDbBlockTableRecord
  2
*D7
  0
BLOCK_RECORD
  5
1A15
330
1
100
AcDbSymbolTableRecord
100
AcDbBlockTableRecord
  2
*D8
  0
ENDTAB
  0
ENDSEC
  0
SECTION
  2
BLOCKS
  0
BLOCK
  5
20
330
1F
100
AcDbEntity
  8
0
100
AcDbBlockBegin
  2
*MODEL_SPACE
 70
     0
 10
0.0
 20
0.0
 30
0.0
  3
*MODEL_SPACE
  1

  0
ENDBLK
  5
21
330
1F
100
AcDbEntity
  8
0
100
AcDbBlockEnd
  0
BLOCK
  5
103
330
101
100
AcDbEntity
 67
     1
  8
0
100
AcDbBlockBegin
  2
*PAPER_SPACE
 70
     0
 10
0.0
 20
0.0
 30
0.0
  3
*PAPER_SPACE
  1

  0
ENDBLK
  5
104
330
101
100
AcDbEntity
 67
     1
  8
0
100
AcDbBlockEnd
  0
BLOCK
  5
5D
330
59
100
AcDbEntity
  8
0
100
AcDbBlockBegin
  2
_OPEN30
 70
     0
 10
0.0
 20
0.0
 30
0.0
  3
_OPEN30
  1

  0
LINE
  5
5A
330
59
100
AcDbEntity
  8
0
 62
     0
100
AcDbLine
 10
-1.0
 20
0.26794919
 30
0.0
 11
0.0
 21
0.0
 31
0.0
  0
LINE
  5
5B
330
59
100
AcDbEntity
  8
0
 62
     0
100
AcDbLine
 10
0.0
 20
0.0
 30
0.0
 11
-1.0
 21
-0.26794919
 31
0.0
  0
LINE
  5
5C
330
59
100
AcDbEntity
  8
0
 62
     0
100
AcDbLine
 10
0.0
 20
0.0
 30
0.0
 11
-1.0
 21
0.0
 31
0.0
  0
ENDBLK
  5
5E
330
59
100
AcDbEntity
  8
0
100
AcDbBlockEnd
  0
BLOCK
  5
66
330
64
100
AcDbEntity
  8
0
100
AcDbBlockBegin
  2
GENAXEH
 70
     0
 10
0.0
 20
0.0
 30
0.0
  3
GENAXEH
  1

  0
LINE
  5
65
330
64
100
AcDbEntity
  8
0
100
AcDbLine
 10
-1.0
 20
0.0
 30
0.0
 11
1.0
 21
0.0
 31
0.0
  0
ENDBLK
  5
67
330
64
100
AcDbEntity
  8
0
100
AcDbBlockEnd
  0
BLOCK
  5
13CA
330
13C0
100
AcDbEntity
  8
0
100
AcDbBlockBegin
  2
*D5
 70
     1
 10
0.0
 20
0.0
 30
0.0
  3
*D5
  1

  0
LINE
  5
204C
330
13C0
100
AcDbEntity
  8
AM_5
100
AcDbLine
 10
-94.99999999999978
 20
-7.999999999998206
 30
0.0
 11
-94.99999999999978
 21
-34.99999999999821
 31
0.0
  0
LINE
  5
204D
330
13C0
100
AcDbEntity
  8
AM_5
100
AcDbLine
 10
0.000000000000423
 20
-8.000000000001818
 30
0.0
 11
0.0000000000004213
 21
-34.99999999999821
 31
0.0
  0
LINE
  5
204E
330
13C0
100
AcDbEntity
  8
AM_5
100
AcDbLine
 10
-92.49999999999978
 20
-33.9999999999982
 30
0.0
 11
-2.499999999999578
 21
-33.9999999999982
 31
0.0
  0
INSERT
  5
204F
330
13C0
100
AcDbEntity
  8
AM_5
100
AcDbBlockReference
  2
_OPEN30
 10
-94.99999999999978
 20
-33.9999999999982
 30
0.0
 41
2.5
 42
2.5
 43
2.5
 50
180.0
  0
INSERT
  5
2050
330
13C0
100
AcDbEntity
  8
AM_5
100
AcDbBlockReference
  2
_OPEN30
 10
0.0000000000004214
 20
-33.9999999999982
 30
0.0
 41
2.5
 42
2.5
 43
2.5
  0
MTEXT
  5
2051
330
13C0
100
AcDbEntity
  8
AM_5
 62
     2
100
AcDbMText
 10
-47.49999999999968
 20
-30.8999999999982
 30
0.0
 40
3.2
 41
0.0
 71
     5
 72
     1
  1
95
  7
ASAMI
1001
ACAD
1000
MTEXTBEGIN
1070
    73
1070
     1
1070
    44
1040
1.0
1070
    74
1070
     0
1000
MTEXTEND
  0
POINT
  5
2052
330
13C0
100
AcDbEntity
  8
DEFPOINTS
 62
     0
100
AcDbPoint
 10
-94.99999999999978
 20
-6.999999999998206
 30
0.0
  0
POINT
  5
2053
330
13C0
100
AcDbEntity
  8
DEFPOINTS
 62
     0
100
AcDbPoint
 10
0.000000000000423
 20
-7.000000000001819
 30
0.0
  0
POINT
  5
2054
330
13C0
100
AcDbEntity
  8
DEFPOINTS
 62
     0
100
AcDbPoint
 10
0.0000000000004214
 20
-33.9999999999982
 30
0.0
  0
ENDBLK
  5
13CB
330
13C0
100
AcDbEntity
  8
0
100
AcDbBlockEnd
  0
BLOCK
  5
1466
330
145C
100
AcDbEntity
  8
0
100
AcDbBlockBegin
  2
*D6
 70
     1
 10
0.0
 20
0.0
 30
0.0
  3
*D6
  1

  0
LINE
  5
2055
330
145C
100
AcDbEntity
  8
AM_5
100
AcDbLine
 10
-40.00000000000062
 20
-7.999999999999886
 30
0.0
 11
-40.00000000000062
 21
-23.00000000000049
 31
0.0
  0
LINE
  5
2056
330
145C
100
AcDbEntity
  8
AM_5
100
AcDbLine
 10
0.000000000000224
 20
-8.000000000001818
 30
0.0
 11
0.0000000000002231
 21
-23.00000000000049
 31
0.0
  0
LINE
  5
2057
330
145C
100
AcDbEntity
  8
AM_5
100
AcDbLine
 10
-37.50000000000062
 20
-22.00000000000049
 30
0.0
 11
-2.499999999999776
 21
-22.00000000000049
 31
0.0
  0
INSERT
  5
2058
330
145C
100
AcDbEntity
  8
AM_5
100
AcDbBlockReference
  2
_OPEN30
 10
-40.00000000000062
 20
-22.00000000000049
 30
0.0
 41
2.5
 42
2.5
 43
2.5
 50
180.0
  0
INSERT
  5
2059
330
145C
100
AcDbEntity
  8
AM_5
100
AcDbBlockReference
  2
_OPEN30
 10
0.0000000000002232
 20
-22.00000000000049
 30
0.0
 41
2.5
 42
2.5
 43
2.5
  0
MTEXT
  5
205A
330
145C
100
AcDbEntity
  8
AM_5
 62
     2
100
AcDbMText
 10
-20.00000000000019
 20
-18.90000000000049
 30
0.0
 40
3.2
 41
0.0
 71
     5
 72
     1
  1
40
  7
ASAMI
1001
ACAD
1000
MTEXTBEGIN
1070
    73
1070
     1
1070
    44
1040
1.0
1070
    74
1070
     0
1000
MTEXTEND
  0
POINT
  5
205B
330
145C
100
AcDbEntity
  8
DEFPOINTS
 62
     0
100
AcDbPoint
 10
-40.00000000000062
 20
-6.999999999999886
 30
0.0
  0
POINT
  5
205C
330
145C
100
AcDbEntity
  8
DEFPOINTS
 62
     0
100
AcDbPoint
 10
0.0000000000002241
 20
-7.000000000001819
 30
0.0
  0
POINT
  5
205D
330
145C
100
AcDbEntity
  8
DEFPOINTS
 62
     0
100
AcDbPoint
 10
0.0000000000002232
 20
-22.00000000000049
 30
0.0
  0
ENDBLK
  5
1467
330
145C
100
AcDbEntity
  8
0
100
AcDbBlockEnd
  0
BLOCK
  5
192B
330
1921
100
AcDbEntity
  8
0
100
AcDbBlockBegin
  2
*D7
 70
     1
 10
0.0
 20
0.0
 30
0.0
  3
*D7
  1

  0
LINE
  5
203A
330
1921
100
AcDbEntity
  8
AM_5
100
AcDbLine
 10
-94.99999999999976
 20
7.999999999999781
 30
0.0
 11
-109.9999999999997
 21
7.999999999999785
 31
0.0
  0
LINE
  5
203B
330
1921
100
AcDbEntity
  8
AM_5
100
AcDbLine
 10
-94.99999999999978
 20
-7.999999999998193
 30
0.0
 11
-109.9999999999997
 21
-7.999999999998189
 31
0.0
  0
LINE
  5
203C
330
1921
100
AcDbEntity
  8
AM_5
100
AcDbLine
 10
-108.9999999999997
 20
5.499999999999785
 30
0.0
 11
-108.9999999999997
 21
-5.499999999998189
 31
0.0
  0
INSERT
  5
203D
330
1921
100
AcDbEntity
  8
AM_5
100
AcDbBlockReference
  2
_OPEN30
 10
-108.9999999999997
 20
7.999999999999785
 30
0.0
 41
2.5
 42
2.5
 43
2.5
 50
90.0
  0
INSERT
  5
203E
330
1921
100
AcDbEntity
  8
AM_5
100
AcDbBlockReference
  2
_OPEN30
 10
-108.9999999999997
 20
-7.999999999998189
 30
0.0
 41
2.5
 42
2.5
 43
2.5
 50
270.0
  0
MTEXT
  5
203F
330
1921
100
AcDbEntity
  8
AM_5
 62
     2
100
AcDbMText
 10
-112.0999999999997
 20
0.0000000000007807
 30
0.0
 40
3.2
 41
0.0
 71
     5
 72
     1
  1
%%c16
  7
ASAMI
 11
0.0000000000000001
 21
1.0
 31
0.0
1001
ACAD
1000
MTEXTBEGIN
1070
    73
1070
     1
1070
    44
1040
1.0
1070
    74
1070
     0
1000
MTEXTEND
  0
POINT
  5
2040
330
1921
100
AcDbEntity
  8
DEFPOINTS
 62
     0
100
AcDbPoint
 10
-93.99999999999977
 20
7.99999999999978
 30
0.0
  0
POINT
  5
2041
330
1921
100
AcDbEntity
  8
DEFPOINTS
 62
     0
100
AcDbPoint
 10
-93.99999999999979
 20
-7.999999999998194
 30
0.0
  0
POINT
  5
2042
330
1921
100
AcDbEntity
  8
DEFPOINTS
 62
     0
100
AcDbPoint
 10
-108.9999999999997
 20
-7.999999999998189
 30
0.0
  0
ENDBLK
  5
192C
330
1921
100
AcDbEntity
  8
0
100
AcDbBlockEnd
  0
BLOCK
  5
1A1F
330
1A15
100
AcDbEntity
  8
0
100
AcDbBlockBegin
  2
*D8
 70
     1
 10
0.0
 20
0.0
 30
0.0
  3
*D8
  1

  0
LINE
  5
2043
330
1A15
100
AcDbEntity
  8
AM_5
100
AcDbLine
 10
1.000000000000012
 20
7.000000000000156
 30
0.0
 11
15.00000000000043
 21
7.000000000000151
 31
0.0
  0
LINE
  5
2044
330
1A15
100
AcDbEntity
  8
AM_5
100
AcDbLine
 10
0.9999999999984368
 20
-6.999999999999843
 30
0.0
 11
15.00000000000042
 21
-6.999999999999848
 31
0.0
  0
LINE
  5
2045
330
1A15
100
AcDbEntity
  8
AM_5
100
AcDbLine
 10
14.00000000000042
 20
4.500000000000151
 30
0.0
 11
14.00000000000042
 21
-4.499999999999848
 31
0.0
  0
INSERT
  5
2046
330
1A15
100
AcDbEntity
  8
AM_5
100
AcDbBlockReference
  2
_OPEN30
 10
14.00000000000042
 20
7.000000000000151
 30
0.0
 41
2.5
 42
2.5
 43
2.5
 50
90.0
  0
INSERT
  5
2047
330
1A15
100
AcDbEntity
  8
AM_5
100
AcDbBlockReference
  2
_OPEN30
 10
14.00000000000042
 20
-6.999999999999848
 30
0.0
 41
2.5
 42
2.5
 43
2.5
 50
270.0
  0
MTEXT
  5
2048
330
1A15
100
AcDbEntity
  8
AM_5
 62
     2
100
AcDbMText
 10
10.90000000000042
 20
0.000000000000155
 30
0.0
 40
3.2
 41
0.0
 71
     5
 72
     1
  1
%%c14
  7
ASAMI
 11
0.0000000000000001
 21
1.0
 31
0.0
1001
ACAD
1000
MTEXTBEGIN
1070
    73
1070
     1
1070
    44
1040
1.0
1070
    74
1070
     0
1000
MTEXTEND
  0
POINT
  5
2049
330
1A15
100
AcDbEntity
  8
DEFPOINTS
 62
     0
100
AcDbPoint
 10
0.0000000000000122
 20
7.000000000000156
 30
0.0
  0
POINT
  5
204A
330
1A15
100
AcDbEntity
  8
DEFPOINTS
 62
     0
100
AcDbPoint
 10
-0.0000000000015632
 20
-6.999999999999843
 30
0.0
  0
POINT
  5
204B
330
1A15
100
AcDbEntity
  8
DEFPOINTS
 62
     0
100
AcDbPoint
 10
14.00000000000042
 20
-6.999999999999848
 30
0.0
  0
ENDBLK
  5
1A20
330
1A15
100
AcDbEntity
  8
0
100
AcDbBlockEnd
  0
ENDSEC
  0
SECTION
  2
ENTITIES
  0
TEXT
  5
E5A
330
1F
100
AcDbEntity
  8
AM_6
100
AcDbText
 10
-67.85714285714252
 20
-56.50000099999965
 30
0.0
 40
5.0
  1
LSM4140ZX
 72
     4
 11
-47.49999999999966
 21
-54.00000099999965
 31
0.0
100
AcDbText
  0
LINE
  5
132B
330
1F
100
AcDbEntity
  8
AM_7
  6
AM_ISO08W050X2
100
AcDbLine
 10
4.557768030854969
 20
-0.0000000000001137
 30
0.0
 11
-97.73320485933165
 21
-0.0000000000001634
 31
0.0
1001
GENIUS_GENODEF_13
1002
{
1000
HIER
1070
     0
1002
}
1002
{
1000
MANEDIT
1070
     0
1002
}
1002
{
1000
NOSEL
1070
     0
1002
}
1002
{
1000
BEHIND
1070
     0
1002
}
1002
{
1000
REACTOR
1002
}
1001
GENIUS_GENOBJ-N-CEN_13
1002
{
1000
OWNER
1000
GEN
1002
}
  0
DIMENSION
  5
13B3
330
1F
100
AcDbEntity
  8
AM_5
100
AcDbDimension
  2
*D5
 10
0.0000000000004214
 20
-33.9999999999982
 30
0.0
 11
-47.49999999999968
 21
-30.8999999999982
 31
0.0
 70
    32
  1
<>
  3
AM_JIS
100
AcDbAlignedDimension
 13
-94.99999999999978
 23
-6.999999999998206
 33
0.0
 14
0.000000000000423
 24
-7.000000000001819
 34
0.0
100
AcDbRotatedDimension
1001
GENIUS_GENDTOL_13
1000

1000
h7
1000

1040
0.0
  0
DIMENSION
  5
145B
330
1F
100
AcDbEntity
  8
AM_5
100
AcDbDimension
  2
*D6
 10
0.0000000000002232
 20
-22.00000000000049
 30
0.0
 11
-20.00000000000019
 21
-18.90000000000049
 31
0.0
 70
    32
  1
<>
  3
AM_JIS
100
AcDbAlignedDimension
 13
-40.00000000000062
 23
-6.999999999999886
 33
0.0
 14
0.0000000000002241
 24
-7.000000000001819
 34
0.0
 50
359.9999999999967
100
AcDbRotatedDimension
1001
GENIUS_GENDTOL_13
1000

1000
h7
1000

1040
0.0
  0
LINE
  5
17E7
330
1F
100
AcDbEntity
  8
AM_0
100
AcDbLine
 10
-49.25252258054562
 20
-6.999999999999564
 30
0.0
 11
-51.99999999999982
 21
-7.99999999999942
 31
0.0
  0
LINE
  5
17E8
330
1F
100
AcDbEntity
  8
AM_0
100
AcDbLine
 10
-51.99999999999977
 20
7.999999999999962
 30
0.0
 11
-49.25252258054563
 21
7.000000000000128
 31
0.0
  0
LINE
  5
191B
330
1F
100
AcDbEntity
  8
AM_0
100
AcDbLine
 10
-51.99999999999982
 20
-7.999999999999311
 30
0.0
 11
-93.9999999999998
 21
-7.999999999998204
 31
0.0
  0
LINE
  5
191E
330
1F
100
AcDbEntity
  8
AM_0
100
AcDbLine
 10
-93.99999999999977
 20
7.99999999999978
 30
0.0
 11
-93.99999999999979
 21
-7.999999999998194
 31
0.0
  0
LINE
  5
191F
330
1F
100
AcDbEntity
  8
AM_0
100
AcDbLine
 10
-94.99999999999976
 20
6.999999999999776
 30
0.0
 11
-94.99999999999982
 21
-6.999999999998178
 31
0.0
  0
DIMENSION
  5
1920
330
1F
100
AcDbEntity
  8
AM_5
100
AcDbDimension
  2
*D7
 10
-108.9999999999997
 20
-7.999999999998189
 30
0.0
 11
-112.0999999999997
 21
0.0000000000007807
 31
0.0
 70
    32
  1
%%c<>
  3
AM_JIS
100
AcDbAlignedDimension
 13
-93.99999999999977
 23
7.99999999999978
 33
0.0
 14
-93.99999999999979
 24
-7.999999999998194
 34
0.0
 50
270.0
100
AcDbRotatedDimension
1001
GENIUS_GENDTOL_13
1000

1000
h7
1000

1040
0.0
  0
LINE
  5
192D
330
1F
100
AcDbEntity
  8
AM_0
100
AcDbLine
 10
-51.99999999999976
 20
7.99999999999995
 30
0.0
 11
-93.99999999999977
 21
7.99999999999978
 31
0.0
  0
LINE
  5
1939
330
1F
100
AcDbEntity
  8
AM_0
100
AcDbLine
 10
-93.99999999999977
 20
7.99999999999978
 30
0.0
 11
-94.99999999999976
 21
6.999999999999776
 31
0.0
1001
GENIUS_GENFIL_13
1070
     0
1040
1.0
1040
1.0
1040
20.0
1040
0.0
1002
{
1002
}
1001
GENIUS_GENODEF_13
1002
{
1000
HIER
1070
     0
1002
}
1002
{
1000
MANEDIT
1070
     0
1002
}
1002
{
1000
NOSEL
1070
     0
1002
}
1002
{
1000
BEHIND
1070
     0
1002
}
1002
{
1000
REACTOR
1002
}
1001
GENIUS_GENOBJ-N-CHA_13
1002
{
1000
OWNER
1000
GEN
1002
}
  0
LINE
  5
193F
330
1F
100
AcDbEntity
  8
AM_0
100
AcDbLine
 10
-94.9999999999998
 20
-6.999999999998177
 30
0.0
 11
-93.9999999999998
 21
-7.999999999998204
 31
0.0
1001
GENIUS_GENFIL_13
1070
     0
1040
1.0
1040
1.0
1040
20.0
1040
0.0
1002
{
1002
}
1001
GENIUS_GENODEF_13
1002
{
1000
HIER
1070
     0
1002
}
1002
{
1000
MANEDIT
1070
     0
1002
}
1002
{
1000
NOSEL
1070
     0
1002
}
1002
{
1000
BEHIND
1070
     0
1002
}
1002
{
1000
REACTOR
1002
}
1001
GENIUS_GENOBJ-N-CHA_13
1002
{
1000
OWNER
1000
GEN
1002
}
  0
LINE
  5
194C
330
1F
100
AcDbEntity
  8
AM_0
100
AcDbLine
 10
-94.99999999999982
 20
-6.999999999998178
 30
0.0
 11
-93.99999999999982
 21
-7.999999999998204
 31
0.0
1001
GENIUS_GENFIL_13
1070
     0
1040
1.0
1040
1.0
1040
20.0
1040
0.0
1002
{
1002
}
1001
GENIUS_GENODEF_13
1002
{
1000
HIER
1070
     0
1002
}
1002
{
1000
MANEDIT
1070
     0
1002
}
1002
{
1000
NOSEL
1070
     0
1002
}
1002
{
1000
BEHIND
1070
     0
1002
}
1002
{
1000
REACTOR
1002
}
1001
GENIUS_GENOBJ-N-CHA_13
1002
{
1000
OWNER
1000
GEN
1002
}
  0
DIMENSION
  5
1A14
330
1F
100
AcDbEntity
  8
AM_5
100
AcDbDimension
  2
*D8
 10
14.00000000000042
 20
-6.999999999999848
 30
0.0
 11
10.90000000000042
 21
0.000000000000155
 31
0.0
 70
    32
  1
%%c<>
  3
AM_JIS
100
AcDbAlignedDimension
 13
0.0000000000000122
 23
7.000000000000156
 33
0.0
 14
-0.0000000000015632
 24
-6.999999999999843
 34
0.0
 50
90.0
100
AcDbRotatedDimension
1001
GENIUS_GENDTOL_13
1000

1000
h7
1000

1040
0.0
  0
LINE
  5
1A88
330
1F
100
AcDbEntity
  8
AM_0
100
AcDbLine
 10
-51.99999999999977
 20
7.999999999999964
 30
0.0
 11
-51.99999999999982
 21
-7.999999999999419
 31
0.0
  0
LINE
  5
1A8D
330
1F
100
AcDbEntity
  8
AM_0
100
AcDbLine
 10
-49.25252258054562
 20
7.000000000000128
 30
0.0
 11
-49.25252258054562
 21
-6.999999999999563
 31
0.0
  0
SPLINE
  5
1B86
330
1F
100
AcDbEntity
  8
AM_0
100
AcDbSpline
210
0.0
220
0.0
230
1.0
 70
     8
 71
     3
 72
     8
 73
     4
 74
     0
 42
0.0000000001
 43
0.0000000001
 40
0.0
 40
0.0
 40
0.0
 40
0.0
 40
2.130230809022907
 40
2.130230809022907
 40
2.130230809022907
 40
2.130230809022907
 10
-19.04000000000082
 20
-6.999999999999857
 30
0.0
 10
-18.04589228912343
 20
-6.999999999999857
 30
0.0
 10
-17.06524947791576
 20
-6.924354202948094
 30
0.0
 10
-16.09609203905221
 20
-6.784183591993453
 30
0.0
  0
SPLINE
  5
1B87
330
1F
100
AcDbEntity
  8
AM_0
100
AcDbSpline
210
0.0
220
0.0
230
1.0
 70
     8
 71
     3
 72
     8
 73
     4
 74
     0
 42
0.0000000001
 43
0.0000000001
 40
0.0
 40
0.0
 40
0.0
 40
0.0
 40
5.635889483499305
 40
5.635889483499305
 40
5.635889483499305
 40
5.635889483499305
 10
-19.04000000000082
 20
7.000000000000298
 30
0.0
 10
-21.6700817589672
 20
7.000000000000298
 30
0.0
 10
-24.20591495537154
 20
6.470511640571075
 30
0.0
 10
-26.68415760226239
 20
5.617479613719936
 30
0.0
  0
SPLINE
  5
1B88
330
1F
100
AcDbEntity
  8
AM_0
100
AcDbSpline
210
0.0
220
0.0
230
1.0
 70
     8
 71
     3
 72
     8
 73
     4
 74
     0
 42
0.0000000001
 43
0.0000000001
 40
0.3581103616548037
 40
0.3581103616548037
 40
0.3581103616548037
 40
0.3581103616548037
 40
14.43901837670146
 40
14.43901837670146
 40
14.43901837670146
 40
14.43901837670146
 10
-35.13609203905165
 20
6.784183591993866
 30
0.0
 10
-28.59305935705288
 20
6.621984611274626
 30
0.0
 10
-22.59471553113049
 20
3.310992305637412
 30
0.0
 10
-16.59637170520812
 20
0.0000000000002132
 30
0.0
  0
SPLINE
  5
1B89
330
1F
100
AcDbEntity
  8
AM_0
100
AcDbSpline
210
0.0
220
0.0
230
1.0
 70
     8
 71
     3
 72
     8
 73
     4
 74
     2
 42
0.0000000001
 43
0.0000000001
 44
0.0000000001
 12
-1.0
 22
-0.0000000000000012
 32
0.0
 40
0.0
 40
0.0
 40
0.0
 40
0.0
 40
20.21462572738208
 40
20.21462572738208
 40
20.21462572738208
 40
20.21462572738208
 10
-16.59637170520836
 20
-6.790397138469245
 30
0.0
 10
-23.33458028100238
 20
-6.790397138469253
 30
0.0
 10
-29.48547599310539
 20
-3.395198569234448
 30
0.0
 10
-35.6363717052084
 20
0.0000000000003553
 30
0.0
 11
-16.59637170520836
 21
-6.790397138469245
 31
0.0
 11
-35.6363717052084
 21
0.0000000000003553
 31
0.0
  0
SPLINE
  5
1B8A
330
1F
100
AcDbEntity
  8
AM_0
100
AcDbSpline
210
0.0
220
0.0
230
1.0
 70
     8
 71
     3
 72
     8
 73
     4
 74
     0
 42
0.0000000001
 43
0.0000000001
 40
0.0
 40
0.0
 40
0.0
 40
0.0
 40
4.451443990518192
 40
4.451443990518192
 40
4.451443990518192
 40
4.451443990518192
 10
-13.78255664663542
 20
-6.464422305323608
 30
0.0
 10
-11.70521611772691
 20
-6.464422305323608
 30
0.0
 10
-9.679146233194096
 20
-6.153935779946252
 30
0.0
 10
-7.688456393167037
 20
-5.629193568492709
 30
0.0
  0
SPLINE
  5
1B8B
330
1F
100
AcDbEntity
  8
AM_0
100
AcDbSpline
210
0.0
220
0.0
230
1.0
 70
     8
 71
     3
 72
     8
 73
     4
 74
     0
 42
0.0000000001
 43
0.0000000001
 40
0.7142832446738512
 40
0.7142832446738512
 40
0.7142832446738512
 40
0.7142832446738512
 40
9.361146747480315
 40
9.361146747480315
 40
9.361146747480315
 40
9.361146747480315
 10
-12.78645476146001
 20
6.440836905754167
 30
0.0
 10
-8.782418447441607
 20
6.252096814560374
 30
0.0
 10
-4.962217892027787
 20
4.950077835919628
 30
0.0
 10
-1.209383286482513
 20
3.240101829273484
 30
0.0
  0
SPLINE
  5
1B8C
330
1F
100
AcDbEntity
  8
AM_0
100
AcDbSpline
210
0.0
220
0.0
230
1.0
 70
     8
 71
     3
 72
     8
 73
     4
 74
     2
 42
0.0000000001
 43
0.0000000001
 44
0.0000000001
 12
-0.6417012268563091
 22
-0.7669547153848836
 32
0.0
 13
-0.990099942783104
 23
-0.1403641809753975
 33
0.0
 40
0.0
 40
0.0
 40
0.0
 40
0.0
 40
3.621191453063412
 40
3.621191453063412
 40
3.621191453063412
 40
3.621191453063412
 10
-0.0000000000005471
 20
5.70458376135771
 30
0.0
 10
-0.7745743327046711
 20
4.77882047461157
 30
0.0
 10
-2.104087306602946
 20
4.381263315694244
 30
0.0
 10
-3.299201123431195
 20
4.211834791539459
 30
0.0
 11
-0.0000000000005471
 21
5.70458376135771
 31
0.0
 11
-3.299201123431195
 21
4.211834791539459
 31
0.0
  0
SPLINE
  5
1B8D
330
1F
100
AcDbEntity
  8
AM_0
100
AcDbSpline
210
0.0
220
0.0
230
1.0
 70
     8
 71
     3
 72
     8
 73
     4
 74
     0
 42
0.0000000001
 43
0.0000000001
 40
0.0
 40
0.0
 40
0.0
 40
0.0
 40
5.635889483499127
 40
5.635889483499127
 40
5.635889483499127
 40
5.635889483499127
 10
-0.0000000000005471
 20
7.000000000000156
 30
0.0
 10
-2.630081758966802
 20
7.000000000000156
 30
0.0
 10
-5.165914955371114
 20
6.470511640570947
 30
0.0
 10
-7.64415760226192
 20
5.617479613719893
 30
0.0
  0
SPLINE
  5
1B8E
330
1F
100
AcDbEntity
  8
AM_0
100
AcDbSpline
210
0.0
220
0.0
230
1.0
 70
     8
 71
     3
 72
     8
 73
     4
 74
     0
 42
0.0000000001
 43
0.0000000001
 40
4.542668862435135
 40
4.542668862435135
 40
4.542668862435135
 40
4.542668862435135
 40
14.36247867694493
 40
14.36247867694493
 40
14.36247867694493
 40
14.36247867694493
 10
-0.9589999999986034
 20
-5.596663317639112
 30
0.0
 10
-5.347243771598307
 20
-4.41980796120184
 30
0.0
 10
-9.564900209116721
 20
-2.209903980600799
 30
0.0
 10
-13.78255664663513
 20
0.0000000000002416
 30
0.0
  0
SPLINE
  5
1B8F
330
1F
100
AcDbEntity
  8
AM_0
100
AcDbSpline
210
0.0
220
0.0
230
1.0
 70
     8
 71
     3
 72
     8
 73
     4
 74
     0
 42
0.0000000001
 43
0.0000000001
 40
0.3581103616548037
 40
0.3581103616548037
 40
0.3581103616548037
 40
0.3581103616548037
 40
12.40023413887867
 40
12.40023413887867
 40
12.40023413887867
 40
12.40023413887867
 10
-16.09609203905166
 20
6.78418359199388
 30
0.0
 10
-10.50042950430216
 20
6.645469511888123
 30
0.0
 10
-5.303143129410578
 20
4.203781579879162
 30
0.0
 10
-0.1635379093546945
 20
1.428644499252712
 30
0.0
  0
SPLINE
  5
1B90
330
1F
100
AcDbEntity
  8
AM_0
100
AcDbSpline
210
0.0
220
0.0
230
1.0
 70
     8
 71
     3
 72
     8
 73
     4
 74
     2
 42
0.0000000001
 43
0.0000000001
 44
0.0000000001
 12
1.0
 22
0.0000000000000011
 32
0.0
 40
0.0
 40
0.0
 40
0.0
 40
0.0
 40
20.28599516908153
 40
20.28599516908153
 40
20.28599516908153
 40
20.28599516908153
 10
-19.04000000000054
 20
7.000000000000298
 30
0.0
 10
-12.27800161030669
 20
7.000000000000305
 30
0.0
 10
-6.139000805153621
 20
3.500000000000309
 30
0.0
 10
-0.0000000000005471
 20
0.0000000000003126
 30
0.0
 11
-19.04000000000054
 21
7.000000000000298
 31
0.0
 11
-0.0000000000005471
 21
0.0000000000003126
 31
0.0
  0
SPLINE
  5
1B91
330
1F
100
AcDbEntity
  8
AM_0
100
AcDbSpline
210
0.0
220
0.0
230
1.0
 70
     8
 71
     3
 72
     8
 73
     4
 74
     2
 42
0.0000000001
 43
0.0000000001
 44
0.0000000001
 12
-1.0
 22
-0.0000000000000012
 32
0.0
 40
0.0
 40
0.0
 40
0.0
 40
0.0
 40
20.28599516908153
 40
20.28599516908153
 40
20.28599516908153
 40
20.28599516908153
 10
-0.0000000000005471
 20
-6.999999999999843
 30
0.0
 10
-6.761998389694392
 20
-6.999999999999851
 30
0.0
 10
-12.90099919484746
 20
-3.499999999999855
 30
0.0
 10
-19.04000000000054
 20
0.0000000000001421
 30
0.0
 11
-0.0000000000005471
 21
-6.999999999999843
 31
0.0
 11
-19.04000000000054
 21
0.0000000000001421
 31
0.0
  0
SPLINE
  5
1B92
330
1F
100
AcDbEntity
  8
AM_0
100
AcDbSpline
210
0.0
220
0.0
230
1.0
 70
     8
 71
     3
 72
     8
 73
     4
 74
     2
 42
0.0000000001
 43
0.0000000001
 44
0.0000000001
 12
-1.0
 22
-0.0000000000000012
 32
0.0
 40
0.0
 40
0.0
 40
0.0
 40
0.0
 40
20.1074701477229
 40
20.1074701477229
 40
20.1074701477229
 40
20.1074701477229
 10
-13.78255664663542
 20
-6.464422305323452
 30
0.0
 10
-20.48504669587638
 20
-6.46442230532346
 30
0.0
 10
-26.6538016712559
 20
-3.232211152661552
 30
0.0
 10
-32.82255664663541
 20
0.0000000000003553
 30
0.0
 11
-13.78255664663542
 21
-6.464422305323452
 31
0.0
 11
-32.82255664663541
 21
0.0000000000003553
 31
0.0
  0
SPLINE
  5
1B93
330
1F
100
AcDbEntity
  8
AM_0
100
AcDbSpline
210
0.0
220
0.0
230
1.0
 70
     8
 71
     3
 72
     8
 73
     4
 74
     0
 42
0.0000000001
 43
0.0000000001
 40
0.7142832446738512
 40
0.7142832446738512
 40
0.7142832446738512
 40
0.7142832446738512
 40
14.36247867694493
 40
14.36247867694493
 40
14.36247867694493
 40
14.36247867694493
 10
-31.82645476146002
 20
6.440836905754125
 30
0.0
 10
-25.50649028949894
 20
6.142929849665861
 30
0.0
 10
-19.64452346806705
 20
3.071464924833051
 30
0.0
 10
-13.78255664663513
 20
0.0000000000002416
 30
0.0
  0
SPLINE
  5
1B94
330
1F
100
AcDbEntity
  8
AM_0
100
AcDbSpline
210
0.0
220
0.0
230
1.0
 70
     8
 71
     3
 72
     8
 73
     4
 74
     0
 42
0.0000000001
 43
0.0000000001
 40
1.870660592686466
 40
1.870660592686466
 40
1.870660592686466
 40
1.870660592686466
 40
14.43901837670146
 40
14.43901837670146
 40
14.43901837670146
 40
14.43901837670146
 10
-0.1470000000005385
 20
-6.626817620670323
 30
0.0
 10
-5.888350427720901
 20
-5.910660856941916
 30
0.0
 10
-11.24236106646451
 20
-2.955330428470844
 30
0.0
 10
-16.59637170520812
 20
0.0000000000002132
 30
0.0
  0
SPLINE
  5
1B95
330
1F
100
AcDbEntity
  8
AM_0
100
AcDbSpline
210
0.0
220
0.0
230
1.0
 70
     8
 71
     3
 72
     8
 73
     4
 74
     0
 42
0.0000000001
 43
0.0000000001
 40
0.0
 40
0.0
 40
0.0
 40
0.0
 40
2.764560748519282
 40
2.764560748519282
 40
2.764560748519282
 40
2.764560748519282
 10
-16.59637170520836
 20
-6.790397138469401
 30
0.0
 10
-15.30624335589937
 20
-6.790397138469401
 30
0.0
 10
-14.03764512657158
 20
-6.665933607913913
 30
0.0
 10
-12.78645476160776
 20
-6.440836905780187
 30
0.0
  0
SPLINE
  5
1B9B
330
1F
100
AcDbEntity
  8
AM_0
100
AcDbSpline
210
0.0
220
0.0
230
1.0
 70
     8
 71
     3
 72
     8
 73
     4
 74
     2
 42
0.0000000001
 43
0.0000000001
 44
0.0000000001
 12
1.0
 22
0.0000000000000011
 32
0.0
 40
0.0
 40
0.0
 40
0.0
 40
0.0
 40
20.28599516908153
 40
20.28599516908153
 40
20.28599516908153
 40
20.28599516908153
 10
-38.08000000000053
 20
7.00000000000027
 30
0.0
 10
-31.31800161030668
 20
7.000000000000277
 30
0.0
 10
-25.17900080515361
 20
3.500000000000288
 30
0.0
 10
-19.04000000000054
 20
0.0000000000002984
 30
0.0
 11
-38.08000000000053
 21
7.00000000000027
 31
0.0
 11
-19.04000000000054
 21
0.0000000000002984
 31
0.0
  0
SPLINE
  5
1B9C
330
1F
100
AcDbEntity
  8
AM_0
100
AcDbSpline
210
0.0
220
0.0
230
1.0
 70
     8
 71
     3
 72
     8
 73
     4
 74
     2
 42
0.0000000001
 43
0.0000000001
 44
0.0000000001
 12
-1.0
 22
-0.0000000000000012
 32
0.0
 40
0.0
 40
0.0
 40
0.0
 40
0.0
 40
20.28599516908153
 40
20.28599516908153
 40
20.28599516908153
 40
20.28599516908153
 10
-19.04000000000082
 20
-6.999999999999701
 30
0.0
 10
-25.80199838969466
 20
-6.999999999999709
 30
0.0
 10
-31.94099919484774
 20
-3.499999999999719
 30
0.0
 10
-38.08000000000081
 20
0.00000000000027
 30
0.0
 11
-19.04000000000082
 21
-6.999999999999701
 31
0.0
 11
-38.08000000000081
 21
0.00000000000027
 31
0.0
  0
LINE
  5
1B9E
330
1F
100
AcDbEntity
  8
AM_11
100
AcDbLine
 10
-0.0000000000016271
 20
7.000000000000156
 30
0.0
 11
-39.99999999999539
 21
7.000000000000135
 31
0.0
  0
LINE
  5
1B9F
330
1F
100
AcDbEntity
  8
AM_11
100
AcDbLine
 10
-40.00000000000062
 20
-6.999999999999884
 30
0.0
 11
-0.0000000000005542
 21
-6.999999999999843
 31
0.0
  0
LINE
  5
1BA1
330
1F
100
AcDbEntity
  8
AM_11
100
AcDbLine
 10
-40.00000000000062
 20
-6.999999999999886
 30
0.0
 11
-40.00000000000047
 21
7.000000000000113
 31
0.0
  0
LINE
  5
1BB5
330
1F
100
AcDbEntity
  8
AM_0
100
AcDbLine
 10
-1.494533876844748
 20
3.733997139614714
 30
0.0
 11
-3.299201123431195
 21
4.211834791539459
 31
0.0
  0
LINE
  5
1BB6
330
1F
100
AcDbEntity
  8
AM_0
100
AcDbLine
 10
-0.0000000000005542
 20
0.0000000000001563
 30
0.0
 11
-0.0000000000005542
 21
7.000000000000156
 31
0.0
  0
LINE
  5
1BB8
330
1F
100
AcDbEntity
  8
AM_0
100
AcDbLine
 10
-0.1470000000005385
 20
-6.626817620670323
 30
0.0
 11
-0.9590000000005574
 21
-5.596663317646516
 31
0.0
  0
LINE
  5
1BB9
330
1F
100
AcDbEntity
  8
AM_0
100
AcDbLine
 10
-0.0000000000005542
 20
-6.999999999999843
 30
0.0
 11
-0.0000000000005542
 21
-1.399999999999849
 31
0.0
  0
LINE
  5
1BBA
330
1F
100
AcDbEntity
  8
AM_0
100
AcDbLine
 10
-0.1470000000005385
 20
-6.626817620670394
 30
0.0
 11
-0.1470000000005385
 21
-1.8576569963883
 31
0.0
  0
LINE
  5
1BBB
330
1F
100
AcDbEntity
  8
AM_0
100
AcDbLine
 10
-0.0000000000005542
 20
-6.999999999999843
 30
0.0
 11
-0.1470000000005385
 21
-6.626817620670394
 31
0.0
  0
LINE
  5
1BBC
330
1F
100
AcDbEntity
  8
AM_0
100
AcDbLine
 10
-3.299201123431195
 20
-1.119999999999862
 30
0.0
 11
-1.204641179968191
 21
-2.063116671233004
 31
0.0
  0
LINE
  5
1BBD
330
1F
100
AcDbEntity
  8
AM_0
100
AcDbLine
 10
-0.0000000000005542
 20
0.0000000000001563
 30
0.0
 11
-0.1243796528021051
 21
-1.184568121919895
 31
0.0
  0
LINE
  5
1BBE
330
1F
100
AcDbEntity
  8
AM_0
100
AcDbLine
 10
-0.0000000000005542
 20
-1.399999999999849
 30
0.0
 11
-0.8082903768660614
 21
0.0000000000002416
 31
0.0
  0
LINE
  5
1BBF
330
1F
100
AcDbEntity
  8
AM_0
100
AcDbLine
 10
-1.204641179968191
 20
-2.063116671233004
 30
0.0
 11
-0.1470000000005385
 21
-1.8576569963883
 31
0.0
  0
ARC
  5
1BC0
330
1F
100
AcDbEntity
  8
AM_0
100
AcDbCircle
 10
2.779942454837524
 20
-3.561432230604907
 30
0.0
 40
4.25697736172247
100
AcDbArc
 50
159.3923269732578
 51
208.5609268810354
  0
LINE
  5
1BC1
330
1F
100
AcDbEntity
  8
AM_0
100
AcDbLine
 10
-0.1470000000005385
 20
-1.8576569963883
 30
0.0
 11
-0.0000000000005542
 21
-1.399999999999849
 31
0.0
  0
LINE
  5
1BC2
330
1F
100
AcDbEntity
  8
AM_0
100
AcDbLine
 10
-0.1470000000005385
 20
1.400000000000318
 30
0.0
 11
-1.494533876844748
 21
3.733997139614714
 31
0.0
  0
LINE
  5
1BC3
330
1F
100
AcDbEntity
  8
AM_0
100
AcDbLine
 10
-3.299201123431195
 20
-1.119999999999862
 30
0.0
 11
-0.1616580753736443
 21
-1.119999999999862
 31
0.0
  0
LINE
  5
1BC4
330
1F
100
AcDbEntity
  8
AM_0
100
AcDbLine
 10
-0.0000000000005542
 20
0.0000000000001563
 30
0.0
 11
-3.299201123431195
 21
0.0000000000001563
 31
0.0
  0
LINE
  5
1BC5
330
1F
100
AcDbEntity
  8
AM_0
100
AcDbLine
 10
-3.299201123431195
 20
0.0000000000001563
 30
0.0
 11
-3.299201123431195
 21
-1.119999999999862
 31
0.0
  0
LINE
  5
1BC6
330
1F
100
AcDbEntity
  8
AM_0
100
AcDbLine
 10
-0.0000000000005542
 20
0.0000000000001563
 30
0.0
 11
-0.1470000000005385
 21
1.400000000000318
 31
0.0
  0
SPLINE
  5
1D91
330
1F
100
AcDbEntity
  8
AM_0
100
AcDbSpline
210
0.0
220
0.0
230
1.0
 70
     8
 71
     3
 72
     8
 73
     4
 74
     0
 42
0.0000000001
 43
0.0000000001
 40
12.94851199321065
 40
12.94851199321065
 40
12.94851199321065
 40
12.94851199321065
 40
14.48999654934396
 40
14.48999654934396
 40
14.48999654934396
 40
14.48999654934396
 10
-40.00000000000055
 20
1.112804194199739
 30
0.0
 10
-39.38616662316085
 20
0.7446787068712269
 30
0.0
 10
-38.73308331158048
 20
0.3723393534356347
 30
0.0
 10
-38.0800000000001
 20
0.0000000000000711
 30
0.0
  0
SPLINE
  5
1D92
330
1F
100
AcDbEntity
  8
AM_0
100
AcDbSpline
210
0.0
220
0.0
230
1.0
 70
     8
 71
     3
 72
     8
 73
     4
 74
     0
 42
0.0000000001
 43
0.0000000001
 40
5.522276060027962
 40
5.522276060027962
 40
5.522276060027962
 40
5.522276060027962
 40
14.36247867694493
 40
14.36247867694493
 40
14.36247867694493
 40
14.36247867694493
 10
-44.23502980784632
 20
5.214643938376397
 30
0.0
 10
-40.41637733776759
 20
3.978895583818243
 30
0.0
 10
-36.61946699220115
 20
1.989447791909114
 30
0.0
 10
-32.8225566466347
 20
-0.0000000000000142
 30
0.0
  0
SPLINE
  5
1D93
330
1F
100
AcDbEntity
  8
AM_0
100
AcDbSpline
210
0.0
220
0.0
230
1.0
 70
     8
 71
     3
 72
     8
 73
     4
 74
     0
 42
0.0000000001
 43
0.0000000001
 40
10.38442441395913
 40
10.38442441395913
 40
10.38442441395913
 40
10.38442441395913
 40
14.43901837670146
 40
14.43901837670146
 40
14.43901837670146
 40
14.43901837670146
 10
-40.79104119444054
 20
2.785019626156028
 30
0.0
 10
-39.09081493245535
 20
1.906798822743141
 30
0.0
 10
-37.36359331883152
 20
0.9533994113715635
 30
0.0
 10
-35.63637170520769
 20
-0.0000000000000142
 30
0.0
  0
POLYLINE
  5
1D94
330
1F
100
AcDbEntity
  8
AM_0
100
AcDb2dPolyline
 66
     1
 10
0.0
 20
0.0
 30
0.0
 70
     2
  0
VERTEX
  5
1D95
330
1D94
100
AcDbEntity
  8
AM_0
100
AcDbVertex
100
AcDb2dVertex
 10
-40.00000000000046
 20
1.112804194199696
 30
0.0
 42
0.0405418597991228
  0
VERTEX
  5
1D96
330
1D94
100
AcDbEntity
  8
AM_0
100
AcDbVertex
100
AcDb2dVertex
 10
-41.24498265191759
 20
1.635008830722853
 30
0.0
 42
0.0478227441547119
 70
     1
  0
VERTEX
  5
1D97
330
1D94
100
AcDbEntity
  8
AM_0
100
AcDbVertex
100
AcDb2dVertex
 10
-42.36250000000044
 20
1.885548261193363
 30
0.0
 42
0.0443214214461838
  0
VERTEX
  5
1D98
330
1D94
100
AcDbEntity
  8
AM_0
100
AcDbVertex
100
AcDb2dVertex
 10
-44.58686618978789
 20
1.966525437372951
 30
0.0
 42
0.1039236762820958
 70
     1
  0
VERTEX
  5
1D99
330
1D94
100
AcDbEntity
  8
AM_0
100
AcDbVertex
100
AcDb2dVertex
 10
-45.51250000000044
 20
1.720980338400323
 30
0.0
 42
0.1017574481668659
  0
VERTEX
  5
1D9A
330
1D94
100
AcDbEntity
  8
AM_0
100
AcDbVertex
100
AcDb2dVertex
 10
-46.13072051127143
 20
1.231976016641851
 30
0.0
 42
0.1704800302432918
 70
     1
  0
VERTEX
  5
1D9B
330
1D94
100
AcDbEntity
  8
AM_0
100
AcDbVertex
100
AcDb2dVertex
 10
-46.30000000000044
 20
0.7836683486136878
 30
0.0
 42
0.1172295991725115
  0
VERTEX
  5
1D9C
330
1D94
100
AcDbEntity
  8
AM_0
100
AcDbVertex
100
AcDb2dVertex
 10
-46.17435695264706
 20
0.1943682922511272
 30
0.0
 42
0.0556068033830928
 70
     1
  0
VERTEX
  5
1D9D
330
1D94
100
AcDbEntity
  8
AM_0
100
AcDbVertex
100
AcDb2dVertex
 10
-45.51250000000044
 20
-0.874193940996335
 30
0.0
 42
0.0341135094462395
  0
VERTEX
  5
1D9E
330
1D94
100
AcDbEntity
  8
AM_0
100
AcDbVertex
100
AcDb2dVertex
 10
-44.38250491417307
 20
-2.127121587759319
 30
0.0
 42
0.0212902001773867
 70
     1
  0
VERTEX
  5
1D9F
330
1D94
100
AcDbEntity
  8
AM_0
100
AcDbVertex
100
AcDb2dVertex
 10
-42.36250000000044
 20
-3.920963063082922
 30
0.0
 42
0.0380483921513513
  0
VERTEX
  5
1DA0
330
1D94
100
AcDbEntity
  8
AM_0
100
AcDbVertex
100
AcDb2dVertex
 10
-41.51752227093229
 20
-4.508436240184849
 30
0.0
 42
0.022795517676966
 70
     1
  0
VERTEX
  5
1DA1
330
1D94
100
AcDbEntity
  8
AM_0
100
AcDbVertex
100
AcDb2dVertex
 10
-40.00000000000046
 20
-5.309869895559486
 30
0.0
  0
SEQEND
  5
1DA2
330
1D94
100
AcDbEntity
  8
AM_0
  0
LINE
  5
1DA3
330
1F
100
AcDbEntity
  8
AM_0
100
AcDbLine
 10
-40.79104119444054
 20
2.785019626156028
 30
0.0
 11
-40.00000000000046
 21
1.112804194199725
 31
0.0
  0
LINE
  5
1DA4
330
1F
100
AcDbEntity
  8
AM_0
100
AcDbLine
 10
-40.00000000000046
 20
3.55847334038178
 30
0.0
 11
-40.79104119444054
 21
2.785019626156028
 31
0.0
  0
SPLINE
  5
1DA5
330
1F
100
AcDbEntity
  8
AM_0
100
AcDbSpline
210
0.0
220
0.0
230
1.0
 70
     8
 71
     3
 72
     8
 73
     4
 74
     0
 42
0.0000000001
 43
0.0000000001
 40
0.0
 40
0.0
 40
0.0
 40
0.0
 40
1.412269715655734
 40
1.412269715655734
 40
1.412269715655734
 40
1.412269715655734
 10
-38.04000000000073
 20
-6.999999999999715
 30
0.0
 10
-38.69905920064006
 20
-6.999999999999715
 30
0.0
 10
-39.35220026323193
 20
-6.966751904533225
 30
0.0
 10
-40.00000000000046
 20
-6.903496244277306
 30
0.0
  0
SPLINE
  5
1DA6
330
1F
100
AcDbEntity
  8
AM_0
100
AcDbSpline
210
0.0
220
0.0
230
1.0
 70
     8
 71
     3
 72
     8
 73
     4
 74
     0
 42
0.0000000001
 43
0.0000000001
 40
0.0
 40
0.0
 40
0.0
 40
0.0
 40
5.291496149500158
 40
5.291496149500158
 40
5.291496149500158
 40
5.291496149500158
 10
-32.78255664663533
 20
-6.464422305323495
 30
0.0
 10
-35.25192151640207
 20
-6.464422305323495
 30
0.0
 10
-37.64883880035144
 20
-6.025691732179524
 30
0.0
 10
-40.00000000000041
 20
-5.309869895559387
 30
0.0
  0
SPLINE
  5
1DA7
330
1F
100
AcDbEntity
  8
AM_0
100
AcDbSpline
210
0.0
220
0.0
230
1.0
 70
     8
 71
     3
 72
     8
 73
     4
 74
     0
 42
0.0000000001
 43
0.0000000001
 40
0.0
 40
0.0
 40
0.0
 40
0.0
 40
3.20279236890966
 40
3.20279236890966
 40
3.20279236890966
 40
3.20279236890966
 10
-35.59637170520828
 20
-6.790397138469273
 30
0.0
 10
-37.09100814403279
 20
-6.790397138469273
 30
0.0
 10
-38.55674765025512
 20
-6.623346780318485
 30
0.0
 10
-39.99999999999776
 20
-6.326300356652978
 30
0.0
  0
SPLINE
  5
1DA8
330
1F
100
AcDbEntity
  8
AM_0
100
AcDbSpline
210
0.0
220
0.0
230
1.0
 70
     8
 71
     3
 72
     8
 73
     4
 74
     0
 42
0.0000000001
 43
0.0000000001
 40
0.0
 40
0.0
 40
0.0
 40
0.0
 40
2.130230809022907
 40
2.130230809022907
 40
2.130230809022907
 40
2.130230809022907
 10
-38.04000000000073
 20
-6.999999999999886
 30
0.0
 10
-37.04589228912336
 20
-6.999999999999886
 30
0.0
 10
-36.06524947791568
 20
-6.924354202948109
 30
0.0
 10
-35.09609203905213
 20
-6.784183591993468
 30
0.0
  0
SPLINE
  5
1DA9
330
1F
100
AcDbEntity
  8
AM_0
100
AcDbSpline
210
0.0
220
0.0
230
1.0
 70
     8
 71
     3
 72
     8
 73
     4
 74
     0
 42
0.0000000001
 43
0.0000000001
 40
0.0
 40
0.0
 40
0.0
 40
0.0
 40
2.764560748519282
 40
2.764560748519282
 40
2.764560748519282
 40
2.764560748519282
 10
-35.59637170520828
 20
-6.790397138469415
 30
0.0
 10
-34.3062433558993
 20
-6.790397138469415
 30
0.0
 10
-33.03764512657149
 20
-6.665933607913956
 30
0.0
 10
-31.78645476160768
 20
-6.44083690578023
 30
0.0
  0
SPLINE
  5
1DAA
330
1F
100
AcDbEntity
  8
AM_0
100
AcDbSpline
210
0.0
220
0.0
230
1.0
 70
     8
 71
     3
 72
     8
 73
     4
 74
     0
 42
0.0000000001
 43
0.0000000001
 40
0.0
 40
0.0
 40
0.0
 40
0.0
 40
4.451443990518192
 40
4.451443990518192
 40
4.451443990518192
 40
4.451443990518192
 10
-32.78255664663533
 20
-6.464422305323637
 30
0.0
 10
-30.70521611772683
 20
-6.464422305323637
 30
0.0
 10
-28.67914623319402
 20
-6.153935779946294
 30
0.0
 10
-26.68845639316695
 20
-5.629193568492752
 30
0.0
  0
ARC
  5
1DAB
330
1F
100
AcDbEntity
  8
AM_0
100
AcDbCircle
 10
-23.23604516008487
 20
-436.9997860406868
 30
0.0
 40
430.4228719277262
100
AcDbArc
 50
92.23209992593767
 51
92.54062056902693
  0
LINE
  5
1DAC
330
1F
100
AcDbEntity
  8
AM_0
100
AcDbLine
 10
-40.00000000000041
 20
-5.309869895559387
 30
0.0
 11
-40.00000000000046
 21
-6.90349624427732
 31
0.0
  0
POLYLINE
  5
1DAD
330
1F
100
AcDbEntity
  8
AM_0
100
AcDb2dPolyline
 66
     1
 10
0.0
 20
0.0
 30
0.0
 70
     2
  0
VERTEX
  5
1DAE
330
1DAD
100
AcDbEntity
  8
AM_0
100
AcDbVertex
100
AcDb2dVertex
 10
-44.23502980784632
 20
5.214643938376397
 30
0.0
 42
-0.0093448115758813
  0
VERTEX
  5
1DAF
330
1DAD
100
AcDbEntity
  8
AM_0
100
AcDbVertex
100
AcDb2dVertex
 10
-44.94389203508691
 20
5.552968211324952
 30
0.0
 42
-0.0111716247241469
 70
     1
  0
VERTEX
  5
1DB0
330
1DAD
100
AcDbEntity
  8
AM_0
100
AcDbVertex
100
AcDb2dVertex
 10
-45.51250000000477
 20
5.882180995587731
 30
0.0
 42
-0.0056817162269327
  0
VERTEX
  5
1DB1
330
1DAD
100
AcDbEntity
  8
AM_0
100
AcDbVertex
100
AcDb2dVertex
 10
-46.264006891038
 20
6.351796220138865
 30
0.0
 42
-0.1012800428637157
 70
     1
  0
VERTEX
  5
1DB2
330
1DAD
100
AcDbEntity
  8
AM_0
100
AcDbVertex
100
AcDb2dVertex
 10
-46.30000000000477
 20
6.386820793789595
 30
0.0
 42
-0.5091829191374789
  0
VERTEX
  5
1DB3
330
1DAD
100
AcDbEntity
  8
AM_0
100
AcDbVertex
100
AcDb2dVertex
 10
-46.27701387355197
 20
6.450828815977061
 30
0.0
 42
-0.0351954426445148
 70
     1
  0
VERTEX
  5
1DB4
330
1DAD
100
AcDbEntity
  8
AM_0
100
AcDbVertex
100
AcDb2dVertex
 10
-45.51250000000477
 20
6.616762996118509
 30
0.0
 42
-0.011586529956417
  0
VERTEX
  5
1DB5
330
1DAD
100
AcDbEntity
  8
AM_0
100
AcDbVertex
100
AcDb2dVertex
 10
-44.82935178208452
 20
6.699272714891279
 30
0.0
 42
-0.0032183393648243
 70
     1
  0
VERTEX
  5
1DB6
330
1DAD
100
AcDbEntity
  8
AM_0
100
AcDbVertex
100
AcDb2dVertex
 10
-42.36250000000477
 20
6.92335259922379
 30
0.0
 42
-0.0129305071352978
  0
VERTEX
  5
1DB7
330
1DAD
100
AcDbEntity
  8
AM_0
100
AcDbVertex
100
AcDb2dVertex
 10
-41.54093209055075
 20
6.971297375387521
 30
0.0
 42
-0.0069037738036377
 70
     1
  0
VERTEX
  5
1DB8
330
1DAD
100
AcDbEntity
  8
AM_0
100
AcDbVertex
100
AcDb2dVertex
 10
-40.00000000000476
 20
7.000000000000085
 30
0.0
  0
SEQEND
  5
1DB9
330
1DAD
100
AcDbEntity
  8
AM_0
  0
SPLINE
  5
1DBB
330
1F
100
AcDbEntity
  8
AM_0
100
AcDbSpline
210
0.0
220
0.0
230
1.0
 70
    24
 71
     3
 72
     8
 73
     4
 74
     2
 42
0.0000000001
 43
0.0000000001
 44
0.0000000001
 40
0.0
 40
0.0
 40
0.0
 40
0.0
 40
1.919999999997443
 40
1.919999999997443
 40
1.919999999997443
 40
1.919999999997443
 10
-39.99999999999797
 20
7.000000000000127
 30
0.0
 10
-39.35999999999882
 20
7.000000000000174
 30
0.0
 10
-38.71999999999967
 20
7.000000000000222
 30
0.0
 10
-38.08000000000053
 20
7.00000000000027
 30
0.0
 11
-39.99999999999797
 21
7.000000000000127
 31
0.0
 11
-38.08000000000053
 21
7.00000000000027
 31
0.0
  0
LINE
  5
1DFB
330
1F
100
AcDbEntity
  8
AM_0
100
AcDbLine
 10
-39.99999999999797
 20
7.000000000000127
 30
0.0
 11
-49.25252258054563
 21
7.000000000000127
 31
0.0
  0
LINE
  5
1DFC
330
1F
100
AcDbEntity
  8
AM_0
100
AcDbLine
 10
-42.31568570898381
 20
-6.999999999999829
 30
0.0
 11
-49.25252258054562
 21
-6.999999999999893
 31
0.0
  0
VIEWPORT
  5
110
330
101
100
AcDbEntity
 67
     1
  8
0
100
AcDbViewport
 10
420.5
 20
297.0
 30
0.0
 40
948.9782706766916
 41
628.452
 68
     1
 69
     1
1001
ACAD
1000
MVIEW
1002
{
1070
    16
1010
0.0
1020
0.0
1030
0.0
1010
0.0
1020
0.0
1030
1.0
1040
0.0
1040
628.452
1040
420.5
1040
297.0
1040
50.0
1040
0.0
1040
0.0
1070
     0
1070
   100
1070
     1
1070
     1
1070
     0
1070
     0
1070
     0
1070
     0
1040
0.0
1040
0.0
1040
0.0
1040
10.0
1040
10.0
1040
10.0
1040
10.0
1070
     0
1002
{
1002
}
1002
}
  0
ENDSEC
  0
SECTION
  2
OBJECTS
  0
DICTIONARY
  5
C
330
0
100
AcDbDictionary
  3
ACAD_GROUP
350
D
  3
ACAD_LAYOUT
350
1A
  3
ACAD_MLINESTYLE
350
17
  3
ACAD_PLOTSETTINGS
350
19
  3
ACAD_PLOTSTYLENAME
350
E
  3
ACDBVARIABLEDICTIONARY
350
34
  3
ACMDICTIONARY
350
43
  3
AMG
350
2B
  3
AMGSNAPSETTINGS
350
6E
  3
DWGPROPS
350
20EC
  3
ACDBHEADERROUNDTRIPXREC
350
20F8
  0
DICTIONARY
  5
74
330
1F
100
AcDbDictionary
280
     1
  3
ACAD_INDEX
360
20EE
  3
ACAD_LAYOUTSELFREF
360
211B
  0
DICTIONARY
  5
2120
330
101
100
AcDbDictionary
280
     1
  3
ACAD_LAYOUTSELFREF
360
2121
  0
DICTIONARY
  5
D
102
{ACAD_REACTORS
330
C
102
}
330
C
100
AcDbDictionary
  0
DICTIONARY
  5
1A
102
{ACAD_REACTORS
330
C
102
}
330
C
100
AcDbDictionary
  0
DICTIONARY
  5
17
102
{ACAD_REACTORS
330
C
102
}
330
C
100
AcDbDictionary
  3
STANDARD
350
18
  0
DICTIONARY
  5
19
102
{ACAD_REACTORS
330
C
102
}
330
C
100
AcDbDictionary
  0
ACDBDICTIONARYWDFLT
  5
E
102
{ACAD_REACTORS
330
C
102
}
330
C
100
AcDbDictionary
281
     1
  3
Normal
350
F
100
AcDbDictionaryWithDefault
340
F
  0
DICTIONARY
  5
34
102
{ACAD_REACTORS
330
C
102
}
330
C
100
AcDbDictionary
  3
INDEXCTL
350
35
  3
SORTENTS
350
B5E
  0
DICTIONARY
  5
43
102
{ACAD_REACTORS
330
C
102
}
330
C
100
AcDbDictionary
  3
ACMSTDDICTIONARY
350
260
  0
DICTIONARY
  5
2B
102
{ACAD_REACTORS
330
C
102
}
330
C
100
AcDbDictionary
  3
ACMGSETTINGS
350
2C
  0
DICTIONARY
  5
6E
102
{ACAD_REACTORS
330
C
102
}
330
C
100
AcDbDictionary
  0
XRECORD
  5
20EC
102
{ACAD_REACTORS
330
C
102
}
330
C
100
AcDbXrecord
  1
DWGPROPS COOKIE
  2

  3

  4

  6

  7

  8

  9

300
AmdtFileType=82
301
=
302
=
303
=
304
=
305
=
306
=
307
=
308
=
309
=
 40
0.0611745833333333
 41
2452836.771637361
 42
2452901.583275636
  1

 90
        1
  0
DICTIONARY
  5
20F8
102
{ACAD_REACTORS
330
C
102
}
330
C
100
AcDbDictionary
  3
TSTACKALIGN
350
20F9
  3
TSTACKSIZE
350
20FA
  3
HYPERLINKBASE
350
20FB
  3
STYLESHEET
350
20FC
  3
LAYOUTDICT
350
20FD
  3
PLOTSETDICT
350
20FE
  3
PLOTSTYLNAMDICT
350
20FF
  3
LWETCUNION
350
2100
  3
INSUNITS
350
2101
  3
CEPSNTYPE
350
2102
  3
FINGERPRINTGUID
350
2103
  3
VERSIONGUID
350
2104
  3
PSVPSCALE
350
2105
  3
DIMSTYLEDATA
350
2106
  3
PUCSORTHOREF
350
2107
  3
PUCSORTHOVIEW
350
2108
  3
PUCSBASE
350
2109
  3
PUCSORGTOP
350
210A
  3
PUCSORGBOTTOM
350
210B
  3
PUCSORGLEFT
350
210C
  3
PUCSORGRIGHT
350
210D
  3
PUCSORGFRONT
350
210E
  3
PUCSORGBACK
350
210F
  3
UCSORTHOREF
350
2110
  3
UCSORTHOVIEW
350
2111
  3
UCSBASE
350
2112
  3
UCSORGTOP
350
2113
  3
UCSORGBOTTOM
350
2114
  3
UCSORGLEFT
350
2115
  3
UCSORGRIGHT
350
2116
  3
UCSORGFRONT
350
2117
  3
UCSORGBACK
350
2118
  0
DICTIONARY
  5
20EE
102
{ACAD_REACTORS
330
74
102
}
330
74
100
AcDbDictionary
  3
*A1
350
20EF
  0
XRECORD
  5
211B
102
{ACAD_REACTORS
330
74
102
}
330
74
100
AcDbXrecord
340
1F
  0
XRECORD
  5
2121
102
{ACAD_REACTORS
330
2120
102
}
330
2120
100
AcDbXrecord
340
101
  0
MLINESTYLE
  5
18
102
{ACAD_REACTORS
330
17
102
}
330
17
100
AcDbMlineStyle
  2
STANDARD
 70
     0
  3

 62
   256
 51
90.0
 52
90.0
 71
     2
 49
0.5
 62
   256
  6
BYLAYER
 49
-0.5
 62
   256
  6
BYLAYER
  0
ACDBPLACEHOLDER
  5
F
102
{ACAD_REACTORS
330
E
102
}
330
E
100
AcDbPlaceHolder
280
     0
  0
DICTIONARYVAR
  5
35
102
{ACAD_REACTORS
330
34
102
}
330
34
100
DictionaryVariables
280
     0
  1
1
  0
DICTIONARYVAR
  5
B5E
102
{ACAD_REACTORS
330
34
102
}
330
34
100
DictionaryVariables
280
     0
  1
96
  0
DICTIONARY
  5
260
102
{ACAD_REACTORS
330
43
102
}
330
43
100
AcDbDictionary
  0
DICTIONARY
  5
2C
102
{ACAD_REACTORS
330
2B
102
}
330
2B
100
AcDbDictionary
  3
DWGSETTINGS
350
2D
  0
XRECORD
  5
20F9
102
{ACAD_REACTORS
330
20F8
102
}
330
20F8
100
AcDbXrecord
 90
        1
  0
XRECORD
  5
20FA
102
{ACAD_REACTORS
330
20F8
102
}
330
20F8
100
AcDbXrecord
 90
       70
  0
XRECORD
  5
20FB
102
{ACAD_REACTORS
330
20F8
102
}
330
20F8
100
AcDbXrecord
  1

  0
XRECORD
  5
20FC
102
{ACAD_REACTORS
330
20F8
102
}
330
20F8
100
AcDbXrecord
  1
ASAMI.ctb
  0
XRECORD
  5
20FD
102
{ACAD_REACTORS
330
20F8
102
}
330
20F8
100
AcDbXrecord
340
1A
  0
XRECORD
  5
20FE
102
{ACAD_REACTORS
330
20F8
102
}
330
20F8
100
AcDbXrecord
340
19
  0
XRECORD
  5
20FF
102
{ACAD_REACTORS
330
20F8
102
}
330
20F8
100
AcDbXrecord
340
E
  0
XRECORD
  5
2100
102
{ACAD_REACTORS
330
20F8
102
}
330
20F8
100
AcDbXrecord
 90
    10781
  0
XRECORD
  5
2101
102
{ACAD_REACTORS
330
20F8
102
}
330
20F8
100
AcDbXrecord
 90
        4
  0
XRECORD
  5
2102
102
{ACAD_REACTORS
330
20F8
102
}
330
20F8
100
AcDbXrecord
 90
        0
  0
XRECORD
  5
2103
102
{ACAD_REACTORS
330
20F8
102
}
330
20F8
100
AcDbXrecord
  1
{AFB28963-8C59-40AE-9337-C84526B81ACE}
  0
XRECORD
  5
2104
102
{ACAD_REACTORS
330
20F8
102
}
330
20F8
100
AcDbXrecord
  1
{255EAEC3-AFFE-4F70-8A2E-8078971EED0C}
  0
XRECORD
  5
2105
102
{ACAD_REACTORS
330
20F8
102
}
330
20F8
100
AcDbXrecord
 40
0.0
  0
XRECORD
  5
2106
102
{ACAD_REACTORS
330
20F8
102
}
330
20F8
100
AcDbXrecord
1000
DSTYLE
1002
{
1070
    79
 70
     2
1070
   341
340
59
1070
   342
340
59
1070
   371
 70
    -1
1070
   372
 70
    -1
1002
}
  0
XRECORD
  5
2107
102
{ACAD_REACTORS
330
20F8
102
}
330
20F8
100
AcDbXrecord
340
0
  0
XRECORD
  5
2108
102
{ACAD_REACTORS
330
20F8
102
}
330
20F8
100
AcDbXrecord
 70
     0
  0
XRECORD
  5
2109
102
{ACAD_REACTORS
330
20F8
102
}
330
20F8
100
AcDbXrecord
340
0
  0
XRECORD
  5
210A
102
{ACAD_REACTORS
330
20F8
102
}
330
20F8
100
AcDbXrecord
 10
0.0
 20
0.0
 30
0.0
  0
XRECORD
  5
210B
102
{ACAD_REACTORS
330
20F8
102
}
330
20F8
100
AcDbXrecord
 10
0.0
 20
0.0
 30
0.0
  0
XRECORD
  5
210C
102
{ACAD_REACTORS
330
20F8
102
}
330
20F8
100
AcDbXrecord
 10
0.0
 20
0.0
 30
0.0
  0
XRECORD
  5
210D
102
{ACAD_REACTORS
330
20F8
102
}
330
20F8
100
AcDbXrecord
 10
0.0
 20
0.0
 30
0.0
  0
XRECORD
  5
210E
102
{ACAD_REACTORS
330
20F8
102
}
330
20F8
100
AcDbXrecord
 10
0.0
 20
0.0
 30
0.0
  0
XRECORD
  5
210F
102
{ACAD_REACTORS
330
20F8
102
}
330
20F8
100
AcDbXrecord
 10
0.0
 20
0.0
 30
0.0
  0
XRECORD
  5
2110
102
{ACAD_REACTORS
330
20F8
102
}
330
20F8
100
AcDbXrecord
340
0
  0
XRECORD
  5
2111
102
{ACAD_REACTORS
330
20F8
102
}
330
20F8
100
AcDbXrecord
 70
     0
  0
XRECORD
  5
2112
102
{ACAD_REACTORS
330
20F8
102
}
330
20F8
100
AcDbXrecord
340
0
  0
XRECORD
  5
2113
102
{ACAD_REACTORS
330
20F8
102
}
330
20F8
100
AcDbXrecord
 10
0.0
 20
0.0
 30
0.0
  0
XRECORD
  5
2114
102
{ACAD_REACTORS
330
20F8
102
}
330
20F8
100
AcDbXrecord
 10
0.0
 20
0.0
 30
0.0
  0
XRECORD
  5
2115
102
{ACAD_REACTORS
330
20F8
102
}
330
20F8
100
AcDbXrecord
 10
0.0
 20
0.0
 30
0.0
  0
XRECORD
  5
2116
102
{ACAD_REACTORS
330
20F8
102
}
330
20F8
100
AcDbXrecord
 10
0.0
 20
0.0
 30
0.0
  0
XRECORD
  5
2117
102
{ACAD_REACTORS
330
20F8
102
}
330
20F8
100
AcDbXrecord
 10
0.0
 20
0.0
 30
0.0
  0
XRECORD
  5
2118
102
{ACAD_REACTORS
330
20F8
102
}
330
20F8
100
AcDbXrecord
 10
0.0
 20
0.0
 30
0.0
  0
LAYER_INDEX
  5
20EF
102
{ACAD_REACTORS
330
20EE
102
}
330
20EE
100
AcDbIndex
 40
2453152.442382696
100
AcDbLayerIndex
  8
0
360
20F0
 90
        0
  8
AM_0
360
20F1
 90
       64
  8
AM_11
360
20F2
 90
        3
  8
AM_7
360
20F3
 90
        1
  8
AM_5
360
20F4
 90
        4
  8
Defpoints
360
20F5
 90
        0
  8
AM_6
360
20F6
 90
        1
  0
XRECORD
  5
2D
102
{ACAD_REACTORS
330
2C
102
}
330
2C
100
AcDbXrecord
  1
VERSION
140
15.0
  1
PRODUCT
  2
AutoCAD Mechanical 2000
  0
IDBUFFER
  5
20F0
330
0
100
AcDbIdBuffer
  0
IDBUFFER
  5
20F1
330
0
100
AcDbIdBuffer
330
1D93
330
1D94
330
1DA3
330
1DA4
330
1DA5
330
1DA6
330
1DA7
330
1DA8
330
1DA9
330
1DAA
330
1DAB
330
1DAC
330
1DAD
330
1DBB
330
1DFB
330
1DFC
330
17E7
330
17E8
330
191B
330
191E
330
191F
330
192D
330
1939
330
193F
330
194C
330
1A88
330
1A8D
330
1B86
330
1B87
330
1B88
330
1B89
330
1B8A
330
1B8B
330
1B8C
330
1B8D
330
1B8E
330
1B8F
330
1B90
330
1B91
330
1B92
330
1B93
330
1B94
330
1B95
330
1B9B
330
1B9C
330
1BB5
330
1BB6
330
1BB8
330
1BB9
330
1BBA
330
1BBB
330
1BBC
330
1BBD
330
1BBE
330
1BBF
330
1BC0
330
1BC1
330
1BC2
330
1BC3
330
1BC4
330
1BC5
330
1BC6
330
1D91
330
1D92
  0
IDBUFFER
  5
20F2
330
0
100
AcDbIdBuffer
330
1B9E
330
1B9F
330
1BA1
  0
IDBUFFER
  5
20F3
330
0
100
AcDbIdBuffer
330
132B
  0
IDBUFFER
  5
20F4
330
0
100
AcDbIdBuffer
330
13B3
330
145B
330
1920
330
1A14
  0
IDBUFFER
  5
20F5
330
0
100
AcDbIdBuffer
  0
IDBUFFER
  5
20F6
330
0
100
AcDbIdBuffer
330
E5A
  0
ENDSEC
  0
EOF
