  0
SECTION
  2
HEADER
  9
$ACADVER
  1
AC1014
  9
$ACADMAINTVER
 70
     9
  9
$DWGCODEPAGE
  3
ANSI_932
  9
$INSBASE
 10
0.0
 20
0.0
 30
0.0
  9
$EXTMIN
 10
-136.4332058593321
 20
-58.50000099999765
 30
-0.00000001
  9
$EXTMAX
 10
19.55776903085554
 20
11.26148855411305
 30
0.00000001
  9
$LIMMIN
 10
-143.7168485640078
 20
-70.53600517615922
  9
$LIMMAX
 10
26.15907379853649
 20
22.49551393967138
  9
$ORTHOMODE
 70
     0
  9
$REGENMODE
 70
     1
  9
$FILLMODE
 70
     1
  9
$QTEXTMODE
 70
     0
  9
$MIRRTEXT
 70
     0
  9
$DRAGMODE
 70
     2
  9
$LTSCALE
 40
1.0
  9
$OSMODE
 70
    55
  9
$ATTMODE
 70
     1
  9
$TEXTSIZE
 40
2.5
  9
$TRACEWID
 40
1.0
  9
$TEXTSTYLE
  7
STANDARD
  9
$CLAYER
  8
AM_0
  9
$CELTYPE
  6
BYLAYER
  9
$CECOLOR
 62
   256
  9
$CELTSCALE
 40
1.0
  9
$DELOBJ
 70
     1
  9
$DISPSILH
 70
     0
  9
$DIMSCALE
 40
1.0
  9
$DIMASZ
 40
2.5
  9
$DIMEXO
 40
1.0
  9
$DIMDLI
 40
12.0
  9
$DIMRND
 40
0.0
  9
$DIMDLE
 40
0.0
  9
$DIMEXE
 40
1.0
  9
$DIMTP
 40
0.1
  9
$DIMTM
 40
0.1
  9
$DIMTXT
 40
3.2
  9
$DIMCEN
 40
0.0
  9
$DIMTSZ
 40
0.0
  9
$DIMTOL
 70
     0
  9
$DIMLIM
 70
     0
  9
$DIMTIH
 70
     0
  9
$DIMTOH
 70
     0
  9
$DIMSE1
 70
     0
  9
$DIMSE2
 70
     0
  9
$DIMTAD
 70
     3
  9
$DIMZIN
 70
     8
  9
$DIMBLK
  1
OPEN30
  9
$DIMASO
 70
     1
  9
$DIMSHO
 70
     1
  9
$DIMPOST
  1

  9
$DIMAPOST
  1
"
  9
$DIMALT
 70
     0
  9
$DIMALTD
 70
     2
  9
$DIMALTF
 40
0.0393701
  9
$DIMLFAC
 40
1.0
  9
$DIMTOFL
 70
     1
  9
$DIMTVP
 40
0.0
  9
$DIMTIX
 70
     0
  9
$DIMSOXD
 70
     0
  9
$DIMSAH
 70
     0
  9
$DIMBLK1
  1

  9
$DIMBLK2
  1

  9
$DIMSTYLE
  2
AM_JIS
  9
$DIMCLRD
 70
   256
  9
$DIMCLRE
 70
   256
  9
$DIMCLRT
 70
     2
  9
$DIMTFAC
 40
0.71
  9
$DIMGAP
 40
1.5
  9
$DIMJUST
 70
     0
  9
$DIMSD1
 70
     0
  9
$DIMSD2
 70
     0
  9
$DIMTOLJ
 70
     0
  9
$DIMTZIN
 70
     0
  9
$DIMALTZ
 70
     0
  9
$DIMALTTZ
 70
     0
  9
$DIMFIT
 70
     3
  9
$DIMUPT
 70
     0
  9
$DIMUNIT
 70
     2
  9
$DIMDEC
 70
     3
  9
$DIMTDEC
 70
     3
  9
$DIMALTU
 70
     2
  9
$DIMALTTD
 70
     2
  9
$DIMTXSTY
  7
ASAMI
  9
$DIMAUNIT
 70
     0
  9
$LUNITS
 70
     2
  9
$LUPREC
 70
     2
  9
$SKETCHINC
 40
1.0
  9
$FILLETRAD
 40
2.5
  9
$AUNITS
 70
     0
  9
$AUPREC
 70
     0
  9
$MENU
  1
.
  9
$ELEVATION
 40
0.0
  9
$PELEVATION
 40
0.0
  9
$THICKNESS
 40
0.0
  9
$LIMCHECK
 70
     0
  9
$BLIPMODE
 70
     0
  9
$CHAMFERA
 40
1.0
  9
$CHAMFERB
 40
1.0
  9
$CHAMFERC
 40
20.0
  9
$CHAMFERD
 40
0.0
  9
$SKPOLY
 70
     0
  9
$TDCREATE
 40
2452836.771637361
  9
$TDUPDATE
 40
2453152.445470706
  9
$TDINDWG
 40
0.0413167245
  9
$TDUSRTIMER
 40
0.0413167245
  9
$USRTIMER
 70
     1
  9
$ANGBASE
 50
0.0
  9
$ANGDIR
 70
     0
  9
$PDMODE
 70
     0
  9
$PDSIZE
 40
0.0
  9
$PLINEWID
 40
0.0
  9
$COORDS
 70
     1
  9
$SPLFRAME
 70
     0
  9
$SPLINETYPE
 70
     6
  9
$SPLINESEGS
 70
     8
  9
$ATTDIA
 70
     1
  9
$ATTREQ
 70
     1
  9
$HANDLING
 70
 12289
  9
$HANDSEED
  5
1C6A
  9
$SURFTAB1
 70
     6
  9
$SURFTAB2
 70
     6
  9
$SURFTYPE
 70
     6
  9
$SURFU
 70
     6
  9
$SURFV
 70
     6
  9
$UCSNAME
  2

  9
$UCSORG
 10
0.0
 20
0.0
 30
0.0
  9
$UCSXDIR
 10
1.0
 20
0.0
 30
0.0
  9
$UCSYDIR
 10
0.0
 20
1.0
 30
0.0
  9
$PUCSNAME
  2

  9
$PUCSORG
 10
0.0
 20
0.0
 30
0.0
  9
$PUCSXDIR
 10
1.0
 20
0.0
 30
0.0
  9
$PUCSYDIR
 10
0.0
 20
1.0
 30
0.0
  9
$USERI1
 70
     0
  9
$USERI2
 70
     0
  9
$USERI3
 70
     0
  9
$USERI4
 70
     0
  9
$USERI5
 70
     0
  9
$USERR1
 40
0.0
  9
$USERR2
 40
0.0
  9
$USERR3
 40
0.0
  9
$USERR4
 40
0.0
  9
$USERR5
 40
0.0
  9
$WORLDVIEW
 70
     1
  9
$SHADEDGE
 70
     3
  9
$SHADEDIF
 70
    70
  9
$TILEMODE
 70
     1
  9
$MAXACTVP
 70
    64
  9
$PINSBASE
 10
0.0
 20
0.0
 30
0.0
  9
$PLIMCHECK
 70
     0
  9
$PEXTMIN
 10
1.000000000000000E+20
 20
1.000000000000000E+20
 30
1.000000000000000E+20
  9
$PEXTMAX
 10
-1.000000000000000E+20
 20
-1.000000000000000E+20
 30
-1.000000000000000E+20
  9
$PLIMMIN
 10
0.0
 20
0.0
  9
$PLIMMAX
 10
841.0
 20
594.0
  9
$UNITMODE
 70
     0
  9
$VISRETAIN
 70
     1
  9
$PLINEGEN
 70
     0
  9
$PSLTSCALE
 70
     0
  9
$TREEDEPTH
 70
  3020
  9
$PICKSTYLE
 70
     0
  9
$CMLSTYLE
  2
STANDARD
  9
$CMLJUST
 70
     0
  9
$CMLSCALE
 40
20.0
  9
$PROXYGRAPHICS
 70
     1
  9
$MEASUREMENT
 70
     1
  0
ENDSEC
  0
SECTION
  2
CLASSES
  0
CLASS
  1
ACDBDICTIONARYWDFLT
  2
AcDbDictionaryWithDefault
  3
AutoCAD 2000
 90
        0
280
     0
281
     0
  0
CLASS
  1
ACDBPLACEHOLDER
  2
AcDbPlaceHolder
  3
AutoCAD 2000
 90
        0
280
     0
281
     0
  0
CLASS
  1
LAYOUT
  2
AcDbLayout
  3
AutoCAD 2000
 90
        0
280
     0
281
     0
  0
CLASS
  1
AMGSETTINGSOBJ
  2
AmgSettingsObj
  3
"AcadM|Product Description: AutoCAD Mechanical 2000|Company: Autodesk"
 90
        0
280
     0
281
     0
  0
CLASS
  1
ACME_DOCUMENT
  2
AcMeDbDoc
  3
AcMeServices
 90
        0
280
     0
281
     0
  0
CLASS
  1
ACMESCOPE
  2
AcMeScope
  3
AcMeServices
 90
        0
280
     0
281
     0
  0
CLASS
  1
ACMECOMMANDHISTORY
  2
AcMeCommandHistory
  3
AcMeServices
 90
        0
280
     0
281
     0
  0
CLASS
  1
DICTIONARYVAR
  2
AcDbDictionaryVar
  3
AutoCAD 2000
 90
        0
280
     0
281
     0
  0
CLASS
  1
ACIMSYSVARMAN
  2
AcImSysVarManager
  3
AcMeServices
 90
        0
280
     0
281
     0
  0
CLASS
  1
ACIMREALSYSVAR
  2
AcImRealSysVar
  3
AcMeServices
 90
        0
280
     0
281
     0
  0
CLASS
  1
ACIMINTSYSVAR
  2
AcImIntSysVar
  3
AcMeServices
 90
        0
280
     0
281
     0
  0
CLASS
  1
ACMEDRAWINGMAN
  2
AcMeDrawingMan
  3
AcMeServices
 90
        0
280
     0
281
     0
  0
CLASS
  1
ACMEVIEW
  2
AcMeView
  3
AcMeServices
 90
        0
280
     0
281
     0
  0
CLASS
  1
ACDBENTITYCACHE
  2
AcMeEntityCache
  3
AcMeServices
 90
        0
280
     0
281
     0
  0
CLASS
  1
GSMANAGER
  2
AcMeGSManager
  3
AcMeServices
 90
        0
280
     0
281
     0
  0
CLASS
  1
AmdtInternalReactor
  2
AmdtInternalReactor
  3
AcMeServices
 90
        0
280
     0
281
     0
  0
CLASS
  1
ACMESTATEMGR
  2
AcMeStateMgr
  3
AcMeServices
 90
        0
280
     0
281
     0
  0
CLASS
  1
ACME_DATABASE
  2
AcMeDbDatabase
  3
AcMeServices
 90
        0
280
     0
281
     0
  0
CLASS
  1
ACRFINSADJUSTERMGR
  2
AcRfInsAdjusterMgr
  3
AcMeServices
 90
        0
280
     0
281
     0
  0
CLASS
  1
ACMDATADICTIONARY
  2
AcmDataDictionary
  3
"AcmSymBB|Product Description: AutoCAD Mechanical 2000|Company: Autodesk"
 90
        0
280
     0
281
     0
  0
CLASS
  1
ACMDATAENTRYBLOCK
  2
AcmDataEntryBlock
  3
"AcmSymBB|Product Description: AutoCAD Mechanical 2000|Company: Autodesk"
 90
        0
280
     0
281
     0
  0
CLASS
  1
AMGOBJPROPCFG
  2
AmgObjPropCfg
  3
"AmgLay|Product Description: AutoCAD Mechanical 2000|Company: Autodesk"
 90
        1
280
     0
281
     0
  0
CLASS
  1
ACAMGFILTERDAT
  2
AcAmgFilterDat
  3
"AcadM|Product Description: AutoCAD Mechanical 2000|Company: Autodesk"
 90
        0
280
     0
281
     0
  0
CLASS
  1
LAYER_INDEX
  2
AcDbLayerIndex
  3
AutoCAD 2000
 90
        0
280
     0
281
     0
  0
CLASS
  1
IDBUFFER
  2
AcDbIdBuffer
  3
AutoCAD 2000
 90
        0
280
     0
281
     0
  0
CLASS
  1
ACIMSTRSYSVAR
  2
AcImStrSysVar
  3
AcMeServices
 90
        0
280
     0
281
     0
  0
CLASS
  1
ACMSTANDARDJIS
  2
AcmStandardJIS
  3
"AcmSymBB|Product Description: AutoCAD Mechanical 2000|Company: Autodesk"
 90
        0
280
     0
281
     0
  0
CLASS
  1
ACMSURFSTANDARDJIS
  2
AcmSurfTextStdJIS
  3
"AcmSymBB|Product Description: AutoCAD Mechanical 2000|Company: Autodesk"
 90
        0
280
     0
281
     0
  0
CLASS
  1
ACMFCFSTANDARDJIS
  2
AcmFCFStdJIS
  3
"AcmSymBB|Product Description: AutoCAD Mechanical 2000|Company: Autodesk"
 90
        0
280
     0
281
     0
  0
CLASS
  1
ACMWELDSTANDARDJIS
  2
AcmWeldingStdJIS
  3
"AcmSymBB|Product Description: AutoCAD Mechanical 2000|Company: Autodesk"
 90
        0
280
     0
281
     0
  0
CLASS
  1
ACMIDSTANDARDJIS
  2
AcmIdStdJIS
  3
"AcmSymBB|Product Description: AutoCAD Mechanical 2000|Company: Autodesk"
 90
        0
280
     0
281
     0
  0
CLASS
  1
ACMDATUMSTANDARDJIS
  2
AcmDatumStdJIS
  3
"AcmSymBB|Product Description: AutoCAD Mechanical 2000|Company: Autodesk"
 90
        0
280
     0
281
     0
  0
CLASS
  1
ACMBOMSTANDARDJIS
  2
AcmBOMStdJIS
  3
"AcmSymBB|Product Description: AutoCAD Mechanical 2000|Company: Autodesk"
 90
        0
280
     0
281
     0
  0
CLASS
  1
ACMSTANDARDANSI
  2
AcmStandardANSI
  3
"AcmSymBB|Product Description: AutoCAD Mechanical 2000|Company: Autodesk"
 90
        0
280
     0
281
     0
  0
CLASS
  1
ACMSURFSTANDARDANSI
  2
AcmSurfTextStdANSI
  3
"AcmSymBB|Product Description: AutoCAD Mechanical 2000|Company: Autodesk"
 90
        0
280
     0
281
     0
  0
CLASS
  1
ACMFCFSTANDARDANSI
  2
AcmFCFStdANSI
  3
"AcmSymBB|Product Description: AutoCAD Mechanical 2000|Company: Autodesk"
 90
        0
280
     0
281
     0
  0
CLASS
  1
ACMWELDSTANDARDANSI
  2
AcmWeldingStdANSI
  3
"AcmSymBB|Product Description: AutoCAD Mechanical 2000|Company: Autodesk"
 90
        0
280
     0
281
     0
  0
CLASS
  1
ACMIDSTANDARDANSI
  2
AcmIdStdANSI
  3
"AcmSymBB|Product Description: AutoCAD Mechanical 2000|Company: Autodesk"
 90
        0
280
     0
281
     0
  0
CLASS
  1
ACMDATUMSTANDARDANSI
  2
AcmDatumStdANSI
  3
"AcmSymBB|Product Description: AutoCAD Mechanical 2000|Company: Autodesk"
 90
        0
280
     0
281
     0
  0
CLASS
  1
ACMBOMSTANDARDANSI
  2
AcmBOMStdANSI
  3
"AcmSymBB|Product Description: AutoCAD Mechanical 2000|Company: Autodesk"
 90
        0
280
     0
281
     0
  0
CLASS
  1
ACMSTANDARDBSI
  2
AcmStandardBSI
  3
"AcmSymBB|Product Description: AutoCAD Mechanical 2000|Company: Autodesk"
 90
        0
280
     0
281
     0
  0
CLASS
  1
ACMSURFSTANDARDBSI
  2
AcmSurfTextStdBSI
  3
"AcmSymBB|Product Description: AutoCAD Mechanical 2000|Company: Autodesk"
 90
        0
280
     0
281
     0
  0
CLASS
  1
ACMFCFSTANDARDBSI
  2
AcmFCFStdBSI
  3
"AcmSymBB|Product Description: AutoCAD Mechanical 2000|Company: Autodesk"
 90
        0
280
     0
281
     0
  0
CLASS
  1
ACMWELDSTANDARDBSI
  2
AcmWeldingStdBSI
  3
"AcmSymBB|Product Description: AutoCAD Mechanical 2000|Company: Autodesk"
 90
        0
280
     0
281
     0
  0
CLASS
  1
ACMIDSTANDARDBSI
  2
AcmIdStdBSI
  3
"AcmSymBB|Product Description: AutoCAD Mechanical 2000|Company: Autodesk"
 90
        0
280
     0
281
     0
  0
CLASS
  1
ACMDATUMSTANDARDBSI
  2
AcmDatumStdBSI
  3
"AcmSymBB|Product Description: AutoCAD Mechanical 2000|Company: Autodesk"
 90
        0
280
     0
281
     0
  0
CLASS
  1
ACMBOMSTANDARDBSI
  2
AcmBOMStdBSI
  3
"AcmSymBB|Product Description: AutoCAD Mechanical 2000|Company: Autodesk"
 90
        0
280
     0
281
     0
  0
CLASS
  1
LONG_TRANSACTION
  2
AcDbLongTransaction
  3
AutoCAD 2000
 90
        0
280
     0
281
     0
  0
CLASS
  1
LWPOLYLINE
  2
AcDbPolyline
  3
AutoCAD 2000
 90
        0
280
     0
281
     1
  0
CLASS
  1
HATCH
  2
AcDbHatch
  3
AutoCAD 2000
 90
        0
280
     0
281
     1
  0
CLASS
  1
XRECORD
  2
AcDbXrecord
  3
AutoCAD 2000
 90
        0
280
     0
281
     0
  0
ENDSEC
  0
SECTION
  2
TABLES
  0
TABLE
  2
VPORT
  5
8
330
0
100
AcDbSymbolTable
 70
     3
  0
VPORT
  5
1C3F
330
8
100
AcDbSymbolTableRecord
100
AcDbViewportTableRecord
  2
*ACTIVE
 70
     0
 10
0.0
 20
0.0
 11
1.0
 21
1.0
 12
-58.43543362205079
 22
-23.61922299897661
 13
0.0
 23
0.0
 14
2.5
 24
2.5
 15
10.0
 25
10.0
 16
0.0
 26
0.0
 36
1.0
 17
0.0
 27
0.0
 37
0.0
 40
100.0306006399077
 41
1.56570841889117
 42
50.0
 43
0.0
 44
0.0
 50
0.0
 51
0.0
 71
     0
 72
   100
 73
     1
 74
     3
 75
     0
 76
     0
 77
     0
 78
     0
  0
ENDTAB
  0
TABLE
  2
LTYPE
  5
5
330
0
100
AcDbSymbolTable
 70
    10
  0
LTYPE
  5
14
330
5
100
AcDbSymbolTableRecord
100
AcDbLinetypeTableRecord
  2
BYBLOCK
 70
     0
  3

 72
    65
 73
     0
 40
0.0
  0
LTYPE
  5
15
330
5
100
AcDbSymbolTableRecord
100
AcDbLinetypeTableRecord
  2
BYLAYER
 70
     0
  3

 72
    65
 73
     0
 40
0.0
  0
LTYPE
  5
16
330
5
100
AcDbSymbolTableRecord
100
AcDbLinetypeTableRecord
  2
CONTINUOUS
 70
     0
  3
Solid line
 72
    65
 73
     0
 40
0.0
  0
LTYPE
  5
4B
330
5
100
AcDbSymbolTableRecord
100
AcDbLinetypeTableRecord
  2
AM_ISO02W050
 70
     0
  3
__ __ __ __ __ __ __ __ __ __ __ __ __ __ __
 72
    65
 73
     2
 40
7.5
 49
6.0
 74
     0
 49
-1.5
 74
     0
  0
LTYPE
  5
4C
330
5
100
AcDbSymbolTableRecord
100
AcDbLinetypeTableRecord
  2
AM_ISO08W050
 70
     0
  3
____ . ____ . ____ . ____ . ____ . ____ . ____
 72
    65
 73
     4
 40
18.0
 49
12.0
 74
     0
 49
-1.5
 74
     0
 49
3.0
 74
     0
 49
-1.5
 74
     0
  0
LTYPE
  5
4D
330
5
100
AcDbSymbolTableRecord
100
AcDbLinetypeTableRecord
  2
AM_ISO09W050
 70
     0
  3
_____ . . _____ . . _____ . . ____ .. ____
 72
    65
 73
     6
 40
22.5
 49
12.0
 74
     0
 49
-1.5
 74
     0
 49
3.0
 74
     0
 49
-1.5
 74
     0
 49
3.0
 74
     0
 49
-1.5
 74
     0
  0
LTYPE
  5
4E
330
5
100
AcDbSymbolTableRecord
100
AcDbLinetypeTableRecord
  2
AMCONSTR
 70
     0
  3
_______________________
 72
    65
 73
     2
 40
9999.0
 49
9999.0
 74
     0
 49
0.0
 74
     0
  0
LTYPE
  5
4F
330
5
100
AcDbSymbolTableRecord
100
AcDbLinetypeTableRecord
  2
AM_ISO02W050X2
 70
     0
  3
 _ _ _ _ _ _ _ _ _ _ _ _
 72
    65
 73
     2
 40
3.75
 49
3.0
 74
     0
 49
-0.75
 74
     0
  0
LTYPE
  5
50
330
5
100
AcDbSymbolTableRecord
100
AcDbLinetypeTableRecord
  2
AM_ISO08W050X2
 70
     0
  3
__ . __ . __ . __ . __ . __
 72
    65
 73
     4
 40
9.0
 49
6.0
 74
     0
 49
-0.75
 74
     0
 49
1.5
 74
     0
 49
-0.75
 74
     0
  0
LTYPE
  5
53
330
5
100
AcDbSymbolTableRecord
100
AcDbLinetypeTableRecord
  2
AMZIGZAG
 70
     0
  3
/\/-/\/-/\/-/\/-/\/-/\/
 72
    65
 73
     2
 40
11.00009999999999
 49
0.0001
 74
     4
 75
   135
340
52
 46
0.04
 50
0.0
 44
0.0
 45
0.0
 49
-11.0
 74
     0
  0
LTYPE
  5
166
330
5
100
AcDbSymbolTableRecord
100
AcDbLinetypeTableRecord
  2
ACJISTGL
 70
     0
  3
_ _ _ _ _
 72
    65
 73
     2
 40
3.0
 49
2.0
 74
     0
 49
-1.0
 74
     0
  0
LTYPE
  5
26A
330
5
100
AcDbSymbolTableRecord
100
AcDbLinetypeTableRecord
  2
ACJISTGB
 70
     0
  3
__ . . __ . .
 72
    65
 73
     6
 40
9.0
 49
4.0
 74
     0
 49
-1.0
 74
     0
 49
1.0
 74
     0
 49
-1.0
 74
     0
 49
1.0
 74
     0
 49
-1.0
 74
     0
  0
ENDTAB
  0
TABLE
  2
LAYER
  5
2
330
0
100
AcDbSymbolTable
 70
     7
  0
LAYER
  5
10
330
2
100
AcDbSymbolTableRecord
100
AcDbLayerTableRecord
  2
0
 70
     0
 62
     7
  6
CONTINUOUS
  0
LAYER
  5
3F9
330
2
100
AcDbSymbolTableRecord
100
AcDbLayerTableRecord
  2
AM_0
 70
     0
 62
     7
  6
CONTINUOUS
  0
LAYER
  5
BD4
330
2
100
AcDbSymbolTableRecord
100
AcDbLayerTableRecord
  2
AM_11
 70
     0
 62
     3
  6
AM_ISO09W050
  0
LAYER
  5
BD5
330
2
100
AcDbSymbolTableRecord
100
AcDbLayerTableRecord
  2
AM_7
 70
     0
 62
     4
  6
AM_ISO08W050
  0
LAYER
  5
BD6
330
2
100
AcDbSymbolTableRecord
100
AcDbLayerTableRecord
  2
AM_5
 70
     0
 62
     3
  6
CONTINUOUS
  0
LAYER
  5
BD7
330
2
100
AcDbSymbolTableRecord
100
AcDbLayerTableRecord
  2
DEFPOINTS
 70
     0
 62
     7
  6
CONTINUOUS
  0
LAYER
  5
E59
330
2
100
AcDbSymbolTableRecord
100
AcDbLayerTableRecord
  2
AM_6
 70
     0
 62
     2
  6
CONTINUOUS
  0
ENDTAB
  0
TABLE
  2
STYLE
  5
3
330
0
100
AcDbSymbolTable
 70
     5
  0
STYLE
  5
11
330
3
100
AcDbSymbolTableRecord
100
AcDbTextStyleTableRecord
  2
STANDARD
 70
     0
 40
0.0
 41
1.0
 50
0.0
 71
     0
 42
2.5
  3
simplex.shx
  4
EXTFONT.SHX
  0
STYLE
  5
52
330
3
100
AcDbSymbolTableRecord
100
AcDbTextStyleTableRecord
  2

 70
     1
 40
0.0
 41
1.0
 50
0.0
 71
     0
 42
2.5
  3
ltypeshp.shx
  4

  0
STYLE
  5
6B
330
3
100
AcDbSymbolTableRecord
100
AcDbTextStyleTableRecord
  2
ASAMI
 70
     0
 40
0.0
 41
1.0
 50
0.0
 71
     0
 42
2.5
  3
simplex.shx
  4
EXTFONT.SHX
  0
STYLE
  5
262
330
3
100
AcDbSymbolTableRecord
100
AcDbTextStyleTableRecord
  2
ACJISTS
 70
     0
 40
1.0
 41
1.0
 50
0.0
 71
     0
 42
2.5
  3
simplex.shx
  4
bigfont.shx
  0
STYLE
  5
269
330
3
100
AcDbSymbolTableRecord
100
AcDbTextStyleTableRecord
  2
ACJISGDT
 70
     0
 40
0.0
 41
1.0
 50
0.0
 71
     0
 42
2.5
  3
amgdtans.shx
  4

  0
ENDTAB
  0
TABLE
  2
VIEW
  5
6
330
0
100
AcDbSymbolTable
 70
     0
  0
ENDTAB
  0
TABLE
  2
UCS
  5
7
330
0
100
AcDbSymbolTable
 70
     0
  0
ENDTAB
  0
TABLE
  2
APPID
  5
9
330
0
100
AcDbSymbolTable
 70
    12
  0
APPID
  5
12
330
9
100
AcDbSymbolTableRecord
100
AcDbRegAppTableRecord
  2
ACAD
 70
     0
  0
APPID
  5
30
330
9
100
AcDbSymbolTableRecord
100
AcDbRegAppTableRecord
  2
MCAD_NO_VIS
 70
     0
  0
APPID
  5
31
330
9
100
AcDbSymbolTableRecord
100
AcDbRegAppTableRecord
  2
ACAD_TEMP_GRAPHIC
 70
     0
  0
APPID
  5
2C2
330
9
100
AcDbSymbolTableRecord
100
AcDbRegAppTableRecord
  2
GENIUS_GENDTOL_13
 70
     0
  0
APPID
  5
339
330
9
100
AcDbSymbolTableRecord
100
AcDbRegAppTableRecord
  2
GENIUS_GENODEF_13
 70
     0
  0
APPID
  5
33A
330
9
100
AcDbSymbolTableRecord
100
AcDbRegAppTableRecord
  2
GENIUS_GENOBJ-N-RSBK_13
 70
     0
  0
APPID
  5
33B
330
9
100
AcDbSymbolTableRecord
100
AcDbRegAppTableRecord
  2
GENIUS_GENOBJ-N-LIB_13
 70
     0
  0
APPID
  5
33C
330
9
100
AcDbSymbolTableRecord
100
AcDbRegAppTableRecord
  2
GENIUS_GENSCALE_13
 70
     0
  0
APPID
  5
378
330
9
100
AcDbSymbolTableRecord
100
AcDbRegAppTableRecord
  2
GENIUS_GENDIMSH_14
 70
     0
  0
APPID
  5
BD8
330
9
100
AcDbSymbolTableRecord
100
AcDbRegAppTableRecord
  2
GENIUS_GENOBJ-N-CEN_13
 70
     0
  0
APPID
  5
BD9
330
9
100
AcDbSymbolTableRecord
100
AcDbRegAppTableRecord
  2
GENIUS_GENFIL_13
 70
     0
  0
APPID
  5
BDA
330
9
100
AcDbSymbolTableRecord
100
AcDbRegAppTableRecord
  2
GENIUS_GENOBJ-N-CHA_13
 70
     0
  0
ENDTAB
  0
TABLE
  2
DIMSTYLE
  5
A
330
0
100
AcDbSymbolTable
 70
     8
  0
DIMSTYLE
105
58
102
{ACAD_REACTORS
330
13B3
330
145B
330
14F3
330
1952
102
}
330
A
100
AcDbSymbolTableRecord
100
AcDbDimStyleTableRecord
  2
AM_JIS
 70
     0
  3

  4
"
  5
OPEN30
  6

  7

 40
1.0
 41
2.5
 42
1.0
 43
12.0
 44
1.0
 45
0.0
 46
0.0
 47
0.1
 48
0.1
140
3.2
141
0.0
142
0.0
143
0.0393701
144
1.0
145
0.0
146
0.71
147
1.5
 71
     0
 72
     0
 73
     0
 74
     0
 75
     0
 76
     0
 77
     3
 78
     8
170
     0
171
     2
172
     1
173
     0
174
     0
175
     0
176
   256
177
   256
178
     2
270
     2
271
     3
272
     3
273
     2
274
     2
340
6B
275
     0
280
     0
281
     0
282
     0
283
     0
284
     0
285
     0
286
     0
287
     3
288
     0
  0
DIMSTYLE
105
5F
330
A
100
AcDbSymbolTableRecord
100
AcDbDimStyleTableRecord
  2
AM_JIS$3
 70
     0
  3

  4
"
  5
OPEN30
  6

  7

 40
1.0
 41
2.5
 42
1.0
 43
10.0
 44
1.0
 45
0.0
 46
0.0
 47
0.1
 48
0.1
140
3.2
141
0.0
142
0.0
143
0.0393701
144
1.0
145
0.0
146
0.71
147
1.5
 71
     0
 72
     0
 73
     0
 74
     1
 75
     0
 76
     0
 77
     3
 78
     8
170
     0
171
     2
172
     0
173
     0
174
     0
175
     0
176
   256
177
   256
178
     2
270
     2
271
     2
272
     3
273
     2
274
     2
340
6B
275
     0
280
     0
281
     0
282
     0
283
     0
284
     0
285
     0
286
     0
287
     0
288
     1
  0
DIMSTYLE
105
60
330
A
100
AcDbSymbolTableRecord
100
AcDbDimStyleTableRecord
  2
AM_JIS$4
 70
     0
  3

  4
"
  5
OPEN30
  6

  7

 40
1.0
 41
2.5
 42
1.0
 43
10.0
 44
1.0
 45
0.0
 46
0.0
 47
0.1
 48
0.1
140
3.2
141
0.0
142
0.0
143
0.0393701
144
1.0
145
0.0
146
0.71
147
1.5
 71
     0
 72
     0
 73
     0
 74
     1
 75
     0
 76
     0
 77
     3
 78
     8
170
     0
171
     2
172
     0
173
     0
174
     0
175
     0
176
   256
177
   256
178
     2
270
     2
271
     2
272
     3
273
     2
274
     2
340
6B
275
     0
280
     0
281
     0
282
     0
283
     0
284
     0
285
     0
286
     0
287
     0
288
     1
  0
DIMSTYLE
105
61
330
A
100
AcDbSymbolTableRecord
100
AcDbDimStyleTableRecord
  2
AM_JIS$6
 70
     0
  3

  4
"
  5
OPEN30
  6

  7

 40
1.0
 41
2.5
 42
1.0
 43
10.0
 44
1.0
 45
0.0
 46
0.0
 47
0.1
 48
0.1
140
3.2
141
0.0
142
0.0
143
0.0393701
144
1.0
145
0.0
146
0.71
147
1.5
 71
     0
 72
     0
 73
     0
 74
     0
 75
     0
 76
     0
 77
     0
 78
     8
170
     0
171
     2
172
     1
173
     0
174
     0
175
     0
176
   256
177
   256
178
     2
270
     2
271
     2
272
     2
273
     2
274
     2
340
6B
275
     0
280
     0
281
     0
282
     0
283
     0
284
     0
285
     0
286
     0
287
     3
288
     0
  0
DIMSTYLE
105
62
330
A
100
AcDbSymbolTableRecord
100
AcDbDimStyleTableRecord
  2
AM_JIS$7
 70
     0
  3

  4
"
  5
OPEN30
  6

  7

 40
1.0
 41
2.5
 42
1.0
 43
10.0
 44
1.0
 45
0.0
 46
0.0
 47
0.1
 48
0.1
140
3.2
141
0.0
142
0.0
143
0.0393701
144
1.0
145
0.0
146
0.71
147
1.5
 71
     0
 72
     0
 73
     0
 74
     0
 75
     0
 76
     0
 77
     3
 78
     8
170
     0
171
     2
172
     1
173
     0
174
     0
175
     0
176
   256
177
   256
178
     2
270
     2
271
     2
272
     3
273
     2
274
     2
340
6B
275
     0
280
     0
281
     0
282
     0
283
     0
284
     0
285
     0
286
     0
287
     3
288
     0
  0
DIMSTYLE
105
63
330
A
100
AcDbSymbolTableRecord
100
AcDbDimStyleTableRecord
  2
AM_JIS$SF
 70
     0
  3

  4
"
  5
OPEN30
  6

  7

 40
1.0
 41
2.5
 42
1.0
 43
10.0
 44
1.0
 45
0.0
 46
0.0
 47
0.1
 48
0.1
140
3.2
141
0.0
142
0.0
143
0.0393701
144
1.0
145
0.0
146
0.71
147
1.5
 71
     0
 72
     0
 73
     0
 74
     0
 75
     1
 76
     1
 77
     3
 78
     8
170
     0
171
     2
172
     1
173
     0
174
     0
175
     0
176
   256
177
   256
178
     2
270
     2
271
     2
272
     2
273
     2
274
     2
340
6B
275
     0
280
     0
281
     0
282
     0
283
     0
284
     0
285
     0
286
     0
287
     3
288
     0
  0
DIMSTYLE
105
68
330
A
100
AcDbSymbolTableRecord
100
AcDbDimStyleTableRecord
  2
AM_JIS$SH
 70
     0
  3

  4
"
  5

  6
GENAXEH
  7
OPEN30
 40
1.0
 41
2.5
 42
1.0
 43
10.0
 44
1.0
 45
0.0
 46
0.0
 47
0.1
 48
0.1
140
3.2
141
0.0
142
0.0
143
0.0393701
144
2.0
145
0.0
146
0.71
147
1.5
 71
     0
 72
     0
 73
     0
 74
     0
 75
     1
 76
     1
 77
     3
 78
     8
170
     0
171
     2
172
     1
173
     1
174
     0
175
     0
176
   256
177
   256
178
     2
270
     2
271
     2
272
     2
273
     2
274
     2
340
6B
275
     0
280
     0
281
     0
282
     0
283
     0
284
     0
285
     0
286
     0
287
     3
288
     0
  0
DIMSTYLE
105
B34
330
A
100
AcDbSymbolTableRecord
100
AcDbDimStyleTableRecord
  2
AM_JIS$2
 70
     0
  3

  4
"
  5
OPEN30
  6

  7

 40
1.0
 41
2.5
 42
1.0
 43
12.0
 44
1.0
 45
0.0
 46
0.0
 47
0.1
 48
0.1
140
3.2
141
0.0
142
0.0
143
0.0393701
144
1.0
145
0.0
146
0.71
147
1.5
 71
     0
 72
     0
 73
     0
 74
     0
 75
     0
 76
     0
 77
     3
 78
     8
170
     0
171
     2
172
     1
173
     0
174
     0
175
     0
176
   256
177
   256
178
     2
270
     2
271
     3
272
     3
273
     2
274
     2
340
6B
275
     0
280
     0
281
     0
282
     0
283
     0
284
     0
285
     0
286
     0
287
     3
288
     0
  0
ENDTAB
  0
TABLE
  2
BLOCK_RECORD
  5
1
330
0
100
AcDbSymbolTable
 70
     9
  0
BLOCK_RECORD
  5
1F
102
{ACAD_XDICTIONARY
360
74
102
}
330
1
100
AcDbSymbolTableRecord
100
AcDbBlockTableRecord
  2
*MODEL_SPACE
  0
BLOCK_RECORD
  5
101
102
{ACAD_XDICTIONARY
360
1C68
102
}
330
1
100
AcDbSymbolTableRecord
100
AcDbBlockTableRecord
  2
*PAPER_SPACE
  0
BLOCK_RECORD
  5
59
330
1
100
AcDbSymbolTableRecord
100
AcDbBlockTableRecord
  2
_OPEN30
  0
BLOCK_RECORD
  5
64
330
1
100
AcDbSymbolTableRecord
100
AcDbBlockTableRecord
  2
GENAXEH
  0
BLOCK_RECORD
  5
13C0
330
1
100
AcDbSymbolTableRecord
100
AcDbBlockTableRecord
  2
*D5
  0
BLOCK_RECORD
  5
145C
330
1
100
AcDbSymbolTableRecord
100
AcDbBlockTableRecord
  2
*D6
  0
BLOCK_RECORD
  5
14F4
330
1
100
AcDbSymbolTableRecord
100
AcDbBlockTableRecord
  2
*D7
  0
BLOCK_RECORD
  5
1953
330
1
100
AcDbSymbolTableRecord
100
AcDbBlockTableRecord
  2
*D8
  0
ENDTAB
  0
ENDSEC
  0
SECTION
  2
BLOCKS
  0
BLOCK
  5
20
330
1F
100
AcDbEntity
  8
0
100
AcDbBlockBegin
  2
*MODEL_SPACE
 70
     0
 10
0.0
 20
0.0
 30
0.0
  3
*MODEL_SPACE
  1

  0
ENDBLK
  5
21
330
1F
100
AcDbEntity
  8
0
100
AcDbBlockEnd
  0
BLOCK
  5
103
330
101
100
AcDbEntity
 67
     1
  8
0
100
AcDbBlockBegin
  2
*PAPER_SPACE
 70
     0
 10
0.0
 20
0.0
 30
0.0
  3
*PAPER_SPACE
  1

  0
ENDBLK
  5
104
330
101
100
AcDbEntity
 67
     1
  8
0
100
AcDbBlockEnd
  0
BLOCK
  5
5D
330
59
100
AcDbEntity
  8
0
100
AcDbBlockBegin
  2
_OPEN30
 70
     0
 10
0.0
 20
0.0
 30
0.0
  3
_OPEN30
  1

  0
LINE
  5
5A
330
59
100
AcDbEntity
  8
0
 62
     0
100
AcDbLine
 10
-1.0
 20
0.26794919
 30
0.0
 11
0.0
 21
0.0
 31
0.0
  0
LINE
  5
5B
330
59
100
AcDbEntity
  8
0
 62
     0
100
AcDbLine
 10
0.0
 20
0.0
 30
0.0
 11
-1.0
 21
-0.26794919
 31
0.0
  0
LINE
  5
5C
330
59
100
AcDbEntity
  8
0
 62
     0
100
AcDbLine
 10
0.0
 20
0.0
 30
0.0
 11
-1.0
 21
0.0
 31
0.0
  0
ENDBLK
  5
5E
330
59
100
AcDbEntity
  8
0
100
AcDbBlockEnd
  0
BLOCK
  5
66
330
64
100
AcDbEntity
  8
0
100
AcDbBlockBegin
  2
GENAXEH
 70
     0
 10
0.0
 20
0.0
 30
0.0
  3
GENAXEH
  1

  0
LINE
  5
65
330
64
100
AcDbEntity
  8
0
100
AcDbLine
 10
-1.0
 20
0.0
 30
0.0
 11
1.0
 21
0.0
 31
0.0
  0
ENDBLK
  5
67
330
64
100
AcDbEntity
  8
0
100
AcDbBlockEnd
  0
BLOCK
  5
13CA
330
13C0
100
AcDbEntity
  8
0
100
AcDbBlockBegin
  2
*D5
 70
     1
 10
0.0
 20
0.0
 30
0.0
  3
*D5
  1

  0
LINE
  5
1A2F
330
13C0
100
AcDbEntity
  8
AM_5
100
AcDbLine
 10
-114.9999999999997
 20
-9.999999999997669
 30
0.0
 11
-114.9999999999997
 21
-37.00000099999764
 31
0.0
  0
LINE
  5
1A30
330
13C0
100
AcDbEntity
  8
AM_5
100
AcDbLine
 10
0.0000000000002236
 20
-5.500000000000503
 30
0.0
 11
0.0000000000002216
 21
-37.00000099999764
 31
0.0
  0
LINE
  5
1A31
330
13C0
100
AcDbEntity
  8
AM_5
100
AcDbLine
 10
-112.4999999999998
 20
-36.00000099999764
 30
0.0
 11
-2.499999999999778
 21
-36.00000099999764
 31
0.0
  0
INSERT
  5
1A32
330
13C0
100
AcDbEntity
  8
AM_5
100
AcDbBlockReference
  2
_OPEN30
 10
-114.9999999999997
 20
-36.00000099999764
 30
0.0
 41
2.5
 42
2.5
 43
2.5
 50
180.0
  0
INSERT
  5
1A33
330
13C0
100
AcDbEntity
  8
AM_5
100
AcDbBlockReference
  2
_OPEN30
 10
0.0000000000002217
 20
-36.00000099999764
 30
0.0
 41
2.5
 42
2.5
 43
2.5
  0
MTEXT
  5
1A34
330
13C0
100
AcDbEntity
  8
AM_5
 62
     2
100
AcDbMText
 10
-57.49999999999978
 20
-32.90000099999764
 30
0.0
 40
3.2
 41
0.0
 71
     5
 72
     1
  1
115
  7
ASAMI
1001
ACAD
1000
MTEXTBEGIN
1070
    73
1070
     1
1070
    44
1040
1.0
1070
    74
1070
     0
1000
MTEXTEND
  0
POINT
  5
1A35
330
13C0
100
AcDbEntity
  8
DEFPOINTS
 62
     0
100
AcDbPoint
 10
-114.9999999999997
 20
-8.999999999997669
 30
0.0
  0
POINT
  5
1A36
330
13C0
100
AcDbEntity
  8
DEFPOINTS
 62
     0
100
AcDbPoint
 10
0.0000000000002236
 20
-4.500000000000503
 30
0.0
  0
POINT
  5
1A37
330
13C0
100
AcDbEntity
  8
DEFPOINTS
 62
     0
100
AcDbPoint
 10
0.0000000000002217
 20
-36.00000099999764
 30
0.0
  0
ENDBLK
  5
13CB
330
13C0
100
AcDbEntity
  8
0
100
AcDbBlockEnd
  0
BLOCK
  5
1466
330
145C
100
AcDbEntity
  8
0
100
AcDbBlockBegin
  2
*D6
 70
     1
 10
0.0
 20
0.0
 30
0.0
  3
*D6
  1

  0
LINE
  5
1A26
330
145C
100
AcDbEntity
  8
AM_5
100
AcDbLine
 10
-50.00000000000047
 20
-10.00000000000006
 30
0.0
 11
-50.00000000000047
 21
-25.0000010000042
 31
0.0
  0
LINE
  5
1A27
330
145C
100
AcDbEntity
  8
AM_5
100
AcDbLine
 10
0.0000000000000246
 20
-5.500000000000503
 30
0.0
 11
0.0000000000000234
 21
-25.0000010000042
 31
0.0
  0
LINE
  5
1A28
330
145C
100
AcDbEntity
  8
AM_5
100
AcDbLine
 10
-47.50000000000047
 20
-24.0000010000042
 30
0.0
 11
-2.499999999999976
 21
-24.0000010000042
 31
0.0
  0
INSERT
  5
1A29
330
145C
100
AcDbEntity
  8
AM_5
100
AcDbBlockReference
  2
_OPEN30
 10
-50.00000000000047
 20
-24.0000010000042
 30
0.0
 41
2.5
 42
2.5
 43
2.5
 50
180.0
  0
INSERT
  5
1A2A
330
145C
100
AcDbEntity
  8
AM_5
100
AcDbBlockReference
  2
_OPEN30
 10
0.0000000000000235
 20
-24.0000010000042
 30
0.0
 41
2.5
 42
2.5
 43
2.5
  0
MTEXT
  5
1A2B
330
145C
100
AcDbEntity
  8
AM_5
 62
     2
100
AcDbMText
 10
-25.00000000000023
 20
-20.9000010000042
 30
0.0
 40
3.2
 41
0.0
 71
     5
 72
     1
  1
50
  7
ASAMI
1001
ACAD
1000
MTEXTBEGIN
1070
    73
1070
     1
1070
    44
1040
1.0
1070
    74
1070
     0
1000
MTEXTEND
  0
POINT
  5
1A2C
330
145C
100
AcDbEntity
  8
DEFPOINTS
 62
     0
100
AcDbPoint
 10
-50.00000000000047
 20
-9.000000000000063
 30
0.0
  0
POINT
  5
1A2D
330
145C
100
AcDbEntity
  8
DEFPOINTS
 62
     0
100
AcDbPoint
 10
0.0000000000000247
 20
-4.500000000000503
 30
0.0
  0
POINT
  5
1A2E
330
145C
100
AcDbEntity
  8
DEFPOINTS
 62
     0
100
AcDbPoint
 10
0.0000000000000235
 20
-24.0000010000042
 30
0.0
  0
ENDBLK
  5
1467
330
145C
100
AcDbEntity
  8
0
100
AcDbBlockEnd
  0
BLOCK
  5
14FE
330
14F4
100
AcDbEntity
  8
0
100
AcDbBlockBegin
  2
*D7
 70
     1
 10
0.0
 20
0.0
 30
0.0
  3
*D7
  1

  0
LINE
  5
1A41
330
14F4
100
AcDbEntity
  8
AM_5
100
AcDbLine
 10
1.000000000000019
 20
8.999999999999783
 30
0.0
 11
19.55776903085554
 21
8.999999999999777
 31
0.0
  0
LINE
  5
1A42
330
14F4
100
AcDbEntity
  8
AM_5
100
AcDbLine
 10
1.000000000000031
 20
-9.000000000000218
 30
0.0
 11
19.55776903085554
 21
-9.000000000000223
 31
0.0
  0
LINE
  5
1A43
330
14F4
100
AcDbEntity
  8
AM_5
100
AcDbLine
 10
18.55776903085554
 20
6.499999999999777
 30
0.0
 11
18.55776903085554
 21
-6.500000000000224
 31
0.0
  0
INSERT
  5
1A44
330
14F4
100
AcDbEntity
  8
AM_5
100
AcDbBlockReference
  2
_OPEN30
 10
18.55776903085554
 20
8.999999999999777
 30
0.0
 41
2.5
 42
2.5
 43
2.5
 50
90.0
  0
INSERT
  5
1A45
330
14F4
100
AcDbEntity
  8
AM_5
100
AcDbBlockReference
  2
_OPEN30
 10
18.55776903085553
 20
-9.000000000000223
 30
0.0
 41
2.5
 42
2.5
 43
2.5
 50
270.0
  0
MTEXT
  5
1A46
330
14F4
100
AcDbEntity
  8
AM_5
 62
     2
100
AcDbMText
 10
15.45776903085554
 20
-0.0000000000002201
 30
0.0
 40
3.2
 41
0.0
 71
     5
 72
     1
  1
%%c18
  7
ASAMI
 11
0.0000000000000001
 21
1.0
 31
0.0
1001
ACAD
1000
MTEXTBEGIN
1070
    73
1070
     1
1070
    44
1040
1.0
1070
    74
1070
     0
1000
MTEXTEND
  0
POINT
  5
1A47
330
14F4
100
AcDbEntity
  8
DEFPOINTS
 62
     0
100
AcDbPoint
 10
0.0000000000000192
 20
8.999999999999783
 30
0.0
  0
POINT
  5
1A48
330
14F4
100
AcDbEntity
  8
DEFPOINTS
 62
     0
100
AcDbPoint
 10
0.000000000000032
 20
-9.000000000000218
 30
0.0
  0
POINT
  5
1A49
330
14F4
100
AcDbEntity
  8
DEFPOINTS
 62
     0
100
AcDbPoint
 10
18.55776903085553
 20
-9.000000000000223
 30
0.0
  0
ENDBLK
  5
14FF
330
14F4
100
AcDbEntity
  8
0
100
AcDbBlockEnd
  0
BLOCK
  5
195D
330
1953
100
AcDbEntity
  8
0
100
AcDbBlockBegin
  2
*D8
 70
     1
 10
0.0
 20
0.0
 30
0.0
  3
*D8
  1

  0
LINE
  5
1A38
330
1953
100
AcDbEntity
  8
AM_5
100
AcDbLine
 10
-114.9999999999997
 20
9.999999999999781
 30
0.0
 11
-132.7332058593322
 21
9.999999999999788
 31
0.0
  0
LINE
  5
1A39
330
1953
100
AcDbEntity
  8
AM_5
100
AcDbLine
 10
-114.9999999999998
 20
-9.999999999997694
 30
0.0
 11
-132.7332058593322
 21
-9.999999999997687
 31
0.0
  0
LINE
  5
1A3A
330
1953
100
AcDbEntity
  8
AM_5
100
AcDbLine
 10
-131.7332058593322
 20
7.499999999999787
 30
0.0
 11
-131.7332058593322
 21
-7.499999999997688
 31
0.0
  0
INSERT
  5
1A3B
330
1953
100
AcDbEntity
  8
AM_5
100
AcDbBlockReference
  2
_OPEN30
 10
-131.7332058593322
 20
9.999999999999786
 30
0.0
 41
2.5
 42
2.5
 43
2.5
 50
90.0
  0
INSERT
  5
1A3C
330
1953
100
AcDbEntity
  8
AM_5
100
AcDbBlockReference
  2
_OPEN30
 10
-131.7332058593322
 20
-9.999999999997688
 30
0.0
 41
2.5
 42
2.5
 43
2.5
 50
270.0
  0
MTEXT
  5
1A3D
330
1953
100
AcDbEntity
  8
AM_5
 62
     2
100
AcDbMText
 10
-134.8332058593322
 20
0.000000000001029
 30
0.0
 40
3.2
 41
0.0
 71
     5
 72
     1
  1
%%c20
  7
ASAMI
 11
0.0000000000000001
 21
1.0
 31
0.0
1001
ACAD
1000
MTEXTBEGIN
1070
    73
1070
     1
1070
    44
1040
1.0
1070
    74
1070
     0
1000
MTEXTEND
  0
POINT
  5
1A3E
330
1953
100
AcDbEntity
  8
DEFPOINTS
 62
     0
100
AcDbPoint
 10
-113.9999999999997
 20
9.999999999999781
 30
0.0
  0
POINT
  5
1A3F
330
1953
100
AcDbEntity
  8
DEFPOINTS
 62
     0
100
AcDbPoint
 10
-113.9999999999998
 20
-9.999999999997694
 30
0.0
  0
POINT
  5
1A40
330
1953
100
AcDbEntity
  8
DEFPOINTS
 62
     0
100
AcDbPoint
 10
-131.7332058593322
 20
-9.999999999997688
 30
0.0
  0
ENDBLK
  5
195E
330
1953
100
AcDbEntity
  8
0
100
AcDbBlockEnd
  0
ENDSEC
  0
SECTION
  2
ENTITIES
  0
TEXT
  5
E5A
330
1F
100
AcDbEntity
  8
AM_6
100
AcDbText
 10
-73.09523809523785
 20
-58.50000099999764
 30
0.0
 40
5.0
  1
LSM4180
 72
     4
 11
-57.49999999999976
 21
-56.00000099999764
 31
0.0
100
AcDbText
  0
LINE
  5
132A
330
1F
100
AcDbEntity
  8
AM_0
100
AcDbLine
 10
-49.99999999999215
 20
8.999999999999948
 30
0.0
 11
-61.25252258054479
 21
8.99999999999982
 31
0.0
  0
LINE
  5
132B
330
1F
100
AcDbEntity
  8
AM_7
  6
AM_ISO08W050X2
100
AcDbLine
 10
4.557768030854969
 20
-0.0000000000001137
 30
0.0
 11
-117.7332048593316
 21
-0.0000000000001457
 31
0.0
1001
GENIUS_GENODEF_13
1002
{
1000
HIER
1070
     0
1002
}
1002
{
1000
MANEDIT
1070
     0
1002
}
1002
{
1000
NOSEL
1070
     0
1002
}
1002
{
1000
BEHIND
1070
     0
1002
}
1002
{
1000
REACTOR
1002
}
1001
GENIUS_GENOBJ-N-CEN_13
1002
{
1000
OWNER
1000
GEN
1002
}
  0
LINE
  5
138D
330
1F
100
AcDbEntity
  8
AM_0
100
AcDbLine
 10
-52.93602174459821
 20
-9.000000000000053
 30
0.0
 11
-61.25252258054477
 21
-9.000000000000172
 31
0.0
  0
DIMENSION
  5
13B3
330
1F
100
AcDbEntity
  8
AM_5
100
AcDbDimension
  2
*D5
 10
0.0000000000002217
 20
-36.00000099999764
 30
0.0
 11
-57.49999999999978
 21
-32.90000099999764
 31
0.0
 70
    32
  1
<>
  3
AM_JIS
100
AcDbAlignedDimension
 13
-114.9999999999997
 23
-8.999999999997669
 33
0.0
 14
0.0000000000002236
 24
-4.500000000000503
 34
0.0
100
AcDbRotatedDimension
1001
GENIUS_GENDTOL_13
1000

1000
h7
1000

1040
0.0
  0
DIMENSION
  5
145B
330
1F
100
AcDbEntity
  8
AM_5
100
AcDbDimension
  2
*D6
 10
0.0000000000000235
 20
-24.0000010000042
 30
0.0
 11
-25.00000000000023
 21
-20.9000010000042
 31
0.0
 70
    32
  1
<>
  3
AM_JIS
100
AcDbAlignedDimension
 13
-50.00000000000047
 23
-9.000000000000063
 33
0.0
 14
0.0000000000000247
 24
-4.500000000000503
 34
0.0
 50
359.9999999999967
100
AcDbRotatedDimension
1001
GENIUS_GENDTOL_13
1000

1000
h7
1000

1040
0.0
  0
DIMENSION
  5
14F3
330
1F
100
AcDbEntity
  8
AM_5
100
AcDbDimension
  2
*D7
 10
18.55776903085553
 20
-9.000000000000223
 30
0.0
 11
15.45776903085554
 21
-0.0000000000002201
 31
0.0
 70
    32
  1
%%c<>
  3
AM_JIS
100
AcDbAlignedDimension
 13
0.0000000000000192
 23
8.999999999999783
 33
0.0
 14
0.000000000000032
 24
-9.000000000000218
 34
0.0
 50
90.0
100
AcDbRotatedDimension
1001
GENIUS_GENDTOL_13
1000

1000
h7
1000

1040
0.0
  0
LINE
  5
181F
330
1F
100
AcDbEntity
  8
AM_0
100
AcDbLine
 10
-0.0000000000003449
 20
0.0
 30
0.0
 11
-0.1539938558498875
 21
-1.523016156754351
 31
0.0
  0
LINE
  5
1820
330
1F
100
AcDbEntity
  8
AM_0
100
AcDbLine
 10
-0.0000000000003449
 20
0.0
 30
0.0
 11
-0.1820000000003394
 21
1.800000000000204
 31
0.0
  0
LINE
  5
1821
330
1F
100
AcDbEntity
  8
AM_0
100
AcDbLine
 10
-1.85037527609317
 20
4.80085346521871
 30
0.0
 11
-4.084725200438293
 21
5.41521616055054
 31
0.0
  0
LINE
  5
1822
330
1F
100
AcDbEntity
  8
AM_0
100
AcDbLine
 10
-4.084725200438279
 20
0.0
 30
0.0
 11
-4.084725200438279
 21
-1.44000000000002
 31
0.0
  0
LINE
  5
1823
330
1F
100
AcDbEntity
  8
AM_0
100
AcDbLine
 10
-0.1820000000003394
 20
1.800000000000204
 30
0.0
 11
-1.85037527609317
 21
4.80085346521871
 31
0.0
  0
LINE
  5
1824
330
1F
100
AcDbEntity
  8
AM_0
100
AcDbLine
 10
-4.084725200438279
 20
-1.44000000000002
 30
0.0
 11
-0.200148093319414
 21
-1.44000000000002
 31
0.0
  0
LINE
  5
1825
330
1F
100
AcDbEntity
  8
AM_0
100
AcDbLine
 10
-0.0000000000003449
 20
0.0
 30
0.0
 11
-4.084725200438279
 21
0.0
 31
0.0
  0
LINE
  5
1826
330
1F
100
AcDbEntity
  8
AM_0
100
AcDbLine
 10
-0.1820000000003271
 20
-2.388416138213733
 30
0.0
 11
-0.0000000000003449
 21
-1.8
 31
0.0
  0
LINE
  5
1827
330
1F
100
AcDbEntity
  8
AM_0
100
AcDbLine
 10
-0.0000000000003325
 20
-9.0
 30
0.0
 11
-0.1820000000003148
 21
-8.520194083719287
 31
0.0
  0
LINE
  5
1828
330
1F
100
AcDbEntity
  8
AM_0
100
AcDbLine
 10
-0.0000000000003325
 20
-9.0
 30
0.0
 11
-0.0000000000003449
 21
-1.8
 31
0.0
  0
LINE
  5
1829
330
1F
100
AcDbEntity
  8
AM_0
100
AcDbLine
 10
-0.1820000000003148
 20
-8.520194083719287
 30
0.0
 11
-0.1820000000003271
 21
-2.388416138213733
 31
0.0
  0
ELLIPSE
  5
182A
330
1F
100
AcDbEntity
  8
AM_0
100
AcDbEllipse
 10
3.441833515513466
 20
-4.578984296492229
 30
0.0
 11
-0.0000000000000092
 21
5.473256607928886
 31
0.0
210
0.0
220
0.0
230
1.0
 40
0.9629629629629635
 41
1.211124581303823
 42
2.069278538290319
  0
LINE
  5
182B
330
1F
100
AcDbEntity
  8
AM_0
100
AcDbLine
 10
-0.1820000000003148
 20
-8.520194083719184
 30
0.0
 11
-1.187333333333669
 21
-7.19570997983144
 31
0.0
  0
LINE
  5
182C
330
1F
100
AcDbEntity
  8
AM_0
100
AcDbLine
 10
-1.491460508531705
 20
-2.652578577299777
 30
0.0
 11
-0.1820000000003271
 21
-2.388416138213733
 31
0.0
  0
LINE
  5
182D
330
1F
100
AcDbEntity
  8
AM_0
100
AcDbLine
 10
-4.084725200438279
 20
-1.44000000000002
 30
0.0
 11
-1.491460508531705
 21
-2.652578577299777
 31
0.0
  0
LINE
  5
182E
330
1F
100
AcDbEntity
  8
AM_0
100
AcDbLine
 10
-0.0000000000003449
 20
-1.8
 30
0.0
 11
-1.000740466595739
 21
0.0000000000001023
 31
0.0
  0
LINE
  5
182F
330
1F
100
AcDbEntity
  8
AM_0
100
AcDbLine
 10
-0.0000000000003449
 20
0.0
 30
0.0
 11
-0.0000000000003572
 21
9.0
 31
0.0
  0
POLYLINE
  5
1830
330
1F
100
AcDbEntity
  8
AM_0
100
AcDb2dPolyline
 66
     1
 10
0.0
 20
0.0
 30
0.0
 70
     2
  0
VERTEX
  5
1831
330
1830
100
AcDbEntity
  8
AM_0
100
AcDbVertex
100
AcDb2dVertex
 10
-53.90891985693564
 20
6.628495532716228
 30
0.0
 42
-0.0088918234710555
  0
VERTEX
  5
1832
330
1830
100
AcDbEntity
  8
AM_0
100
AcDbVertex
100
AcDb2dVertex
 10
-54.80528795658064
 20
6.958495820127388
 30
0.0
 42
-0.0053663032246141
 70
     1
  0
VERTEX
  5
1833
330
1830
100
AcDbEntity
  8
AM_0
100
AcDbVertex
100
AcDb2dVertex
 10
-56.09908686354252
 20
7.493046428229997
 30
0.0
 42
-0.0079051702173673
  0
VERTEX
  5
1834
330
1830
100
AcDbEntity
  8
AM_0
100
AcDbVertex
100
AcDb2dVertex
 10
-58.07249499961953
 20
8.557490566220122
 30
0.0
 42
-0.2726804491113656
 70
     1
  0
VERTEX
  5
1835
330
1830
100
AcDbEntity
  8
AM_0
100
AcDbVertex
100
AcDb2dVertex
 10
-58.11396472786302
 20
8.615347318924104
 30
0.0
 42
-0.4014058829339297
  0
VERTEX
  5
1836
330
1830
100
AcDbEntity
  8
AM_0
100
AcDbVertex
100
AcDb2dVertex
 10
-58.03878599341969
 20
8.716777276716348
 30
0.0
 42
-0.0313656446754737
 70
     1
  0
VERTEX
  5
1837
330
1830
100
AcDbEntity
  8
AM_0
100
AcDbVertex
100
AcDb2dVertex
 10
-56.68430169887105
 20
8.841815684406965
 30
0.0
 42
-0.0039726403541645
  0
VERTEX
  5
1838
330
1830
100
AcDbEntity
  8
AM_0
100
AcDbVertex
100
AcDb2dVertex
 10
-55.45079809598324
 20
8.864883306811551
 30
0.0
 42
0.0019401889352083
 70
     1
  0
VERTEX
  5
1839
330
1830
100
AcDbEntity
  8
AM_0
100
AcDbVertex
100
AcDb2dVertex
 10
-52.9250000000012
 20
8.901453341858971
 30
0.0
 42
0.0036525506412497
  0
VERTEX
  5
183A
330
1830
100
AcDbEntity
  8
AM_0
100
AcDbVertex
100
AcDb2dVertex
 10
-51.93176520242937
 20
8.927375589815765
 30
0.0
 42
0.0018773371428962
 70
     1
  0
VERTEX
  5
183B
330
1830
100
AcDbEntity
  8
AM_0
100
AcDbVertex
100
AcDb2dVertex
 10
-50.0000000000012
 20
8.999999999999928
 30
0.0
  0
SEQEND
  5
183C
330
1830
100
AcDbEntity
  8
AM_0
  0
LINE
  5
183D
330
1F
100
AcDbEntity
  8
AM_0
100
AcDbLine
 10
-50.00000000000035
 20
4.806912006280469
 30
0.0
 11
-50.74975029620672
 21
3.694646051640742
 31
0.0
  0
LINE
  5
183E
330
1F
100
AcDbEntity
  8
AM_0
100
AcDbLine
 10
-50.74975029620672
 20
3.694646051640742
 30
0.0
 11
-50.00000000000038
 21
1.679628235903729
 31
0.0
  0
LINE
  5
183F
330
1F
100
AcDbEntity
  8
AM_0
100
AcDbLine
 10
-50.00000000000028
 20
-5.976932757094197
 30
0.0
 11
-50.00000000000047
 21
-8.751847485285111
 31
0.0
  0
ELLIPSE
  5
1840
330
1F
100
AcDbEntity
  8
AM_0
100
AcDbEllipse
 10
-49.97186171256185
 20
-27.96550106779898
 30
0.0
 11
0.0000000000000188
 21
19.21367580209936
 31
0.0
210
0.0
220
0.0
230
1.0
 40
0.9629629629629576
 41
0.0015208199008008
 42
0.1609004017522448
  0
LINE
  5
1848
330
1F
100
AcDbEntity
  8
AM_11
100
AcDbLine
 10
-0.0000000000016873
 20
9.0
 30
0.0
 11
-50.00000000000031
 21
8.999999999999937
 31
0.0
  0
LINE
  5
1849
330
1F
100
AcDbEntity
  8
AM_11
100
AcDbLine
 10
-50.00000000000047
 20
-9.00000000000006
 30
0.0
 11
-0.0000000000003325
 21
-9.0
 31
0.0
  0
SPLINE
  5
184B
330
1F
100
AcDbEntity
  8
AM_0
100
AcDbSpline
210
0.0
220
0.0
230
1.0
 70
     8
 71
     3
 72
     8
 73
     4
 74
     0
 42
0.0000000001
 43
0.0000000001
 40
12.67774677716992
 40
12.67774677716992
 40
12.67774677716992
 40
12.67774677716992
 40
14.48999654934393
 40
14.48999654934393
 40
14.48999654934393
 40
14.48999654934393
 10
-50.0000000000135
 20
1.679628235881143
 30
0.0
 10
-49.04788288775929
 20
1.125621244561749
 30
0.0
 10
-48.09727477721331
 20
0.5628106222809493
 30
0.0
 10
-47.14666666666733
 20
0.0000000000001535
 30
0.0
  0
SPLINE
  5
184C
330
1F
100
AcDbEntity
  8
AM_0
100
AcDbSpline
210
0.0
220
0.0
230
1.0
 70
     8
 71
     3
 72
     8
 73
     4
 74
     0
 42
0.0000000001
 43
0.0000000001
 40
0.0
 40
0.0
 40
0.0
 40
0.0
 40
1.412269715655931
 40
1.412269715655931
 40
1.412269715655931
 40
1.412269715655931
 10
-45.14666666666732
 20
-8.99999999999985
 30
0.0
 10
-45.96264472460187
 20
-8.99999999999985
 30
0.0
 10
-46.77129556400141
 20
-8.957252448685737
 30
0.0
 10
-47.573333333334
 20
-8.875923742642436
 30
0.0
  0
SPLINE
  5
184D
330
1F
100
AcDbEntity
  8
AM_0
100
AcDbSpline
210
0.0
220
0.0
230
1.0
 70
     8
 71
     3
 72
     8
 73
     4
 74
     0
 42
0.0000000001
 43
0.0000000001
 40
0.0
 40
0.0
 40
0.0
 40
0.0
 40
2.764560748519282
 40
2.764560748519282
 40
2.764560748519282
 40
2.764560748519282
 10
-42.12122211121
 20
-8.730510606603751
 30
0.0
 10
-40.52392034539887
 20
-8.730510606603751
 30
0.0
 10
-38.95327491861209
 20
-8.570486067318151
 30
0.0
 10
-37.40418208579972
 20
-8.281076021717646
 30
0.0
  0
SPLINE
  5
184E
330
1F
100
AcDbEntity
  8
AM_0
100
AcDbSpline
210
0.0
220
0.0
230
1.0
 70
     8
 71
     3
 72
     8
 73
     4
 74
     0
 42
0.0000000001
 43
0.0000000001
 40
0.0
 40
0.0
 40
0.0
 40
0.0
 40
4.451443990518192
 40
4.451443990518192
 40
4.451443990518192
 40
4.451443990518192
 10
-38.63745108631016
 20
-8.311400106844892
 30
0.0
 10
-36.06550566956629
 20
-8.311400106844892
 30
0.0
 10
-33.55703819347805
 20
-7.91220314564543
 30
0.0
 10
-31.79360754019132
 20
-7.642391625229476
 30
0.0
  0
SPLINE
  5
184F
330
1F
100
AcDbEntity
  8
AM_0
100
AcDbSpline
210
0.0
220
0.0
230
1.0
 70
     8
 71
     3
 72
     8
 73
     4
 74
     0
 42
0.0000000001
 43
0.0000000001
 40
0.0
 40
0.0
 40
0.0
 40
0.0
 40
2.130230809022907
 40
2.130230809022907
 40
2.130230809022907
 40
2.130230809022907
 10
-23.573333333334
 20
-9.000000000000026
 30
0.0
 10
-22.34253331034296
 20
-9.000000000000026
 30
0.0
 10
-21.1284041155144
 20
-8.902741118076326
 30
0.0
 10
-19.92849490549287
 20
-8.722521761134638
 30
0.0
  0
SPLINE
  5
1850
330
1F
100
AcDbEntity
  8
AM_0
100
AcDbSpline
210
0.0
220
0.0
230
1.0
 70
     8
 71
     3
 72
     8
 73
     4
 74
     0
 42
0.0000000001
 43
0.0000000001
 40
0.0
 40
0.0
 40
0.0
 40
0.0
 40
5.635889483499305
 40
5.635889483499305
 40
5.635889483499305
 40
5.635889483499305
 10
-23.57333333333402
 20
9.000000000000179
 30
0.0
 10
-26.82962503491143
 20
9.000000000000179
 30
0.0
 10
-29.96922803998348
 20
8.319229252162616
 30
0.0
 10
-33.27578111790244
 20
7.222473789068302
 30
0.0
  0
SPLINE
  5
1851
330
1F
100
AcDbEntity
  8
AM_0
100
AcDbSpline
210
0.0
220
0.0
230
1.0
 70
     8
 71
     3
 72
     8
 73
     4
 74
     0
 42
0.0000000001
 43
0.0000000001
 40
0.3581103616548037
 40
0.3581103616548037
 40
0.3581103616548037
 40
0.3581103616548037
 40
14.43901837670146
 40
14.43901837670146
 40
14.43901837670146
 40
14.43901837670146
 10
-43.84548549982979
 20
8.524111148984982
 30
0.0
 10
-35.40093063254134
 20
8.513980214495765
 30
0.0
 10
-27.97440970520884
 20
4.256990107247914
 30
0.0
 10
-20.54788877787639
 20
0.0000000000000767
 30
0.0
  0
SPLINE
  5
1852
330
1F
100
AcDbEntity
  8
AM_0
100
AcDbSpline
210
0.0
220
0.0
230
1.0
 70
     8
 71
     3
 72
     8
 73
     4
 74
     0
 42
0.0000000001
 43
0.0000000001
 40
0.0
 40
0.0
 40
0.0
 40
0.0
 40
12.99511653903134
 40
12.99511653903134
 40
12.99511653903134
 40
12.99511653903134
 10
-20.54788877787667
 20
-8.730510606603516
 30
0.0
 10
-28.89043272885976
 20
-8.730510606603527
 30
0.0
 10
-36.5058274200349
 20
-4.365255303301635
 30
0.0
 10
-44.12122211121006
 20
0.0000000000002558
 30
0.0
  0
SPLINE
  5
1853
330
1F
100
AcDbEntity
  8
AM_0
100
AcDbSpline
210
0.0
220
0.0
230
1.0
 70
     8
 71
     3
 72
     8
 73
     4
 74
     0
 42
0.0000000001
 43
0.0000000001
 40
0.0
 40
0.0
 40
0.0
 40
0.0
 40
4.451443990518192
 40
4.451443990518192
 40
4.451443990518192
 40
4.451443990518192
 10
-17.06411775297684
 20
-8.31140010684485
 30
0.0
 10
-14.49217233623296
 20
-8.31140010684485
 30
0.0
 10
-11.98370486014473
 20
-7.912203145645402
 30
0.0
 10
-9.51904124868264
 20
-7.237534588062262
 30
0.0
  0
SPLINE
  5
1854
330
1F
100
AcDbEntity
  8
AM_0
100
AcDbSpline
210
0.0
220
0.0
230
1.0
 70
     8
 71
     3
 72
     8
 73
     4
 74
     0
 42
0.0000000001
 43
0.0000000001
 40
0.7142832446738512
 40
0.7142832446738512
 40
0.7142832446738512
 40
0.7142832446738512
 40
9.361146747480315
 40
9.361146747480315
 40
9.361146747480315
 40
9.361146747480315
 10
-15.83084875228351
 20
8.281076021683713
 30
0.0
 10
-10.87347045873689
 20
8.038410190148839
 30
0.0
 10
-6.143698342510274
 20
6.364385789039329
 30
0.0
 10
-1.497331688025634
 20
4.165845209065707
 30
0.0
  0
SPLINE
  5
1855
330
1F
100
AcDbEntity
  8
AM_0
100
AcDbSpline
210
0.0
220
0.0
230
1.0
 70
     8
 71
     3
 72
     8
 73
     4
 74
     0
 42
0.0000000001
 43
0.0000000001
 40
0.0
 40
0.0
 40
0.0
 40
0.0
 40
2.327908791255042
 40
2.327908791255042
 40
2.327908791255042
 40
2.327908791255042
 10
-0.0000000000003572
 20
7.334464836031133
 30
0.0
 10
-0.9589967928721264
 20
6.144197753071813
 30
0.0
 10
-2.605060474841417
 20
5.633052834463834
 30
0.0
 10
-4.084725200438293
 20
5.41521616055054
 30
0.0
  0
SPLINE
  5
1856
330
1F
100
AcDbEntity
  8
AM_0
100
AcDbSpline
210
0.0
220
0.0
230
1.0
 70
     8
 71
     3
 72
     8
 73
     4
 74
     0
 42
0.0000000001
 43
0.0000000001
 40
0.0
 40
0.0
 40
0.0
 40
0.0
 40
5.635889483499127
 40
5.635889483499127
 40
5.635889483499127
 40
5.635889483499127
 10
-0.0000000000003572
 20
9.0
 30
0.0
 10
-3.256291701577622
 20
9.0
 30
0.0
 10
-6.395894706649624
 20
8.319229252162449
 30
0.0
 10
-9.464195126609661
 20
7.222473789068224
 30
0.0
  0
SPLINE
  5
1857
330
1F
100
AcDbEntity
  8
AM_0
100
AcDbSpline
210
0.0
220
0.0
230
1.0
 70
     8
 71
     3
 72
     8
 73
     4
 74
     0
 42
0.0000000001
 43
0.0000000001
 40
4.542668862435135
 40
4.542668862435135
 40
4.542668862435135
 40
4.542668862435135
 40
14.36247867694493
 40
14.36247867694493
 40
14.36247867694493
 40
14.36247867694493
 10
-1.187333333331255
 20
-7.195709979821924
 30
0.0
 10
-6.62039705054994
 20
-5.682610235831146
 30
0.0
 10
-11.84225740176323
 20
-2.841305117915534
 30
0.0
 10
-17.0641177529765
 20
0.0000000000000895
 30
0.0
  0
SPLINE
  5
1858
330
1F
100
AcDbEntity
  8
AM_0
100
AcDbSpline
210
0.0
220
0.0
230
1.0
 70
     8
 71
     3
 72
     8
 73
     4
 74
     0
 42
0.0000000001
 43
0.0000000001
 40
0.3581103616548037
 40
0.3581103616548037
 40
0.3581103616548037
 40
0.3581103616548037
 40
12.40023413887867
 40
12.40023413887867
 40
12.40023413887867
 40
12.40023413887867
 10
-19.9284949054922
 20
8.722521761134791
 30
0.0
 10
-13.00053176723093
 20
8.544175086713094
 30
0.0
 10
-6.565796255460392
 20
5.404862031273
 30
0.0
 10
-0.2024755068197777
 20
1.836828641896136
 30
0.0
  0
SPLINE
  5
1859
330
1F
100
AcDbEntity
  8
AM_0
100
AcDbSpline
210
0.0
220
0.0
230
1.0
 70
     8
 71
     3
 72
     8
 73
     4
 74
     0
 42
0.0000000001
 43
0.0000000001
 40
0.0
 40
0.0
 40
0.0
 40
0.0
 40
13.04099689440956
 40
13.04099689440956
 40
13.04099689440956
 40
13.04099689440956
 10
-23.57333333333368
 20
9.000000000000179
 30
0.0
 10
-15.20133532704606
 20
9.000000000000188
 30
0.0
 10
-7.600667663523201
 20
4.500000000000196
 30
0.0
 10
-0.0000000000003449
 20
0.0000000000002046
 30
0.0
  0
SPLINE
  5
185A
330
1F
100
AcDbEntity
  8
AM_0
100
AcDbSpline
210
0.0
220
0.0
230
1.0
 70
     8
 71
     3
 72
     8
 73
     4
 74
     0
 42
0.0000000001
 43
0.0000000001
 40
0.0
 40
0.0
 40
0.0
 40
0.0
 40
13.04099689440956
 40
13.04099689440956
 40
13.04099689440956
 40
13.04099689440956
 10
-0.0000000000003325
 20
-9.0
 30
0.0
 10
-8.371998006287954
 20
-9.00000000000001
 30
0.0
 10
-15.97266566981081
 20
-4.500000000000017
 30
0.0
 10
-23.57333333333366
 20
-0.0000000000000256
 30
0.0
  0
SPLINE
  5
185B
330
1F
100
AcDbEntity
  8
AM_0
100
AcDbSpline
210
0.0
220
0.0
230
1.0
 70
     8
 71
     3
 72
     8
 73
     4
 74
     0
 42
0.0000000001
 43
0.0000000001
 40
0.0
 40
0.0
 40
0.0
 40
0.0
 40
12.92623080925044
 40
12.92623080925044
 40
12.92623080925044
 40
12.92623080925044
 10
-17.06411775297684
 20
-8.311400106844645
 30
0.0
 10
-25.3624387663228
 20
-8.311400106844656
 30
0.0
 10
-32.99994492631649
 20
-4.1557000534222
 30
0.0
 10
-40.63745108631017
 20
0.0000000000002558
 30
0.0
  0
SPLINE
  5
185C
330
1F
100
AcDbEntity
  8
AM_0
100
AcDbSpline
210
0.0
220
0.0
230
1.0
 70
     8
 71
     3
 72
     8
 73
     4
 74
     0
 42
0.0000000001
 43
0.0000000001
 40
0.7142832446738512
 40
0.7142832446738512
 40
0.7142832446738512
 40
0.7142832446738512
 40
14.36247867694493
 40
14.36247867694493
 40
14.36247867694493
 40
14.36247867694493
 10
-39.60004115194696
 20
8.167996737014746
 30
0.0
 10
-31.57946416795075
 20
7.89805266385592
 30
0.0
 10
-24.32179096046363
 20
3.949026331928004
 30
0.0
 10
-17.0641177529765
 20
0.0000000000000895
 30
0.0
  0
SPLINE
  5
185D
330
1F
100
AcDbEntity
  8
AM_0
100
AcDbSpline
210
0.0
220
0.0
230
1.0
 70
     8
 71
     3
 72
     8
 73
     4
 74
     0
 42
0.0000000001
 43
0.0000000001
 40
1.870660592686466
 40
1.870660592686466
 40
1.870660592686466
 40
1.870660592686466
 40
14.43901837670146
 40
14.43901837670146
 40
14.43901837670146
 40
14.43901837670146
 10
-0.1820000000003148
 20
-8.520194083719184
 30
0.0
 10
-7.290338624796953
 20
-7.599421101782674
 30
0.0
 10
-13.91911370133668
 20
-3.799710550891292
 30
0.0
 10
-20.54788877787639
 20
0.0000000000000767
 30
0.0
  0
SPLINE
  5
185E
330
1F
100
AcDbEntity
  8
AM_0
100
AcDbSpline
210
0.0
220
0.0
230
1.0
 70
     8
 71
     3
 72
     8
 73
     4
 74
     0
 42
0.0000000001
 43
0.0000000001
 40
0.0
 40
0.0
 40
0.0
 40
0.0
 40
2.764560748519282
 40
2.764560748519282
 40
2.764560748519282
 40
2.764560748519282
 10
-20.54788877787667
 20
-8.73051060660372
 30
0.0
 10
-18.95058701206555
 20
-8.73051060660372
 30
0.0
 10
-17.37994158527876
 20
-8.57048606731811
 30
0.0
 10
-15.8308487524664
 20
-8.281076021717606
 30
0.0
  0
SPLINE
  5
185F
330
1F
100
AcDbEntity
  8
AM_0
100
AcDbSpline
210
0.0
220
0.0
230
1.0
 70
     8
 71
     3
 72
     8
 73
     4
 74
     0
 42
0.0000000001
 43
0.0000000001
 40
10.38618746379059
 40
10.38618746379059
 40
10.38618746379059
 40
10.38618746379059
 40
14.43901837670146
 40
14.43901837670146
 40
14.43901837670146
 40
14.43901837670146
 10
-50.74975029620672
 20
3.694646051640742
 30
0.0
 10
-48.39629209355915
 20
2.450532463414158
 30
0.0
 10
-46.25875710238457
 20
1.225266231707108
 30
0.0
 10
-44.12122211121006
 20
0.0000000000000512
 30
0.0
  0
SPLINE
  5
1860
330
1F
100
AcDbEntity
  8
AM_0
100
AcDbSpline
210
0.0
220
0.0
230
1.0
 70
     8
 71
     3
 72
     8
 73
     4
 74
     0
 42
0.0000000001
 43
0.0000000001
 40
4.48458745047074
 40
4.48458745047074
 40
4.48458745047074
 40
4.48458745047074
 40
14.36247867694493
 40
14.36247867694493
 40
14.36247867694493
 40
14.36247867694493
 10
-53.90891985693564
 20
6.628495532716228
 30
0.0
 10
-51.031956200617
 20
5.334354252194344
 30
0.0
 10
-45.89019727217895
 20
2.858110638204408
 30
0.0
 10
-40.63745108631017
 20
0.0000000000000512
 30
0.0
  0
SPLINE
  5
1861
330
1F
100
AcDbEntity
  8
AM_0
100
AcDbSpline
210
0.0
220
0.0
230
1.0
 70
     8
 71
     3
 72
     8
 73
     4
 74
     0
 42
0.0000000001
 43
0.0000000001
 40
0.0
 40
0.0
 40
0.0
 40
0.0
 40
4.662554012798695
 40
4.662554012798695
 40
4.662554012798695
 40
4.662554012798695
 10
-42.12122211121
 20
-8.730510606603546
 30
0.0
 10
-44.81514220749363
 20
-8.730510606603546
 30
0.0
 10
-47.43324017388539
 20
-8.275331769309882
 30
0.0
 10
-50.00000000000028
 20
-7.511957487844937
 30
0.0
  0
SPLINE
  5
1862
330
1F
100
AcDbEntity
  8
AM_0
100
AcDbSpline
210
0.0
220
0.0
230
1.0
 70
     8
 71
     3
 72
     8
 73
     4
 74
     0
 42
0.0000000001
 43
0.0000000001
 40
0.0
 40
0.0
 40
0.0
 40
0.0
 40
6.769478140335353
 40
6.769478140335353
 40
6.769478140335353
 40
6.769478140335353
 10
-38.63745108631016
 20
-8.311400106844688
 30
0.0
 10
-42.54870512294836
 20
-8.311400106844688
 30
0.0
 10
-46.31315735890577
 20
-7.38820013965748
 30
0.0
 10
-50.00000000000028
 20
-5.976932757094197
 30
0.0
  0
SPLINE
  5
1863
330
1F
100
AcDbEntity
  8
AM_0
100
AcDbSpline
210
0.0
220
0.0
230
1.0
 70
     8
 71
     3
 72
     8
 73
     4
 74
     0
 42
0.0000000001
 43
0.0000000001
 40
0.0
 40
0.0
 40
0.0
 40
0.0
 40
2.130230809022907
 40
2.130230809022907
 40
2.130230809022907
 40
2.130230809022907
 10
-45.14666666666732
 20
-9.000000000000055
 30
0.0
 10
-43.91586664367628
 20
-9.000000000000055
 30
0.0
 10
-42.70173744884774
 20
-8.902741118076356
 30
0.0
 10
-41.50182823882619
 20
-8.722521761134666
 30
0.0
  0
SPLINE
  5
1864
330
1F
100
AcDbEntity
  8
AM_0
100
AcDbSpline
210
0.0
220
0.0
230
1.0
 70
     8
 71
     3
 72
     8
 73
     4
 74
     0
 42
0.0000000001
 43
0.0000000001
 40
0.0
 40
0.0
 40
0.0
 40
0.0
 40
13.04099689440956
 40
13.04099689440956
 40
13.04099689440956
 40
13.04099689440956
 10
-49.99999999999473
 20
9.000000000000152
 30
0.0
 10
-38.77466866037938
 20
9.000000000000163
 30
0.0
 10
-31.17400099685652
 20
4.50000000000017
 30
0.0
 10
-23.57333333333366
 20
0.0000000000001791
 30
0.0
  0
SPLINE
  5
1865
330
1F
100
AcDbEntity
  8
AM_0
100
AcDbSpline
210
0.0
220
0.0
230
1.0
 70
     8
 71
     3
 72
     8
 73
     4
 74
     0
 42
0.0000000001
 43
0.0000000001
 40
0.0
 40
0.0
 40
0.0
 40
0.0
 40
13.04099689440956
 40
13.04099689440956
 40
13.04099689440956
 40
13.04099689440956
 10
-23.573333333334
 20
-8.99999999999982
 30
0.0
 10
-31.94533133962162
 20
-8.999999999999831
 30
0.0
 10
-39.54599900314448
 20
-4.499999999999839
 30
0.0
 10
-47.14666666666733
 20
0.0000000000001535
 30
0.0
  0
SPLINE
  5
1866
330
1F
100
AcDbEntity
  8
AM_0
100
AcDbSpline
210
0.0
220
0.0
230
1.0
 70
     8
 71
     3
 72
     8
 73
     4
 74
     0
 42
0.0000000001
 43
0.0000000001
 40
0.0
 40
0.0
 40
0.0
 40
0.0
 40
1.412269715655734
 40
1.412269715655734
 40
1.412269715655734
 40
1.412269715655734
 10
-47.57333333333394
 20
-8.875923742642436
 30
0.0
 10
-48.3893113912684
 20
-8.875923742642436
 30
0.0
 10
-49.19796223066785
 20
-8.833176191328311
 30
0.0
 10
-50.00000000000028
 20
-8.751847485285059
 30
0.0
  0
LINE
  5
1870
330
1F
100
AcDbEntity
  8
AM_11
100
AcDbLine
 10
-50.00000000000047
 20
-9.000000000000063
 30
0.0
 11
-50.00000000000031
 21
8.999999999999936
 31
0.0
  0
LINE
  5
1899
330
1F
100
AcDbEntity
  8
AM_0
100
AcDbLine
 10
-63.99999999999974
 20
9.999999999999912
 30
0.0
 11
-63.99999999999979
 21
-9.999999999999896
 31
0.0
  0
LINE
  5
18B1
330
1F
100
AcDbEntity
  8
AM_0
100
AcDbLine
 10
-61.25252258054479
 20
8.999999999999788
 30
0.0
 11
-61.25252258054477
 21
-8.999999999999753
 31
0.0
  0
LINE
  5
18B2
330
1F
100
AcDbEntity
  8
AM_0
100
AcDbLine
 10
-63.99999999999974
 20
9.999999999999912
 30
0.0
 11
-61.25252258054479
 21
8.999999999999788
 31
0.0
  0
LINE
  5
18B3
330
1F
100
AcDbEntity
  8
AM_0
100
AcDbLine
 10
-63.99999999999979
 20
-9.999999999999896
 30
0.0
 11
-61.25252258054477
 21
-9.000000000000214
 31
0.0
  0
LINE
  5
194C
330
1F
100
AcDbEntity
  8
AM_0
100
AcDbLine
 10
-63.99999999999979
 20
-9.999999999998973
 30
0.0
 11
-113.9999999999997
 21
-9.999999999997694
 31
0.0
  0
LINE
  5
194D
330
1F
100
AcDbEntity
  8
AM_0
100
AcDbLine
 10
-63.99999999999976
 20
9.999999999999953
 30
0.0
 11
-113.9999999999997
 21
9.999999999999781
 31
0.0
  0
LINE
  5
1950
330
1F
100
AcDbEntity
  8
AM_0
100
AcDbLine
 10
-113.9999999999997
 20
9.999999999999781
 30
0.0
 11
-113.9999999999998
 21
-9.999999999997688
 31
0.0
  0
LINE
  5
1951
330
1F
100
AcDbEntity
  8
AM_0
100
AcDbLine
 10
-114.9999999999997
 20
8.999999999999777
 30
0.0
 11
-114.9999999999997
 21
-8.999999999997669
 31
0.0
  0
DIMENSION
  5
1952
330
1F
100
AcDbEntity
  8
AM_5
100
AcDbDimension
  2
*D8
 10
-131.7332058593322
 20
-9.999999999997688
 30
0.0
 11
-134.8332058593322
 21
0.000000000001029
 31
0.0
 70
    32
  1
%%c<>
  3
AM_JIS
100
AcDbAlignedDimension
 13
-113.9999999999997
 23
9.999999999999781
 33
0.0
 14
-113.9999999999998
 24
-9.999999999997694
 34
0.0
 50
270.0
100
AcDbRotatedDimension
1001
GENIUS_GENDTOL_13
1000

1000
h7
1000

1040
0.0
  0
LINE
  5
196A
330
1F
100
AcDbEntity
  8
AM_0
100
AcDbLine
 10
-113.9999999999997
 20
9.999999999999781
 30
0.0
 11
-114.9999999999997
 21
8.999999999999777
 31
0.0
1001
GENIUS_GENFIL_13
1070
     0
1040
1.0
1040
1.0
1040
20.0
1040
0.0
1002
{
1002
}
1001
GENIUS_GENODEF_13
1002
{
1000
HIER
1070
     0
1002
}
1002
{
1000
MANEDIT
1070
     0
1002
}
1002
{
1000
NOSEL
1070
     0
1002
}
1002
{
1000
BEHIND
1070
     0
1002
}
1002
{
1000
REACTOR
1002
}
1001
GENIUS_GENOBJ-N-CHA_13
1002
{
1000
OWNER
1000
GEN
1002
}
  0
LINE
  5
196D
330
1F
100
AcDbEntity
  8
AM_0
100
AcDbLine
 10
-114.9999999999997
 20
-8.999999999997669
 30
0.0
 11
-113.9999999999997
 21
-9.999999999997694
 31
0.0
1001
GENIUS_GENFIL_13
1070
     0
1040
1.0
1040
1.0
1040
20.0
1040
0.0
1002
{
1002
}
1001
GENIUS_GENODEF_13
1002
{
1000
HIER
1070
     0
1002
}
1002
{
1000
MANEDIT
1070
     0
1002
}
1002
{
1000
NOSEL
1070
     0
1002
}
1002
{
1000
BEHIND
1070
     0
1002
}
1002
{
1000
REACTOR
1002
}
1001
GENIUS_GENOBJ-N-CHA_13
1002
{
1000
OWNER
1000
GEN
1002
}
  0
POLYLINE
  5
1C0A
330
1F
100
AcDbEntity
  8
AM_0
100
AcDb2dPolyline
 66
     1
 10
0.0
 20
0.0
 30
0.0
 70
     2
  0
VERTEX
  5
1C0C
330
1C0A
100
AcDbEntity
  8
AM_0
100
AcDbVertex
100
AcDb2dVertex
 10
-49.99999999998814
 20
1.679628235870842
 30
0.0
 42
0.0290640361129574
  0
VERTEX
  5
1C14
330
1C0A
100
AcDbEntity
  8
AM_0
100
AcDbVertex
100
AcDb2dVertex
 10
-51.55870244363768
 20
2.114424269521313
 30
0.0
 42
0.034068200418627
 70
     1
  0
VERTEX
  5
1C0D
330
1C0A
100
AcDbEntity
  8
AM_0
100
AcDbVertex
100
AcDb2dVertex
 10
-52.92500000000032
 20
2.315068923843665
 30
0.0
 42
0.0329871020769936
  0
VERTEX
  5
1C15
330
1C0A
100
AcDbEntity
  8
AM_0
100
AcDbVertex
100
AcDb2dVertex
 10
-55.78234514799131
 20
2.348645029989887
 30
0.0
 42
0.0886001323054051
 70
     1
  0
VERTEX
  5
1C0E
330
1C0A
100
AcDbEntity
  8
AM_0
100
AcDbVertex
100
AcDb2dVertex
 10
-56.82500000000032
 20
2.103481594538355
 30
0.0
 42
0.1213106708945864
  0
VERTEX
  5
1C16
330
1C0A
100
AcDbEntity
  8
AM_0
100
AcDbVertex
100
AcDb2dVertex
 10
-57.53226774334873
 20
1.566795940080446
 30
0.0
 42
0.1507591296344841
 70
     1
  0
VERTEX
  5
1C0F
330
1C0A
100
AcDbEntity
  8
AM_0
100
AcDbVertex
100
AcDb2dVertex
 10
-57.80000000000032
 20
0.898366179098399
 30
0.0
 42
0.1283760080190568
  0
VERTEX
  5
1C17
330
1C0A
100
AcDbEntity
  8
AM_0
100
AcDbVertex
100
AcDb2dVertex
 10
-57.66501804154914
 20
0.1288681467000288
 30
0.0
 42
0.0618938791878175
 70
     1
  0
VERTEX
  5
1C10
330
1C0A
100
AcDbEntity
  8
AM_0
100
AcDbVertex
100
AcDb2dVertex
 10
-56.82500000000032
 20
-1.233171050400194
 30
0.0
 42
0.0481929539700185
  0
VERTEX
  5
1C19
330
1C0A
100
AcDbEntity
  8
AM_0
100
AcDbVertex
100
AcDb2dVertex
 10
-55.16359456074031
 20
-2.937738854262164
 30
0.0
 42
0.0345529008106971
 70
     1
  0
VERTEX
  5
1C11
330
1C0A
100
AcDbEntity
  8
AM_0
100
AcDbVertex
100
AcDb2dVertex
 10
-52.48955294851095
 20
-4.899040163544873
 30
0.0
 42
0.0388079084610097
  0
VERTEX
  5
1C18
330
1C0A
100
AcDbEntity
  8
AM_0
100
AcDbVertex
100
AcDb2dVertex
 10
-51.57957615600546
 20
-5.379949961869883
 30
0.0
 42
0.0236315572636524
 70
     1
  0
VERTEX
  5
1C12
330
1C0A
100
AcDbEntity
  8
AM_0
100
AcDbVertex
100
AcDb2dVertex
 10
-50.00000000000028
 20
-5.976932757094197
 30
0.0
  0
SEQEND
  5
1C13
330
1C0A
100
AcDbEntity
  8
AM_0
  0
VIEWPORT
  5
110
330
101
100
AcDbEntity
 67
     1
  8
0
100
AcDbViewport
 10
420.5
 20
297.0
 30
0.0
 40
948.9782706766916
 41
628.452
 68
     1
 69
     1
1001
ACAD
1000
MVIEW
1002
{
1070
    16
1010
0.0
1020
0.0
1030
0.0
1010
0.0
1020
0.0
1030
1.0
1040
0.0
1040
628.452
1040
420.5
1040
297.0
1040
50.0
1040
0.0
1040
0.0
1070
     0
1070
   100
1070
     1
1070
     1
1070
     0
1070
     0
1070
     0
1070
     0
1040
0.0
1040
0.0
1040
0.0
1040
10.0
1040
10.0
1040
10.0
1040
10.0
1070
     0
1002
{
1002
}
1002
}
  0
ENDSEC
  0
SECTION
  2
OBJECTS
  0
DICTIONARY
  5
C
330
0
100
AcDbDictionary
  3
ACAD_GROUP
350
D
  3
ACAD_LAYOUT
350
1A
  3
ACAD_MLINESTYLE
350
17
  3
ACAD_PLOTSETTINGS
350
19
  3
ACAD_PLOTSTYLENAME
350
E
  3
ACDBVARIABLEDICTIONARY
350
34
  3
ACMDICTIONARY
350
43
  3
AMG
350
2B
  3
AMGSNAPSETTINGS
350
6E
  3
DWGPROPS
350
1C34
  3
ACDBHEADERROUNDTRIPXREC
350
1C40
  0
DICTIONARY
  5
74
330
1F
100
AcDbDictionary
280
     1
  3
ACAD_INDEX
360
1C36
  3
ACAD_LAYOUTSELFREF
360
1C63
  0
DICTIONARY
  5
1C68
330
101
100
AcDbDictionary
280
     1
  3
ACAD_LAYOUTSELFREF
360
1C69
  0
DICTIONARY
  5
D
102
{ACAD_REACTORS
330
C
102
}
330
C
100
AcDbDictionary
  0
DICTIONARY
  5
1A
102
{ACAD_REACTORS
330
C
102
}
330
C
100
AcDbDictionary
  0
DICTIONARY
  5
17
102
{ACAD_REACTORS
330
C
102
}
330
C
100
AcDbDictionary
  3
STANDARD
350
18
  0
DICTIONARY
  5
19
102
{ACAD_REACTORS
330
C
102
}
330
C
100
AcDbDictionary
  0
ACDBDICTIONARYWDFLT
  5
E
102
{ACAD_REACTORS
330
C
102
}
330
C
100
AcDbDictionary
281
     1
  3
Normal
350
F
100
AcDbDictionaryWithDefault
340
F
  0
DICTIONARY
  5
34
102
{ACAD_REACTORS
330
C
102
}
330
C
100
AcDbDictionary
  3
INDEXCTL
350
35
  3
SORTENTS
350
B5E
  0
DICTIONARY
  5
43
102
{ACAD_REACTORS
330
C
102
}
330
C
100
AcDbDictionary
  3
ACMSTDDICTIONARY
350
260
  0
DICTIONARY
  5
2B
102
{ACAD_REACTORS
330
C
102
}
330
C
100
AcDbDictionary
  3
ACMGSETTINGS
350
2C
  0
DICTIONARY
  5
6E
102
{ACAD_REACTORS
330
C
102
}
330
C
100
AcDbDictionary
  0
XRECORD
  5
1C34
102
{ACAD_REACTORS
330
C
102
}
330
C
100
AcDbXrecord
  1
DWGPROPS COOKIE
  2

  3

  4

  6

  7

  8

  9

300
AmdtFileType=82
301
=
302
=
303
=
304
=
305
=
306
=
307
=
308
=
309
=
 40
0.0411933912037037
 41
2452836.771637361
 42
2452846.458273287
  1

 90
        1
  0
DICTIONARY
  5
1C40
102
{ACAD_REACTORS
330
C
102
}
330
C
100
AcDbDictionary
  3
TSTACKALIGN
350
1C41
  3
TSTACKSIZE
350
1C42
  3
HYPERLINKBASE
350
1C43
  3
STYLESHEET
350
1C44
  3
LAYOUTDICT
350
1C45
  3
PLOTSETDICT
350
1C46
  3
PLOTSTYLNAMDICT
350
1C47
  3
LWETCUNION
350
1C48
  3
INSUNITS
350
1C49
  3
CEPSNTYPE
350
1C4A
  3
FINGERPRINTGUID
350
1C4B
  3
VERSIONGUID
350
1C4C
  3
PSVPSCALE
350
1C4D
  3
DIMSTYLEDATA
350
1C4E
  3
PUCSORTHOREF
350
1C4F
  3
PUCSORTHOVIEW
350
1C50
  3
PUCSBASE
350
1C51
  3
PUCSORGTOP
350
1C52
  3
PUCSORGBOTTOM
350
1C53
  3
PUCSORGLEFT
350
1C54
  3
PUCSORGRIGHT
350
1C55
  3
PUCSORGFRONT
350
1C56
  3
PUCSORGBACK
350
1C57
  3
UCSORTHOREF
350
1C58
  3
UCSORTHOVIEW
350
1C59
  3
UCSBASE
350
1C5A
  3
UCSORGTOP
350
1C5B
  3
UCSORGBOTTOM
350
1C5C
  3
UCSORGLEFT
350
1C5D
  3
UCSORGRIGHT
350
1C5E
  3
UCSORGFRONT
350
1C5F
  3
UCSORGBACK
350
1C60
  0
DICTIONARY
  5
1C36
102
{ACAD_REACTORS
330
74
102
}
330
74
100
AcDbDictionary
  3
*A1
350
1C37
  0
XRECORD
  5
1C63
102
{ACAD_REACTORS
330
74
102
}
330
74
100
AcDbXrecord
340
1F
  0
XRECORD
  5
1C69
102
{ACAD_REACTORS
330
1C68
102
}
330
1C68
100
AcDbXrecord
340
101
  0
MLINESTYLE
  5
18
102
{ACAD_REACTORS
330
17
102
}
330
17
100
AcDbMlineStyle
  2
STANDARD
 70
     0
  3

 62
   256
 51
90.0
 52
90.0
 71
     2
 49
0.5
 62
   256
  6
BYLAYER
 49
-0.5
 62
   256
  6
BYLAYER
  0
ACDBPLACEHOLDER
  5
F
102
{ACAD_REACTORS
330
E
102
}
330
E
100
AcDbPlaceHolder
280
     0
  0
DICTIONARYVAR
  5
35
102
{ACAD_REACTORS
330
34
102
}
330
34
100
DictionaryVariables
280
     0
  1
1
  0
DICTIONARYVAR
  5
B5E
102
{ACAD_REACTORS
330
34
102
}
330
34
100
DictionaryVariables
280
     0
  1
96
  0
DICTIONARY
  5
260
102
{ACAD_REACTORS
330
43
102
}
330
43
100
AcDbDictionary
  0
DICTIONARY
  5
2C
102
{ACAD_REACTORS
330
2B
102
}
330
2B
100
AcDbDictionary
  3
DWGSETTINGS
350
2D
  0
XRECORD
  5
1C41
102
{ACAD_REACTORS
330
1C40
102
}
330
1C40
100
AcDbXrecord
 90
        1
  0
XRECORD
  5
1C42
102
{ACAD_REACTORS
330
1C40
102
}
330
1C40
100
AcDbXrecord
 90
       70
  0
XRECORD
  5
1C43
102
{ACAD_REACTORS
330
1C40
102
}
330
1C40
100
AcDbXrecord
  1

  0
XRECORD
  5
1C44
102
{ACAD_REACTORS
330
1C40
102
}
330
1C40
100
AcDbXrecord
  1
ASAMI.ctb
  0
XRECORD
  5
1C45
102
{ACAD_REACTORS
330
1C40
102
}
330
1C40
100
AcDbXrecord
340
1A
  0
XRECORD
  5
1C46
102
{ACAD_REACTORS
330
1C40
102
}
330
1C40
100
AcDbXrecord
340
19
  0
XRECORD
  5
1C47
102
{ACAD_REACTORS
330
1C40
102
}
330
1C40
100
AcDbXrecord
340
E
  0
XRECORD
  5
1C48
102
{ACAD_REACTORS
330
1C40
102
}
330
1C40
100
AcDbXrecord
 90
    10781
  0
XRECORD
  5
1C49
102
{ACAD_REACTORS
330
1C40
102
}
330
1C40
100
AcDbXrecord
 90
        4
  0
XRECORD
  5
1C4A
102
{ACAD_REACTORS
330
1C40
102
}
330
1C40
100
AcDbXrecord
 90
        0
  0
XRECORD
  5
1C4B
102
{ACAD_REACTORS
330
1C40
102
}
330
1C40
100
AcDbXrecord
  1
{AFB28963-8C59-40AE-9337-C84526B81ACE}
  0
XRECORD
  5
1C4C
102
{ACAD_REACTORS
330
1C40
102
}
330
1C40
100
AcDbXrecord
  1
{62CA350C-8318-4916-9793-C1634D282126}
  0
XRECORD
  5
1C4D
102
{ACAD_REACTORS
330
1C40
102
}
330
1C40
100
AcDbXrecord
 40
0.0
  0
XRECORD
  5
1C4E
102
{ACAD_REACTORS
330
1C40
102
}
330
1C40
100
AcDbXrecord
1000
DSTYLE
1002
{
1070
    79
 70
     2
1070
   341
340
59
1070
   342
340
59
1070
   371
 70
    -1
1070
   372
 70
    -1
1002
}
  0
XRECORD
  5
1C4F
102
{ACAD_REACTORS
330
1C40
102
}
330
1C40
100
AcDbXrecord
340
0
  0
XRECORD
  5
1C50
102
{ACAD_REACTORS
330
1C40
102
}
330
1C40
100
AcDbXrecord
 70
     0
  0
XRECORD
  5
1C51
102
{ACAD_REACTORS
330
1C40
102
}
330
1C40
100
AcDbXrecord
340
0
  0
XRECORD
  5
1C52
102
{ACAD_REACTORS
330
1C40
102
}
330
1C40
100
AcDbXrecord
 10
0.0
 20
0.0
 30
0.0
  0
XRECORD
  5
1C53
102
{ACAD_REACTORS
330
1C40
102
}
330
1C40
100
AcDbXrecord
 10
0.0
 20
0.0
 30
0.0
  0
XRECORD
  5
1C54
102
{ACAD_REACTORS
330
1C40
102
}
330
1C40
100
AcDbXrecord
 10
0.0
 20
0.0
 30
0.0
  0
XRECORD
  5
1C55
102
{ACAD_REACTORS
330
1C40
102
}
330
1C40
100
AcDbXrecord
 10
0.0
 20
0.0
 30
0.0
  0
XRECORD
  5
1C56
102
{ACAD_REACTORS
330
1C40
102
}
330
1C40
100
AcDbXrecord
 10
0.0
 20
0.0
 30
0.0
  0
XRECORD
  5
1C57
102
{ACAD_REACTORS
330
1C40
102
}
330
1C40
100
AcDbXrecord
 10
0.0
 20
0.0
 30
0.0
  0
XRECORD
  5
1C58
102
{ACAD_REACTORS
330
1C40
102
}
330
1C40
100
AcDbXrecord
340
0
  0
XRECORD
  5
1C59
102
{ACAD_REACTORS
330
1C40
102
}
330
1C40
100
AcDbXrecord
 70
     0
  0
XRECORD
  5
1C5A
102
{ACAD_REACTORS
330
1C40
102
}
330
1C40
100
AcDbXrecord
340
0
  0
XRECORD
  5
1C5B
102
{ACAD_REACTORS
330
1C40
102
}
330
1C40
100
AcDbXrecord
 10
0.0
 20
0.0
 30
0.0
  0
XRECORD
  5
1C5C
102
{ACAD_REACTORS
330
1C40
102
}
330
1C40
100
AcDbXrecord
 10
0.0
 20
0.0
 30
0.0
  0
XRECORD
  5
1C5D
102
{ACAD_REACTORS
330
1C40
102
}
330
1C40
100
AcDbXrecord
 10
0.0
 20
0.0
 30
0.0
  0
XRECORD
  5
1C5E
102
{ACAD_REACTORS
330
1C40
102
}
330
1C40
100
AcDbXrecord
 10
0.0
 20
0.0
 30
0.0
  0
XRECORD
  5
1C5F
102
{ACAD_REACTORS
330
1C40
102
}
330
1C40
100
AcDbXrecord
 10
0.0
 20
0.0
 30
0.0
  0
XRECORD
  5
1C60
102
{ACAD_REACTORS
330
1C40
102
}
330
1C40
100
AcDbXrecord
 10
0.0
 20
0.0
 30
0.0
  0
LAYER_INDEX
  5
1C37
102
{ACAD_REACTORS
330
1C36
102
}
330
1C36
100
AcDbIndex
 40
2453152.445470706
100
AcDbLayerIndex
  8
0
360
1C38
 90
        0
  8
AM_0
360
1C39
 90
       63
  8
AM_11
360
1C3A
 90
        3
  8
AM_7
360
1C3B
 90
        1
  8
AM_5
360
1C3C
 90
        4
  8
Defpoints
360
1C3D
 90
        0
  8
AM_6
360
1C3E
 90
        1
  0
XRECORD
  5
2D
102
{ACAD_REACTORS
330
2C
102
}
330
2C
100
AcDbXrecord
  1
VERSION
140
15.0
  1
PRODUCT
  2
AutoCAD Mechanical 2000
  0
IDBUFFER
  5
1C38
330
0
100
AcDbIdBuffer
  0
IDBUFFER
  5
1C39
330
0
100
AcDbIdBuffer
330
1863
330
1864
330
1865
330
1866
330
1899
330
18B1
330
18B2
330
18B3
330
194C
330
194D
330
1950
330
1951
330
196A
330
196D
330
1C0A
330
132A
330
138D
330
181F
330
1820
330
1821
330
1822
330
1823
330
1824
330
1825
330
1826
330
1827
330
1828
330
1829
330
182A
330
182B
330
182C
330
182D
330
182E
330
182F
330
1830
330
183D
330
183E
330
183F
330
1840
330
184B
330
184C
330
184D
330
184E
330
184F
330
1850
330
1851
330
1852
330
1853
330
1854
330
1855
330
1856
330
1857
330
1858
330
1859
330
185A
330
185B
330
185C
330
185D
330
185E
330
185F
330
1860
330
1861
330
1862
  0
IDBUFFER
  5
1C3A
330
0
100
AcDbIdBuffer
330
1848
330
1849
330
1870
  0
IDBUFFER
  5
1C3B
330
0
100
AcDbIdBuffer
330
132B
  0
IDBUFFER
  5
1C3C
330
0
100
AcDbIdBuffer
330
13B3
330
145B
330
14F3
330
1952
  0
IDBUFFER
  5
1C3D
330
0
100
AcDbIdBuffer
  0
IDBUFFER
  5
1C3E
330
0
100
AcDbIdBuffer
330
E5A
  0
ENDSEC
  0
EOF
