  0
SECTION
  2
HEADER
  9
$ACADVER
  1
AC1014
  9
$ACADMAINTVER
 70
     9
  9
$DWGCODEPAGE
  3
ANSI_932
  9
$INSBASE
 10
0.0
 20
0.0
 30
0.0
  9
$EXTMIN
 10
-91.4060202293305
 20
-32.25000100000006
 30
-0.00000001
  9
$EXTMAX
 10
8.805802841193788
 20
4.49999999999988
 30
0.00000001
  9
$LIMMIN
 10
-95.2507702155116
 20
-44.33043132995016
  9
$LIMMAX
 10
12.85960980109069
 20
16.96123439037171
  9
$ORTHOMODE
 70
     0
  9
$REGENMODE
 70
     1
  9
$FILLMODE
 70
     1
  9
$QTEXTMODE
 70
     0
  9
$MIRRTEXT
 70
     0
  9
$DRAGMODE
 70
     2
  9
$LTSCALE
 40
1.0
  9
$OSMODE
 70
    55
  9
$ATTMODE
 70
     1
  9
$TEXTSIZE
 40
2.5
  9
$TRACEWID
 40
1.0
  9
$TEXTSTYLE
  7
STANDARD
  9
$CLAYER
  8
AM_0
  9
$CELTYPE
  6
BYLAYER
  9
$CECOLOR
 62
   256
  9
$CELTSCALE
 40
1.0
  9
$DELOBJ
 70
     1
  9
$DISPSILH
 70
     0
  9
$DIMSCALE
 40
0.5
  9
$DIMASZ
 40
2.5
  9
$DIMEXO
 40
1.0
  9
$DIMDLI
 40
12.0
  9
$DIMRND
 40
0.0
  9
$DIMDLE
 40
0.0
  9
$DIMEXE
 40
1.0
  9
$DIMTP
 40
0.1
  9
$DIMTM
 40
0.1
  9
$DIMTXT
 40
3.2
  9
$DIMCEN
 40
0.0
  9
$DIMTSZ
 40
0.0
  9
$DIMTOL
 70
     0
  9
$DIMLIM
 70
     0
  9
$DIMTIH
 70
     0
  9
$DIMTOH
 70
     0
  9
$DIMSE1
 70
     0
  9
$DIMSE2
 70
     0
  9
$DIMTAD
 70
     3
  9
$DIMZIN
 70
     8
  9
$DIMBLK
  1
OPEN30
  9
$DIMASO
 70
     1
  9
$DIMSHO
 70
     1
  9
$DIMPOST
  1

  9
$DIMAPOST
  1
"
  9
$DIMALT
 70
     0
  9
$DIMALTD
 70
     2
  9
$DIMALTF
 40
0.0393701
  9
$DIMLFAC
 40
1.0
  9
$DIMTOFL
 70
     1
  9
$DIMTVP
 40
0.0
  9
$DIMTIX
 70
     0
  9
$DIMSOXD
 70
     0
  9
$DIMSAH
 70
     0
  9
$DIMBLK1
  1

  9
$DIMBLK2
  1

  9
$DIMSTYLE
  2
AM_JIS
  9
$DIMCLRD
 70
   256
  9
$DIMCLRE
 70
   256
  9
$DIMCLRT
 70
     2
  9
$DIMTFAC
 40
0.71
  9
$DIMGAP
 40
1.5
  9
$DIMJUST
 70
     0
  9
$DIMSD1
 70
     0
  9
$DIMSD2
 70
     0
  9
$DIMTOLJ
 70
     0
  9
$DIMTZIN
 70
     0
  9
$DIMALTZ
 70
     0
  9
$DIMALTTZ
 70
     0
  9
$DIMFIT
 70
     3
  9
$DIMUPT
 70
     0
  9
$DIMUNIT
 70
     2
  9
$DIMDEC
 70
     3
  9
$DIMTDEC
 70
     3
  9
$DIMALTU
 70
     2
  9
$DIMALTTD
 70
     2
  9
$DIMTXSTY
  7
ASAMI
  9
$DIMAUNIT
 70
     0
  9
$LUNITS
 70
     2
  9
$LUPREC
 70
     2
  9
$SKETCHINC
 40
1.0
  9
$FILLETRAD
 40
2.5
  9
$AUNITS
 70
     0
  9
$AUPREC
 70
     0
  9
$MENU
  1
.
  9
$ELEVATION
 40
0.0
  9
$PELEVATION
 40
0.0
  9
$THICKNESS
 40
0.0
  9
$LIMCHECK
 70
     0
  9
$BLIPMODE
 70
     0
  9
$CHAMFERA
 40
0.5
  9
$CHAMFERB
 40
0.5
  9
$CHAMFERC
 40
20.0
  9
$CHAMFERD
 40
0.0
  9
$SKPOLY
 70
     0
  9
$TDCREATE
 40
2452838.430434386
  9
$TDUPDATE
 40
2453152.436315925
  9
$TDINDWG
 40
0.2132920486
  9
$TDUSRTIMER
 40
0.2132920486
  9
$USRTIMER
 70
     1
  9
$ANGBASE
 50
0.0
  9
$ANGDIR
 70
     0
  9
$PDMODE
 70
     0
  9
$PDSIZE
 40
0.0
  9
$PLINEWID
 40
0.0
  9
$COORDS
 70
     1
  9
$SPLFRAME
 70
     0
  9
$SPLINETYPE
 70
     6
  9
$SPLINESEGS
 70
     8
  9
$ATTDIA
 70
     1
  9
$ATTREQ
 70
     1
  9
$HANDLING
 70
 12289
  9
$HANDSEED
  5
5EDC
  9
$SURFTAB1
 70
     6
  9
$SURFTAB2
 70
     6
  9
$SURFTYPE
 70
     6
  9
$SURFU
 70
     6
  9
$SURFV
 70
     6
  9
$UCSNAME
  2

  9
$UCSORG
 10
0.0
 20
0.0
 30
0.0
  9
$UCSXDIR
 10
1.0
 20
0.0
 30
0.0
  9
$UCSYDIR
 10
0.0
 20
1.0
 30
0.0
  9
$PUCSNAME
  2

  9
$PUCSORG
 10
0.0
 20
0.0
 30
0.0
  9
$PUCSXDIR
 10
1.0
 20
0.0
 30
0.0
  9
$PUCSYDIR
 10
0.0
 20
1.0
 30
0.0
  9
$USERI1
 70
     0
  9
$USERI2
 70
     0
  9
$USERI3
 70
     0
  9
$USERI4
 70
     0
  9
$USERI5
 70
     0
  9
$USERR1
 40
0.0
  9
$USERR2
 40
0.0
  9
$USERR3
 40
0.0
  9
$USERR4
 40
0.0
  9
$USERR5
 40
0.0
  9
$WORLDVIEW
 70
     1
  9
$SHADEDGE
 70
     3
  9
$SHADEDIF
 70
    70
  9
$TILEMODE
 70
     1
  9
$MAXACTVP
 70
    64
  9
$PINSBASE
 10
0.0
 20
0.0
 30
0.0
  9
$PLIMCHECK
 70
     0
  9
$PEXTMIN
 10
1.000000000000000E+20
 20
1.000000000000000E+20
 30
1.000000000000000E+20
  9
$PEXTMAX
 10
-1.000000000000000E+20
 20
-1.000000000000000E+20
 30
-1.000000000000000E+20
  9
$PLIMMIN
 10
0.0
 20
0.0
  9
$PLIMMAX
 10
841.0
 20
594.0
  9
$UNITMODE
 70
     0
  9
$VISRETAIN
 70
     1
  9
$PLINEGEN
 70
     0
  9
$PSLTSCALE
 70
     0
  9
$TREEDEPTH
 70
  3020
  9
$PICKSTYLE
 70
     0
  9
$CMLSTYLE
  2
STANDARD
  9
$CMLJUST
 70
     0
  9
$CMLSCALE
 40
20.0
  9
$PROXYGRAPHICS
 70
     1
  9
$MEASUREMENT
 70
     1
  0
ENDSEC
  0
SECTION
  2
CLASSES
  0
CLASS
  1
ACDBDICTIONARYWDFLT
  2
AcDbDictionaryWithDefault
  3
AutoCAD 2000
 90
        0
280
     0
281
     0
  0
CLASS
  1
ACDBPLACEHOLDER
  2
AcDbPlaceHolder
  3
AutoCAD 2000
 90
        0
280
     0
281
     0
  0
CLASS
  1
LAYOUT
  2
AcDbLayout
  3
AutoCAD 2000
 90
        0
280
     0
281
     0
  0
CLASS
  1
AMGSETTINGSOBJ
  2
AmgSettingsObj
  3
"AcadM|Product Description: AutoCAD Mechanical 2000|Company: Autodesk"
 90
        0
280
     0
281
     0
  0
CLASS
  1
ACME_DOCUMENT
  2
AcMeDbDoc
  3
AcMeServices
 90
        0
280
     0
281
     0
  0
CLASS
  1
ACMESCOPE
  2
AcMeScope
  3
AcMeServices
 90
        0
280
     0
281
     0
  0
CLASS
  1
ACMECOMMANDHISTORY
  2
AcMeCommandHistory
  3
AcMeServices
 90
        0
280
     0
281
     0
  0
CLASS
  1
DICTIONARYVAR
  2
AcDbDictionaryVar
  3
AutoCAD 2000
 90
        0
280
     0
281
     0
  0
CLASS
  1
ACIMSYSVARMAN
  2
AcImSysVarManager
  3
AcMeServices
 90
        0
280
     0
281
     0
  0
CLASS
  1
ACIMREALSYSVAR
  2
AcImRealSysVar
  3
AcMeServices
 90
        0
280
     0
281
     0
  0
CLASS
  1
ACIMINTSYSVAR
  2
AcImIntSysVar
  3
AcMeServices
 90
        0
280
     0
281
     0
  0
CLASS
  1
ACMEDRAWINGMAN
  2
AcMeDrawingMan
  3
AcMeServices
 90
        0
280
     0
281
     0
  0
CLASS
  1
ACMEVIEW
  2
AcMeView
  3
AcMeServices
 90
        0
280
     0
281
     0
  0
CLASS
  1
ACDBENTITYCACHE
  2
AcMeEntityCache
  3
AcMeServices
 90
        0
280
     0
281
     0
  0
CLASS
  1
GSMANAGER
  2
AcMeGSManager
  3
AcMeServices
 90
        0
280
     0
281
     0
  0
CLASS
  1
AmdtInternalReactor
  2
AmdtInternalReactor
  3
AcMeServices
 90
        0
280
     0
281
     0
  0
CLASS
  1
ACMESTATEMGR
  2
AcMeStateMgr
  3
AcMeServices
 90
        0
280
     0
281
     0
  0
CLASS
  1
ACME_DATABASE
  2
AcMeDbDatabase
  3
AcMeServices
 90
        0
280
     0
281
     0
  0
CLASS
  1
ACRFINSADJUSTERMGR
  2
AcRfInsAdjusterMgr
  3
AcMeServices
 90
        0
280
     0
281
     0
  0
CLASS
  1
ACMDATADICTIONARY
  2
AcmDataDictionary
  3
"AcmSymBB|Product Description: AutoCAD Mechanical 2000|Company: Autodesk"
 90
        0
280
     0
281
     0
  0
CLASS
  1
ACMDATAENTRYBLOCK
  2
AcmDataEntryBlock
  3
"AcmSymBB|Product Description: AutoCAD Mechanical 2000|Company: Autodesk"
 90
        0
280
     0
281
     0
  0
CLASS
  1
AMGOBJPROPCFG
  2
AmgObjPropCfg
  3
"AmgLay|Product Description: AutoCAD Mechanical 2000|Company: Autodesk"
 90
        1
280
     0
281
     0
  0
CLASS
  1
ACAMGFILTERDAT
  2
AcAmgFilterDat
  3
"AcadM|Product Description: AutoCAD Mechanical 2000|Company: Autodesk"
 90
        0
280
     0
281
     0
  0
CLASS
  1
LAYER_INDEX
  2
AcDbLayerIndex
  3
AutoCAD 2000
 90
        0
280
     0
281
     0
  0
CLASS
  1
IDBUFFER
  2
AcDbIdBuffer
  3
AutoCAD 2000
 90
        0
280
     0
281
     0
  0
CLASS
  1
ACIMSTRSYSVAR
  2
AcImStrSysVar
  3
AcMeServices
 90
        0
280
     0
281
     0
  0
CLASS
  1
ACMSTANDARDJIS
  2
AcmStandardJIS
  3
"AcmSymBB|Product Description: AutoCAD Mechanical 2000|Company: Autodesk"
 90
        0
280
     0
281
     0
  0
CLASS
  1
ACMSURFSTANDARDJIS
  2
AcmSurfTextStdJIS
  3
"AcmSymBB|Product Description: AutoCAD Mechanical 2000|Company: Autodesk"
 90
        0
280
     0
281
     0
  0
CLASS
  1
ACMFCFSTANDARDJIS
  2
AcmFCFStdJIS
  3
"AcmSymBB|Product Description: AutoCAD Mechanical 2000|Company: Autodesk"
 90
        0
280
     0
281
     0
  0
CLASS
  1
ACMWELDSTANDARDJIS
  2
AcmWeldingStdJIS
  3
"AcmSymBB|Product Description: AutoCAD Mechanical 2000|Company: Autodesk"
 90
        0
280
     0
281
     0
  0
CLASS
  1
ACMIDSTANDARDJIS
  2
AcmIdStdJIS
  3
"AcmSymBB|Product Description: AutoCAD Mechanical 2000|Company: Autodesk"
 90
        0
280
     0
281
     0
  0
CLASS
  1
ACMDATUMSTANDARDJIS
  2
AcmDatumStdJIS
  3
"AcmSymBB|Product Description: AutoCAD Mechanical 2000|Company: Autodesk"
 90
        0
280
     0
281
     0
  0
CLASS
  1
ACMBOMSTANDARDJIS
  2
AcmBOMStdJIS
  3
"AcmSymBB|Product Description: AutoCAD Mechanical 2000|Company: Autodesk"
 90
        0
280
     0
281
     0
  0
CLASS
  1
ACMSTANDARDANSI
  2
AcmStandardANSI
  3
"AcmSymBB|Product Description: AutoCAD Mechanical 2000|Company: Autodesk"
 90
        0
280
     0
281
     0
  0
CLASS
  1
ACMSURFSTANDARDANSI
  2
AcmSurfTextStdANSI
  3
"AcmSymBB|Product Description: AutoCAD Mechanical 2000|Company: Autodesk"
 90
        0
280
     0
281
     0
  0
CLASS
  1
ACMFCFSTANDARDANSI
  2
AcmFCFStdANSI
  3
"AcmSymBB|Product Description: AutoCAD Mechanical 2000|Company: Autodesk"
 90
        0
280
     0
281
     0
  0
CLASS
  1
ACMWELDSTANDARDANSI
  2
AcmWeldingStdANSI
  3
"AcmSymBB|Product Description: AutoCAD Mechanical 2000|Company: Autodesk"
 90
        0
280
     0
281
     0
  0
CLASS
  1
ACMIDSTANDARDANSI
  2
AcmIdStdANSI
  3
"AcmSymBB|Product Description: AutoCAD Mechanical 2000|Company: Autodesk"
 90
        0
280
     0
281
     0
  0
CLASS
  1
ACMDATUMSTANDARDANSI
  2
AcmDatumStdANSI
  3
"AcmSymBB|Product Description: AutoCAD Mechanical 2000|Company: Autodesk"
 90
        0
280
     0
281
     0
  0
CLASS
  1
ACMBOMSTANDARDANSI
  2
AcmBOMStdANSI
  3
"AcmSymBB|Product Description: AutoCAD Mechanical 2000|Company: Autodesk"
 90
        0
280
     0
281
     0
  0
CLASS
  1
ACMSTANDARDBSI
  2
AcmStandardBSI
  3
"AcmSymBB|Product Description: AutoCAD Mechanical 2000|Company: Autodesk"
 90
        0
280
     0
281
     0
  0
CLASS
  1
ACMSURFSTANDARDBSI
  2
AcmSurfTextStdBSI
  3
"AcmSymBB|Product Description: AutoCAD Mechanical 2000|Company: Autodesk"
 90
        0
280
     0
281
     0
  0
CLASS
  1
ACMFCFSTANDARDBSI
  2
AcmFCFStdBSI
  3
"AcmSymBB|Product Description: AutoCAD Mechanical 2000|Company: Autodesk"
 90
        0
280
     0
281
     0
  0
CLASS
  1
ACMWELDSTANDARDBSI
  2
AcmWeldingStdBSI
  3
"AcmSymBB|Product Description: AutoCAD Mechanical 2000|Company: Autodesk"
 90
        0
280
     0
281
     0
  0
CLASS
  1
ACMIDSTANDARDBSI
  2
AcmIdStdBSI
  3
"AcmSymBB|Product Description: AutoCAD Mechanical 2000|Company: Autodesk"
 90
        0
280
     0
281
     0
  0
CLASS
  1
ACMDATUMSTANDARDBSI
  2
AcmDatumStdBSI
  3
"AcmSymBB|Product Description: AutoCAD Mechanical 2000|Company: Autodesk"
 90
        0
280
     0
281
     0
  0
CLASS
  1
ACMBOMSTANDARDBSI
  2
AcmBOMStdBSI
  3
"AcmSymBB|Product Description: AutoCAD Mechanical 2000|Company: Autodesk"
 90
        0
280
     0
281
     0
  0
CLASS
  1
LONG_TRANSACTION
  2
AcDbLongTransaction
  3
AutoCAD 2000
 90
        0
280
     0
281
     0
  0
CLASS
  1
LWPOLYLINE
  2
AcDbPolyline
  3
AutoCAD 2000
 90
        0
280
     0
281
     1
  0
CLASS
  1
HATCH
  2
AcDbHatch
  3
AutoCAD 2000
 90
        0
280
     0
281
     1
  0
CLASS
  1
XRECORD
  2
AcDbXrecord
  3
AutoCAD 2000
 90
        0
280
     0
281
     0
  0
ENDSEC
  0
SECTION
  2
TABLES
  0
TABLE
  2
VPORT
  5
8
330
0
100
AcDbSymbolTable
 70
     3
  0
VPORT
  5
5EAB
330
8
100
AcDbSymbolTableRecord
100
AcDbViewportTableRecord
  2
*ACTIVE
 70
     0
 10
0.0
 20
0.0
 11
1.0
 21
1.0
 12
-32.13335894767645
 22
-1.979950041629813
 13
0.0
 23
0.0
 14
2.5
 24
2.5
 15
10.0
 25
10.0
 16
0.0
 26
0.0
 36
1.0
 17
0.0
 27
0.0
 37
0.0
 40
122.0916221681864
 41
1.56570841889117
 42
50.0
 43
0.0
 44
0.0
 50
0.0
 51
0.0
 71
     0
 72
   100
 73
     1
 74
     3
 75
     0
 76
     0
 77
     0
 78
     0
  0
ENDTAB
  0
TABLE
  2
LTYPE
  5
5
330
0
100
AcDbSymbolTable
 70
    10
  0
LTYPE
  5
14
330
5
100
AcDbSymbolTableRecord
100
AcDbLinetypeTableRecord
  2
BYBLOCK
 70
     0
  3

 72
    65
 73
     0
 40
0.0
  0
LTYPE
  5
15
330
5
100
AcDbSymbolTableRecord
100
AcDbLinetypeTableRecord
  2
BYLAYER
 70
     0
  3

 72
    65
 73
     0
 40
0.0
  0
LTYPE
  5
16
330
5
100
AcDbSymbolTableRecord
100
AcDbLinetypeTableRecord
  2
CONTINUOUS
 70
     0
  3
Solid line
 72
    65
 73
     0
 40
0.0
  0
LTYPE
  5
4B
330
5
100
AcDbSymbolTableRecord
100
AcDbLinetypeTableRecord
  2
AM_ISO02W050
 70
     0
  3
__ __ __ __ __ __ __ __ __ __ __ __ __ __ __
 72
    65
 73
     2
 40
7.5
 49
6.0
 74
     0
 49
-1.5
 74
     0
  0
LTYPE
  5
4C
330
5
100
AcDbSymbolTableRecord
100
AcDbLinetypeTableRecord
  2
AM_ISO08W050
 70
     0
  3
____ . ____ . ____ . ____ . ____ . ____ . ____
 72
    65
 73
     4
 40
18.0
 49
12.0
 74
     0
 49
-1.5
 74
     0
 49
3.0
 74
     0
 49
-1.5
 74
     0
  0
LTYPE
  5
4D
330
5
100
AcDbSymbolTableRecord
100
AcDbLinetypeTableRecord
  2
AM_ISO09W050
 70
     0
  3
_____ . . _____ . . _____ . . ____ .. ____
 72
    65
 73
     6
 40
22.5
 49
12.0
 74
     0
 49
-1.5
 74
     0
 49
3.0
 74
     0
 49
-1.5
 74
     0
 49
3.0
 74
     0
 49
-1.5
 74
     0
  0
LTYPE
  5
4E
330
5
100
AcDbSymbolTableRecord
100
AcDbLinetypeTableRecord
  2
AMCONSTR
 70
     0
  3
_______________________
 72
    65
 73
     2
 40
9999.0
 49
9999.0
 74
     0
 49
0.0
 74
     0
  0
LTYPE
  5
4F
330
5
100
AcDbSymbolTableRecord
100
AcDbLinetypeTableRecord
  2
AM_ISO02W050X2
 70
     0
  3
 _ _ _ _ _ _ _ _ _ _ _ _
 72
    65
 73
     2
 40
3.75
 49
3.0
 74
     0
 49
-0.75
 74
     0
  0
LTYPE
  5
50
330
5
100
AcDbSymbolTableRecord
100
AcDbLinetypeTableRecord
  2
AM_ISO08W050X2
 70
     0
  3
__ . __ . __ . __ . __ . __
 72
    65
 73
     4
 40
9.0
 49
6.0
 74
     0
 49
-0.75
 74
     0
 49
1.5
 74
     0
 49
-0.75
 74
     0
  0
LTYPE
  5
53
330
5
100
AcDbSymbolTableRecord
100
AcDbLinetypeTableRecord
  2
AMZIGZAG
 70
     0
  3
/\/-/\/-/\/-/\/-/\/-/\/
 72
    65
 73
     2
 40
11.00009999999999
 49
0.0001
 74
     4
 75
   135
340
52
 46
0.04
 50
0.0
 44
0.0
 45
0.0
 49
-11.0
 74
     0
  0
LTYPE
  5
166
330
5
100
AcDbSymbolTableRecord
100
AcDbLinetypeTableRecord
  2
ACJISTGL
 70
     0
  3
_ _ _ _ _
 72
    65
 73
     2
 40
3.0
 49
2.0
 74
     0
 49
-1.0
 74
     0
  0
LTYPE
  5
26A
330
5
100
AcDbSymbolTableRecord
100
AcDbLinetypeTableRecord
  2
ACJISTGB
 70
     0
  3
__ . . __ . .
 72
    65
 73
     6
 40
9.0
 49
4.0
 74
     0
 49
-1.0
 74
     0
 49
1.0
 74
     0
 49
-1.0
 74
     0
 49
1.0
 74
     0
 49
-1.0
 74
     0
  0
ENDTAB
  0
TABLE
  2
LAYER
  5
2
330
0
100
AcDbSymbolTable
 70
     7
  0
LAYER
  5
10
330
2
100
AcDbSymbolTableRecord
100
AcDbLayerTableRecord
  2
0
 70
     0
 62
     7
  6
CONTINUOUS
  0
LAYER
  5
3F9
330
2
100
AcDbSymbolTableRecord
100
AcDbLayerTableRecord
  2
AM_0
 70
     0
 62
     7
  6
CONTINUOUS
  0
LAYER
  5
BDD
330
2
100
AcDbSymbolTableRecord
100
AcDbLayerTableRecord
  2
AM_11
 70
     0
 62
     3
  6
AM_ISO09W050
  0
LAYER
  5
BDE
330
2
100
AcDbSymbolTableRecord
100
AcDbLayerTableRecord
  2
AM_7
 70
     0
 62
     4
  6
AM_ISO08W050
  0
LAYER
  5
BDF
330
2
100
AcDbSymbolTableRecord
100
AcDbLayerTableRecord
  2
AM_5
 70
     0
 62
     3
  6
CONTINUOUS
  0
LAYER
  5
BE0
330
2
100
AcDbSymbolTableRecord
100
AcDbLayerTableRecord
  2
DEFPOINTS
 70
     0
 62
     7
  6
CONTINUOUS
  0
LAYER
  5
14FF
330
2
100
AcDbSymbolTableRecord
100
AcDbLayerTableRecord
  2
AM_6
 70
     0
 62
     2
  6
CONTINUOUS
  0
ENDTAB
  0
TABLE
  2
STYLE
  5
3
330
0
100
AcDbSymbolTable
 70
     5
  0
STYLE
  5
11
330
3
100
AcDbSymbolTableRecord
100
AcDbTextStyleTableRecord
  2
STANDARD
 70
     0
 40
0.0
 41
1.0
 50
0.0
 71
     0
 42
2.5
  3
simplex.shx
  4
EXTFONT.SHX
  0
STYLE
  5
52
330
3
100
AcDbSymbolTableRecord
100
AcDbTextStyleTableRecord
  2

 70
     1
 40
0.0
 41
1.0
 50
0.0
 71
     0
 42
2.5
  3
ltypeshp.shx
  4

  0
STYLE
  5
6B
330
3
100
AcDbSymbolTableRecord
100
AcDbTextStyleTableRecord
  2
ASAMI
 70
     0
 40
0.0
 41
1.0
 50
0.0
 71
     0
 42
2.5
  3
simplex.shx
  4
EXTFONT.SHX
  0
STYLE
  5
262
330
3
100
AcDbSymbolTableRecord
100
AcDbTextStyleTableRecord
  2
ACJISTS
 70
     0
 40
1.0
 41
1.0
 50
0.0
 71
     0
 42
2.5
  3
simplex.shx
  4
bigfont.shx
  0
STYLE
  5
269
330
3
100
AcDbSymbolTableRecord
100
AcDbTextStyleTableRecord
  2
ACJISGDT
 70
     0
 40
0.0
 41
1.0
 50
0.0
 71
     0
 42
2.5
  3
amgdtans.shx
  4

  0
ENDTAB
  0
TABLE
  2
VIEW
  5
6
330
0
100
AcDbSymbolTable
 70
     0
  0
ENDTAB
  0
TABLE
  2
UCS
  5
7
330
0
100
AcDbSymbolTable
 70
     0
  0
ENDTAB
  0
TABLE
  2
APPID
  5
9
330
0
100
AcDbSymbolTable
 70
    14
  0
APPID
  5
12
330
9
100
AcDbSymbolTableRecord
100
AcDbRegAppTableRecord
  2
ACAD
 70
     0
  0
APPID
  5
30
330
9
100
AcDbSymbolTableRecord
100
AcDbRegAppTableRecord
  2
MCAD_NO_VIS
 70
     0
  0
APPID
  5
31
330
9
100
AcDbSymbolTableRecord
100
AcDbRegAppTableRecord
  2
ACAD_TEMP_GRAPHIC
 70
     0
  0
APPID
  5
2C2
330
9
100
AcDbSymbolTableRecord
100
AcDbRegAppTableRecord
  2
GENIUS_GENDTOL_13
 70
     0
  0
APPID
  5
339
330
9
100
AcDbSymbolTableRecord
100
AcDbRegAppTableRecord
  2
GENIUS_GENODEF_13
 70
     0
  0
APPID
  5
33A
330
9
100
AcDbSymbolTableRecord
100
AcDbRegAppTableRecord
  2
GENIUS_GENOBJ-N-RSBK_13
 70
     0
  0
APPID
  5
33B
330
9
100
AcDbSymbolTableRecord
100
AcDbRegAppTableRecord
  2
GENIUS_GENOBJ-N-LIB_13
 70
     0
  0
APPID
  5
33C
330
9
100
AcDbSymbolTableRecord
100
AcDbRegAppTableRecord
  2
GENIUS_GENSCALE_13
 70
     0
  0
APPID
  5
378
330
9
100
AcDbSymbolTableRecord
100
AcDbRegAppTableRecord
  2
GENIUS_GENDIMSH_14
 70
     0
  0
APPID
  5
BE1
330
9
100
AcDbSymbolTableRecord
100
AcDbRegAppTableRecord
  2
GENIUS_GENFIL_13
 70
     0
  0
APPID
  5
BE2
330
9
100
AcDbSymbolTableRecord
100
AcDbRegAppTableRecord
  2
GENIUS_GENOBJ-N-CHA_13
 70
     0
  0
APPID
  5
151B
330
9
100
AcDbSymbolTableRecord
100
AcDbRegAppTableRecord
  2
DCO15
 70
     0
  0
APPID
  5
1860
330
9
100
AcDbSymbolTableRecord
100
AcDbRegAppTableRecord
  2
GENIUS_GENOBJ-N-CEN_13
 70
     0
  0
APPID
  5
359C
330
9
100
AcDbSymbolTableRecord
100
AcDbRegAppTableRecord
  2
GENIUS_GENOBJ-N-FIL_13
 70
     0
  0
ENDTAB
  0
TABLE
  2
DIMSTYLE
  5
A
330
0
100
AcDbSymbolTable
 70
     8
  0
DIMSTYLE
105
58
102
{ACAD_REACTORS
330
4047
330
412A
330
42F4
330
4D75
330
517D
102
}
330
A
100
AcDbSymbolTableRecord
100
AcDbDimStyleTableRecord
  2
AM_JIS
 70
     0
  3

  4
"
  5
OPEN30
  6

  7

 40
0.5
 41
2.5
 42
1.0
 43
12.0
 44
1.0
 45
0.0
 46
0.0
 47
0.1
 48
0.1
140
3.2
141
0.0
142
0.0
143
0.0393701
144
1.0
145
0.0
146
0.71
147
1.5
 71
     0
 72
     0
 73
     0
 74
     0
 75
     0
 76
     0
 77
     3
 78
     8
170
     0
171
     2
172
     1
173
     0
174
     0
175
     0
176
   256
177
   256
178
     2
270
     2
271
     3
272
     3
273
     2
274
     2
340
6B
275
     0
280
     0
281
     0
282
     0
283
     0
284
     0
285
     0
286
     0
287
     3
288
     0
  0
DIMSTYLE
105
5F
330
A
100
AcDbSymbolTableRecord
100
AcDbDimStyleTableRecord
  2
AM_JIS$3
 70
     0
  3

  4
"
  5
OPEN30
  6

  7

 40
0.5
 41
2.5
 42
1.0
 43
10.0
 44
1.0
 45
0.0
 46
0.0
 47
0.1
 48
0.1
140
3.2
141
0.0
142
0.0
143
0.0393701
144
1.0
145
0.0
146
0.71
147
1.5
 71
     0
 72
     0
 73
     0
 74
     1
 75
     0
 76
     0
 77
     3
 78
     8
170
     0
171
     2
172
     0
173
     0
174
     0
175
     0
176
   256
177
   256
178
     2
270
     2
271
     2
272
     3
273
     2
274
     2
340
6B
275
     0
280
     0
281
     0
282
     0
283
     0
284
     0
285
     0
286
     0
287
     0
288
     1
  0
DIMSTYLE
105
60
102
{ACAD_REACTORS
330
58D1
102
}
330
A
100
AcDbSymbolTableRecord
100
AcDbDimStyleTableRecord
  2
AM_JIS$4
 70
     0
  3

  4
"
  5
OPEN30
  6

  7

 40
0.5
 41
2.5
 42
1.0
 43
10.0
 44
1.0
 45
0.0
 46
0.0
 47
0.1
 48
0.1
140
3.2
141
0.0
142
0.0
143
0.0393701
144
1.0
145
0.0
146
0.71
147
1.5
 71
     0
 72
     0
 73
     0
 74
     1
 75
     0
 76
     0
 77
     3
 78
     8
170
     0
171
     2
172
     0
173
     0
174
     0
175
     0
176
   256
177
   256
178
     2
270
     2
271
     2
272
     3
273
     2
274
     2
340
6B
275
     0
280
     0
281
     0
282
     0
283
     0
284
     0
285
     0
286
     0
287
     0
288
     1
  0
DIMSTYLE
105
61
330
A
100
AcDbSymbolTableRecord
100
AcDbDimStyleTableRecord
  2
AM_JIS$6
 70
     0
  3

  4
"
  5
OPEN30
  6

  7

 40
0.5
 41
2.5
 42
1.0
 43
10.0
 44
1.0
 45
0.0
 46
0.0
 47
0.1
 48
0.1
140
3.2
141
0.0
142
0.0
143
0.0393701
144
1.0
145
0.0
146
0.71
147
1.5
 71
     0
 72
     0
 73
     0
 74
     0
 75
     0
 76
     0
 77
     0
 78
     8
170
     0
171
     2
172
     1
173
     0
174
     0
175
     0
176
   256
177
   256
178
     2
270
     2
271
     2
272
     2
273
     2
274
     2
340
6B
275
     0
280
     0
281
     0
282
     0
283
     0
284
     0
285
     0
286
     0
287
     3
288
     0
  0
DIMSTYLE
105
62
330
A
100
AcDbSymbolTableRecord
100
AcDbDimStyleTableRecord
  2
AM_JIS$7
 70
     0
  3

  4
"
  5
OPEN30
  6

  7

 40
0.5
 41
2.5
 42
1.0
 43
10.0
 44
1.0
 45
0.0
 46
0.0
 47
0.1
 48
0.1
140
3.2
141
0.0
142
0.0
143
0.0393701
144
1.0
145
0.0
146
0.71
147
1.5
 71
     0
 72
     0
 73
     0
 74
     0
 75
     0
 76
     0
 77
     3
 78
     8
170
     0
171
     2
172
     1
173
     0
174
     0
175
     0
176
   256
177
   256
178
     2
270
     2
271
     2
272
     3
273
     2
274
     2
340
6B
275
     0
280
     0
281
     0
282
     0
283
     0
284
     0
285
     0
286
     0
287
     3
288
     0
  0
DIMSTYLE
105
63
330
A
100
AcDbSymbolTableRecord
100
AcDbDimStyleTableRecord
  2
AM_JIS$SF
 70
     0
  3

  4
"
  5
OPEN30
  6

  7

 40
0.5
 41
2.5
 42
1.0
 43
10.0
 44
1.0
 45
0.0
 46
0.0
 47
0.1
 48
0.1
140
3.2
141
0.0
142
0.0
143
0.0393701
144
1.0
145
0.0
146
0.71
147
1.5
 71
     0
 72
     0
 73
     0
 74
     0
 75
     1
 76
     1
 77
     3
 78
     8
170
     0
171
     2
172
     1
173
     0
174
     0
175
     0
176
   256
177
   256
178
     2
270
     2
271
     2
272
     2
273
     2
274
     2
340
6B
275
     0
280
     0
281
     0
282
     0
283
     0
284
     0
285
     0
286
     0
287
     3
288
     0
  0
DIMSTYLE
105
68
330
A
100
AcDbSymbolTableRecord
100
AcDbDimStyleTableRecord
  2
AM_JIS$SH
 70
     0
  3

  4
"
  5

  6
GENAXEH
  7
OPEN30
 40
0.5
 41
2.5
 42
1.0
 43
10.0
 44
1.0
 45
0.0
 46
0.0
 47
0.1
 48
0.1
140
3.2
141
0.0
142
0.0
143
0.0393701
144
2.0
145
0.0
146
0.71
147
1.5
 71
     0
 72
     0
 73
     0
 74
     0
 75
     1
 76
     1
 77
     3
 78
     8
170
     0
171
     2
172
     1
173
     1
174
     0
175
     0
176
   256
177
   256
178
     2
270
     2
271
     2
272
     2
273
     2
274
     2
340
6B
275
     0
280
     0
281
     0
282
     0
283
     0
284
     0
285
     0
286
     0
287
     3
288
     0
  0
DIMSTYLE
105
B34
330
A
100
AcDbSymbolTableRecord
100
AcDbDimStyleTableRecord
  2
AM_JIS$2
 70
     0
  3

  4
"
  5
OPEN30
  6

  7

 40
0.5
 41
2.5
 42
1.0
 43
12.0
 44
1.0
 45
0.0
 46
0.0
 47
0.1
 48
0.1
140
3.2
141
0.0
142
0.0
143
0.0393701
144
1.0
145
0.0
146
0.71
147
1.5
 71
     0
 72
     0
 73
     0
 74
     0
 75
     0
 76
     0
 77
     3
 78
     8
170
     0
171
     2
172
     1
173
     0
174
     0
175
     0
176
   256
177
   256
178
     2
270
     2
271
     3
272
     3
273
     2
274
     2
340
6B
275
     0
280
     0
281
     0
282
     0
283
     0
284
     0
285
     0
286
     0
287
     3
288
     0
  0
ENDTAB
  0
TABLE
  2
BLOCK_RECORD
  5
1
330
0
100
AcDbSymbolTable
 70
    11
  0
BLOCK_RECORD
  5
1F
102
{ACAD_XDICTIONARY
360
74
102
}
330
1
100
AcDbSymbolTableRecord
100
AcDbBlockTableRecord
  2
*MODEL_SPACE
  0
BLOCK_RECORD
  5
101
102
{ACAD_XDICTIONARY
360
5ED4
102
}
330
1
100
AcDbSymbolTableRecord
100
AcDbBlockTableRecord
  2
*PAPER_SPACE
  0
BLOCK_RECORD
  5
59
330
1
100
AcDbSymbolTableRecord
100
AcDbBlockTableRecord
  2
_OPEN30
  0
BLOCK_RECORD
  5
64
330
1
100
AcDbSymbolTableRecord
100
AcDbBlockTableRecord
  2
GENAXEH
  0
BLOCK_RECORD
  5
4048
330
1
100
AcDbSymbolTableRecord
100
AcDbBlockTableRecord
  2
*D5
  0
BLOCK_RECORD
  5
412B
330
1
100
AcDbSymbolTableRecord
100
AcDbBlockTableRecord
  2
*D6
  0
BLOCK_RECORD
  5
42F5
330
1
100
AcDbSymbolTableRecord
100
AcDbBlockTableRecord
  2
*D7
  0
BLOCK_RECORD
  5
4D76
330
1
100
AcDbSymbolTableRecord
100
AcDbBlockTableRecord
  2
*D8
  0
BLOCK_RECORD
  5
517E
330
1
100
AcDbSymbolTableRecord
100
AcDbBlockTableRecord
  2
*D9
  0
BLOCK_RECORD
  5
58D2
330
1
100
AcDbSymbolTableRecord
100
AcDbBlockTableRecord
  2
*D10
  0
ENDTAB
  0
ENDSEC
  0
SECTION
  2
BLOCKS
  0
BLOCK
  5
20
330
1F
100
AcDbEntity
  8
0
100
AcDbBlockBegin
  2
*MODEL_SPACE
 70
     0
 10
0.0
 20
0.0
 30
0.0
  3
*MODEL_SPACE
  1

  0
ENDBLK
  5
21
330
1F
100
AcDbEntity
  8
0
100
AcDbBlockEnd
  0
BLOCK
  5
103
330
101
100
AcDbEntity
 67
     1
  8
0
100
AcDbBlockBegin
  2
*PAPER_SPACE
 70
     0
 10
0.0
 20
0.0
 30
0.0
  3
*PAPER_SPACE
  1

  0
ENDBLK
  5
104
330
101
100
AcDbEntity
 67
     1
  8
0
100
AcDbBlockEnd
  0
BLOCK
  5
5D
330
59
100
AcDbEntity
  8
0
100
AcDbBlockBegin
  2
_OPEN30
 70
     0
 10
0.0
 20
0.0
 30
0.0
  3
_OPEN30
  1

  0
LINE
  5
5A
330
59
100
AcDbEntity
  8
0
 62
     0
100
AcDbLine
 10
-1.0
 20
0.26794919
 30
0.0
 11
0.0
 21
0.0
 31
0.0
  0
LINE
  5
5B
330
59
100
AcDbEntity
  8
0
 62
     0
100
AcDbLine
 10
0.0
 20
0.0
 30
0.0
 11
-1.0
 21
-0.26794919
 31
0.0
  0
LINE
  5
5C
330
59
100
AcDbEntity
  8
0
 62
     0
100
AcDbLine
 10
0.0
 20
0.0
 30
0.0
 11
-1.0
 21
0.0
 31
0.0
  0
ENDBLK
  5
5E
330
59
100
AcDbEntity
  8
0
100
AcDbBlockEnd
  0
BLOCK
  5
66
330
64
100
AcDbEntity
  8
0
100
AcDbBlockBegin
  2
GENAXEH
 70
     0
 10
0.0
 20
0.0
 30
0.0
  3
GENAXEH
  1

  0
LINE
  5
65
330
64
100
AcDbEntity
  8
0
100
AcDbLine
 10
-1.0
 20
0.0
 30
0.0
 11
1.0
 21
0.0
 31
0.0
  0
ENDBLK
  5
67
330
64
100
AcDbEntity
  8
0
100
AcDbBlockEnd
  0
BLOCK
  5
4052
330
4048
100
AcDbEntity
  8
0
100
AcDbBlockBegin
  2
*D5
 70
     1
 10
0.0
 20
0.0
 30
0.0
  3
*D5
  1

  0
LINE
  5
5645
330
4048
100
AcDbEntity
  8
AM_5
100
AcDbLine
 10
-79.9998250993709
 20
-2.000000000000078
 30
0.0
 11
-79.9998250993709
 21
-21.50000100000004
 31
0.0
  0
LINE
  5
5646
330
4048
100
AcDbEntity
  8
AM_5
100
AcDbLine
 10
0.0
 20
-0.4999999999999991
 30
0.0
 11
-0.0000000000000013
 21
-21.50000100000004
 31
0.0
  0
LINE
  5
5647
330
4048
100
AcDbEntity
  8
AM_5
100
AcDbLine
 10
-78.7498250993709
 20
-21.00000100000003
 30
0.0
 11
-1.250000000000001
 21
-21.00000100000003
 31
0.0
  0
INSERT
  5
5648
330
4048
100
AcDbEntity
  8
AM_5
100
AcDbBlockReference
  2
_OPEN30
 10
-79.9998250993709
 20
-21.00000100000003
 30
0.0
 41
1.25
 42
1.25
 43
1.25
 50
180.0
  0
INSERT
  5
5649
330
4048
100
AcDbEntity
  8
AM_5
100
AcDbBlockReference
  2
_OPEN30
 10
-0.0000000000000013
 20
-21.00000100000003
 30
0.0
 41
1.25
 42
1.25
 43
1.25
  0
MTEXT
  5
564A
330
4048
100
AcDbEntity
  8
AM_5
 62
     2
100
AcDbMText
 10
-39.99991254968545
 20
-19.45000100000004
 30
0.0
 40
1.6
 41
0.0
 71
     5
 72
     1
  1
80
  7
ASAMI
1001
ACAD
1000
MTEXTBEGIN
1070
    73
1070
     1
1070
    44
1040
1.0
1070
    74
1070
     0
1000
MTEXTEND
  0
POINT
  5
564B
330
4048
100
AcDbEntity
  8
DEFPOINTS
 62
     0
100
AcDbPoint
 10
-79.9998250993709
 20
-1.500000000000078
 30
0.0
  0
POINT
  5
564C
330
4048
100
AcDbEntity
  8
DEFPOINTS
 62
     0
100
AcDbPoint
 10
0.0
 20
0.0000000000000009
 30
0.0
  0
POINT
  5
564D
330
4048
100
AcDbEntity
  8
DEFPOINTS
 62
     0
100
AcDbPoint
 10
-0.0000000000000013
 20
-21.00000100000003
 30
0.0
  0
ENDBLK
  5
4053
330
4048
100
AcDbEntity
  8
0
100
AcDbBlockEnd
  0
BLOCK
  5
4135
330
412B
100
AcDbEntity
  8
0
100
AcDbBlockBegin
  2
*D6
 70
     1
 10
0.0
 20
0.0
 30
0.0
  3
*D6
  1

  0
LINE
  5
5CBD
330
412B
100
AcDbEntity
  8
AM_5
100
AcDbLine
 10
-0.0000000000000149
 20
-0.5000000000000097
 30
0.0
 11
-0.0000000000000155
 21
-9.500001000000048
 31
0.0
  0
LINE
  5
5CBE
330
412B
100
AcDbEntity
  8
AM_5
100
AcDbLine
 10
-3.000070401624458
 20
-1.000033611161977
 30
0.0
 11
-3.000070401624458
 21
-9.500001000000048
 31
0.0
  0
LINE
  5
5CBF
330
412B
100
AcDbEntity
  8
AM_5
100
AcDbLine
 10
1.249999999999984
 20
-9.000001000000048
 30
0.0
 11
2.499999999999984
 21
-9.000001000000048
 31
0.0
  0
LINE
  5
5CC0
330
412B
100
AcDbEntity
  8
AM_5
100
AcDbLine
 10
-4.250070401624459
 20
-9.000001000000048
 30
0.0
 11
-5.500070401624459
 21
-9.000001000000048
 31
0.0
  0
LINE
  5
5CC1
330
412B
100
AcDbEntity
  8
AM_5
100
AcDbLine
 10
-0.0000000000000154
 20
-9.000001000000048
 30
0.0
 11
-3.000070401624458
 21
-9.000001000000048
 31
0.0
  0
INSERT
  5
5CC2
330
412B
100
AcDbEntity
  8
AM_5
100
AcDbBlockReference
  2
_OPEN30
 10
-0.0000000000000154
 20
-9.000001000000048
 30
0.0
 41
1.25
 42
1.25
 43
1.25
 50
180.0
  0
INSERT
  5
5CC3
330
412B
100
AcDbEntity
  8
AM_5
100
AcDbBlockReference
  2
_OPEN30
 10
-3.000070401624458
 20
-9.000001000000048
 30
0.0
 41
1.25
 42
1.25
 43
1.25
  0
MTEXT
  5
5CC4
330
412B
100
AcDbEntity
  8
AM_5
 62
     2
100
AcDbMText
 10
-1.500035200812237
 20
-7.450001000000049
 30
0.0
 40
1.6
 41
0.0
 71
     5
 72
     1
  1
3
  7
ASAMI
1001
ACAD
1000
MTEXTBEGIN
1070
    73
1070
     1
1070
    44
1040
1.0
1070
    74
1070
     0
1000
MTEXTEND
  0
POINT
  5
5CC5
330
412B
100
AcDbEntity
  8
DEFPOINTS
 62
     0
100
AcDbPoint
 10
-0.0000000000000149
 20
-0.0000000000000097
 30
0.0
  0
POINT
  5
5CC6
330
412B
100
AcDbEntity
  8
DEFPOINTS
 62
     0
100
AcDbPoint
 10
-3.000070401624458
 20
-0.5000336111619771
 30
0.0
  0
POINT
  5
5CC7
330
412B
100
AcDbEntity
  8
DEFPOINTS
 62
     0
100
AcDbPoint
 10
-3.000070401624458
 20
-9.000001000000048
 30
0.0
  0
ENDBLK
  5
4136
330
412B
100
AcDbEntity
  8
0
100
AcDbBlockEnd
  0
BLOCK
  5
42FF
330
42F5
100
AcDbEntity
  8
0
100
AcDbBlockBegin
  2
*D7
 70
     1
 10
0.0
 20
0.0
 30
0.0
  3
*D7
  1

  0
LINE
  5
5816
330
42F5
100
AcDbEntity
  8
AM_5
100
AcDbLine
 10
0.0000000000000174
 20
0.5000447299800391
 30
0.0
 11
8.805802841193788
 21
0.5000447299800366
 31
0.0
  0
LINE
  5
5817
330
42F5
100
AcDbEntity
  8
AM_5
100
AcDbLine
 10
0.0000000000000159
 20
-0.500033611161867
 30
0.0
 11
8.805802841193788
 21
-0.5000336111618696
 31
0.0
  0
LINE
  5
5818
330
42F5
100
AcDbEntity
  8
AM_5
100
AcDbLine
 10
8.305802841193788
 20
1.750044729980036
 30
0.0
 11
8.305802841193788
 21
3.000044729980036
 31
0.0
  0
LINE
  5
5819
330
42F5
100
AcDbEntity
  8
AM_5
100
AcDbLine
 10
8.305802841193788
 20
-1.750033611161869
 30
0.0
 11
8.305802841193786
 21
-6.328605039733298
 31
0.0
  0
LINE
  5
581A
330
42F5
100
AcDbEntity
  8
AM_5
100
AcDbLine
 10
8.305802841193788
 20
0.5000447299800367
 30
0.0
 11
8.305802841193788
 21
-0.5000336111618694
 31
0.0
  0
INSERT
  5
581B
330
42F5
100
AcDbEntity
  8
AM_5
100
AcDbBlockReference
  2
_OPEN30
 10
8.305802841193788
 20
0.5000447299800367
 30
0.0
 41
1.25
 42
1.25
 43
1.25
 50
270.0
  0
INSERT
  5
581C
330
42F5
100
AcDbEntity
  8
AM_5
100
AcDbBlockReference
  2
_OPEN30
 10
8.305802841193788
 20
-0.5000336111618694
 30
0.0
 41
1.25
 42
1.25
 43
1.25
 50
90.0
  0
MTEXT
  5
581D
330
42F5
100
AcDbEntity
  8
AM_5
 62
     2
100
AcDbMText
 10
6.755802841193787
 20
-4.664319325447582
 30
0.0
 40
1.6
 41
0.0
 71
     5
 72
     1
  1
%%c1
  7
ASAMI
 11
0.0000000000000001
 21
1.0
 31
0.0
1001
ACAD
1000
MTEXTBEGIN
1070
    73
1070
     1
1070
    44
1040
1.0
1070
    74
1070
     0
1000
MTEXTEND
  0
POINT
  5
581E
330
42F5
100
AcDbEntity
  8
DEFPOINTS
 62
     0
100
AcDbPoint
 10
-0.4999999999999826
 20
0.5000447299800392
 30
0.0
  0
POINT
  5
581F
330
42F5
100
AcDbEntity
  8
DEFPOINTS
 62
     0
100
AcDbPoint
 10
-0.4999999999999841
 20
-0.5000336111618669
 30
0.0
  0
POINT
  5
5820
330
42F5
100
AcDbEntity
  8
DEFPOINTS
 62
     0
100
AcDbPoint
 10
8.305802841193788
 20
-0.5000336111618694
 30
0.0
  0
ENDBLK
  5
4300
330
42F5
100
AcDbEntity
  8
0
100
AcDbBlockEnd
  0
BLOCK
  5
4D80
330
4D76
100
AcDbEntity
  8
0
100
AcDbBlockBegin
  2
*D8
 70
     1
 10
0.0
 20
0.0
 30
0.0
  3
*D8
  1

  0
LINE
  5
5DCB
330
4D76
100
AcDbEntity
  8
AM_5
100
AcDbLine
 10
-0.0000000000000098
 20
-0.4999999999999996
 30
0.0
 11
-0.0000000000000107
 21
-15.50000100000005
 31
0.0
  0
LINE
  5
5DCC
330
4D76
100
AcDbEntity
  8
AM_5
100
AcDbLine
 10
-5.999825099370924
 20
-1.000033611161978
 30
0.0
 11
-5.999825099370925
 21
-15.50000100000005
 31
0.0
  0
LINE
  5
5DCD
330
4D76
100
AcDbEntity
  8
AM_5
100
AcDbLine
 10
-1.25000000000001
 20
-15.00000100000005
 30
0.0
 11
-4.749825099370925
 21
-15.00000100000005
 31
0.0
  0
INSERT
  5
5DCE
330
4D76
100
AcDbEntity
  8
AM_5
100
AcDbBlockReference
  2
_OPEN30
 10
-0.0000000000000107
 20
-15.00000100000005
 30
0.0
 41
1.25
 42
1.25
 43
1.25
  0
INSERT
  5
5DCF
330
4D76
100
AcDbEntity
  8
AM_5
100
AcDbBlockReference
  2
_OPEN30
 10
-5.999825099370925
 20
-15.00000100000005
 30
0.0
 41
1.25
 42
1.25
 43
1.25
 50
180.0
  0
MTEXT
  5
5DD0
330
4D76
100
AcDbEntity
  8
AM_5
 62
     2
100
AcDbMText
 10
-2.999912549685467
 20
-13.45000100000005
 30
0.0
 40
1.6
 41
0.0
 71
     5
 72
     1
  1
6
  7
ASAMI
1001
ACAD
1000
MTEXTBEGIN
1070
    73
1070
     1
1070
    44
1040
1.0
1070
    74
1070
     0
1000
MTEXTEND
  0
POINT
  5
5DD1
330
4D76
100
AcDbEntity
  8
DEFPOINTS
 62
     0
100
AcDbPoint
 10
-0.0000000000000098
 20
0.0000000000000005
 30
0.0
  0
POINT
  5
5DD2
330
4D76
100
AcDbEntity
  8
DEFPOINTS
 62
     0
100
AcDbPoint
 10
-5.999825099370924
 20
-0.5000336111619789
 30
0.0
  0
POINT
  5
5DD3
330
4D76
100
AcDbEntity
  8
DEFPOINTS
 62
     0
100
AcDbPoint
 10
-5.999825099370925
 20
-15.00000100000005
 30
0.0
  0
ENDBLK
  5
4D81
330
4D76
100
AcDbEntity
  8
0
100
AcDbBlockEnd
  0
BLOCK
  5
518A
330
517E
100
AcDbEntity
  8
0
100
AcDbBlockBegin
  2
*D9
 70
     1
 10
0.0
 20
0.0
 30
0.0
  3
*D9
  1

  0
LINE
  5
54F0
330
517E
100
AcDbEntity
  8
AM_5
100
AcDbLine
 10
-79.9998250993709
 20
1.999999999999878
 30
0.0
 11
-89.55602022933051
 21
1.99999999999988
 31
0.0
  0
LINE
  5
54F1
330
517E
100
AcDbEntity
  8
AM_5
100
AcDbLine
 10
-79.99982509937088
 20
-2.000000000000077
 30
0.0
 11
-89.55602022933051
 21
-2.000000000000075
 31
0.0
  0
LINE
  5
54F2
330
517E
100
AcDbEntity
  8
AM_5
100
AcDbLine
 10
-89.05602022933051
 20
3.24999999999988
 30
0.0
 11
-89.05602022933051
 21
4.49999999999988
 31
0.0
  0
LINE
  5
54F3
330
517E
100
AcDbEntity
  8
AM_5
100
AcDbLine
 10
-89.05602022933051
 20
-3.250000000000075
 30
0.0
 11
-89.05602022933051
 21
-8.590476190476264
 31
0.0
  0
LINE
  5
54F4
330
517E
100
AcDbEntity
  8
AM_5
100
AcDbLine
 10
-89.05602022933051
 20
1.99999999999988
 30
0.0
 11
-89.05602022933051
 21
-2.000000000000075
 31
0.0
  0
INSERT
  5
54F5
330
517E
100
AcDbEntity
  8
AM_5
100
AcDbBlockReference
  2
_OPEN30
 10
-89.05602022933051
 20
1.99999999999988
 30
0.0
 41
1.25
 42
1.25
 43
1.25
 50
270.0
  0
INSERT
  5
54F6
330
517E
100
AcDbEntity
  8
AM_5
100
AcDbBlockReference
  2
_OPEN30
 10
-89.05602022933051
 20
-2.000000000000075
 30
0.0
 41
1.25
 42
1.25
 43
1.25
 50
90.0
  0
MTEXT
  5
54F7
330
517E
100
AcDbEntity
  8
AM_5
 62
     2
100
AcDbMText
 10
-90.60602022933052
 20
-6.545238095238184
 30
0.0
 40
1.6
 41
0.0
 71
     5
 72
     1
  1
%%c4
  7
ASAMI
 11
0.0000000000000001
 21
1.0
 31
0.0
1001
ACAD
1000
MTEXTBEGIN
1070
    73
1070
     1
1070
    44
1040
1.0
1070
    74
1070
     0
1000
MTEXTEND
  0
POINT
  5
54F8
330
517E
100
AcDbEntity
  8
DEFPOINTS
 62
     0
100
AcDbPoint
 10
-79.49982509937091
 20
1.999999999999877
 30
0.0
  0
POINT
  5
54F9
330
517E
100
AcDbEntity
  8
DEFPOINTS
 62
     0
100
AcDbPoint
 10
-79.49982509937088
 20
-2.000000000000077
 30
0.0
  0
POINT
  5
54FA
330
517E
100
AcDbEntity
  8
DEFPOINTS
 62
     0
100
AcDbPoint
 10
-89.05602022933051
 20
-2.000000000000075
 30
0.0
  0
ENDBLK
  5
518B
330
517E
100
AcDbEntity
  8
0
100
AcDbBlockEnd
  0
BLOCK
  5
58D8
330
58D2
100
AcDbEntity
  8
0
100
AcDbBlockBegin
  2
*D10
 70
     1
 10
0.0
 20
0.0
 30
0.0
  3
*D10
  1

  0
LINE
  5
5ED6
330
58D2
100
AcDbEntity
  8
AM_5
100
AcDbLine
 10
4.068343899319509
 20
-9.46515386652887
 30
0.0
 11
0.2601754839223117
 21
-1.568675818032948
 31
0.0
  0
MTEXT
  5
5ED7
330
58D2
100
AcDbEntity
  8
AM_5
 62
     2
100
AcDbMText
 10
4.063058529549295
 20
-5.885939280404071
 30
0.0
 40
1.6
 41
0.0
 71
     5
 72
     1
  1
R0.5
  7
ASAMI
 11
0.4343859908127756
 21
-0.900726823729372
 31
0.0
  0
LINE
  5
5ED8
330
58D2
100
AcDbEntity
  8
AM_5
100
AcDbLine
 10
-0.5000000000000457
 20
0.0075961234934529
 30
0.0
 11
-0.2828070045936579
 21
-0.4427672883712335
 31
0.0
  0
INSERT
  5
5ED9
330
58D2
100
AcDbEntity
  8
AM_5
100
AcDbBlockReference
  2
_OPEN30
 10
-0.2828070045936579
 20
-0.4427672883712335
 30
0.0
 41
1.25
 42
1.25
 43
1.25
 50
115.7462299563433
  0
POINT
  5
5EDA
330
58D2
100
AcDbEntity
  8
DEFPOINTS
 62
     0
100
AcDbPoint
 10
-0.2828070045936579
 20
-0.4427672883712335
 30
0.0
  0
POINT
  5
5EDB
330
58D2
100
AcDbEntity
  8
DEFPOINTS
 62
     0
100
AcDbPoint
 10
-0.5000000000000457
 20
0.0075961234934529
 30
0.0
  0
ENDBLK
  5
58D9
330
58D2
100
AcDbEntity
  8
0
100
AcDbBlockEnd
  0
ENDSEC
  0
SECTION
  2
ENTITIES
  0
TEXT
  5
1500
330
1F
100
AcDbEntity
  8
AM_6
100
AcDbText
 10
-48.80943635920925
 20
-32.25000100000004
 30
0.0
 40
2.5
  1
LSSB2010
 72
     4
 11
-39.99991254968543
 21
-31.00000100000004
 31
0.0
100
AcDbText
  0
LINE
  5
3EE8
330
1F
100
AcDbEntity
  8
AM_7
  6
AM_ISO08W050X2
100
AcDbLine
 10
1.305801841193792
 20
0.0000000000000014
 30
0.0
 11
-82.05601922933052
 21
-0.0000000000000874
 31
0.0
1001
GENIUS_GENODEF_13
1002
{
1000
HIER
1070
     0
1002
}
1002
{
1000
MANEDIT
1070
     0
1002
}
1002
{
1000
NOSEL
1070
     0
1002
}
1002
{
1000
BEHIND
1070
     0
1002
}
1002
{
1000
REACTOR
1002
}
1001
GENIUS_GENOBJ-N-CEN_13
1002
{
1000
OWNER
1000
GEN
1002
}
  0
DIMENSION
  5
4047
330
1F
100
AcDbEntity
  8
AM_5
100
AcDbDimension
  2
*D5
 10
-0.0000000000000013
 20
-21.00000100000003
 30
0.0
 11
-39.99991254968545
 21
-19.45000100000004
 31
0.0
 70
    32
  1
<>
  3
AM_JIS
100
AcDbAlignedDimension
 13
-79.9998250993709
 23
-1.500000000000078
 33
0.0
 14
0.0
 24
0.0000000000000009
 34
0.0
 50
0.0000000000001132
100
AcDbRotatedDimension
1001
GENIUS_GENDTOL_13
1000

1000
h7
1000

1040
0.0
  0
DIMENSION
  5
412A
330
1F
100
AcDbEntity
  8
AM_5
100
AcDbDimension
  2
*D6
 10
-3.000070401624458
 20
-9.000001000000048
 30
0.0
 11
-1.500035200812237
 21
-9.000001000000048
 31
0.0
 70
   160
  1
<>
  3
AM_JIS
100
AcDbAlignedDimension
 13
-0.0000000000000149
 23
-0.0000000000000097
 33
0.0
 14
-3.000070401624458
 24
-0.5000336111619771
 34
0.0
 50
0.0000000000001132
100
AcDbRotatedDimension
1001
GENIUS_GENDTOL_13
1000

1000
h7
1000

1040
0.0
  0
DIMENSION
  5
42F4
330
1F
100
AcDbEntity
  8
AM_5
100
AcDbDimension
  2
*D7
 10
8.305802841193788
 20
-0.5000336111618694
 30
0.0
 11
6.755802841193787
 21
-4.664319325447582
 31
0.0
 70
    32
  1
%%c<>
  3
AM_JIS
100
AcDbAlignedDimension
 13
-0.4999999999999826
 23
0.5000447299800392
 33
0.0
 14
-0.4999999999999841
 24
-0.5000336111618669
 34
0.0
 50
90.0
100
AcDbRotatedDimension
1001
GENIUS_GENDTOL_13
1000

1000
h7
1000

1040
0.0
  0
LINE
  5
4B66
330
1F
100
AcDbEntity
  8
AM_0
100
AcDbLine
 10
-3.345550263302503
 20
0.4999663888381222
 30
0.0
 11
-5.999825099370959
 21
0.4999663888381203
 31
0.0
  0
LINE
  5
4B67
330
1F
100
AcDbEntity
  8
AM_0
100
AcDbLine
 10
-3.368532096915611
 20
-0.5000336111619773
 30
0.0
 11
-5.999825099370936
 21
-0.5000336111619789
 31
0.0
  0
LINE
  5
4CB9
330
1F
100
AcDbEntity
  8
AM_0
100
AcDbLine
 10
-5.99982509937096
 20
0.4999663888381204
 30
0.0
 11
-5.999825099370936
 21
-0.5000336111619789
 31
0.0
  0
DIMENSION
  5
4D75
330
1F
100
AcDbEntity
  8
AM_5
100
AcDbDimension
  2
*D8
 10
-5.999825099370925
 20
-15.00000100000005
 30
0.0
 11
-2.999912549685467
 21
-13.45000100000005
 31
0.0
 70
    32
  1
<>
  3
AM_JIS
100
AcDbAlignedDimension
 13
-0.0000000000000098
 23
0.0000000000000005
 33
0.0
 14
-5.999825099370924
 24
-0.5000336111619789
 34
0.0
 50
0.0000000000001641
100
AcDbRotatedDimension
1001
GENIUS_GENDTOL_13
1000

1000
h7
1000

1040
0.0
  0
LINE
  5
4F7E
330
1F
100
AcDbEntity
  8
AM_0
100
AcDbLine
 10
-14.50693844716822
 20
1.999999999999893
 30
0.0
 11
-14.50626211233492
 21
-2.00000000000006
 31
0.0
  0
LINE
  5
5178
330
1F
100
AcDbEntity
  8
AM_0
100
AcDbLine
 10
-14.50626211233492
 20
-2.00000000000006
 30
0.0
 11
-79.4998250993709
 21
-2.000000000000078
 31
0.0
  0
LINE
  5
517B
330
1F
100
AcDbEntity
  8
AM_0
100
AcDbLine
 10
-79.99982509937092
 20
1.499999999999877
 30
0.0
 11
-79.9998250993709
 21
-1.500000000000078
 31
0.0
  0
LINE
  5
517C
330
1F
100
AcDbEntity
  8
AM_0
100
AcDbLine
 10
-79.49982509937091
 20
1.999999999999877
 30
0.0
 11
-79.49982509937088
 21
-2.000000000000081
 31
0.0
  0
DIMENSION
  5
517D
330
1F
100
AcDbEntity
  8
AM_5
100
AcDbDimension
  2
*D9
 10
-89.05602022933051
 20
-2.000000000000075
 30
0.0
 11
-90.60602022933052
 21
-6.545238095238184
 31
0.0
 70
    32
  1
%%c<>
  3
AM_JIS
100
AcDbAlignedDimension
 13
-79.49982509937091
 23
1.999999999999877
 33
0.0
 14
-79.49982509937088
 24
-2.000000000000077
 34
0.0
 50
270.0
100
AcDbRotatedDimension
1001
GENIUS_GENDTOL_13
1000

1000
h7
1000

1040
0.0
  0
LINE
  5
518C
330
1F
100
AcDbEntity
  8
AM_0
100
AcDbLine
 10
-14.50693844716822
 20
1.999999999999893
 30
0.0
 11
-79.49982509937092
 21
1.999999999999877
 31
0.0
  0
LINE
  5
519A
330
1F
100
AcDbEntity
  8
AM_0
100
AcDbLine
 10
-79.99982509937092
 20
1.499999999999877
 30
0.0
 11
-79.49982509937092
 21
1.999999999999877
 31
0.0
1001
GENIUS_GENFIL_13
1070
     0
1040
0.5
1040
0.5
1040
20.0
1040
0.0
1002
{
1002
}
1001
GENIUS_GENODEF_13
1002
{
1000
HIER
1070
     0
1002
}
1002
{
1000
MANEDIT
1070
     0
1002
}
1002
{
1000
NOSEL
1070
     0
1002
}
1002
{
1000
BEHIND
1070
     0
1002
}
1002
{
1000
REACTOR
1002
}
1001
GENIUS_GENOBJ-N-CHA_13
1002
{
1000
OWNER
1000
GEN
1002
}
  0
LINE
  5
519D
330
1F
100
AcDbEntity
  8
AM_0
100
AcDbLine
 10
-79.9998250993709
 20
-1.500000000000078
 30
0.0
 11
-79.4998250993709
 21
-2.000000000000078
 31
0.0
1001
GENIUS_GENFIL_13
1070
     0
1040
0.5
1040
0.5
1040
20.0
1040
0.0
1002
{
1002
}
1001
GENIUS_GENODEF_13
1002
{
1000
HIER
1070
     0
1002
}
1002
{
1000
MANEDIT
1070
     0
1002
}
1002
{
1000
NOSEL
1070
     0
1002
}
1002
{
1000
BEHIND
1070
     0
1002
}
1002
{
1000
REACTOR
1002
}
1001
GENIUS_GENOBJ-N-CHA_13
1002
{
1000
OWNER
1000
GEN
1002
}
  0
LINE
  5
570E
330
1F
100
AcDbEntity
  8
AM_0
100
AcDbLine
 10
-14.50693844716822
 20
1.999999999999893
 30
0.0
 11
-5.999825099370973
 21
0.4999663888381198
 31
0.0
  0
LINE
  5
570F
330
1F
100
AcDbEntity
  8
AM_0
100
AcDbLine
 10
-5.999825099370936
 20
-0.5000336111619789
 30
0.0
 11
-14.50655721042597
 21
-2.00000000000006
 31
0.0
  0
DIMENSION
  5
58D1
330
1F
100
AcDbEntity
  8
AM_5
100
AcDbDimension
  2
*D10
 10
-0.5000000000000457
 20
0.0075961234934529
 30
0.0
 11
2.666931952768768
 21
-6.559237566163872
 31
0.0
 70
   164
  1
<>
  3
AM_JIS$4
100
AcDbRadialDimension
 15
-0.2828070045936579
 25
-0.4427672883712335
 35
0.0
 40
0.0
1001
GENIUS_GENDTOL_13
1000

1000
h7
1000

1040
0.0
1001
ACAD
1000
DSTYLE
1002
{
1070
   287
1070
     3
1070
   271
1070
     3
1070
   288
1070
     1
1070
   289
1070
     3
1070
   172
1070
     1
1070
    74
1070
     0
1002
}
  0
SPLINE
  5
5D7E
330
1F
100
AcDbEntity
  8
AM_0
100
AcDbSpline
210
0.0
220
0.0
230
1.0
 70
     8
 71
     3
 72
     8
 73
     4
 74
     0
 42
0.0000000001
 43
0.0000000001
 40
1.794922859428793
 40
1.794922859428793
 40
1.794922859428793
 40
1.794922859428793
 40
17.5282628916844
 40
17.5282628916844
 40
17.5282628916844
 40
17.5282628916844
 10
-0.4999999999996818
 20
-0.4924038765061363
 30
0.0
 10
-1.018093531297016
 20
-0.4487991802005576
 30
0.0
 10
-1.509853820163015
 20
-0.2243995901002795
 30
0.0
 10
-2.00161410902906
 20
0.0000000000000002
 30
0.0
  0
SPLINE
  5
5D80
330
1F
100
AcDbEntity
  8
AM_0
100
AcDbSpline
210
0.0
220
0.0
230
1.0
 70
     8
 71
     3
 72
     8
 73
     4
 74
     0
 42
0.0000000001
 43
0.0000000001
 40
6.513172597598655
 40
6.513172597598655
 40
6.513172597598655
 40
6.513172597598655
 40
17.4246383984571
 40
17.4246383984571
 40
17.4246383984571
 40
17.4246383984571
 10
-0.4999999999999986
 20
-0.3775354594359894
 30
0.0
 10
-0.8518271328707216
 20
-0.2895363497028478
 30
0.0
 10
-1.195984949480953
 20
-0.1447681748514247
 30
0.0
 10
-1.540142766091184
 20
0.0000000000000002
 30
0.0
  0
SPLINE
  5
5D81
330
1F
100
AcDbEntity
  8
AM_0
100
AcDbSpline
210
0.0
220
0.0
230
1.0
 70
     8
 71
     3
 72
     8
 73
     4
 74
     0
 42
0.0000000001
 43
0.0000000001
 40
1.794922859432252
 40
1.794922859432252
 40
1.794922859432252
 40
1.794922859432252
 40
8.217791785374707
 40
8.217791785374707
 40
8.217791785374707
 40
8.217791785374707
 10
-0.4999999999999986
 20
0.4924038765060816
 30
0.0
 10
-0.711502887249617
 20
0.4746029996196415
 30
0.0
 10
-0.9186172290712422
 20
0.4266718945007943
 30
0.0
 10
-1.123134574621188
 20
0.360910715233093
 30
0.0
  0
SPLINE
  5
5D82
330
1F
100
AcDbEntity
  8
AM_0
100
AcDbSpline
210
0.0
220
0.0
230
1.0
 70
     8
 71
     3
 72
     8
 73
     4
 74
     2
 42
0.0000000001
 43
0.0000000001
 44
0.0000000001
 12
-0.8789112757303589
 22
0.4769852926391262
 32
0.0
 13
0.9988106394578339
 23
0.0487576302319218
 33
0.0
 40
0.0
 40
0.0
 40
0.0
 40
0.0
 40
0.2157449860329392
 40
0.2157449860329392
 40
0.2157449860329392
 40
0.2157449860329392
 10
-0.522778136067926
 20
0.138885164884915
 30
0.0
 10
-0.585985036370139
 20
0.1731875599843635
 30
0.0
 10
-0.6653857218883909
 20
0.3391834613937663
 30
0.0
 10
-0.5935562594019304
 20
0.3426898661448947
 30
0.0
 11
-0.522778136067926
 21
0.138885164884915
 31
0.0
 11
-0.5935562594019304
 21
0.3426898661448947
 31
0.0
  0
SPLINE
  5
5D83
330
1F
100
AcDbEntity
  8
AM_0
100
AcDbSpline
210
0.0
220
0.0
230
1.0
 70
     8
 71
     3
 72
     8
 73
     4
 74
     2
 42
0.0000000001
 43
0.0000000001
 44
0.0000000001
 12
0.4216926876958761
 22
-0.9067388141818064
 32
0.0
 13
-0.9928045895078733
 23
-0.119745760058982
 33
0.0
 40
0.0
 40
0.0
 40
0.0
 40
0.0
 40
0.1765419456466307
 40
0.1765419456466307
 40
0.1765419456466307
 40
0.1765419456466307
 10
-0.4999999999999986
 20
0.4924038765060816
 30
0.0
 10
-0.4751845174830696
 20
0.4390447316897567
 30
0.0
 10
-0.5351323747806321
 20
0.3497365826325831
 30
0.0
 10
-0.5935562594068403
 20
0.3426898661446673
 30
0.0
 11
-0.4999999999999986
 21
0.4924038765060816
 31
0.0
 11
-0.5935562594068403
 21
0.3426898661446673
 31
0.0
  0
SPLINE
  5
5D84
330
1F
100
AcDbEntity
  8
AM_0
100
AcDbSpline
210
0.0
220
0.0
230
1.0
 70
     8
 71
     3
 72
     9
 73
     5
 74
     3
 42
0.0000000001
 43
0.0000000001
 44
0.0000000001
 12
0.5867325161912577
 22
-0.8097808064185491
 32
0.0
 13
-0.8994987856269103
 23
0.4369232594583561
 33
0.0
 40
0.0
 40
0.0
 40
0.0
 40
0.0
 40
0.0448013183098957
 40
0.1334662381801648
 40
0.1334662381801648
 40
0.1334662381801648
 40
0.1334662381801648
 10
-0.4386413907483501
 20
-0.3042599169378481
 30
0.0
 10
-0.4298792606748
 20
-0.3163529994943819
 30
0.0
 10
-0.3920827301210247
 20
-0.3595896484208004
 30
0.0
 10
-0.4734153374163271
 20
-0.3904487146991001
 30
0.0
 10
-0.4999999999999986
 20
-0.3775354594359894
 30
0.0
 11
-0.4386413907483501
 21
-0.3042599169378481
 31
0.0
 11
-0.4179277590882962
 21
-0.3439852688652534
 31
0.0
 11
-0.4999999999999986
 21
-0.3775354594359894
 31
0.0
  0
SPLINE
  5
5D85
330
1F
100
AcDbEntity
  8
AM_0
100
AcDbSpline
210
0.0
220
0.0
230
1.0
 70
     8
 71
     3
 72
     8
 73
     4
 74
     0
 42
0.0000000001
 43
0.0000000001
 40
15.41323093265439
 40
15.41323093265439
 40
15.41323093265439
 40
15.41323093265439
 40
17.52826289168434
 40
17.52826289168434
 40
17.52826289168434
 40
17.52826289168434
 10
-3.0
 20
0.2795629318574699
 30
0.0
 10
-2.625694942090512
 20
0.2115621549592339
 30
0.0
 10
-2.275051838334024
 20
0.1138364544671406
 30
0.0
 10
-2.00161410902906
 20
0.0000000000000002
 30
0.0
  0
SPLINE
  5
5D87
330
1F
100
AcDbEntity
  8
AM_0
100
AcDbSpline
210
0.0
220
0.0
230
1.0
 70
     8
 71
     3
 72
     8
 73
     4
 74
     0
 42
0.0000000001
 43
0.0000000001
 40
0.7484745895110383
 40
0.7484745895110383
 40
0.7484745895110383
 40
0.7484745895110383
 40
17.4246383984571
 40
17.4246383984571
 40
17.4246383984571
 40
17.4246383984571
 10
-3.34589635652312
 20
0.4999999999999896
 30
0.0
 10
-2.75363934349932
 20
0.4425029308078037
 30
0.0
 10
-2.267315229595476
 20
0.2899405455435107
 30
0.0
 10
-1.540142766091184
 20
0.0000000000000002
 30
0.0
  0
SPLINE
  5
5D88
330
1F
100
AcDbEntity
  8
AM_0
100
AcDbSpline
210
0.0
220
0.0
230
1.0
 70
     8
 71
     3
 72
     8
 73
     4
 74
     0
 42
0.0000000001
 43
0.0000000001
 40
0.0
 40
0.0
 40
0.0
 40
0.0
 40
2.890953265908282
 40
2.890953265908282
 40
2.890953265908282
 40
2.890953265908282
 10
-3.368532096920615
 20
-0.5000336111619773
 30
0.0
 10
-3.212193388147745
 20
-0.4844281252182297
 30
0.0
 10
-3.107929446176593
 20
-0.4615910411843663
 30
0.0
 10
-3.0
 20
-0.4309918276839183
 30
0.0
  0
LINE
  5
5D89
330
1F
100
AcDbEntity
  8
AM_11
100
AcDbLine
 10
-3.0
 20
-0.4999999999999999
 30
0.0
 11
-0.5000000000000002
 21
-0.4999999999999999
 31
0.0
  0
LINE
  5
5D8A
330
1F
100
AcDbEntity
  8
AM_11
100
AcDbLine
 10
-0.5000000000000002
 20
0.4999999999999878
 30
0.0
 11
-3.0
 21
0.4999999999999896
 31
0.0
  0
LINE
  5
5D8B
330
1F
100
AcDbEntity
  8
AM_0
100
AcDbLine
 10
-2.799017051208893
 20
0.4143235352617387
 30
0.0
 11
-0.5935562594019757
 21
0.3426898661448947
 31
0.0
  0
LINE
  5
5D8C
330
1F
100
AcDbEntity
  8
AM_0
100
AcDbLine
 10
-3.0
 20
-0.4309918276839201
 30
0.0
 11
-1.12313457462119
 21
-0.3609107152331263
 31
0.0
  0
LINE
  5
5D8D
330
1F
100
AcDbEntity
  8
AM_11
100
AcDbLine
 10
-3.0
 20
0.4999999999999896
 30
0.0
 11
-3.0
 21
-0.4999999999999999
 31
0.0
  0
POLYLINE
  5
5D8E
330
1F
100
AcDbEntity
  8
AM_0
100
AcDb2dPolyline
 66
     1
 10
0.0
 20
0.0
 30
0.0
 70
     2
  0
VERTEX
  5
5D8F
330
5D8E
100
AcDbEntity
  8
AM_0
100
AcDbVertex
100
AcDb2dVertex
 10
-3.0
 20
0.2795629318574699
 30
0.0
 42
0.0133190182982484
  0
VERTEX
  5
5D90
330
5D8E
100
AcDbEntity
  8
AM_0
100
AcDbVertex
100
AcDb2dVertex
 10
-3.113722420054402
 20
0.2599338729691889
 30
0.0
 42
0.0206055082738524
 70
     1
  0
VERTEX
  5
5D91
330
5D8E
100
AcDbEntity
  8
AM_0
100
AcDbVertex
100
AcDb2dVertex
 10
-3.186219195331979
 20
0.2422877564445456
 30
0.0
 42
0.0010255928715063
  0
VERTEX
  5
5D92
330
5D8E
100
AcDbEntity
  8
AM_0
100
AcDbVertex
100
AcDb2dVertex
 10
-3.282332924094998
 20
0.2144396250622782
 30
0.0
 42
0.0055579029936777
 70
     1
  0
VERTEX
  5
5D93
330
5D8E
100
AcDbEntity
  8
AM_0
100
AcDbVertex
100
AcDb2dVertex
 10
-3.299999999999999
 20
0.2090676118149199
 30
0.0
 42
0.0144265122349397
  0
VERTEX
  5
5D94
330
5D8E
100
AcDbEntity
  8
AM_0
100
AcDbVertex
100
AcDb2dVertex
 10
-3.388403721696795
 20
0.1782772928644827
 30
0.0
 42
0.0064805851230883
 70
     1
  0
VERTEX
  5
5D95
330
5D8E
100
AcDbEntity
  8
AM_0
100
AcDbVertex
100
AcDb2dVertex
 10
-3.58213110593406
 20
0.1015811563412063
 30
0.0
 42
0.0155505912919587
  0
VERTEX
  5
5D96
330
5D8E
100
AcDbEntity
  8
AM_0
100
AcDbVertex
100
AcDb2dVertex
 10
-3.656664504637185
 20
0.0682049855137967
 30
0.0
 42
0.0256792573039515
 70
     1
  0
VERTEX
  5
5D97
330
5D8E
100
AcDbEntity
  8
AM_0
100
AcDbVertex
100
AcDb2dVertex
 10
-3.7
 20
0.0443350670535774
 30
0.0
 42
0.0887915185079863
  0
VERTEX
  5
5D98
330
5D8E
100
AcDbEntity
  8
AM_0
100
AcDbVertex
100
AcDb2dVertex
 10
-3.738760671230834
 20
0.0095120985089283
 30
0.0
 42
0.0497717146308219
 70
     1
  0
VERTEX
  5
5D99
330
5D8E
100
AcDbEntity
  8
AM_0
100
AcDbVertex
100
AcDb2dVertex
 10
-3.788051105698288
 20
-0.0687104140336883
 30
0.0
 42
0.019220562583607
  0
VERTEX
  5
5D9A
330
5D8E
100
AcDbEntity
  8
AM_0
100
AcDbVertex
100
AcDb2dVertex
 10
-3.799335359892716
 20
-0.0936844322661832
 30
0.0
 42
0.1191256070877622
 70
     1
  0
VERTEX
  5
5D9B
330
5D8E
100
AcDbEntity
  8
AM_0
100
AcDbVertex
100
AcDb2dVertex
 10
-3.800000000000001
 20
-0.0981177005523877
 30
0.0
 42
0.1030806632905034
  0
VERTEX
  5
5D9C
330
5D8E
100
AcDbEntity
  8
AM_0
100
AcDbVertex
100
AcDb2dVertex
 10
-3.797964820306458
 20
-0.1048453739363386
 30
0.0
 42
0.0306967340520419
 70
     1
  0
VERTEX
  5
5D9D
330
5D8E
100
AcDbEntity
  8
AM_0
100
AcDbVertex
100
AcDb2dVertex
 10
-3.78553622861632
 20
-0.1246443451150474
 30
0.0
 42
0.0325479444974181
  0
VERTEX
  5
5D9E
330
5D8E
100
AcDbEntity
  8
AM_0
100
AcDbVertex
100
AcDb2dVertex
 10
-3.756791221963294
 20
-0.1596852098796739
 30
0.0
 42
0.0250903602213412
 70
     1
  0
VERTEX
  5
5D9F
330
5D8E
100
AcDbEntity
  8
AM_0
100
AcDbVertex
100
AcDb2dVertex
 10
-3.714540949275914
 20
-0.2005343958348928
 30
0.0
 42
0.0351390755216263
  0
VERTEX
  5
5DA0
330
5D8E
100
AcDbEntity
  8
AM_0
100
AcDbVertex
100
AcDb2dVertex
 10
-3.657415487732795
 20
-0.2437921999637724
 30
0.0
 42
0.029402247913624
 70
     1
  0
VERTEX
  5
5DA1
330
5D8E
100
AcDbEntity
  8
AM_0
100
AcDbVertex
100
AcDb2dVertex
 10
-3.583086606911912
 20
-0.2862596384920832
 30
0.0
 42
0.0290499554422328
  0
VERTEX
  5
5DA2
330
5D8E
100
AcDbEntity
  8
AM_0
100
AcDbVertex
100
AcDb2dVertex
 10
-3.462716591160237
 20
-0.3374654151435903
 30
0.0
 42
0.028925086886514
 70
     1
  0
VERTEX
  5
5DA3
330
5D8E
100
AcDbEntity
  8
AM_0
100
AcDbVertex
100
AcDb2dVertex
 10
-3.336691200972821
 20
-0.3745649756672937
 30
0.0
 42
0.0065284305324324
  0
VERTEX
  5
5DA4
330
5D8E
100
AcDbEntity
  8
AM_0
100
AcDbVertex
100
AcDb2dVertex
 10
-3.286949136658585
 20
-0.3854484483980742
 30
0.0
 42
0.0025850798106436
 70
     1
  0
VERTEX
  5
5DA5
330
5D8E
100
AcDbEntity
  8
AM_0
100
AcDbVertex
100
AcDb2dVertex
 10
-3.160853634338402
 20
-0.410638868323497
 30
0.0
 42
0.0165376614770678
  0
VERTEX
  5
5DA6
330
5D8E
100
AcDbEntity
  8
AM_0
100
AcDbVertex
100
AcDb2dVertex
 10
-3.104107231181774
 20
-0.4197345386164243
 30
0.0
 42
0.0090747089660156
 70
     1
  0
VERTEX
  5
5DA7
330
5D8E
100
AcDbEntity
  8
AM_0
100
AcDbVertex
100
AcDb2dVertex
 10
-3.0
 20
-0.4309918276839201
 30
0.0
  0
SEQEND
  5
5DA8
330
5D8E
100
AcDbEntity
  8
AM_0
  0
LINE
  5
5DAE
330
1F
100
AcDbEntity
  8
AM_0
100
AcDbLine
 10
-3.0
 20
0.2795629318574699
 30
0.0
 11
-3.0
 21
0.4536726450138018
 31
0.0
  0
ARC
  5
5DB1
330
1F
100
AcDbEntity
  8
AM_0
100
AcDbCircle
 10
-0.5000000000000469
 20
0.0075961234933859
 30
0.0
 40
0.5
100
AcDbArc
 50
270.0000000000781
 51
359.1295148788724
  0
ARC
  5
5DB2
330
1F
100
AcDbEntity
  8
AM_0
100
AcDbCircle
 10
-0.4839065548907924
 20
0.134325692481138
 30
0.0
 40
0.4409152660934631
100
AcDbArc
 50
275.8924707062756
 51
339.8416840647174
  0
ARC
  5
5DB3
330
1F
100
AcDbEntity
  8
AM_11
100
AcDbCircle
 10
-0.5000000000000016
 20
0.0000000000000002
 30
0.0
 40
0.5
100
AcDbArc
 50
270.0
 51
90.0
  0
ARC
  5
5DB5
330
1F
100
AcDbEntity
  8
AM_0
100
AcDbCircle
 10
-0.0205140912840777
 20
0.0046866413120592
 30
0.0
 40
0.5198830776355205
100
AcDbArc
 50
165.0407421323771
 51
216.4600123166024
  0
LINE
  5
5DB6
330
1F
100
AcDbEntity
  8
AM_0
100
AcDbLine
 10
-0.4999999999993649
 20
-0.4924038765066142
 30
0.0
 11
-0.5000000000000455
 21
-0.3775354594359894
 31
0.0
  0
LINE
  5
5DB8
330
1F
100
AcDbEntity
  8
AM_0
100
AcDbLine
 10
-0.0000000000000002
 20
0.0000000000000002
 30
0.0
 11
-0.5935562594019304
 21
0.3426898661448947
 31
0.0
  0
ARC
  5
5DB9
330
1F
100
AcDbEntity
  8
AM_0
100
AcDbCircle
 10
-0.5000000000000016
 20
-0.0075961234939077
 30
0.0
 40
0.5
100
AcDbArc
 50
0.8704851212057665
 51
90.0
  0
LINE
  5
5DBA
330
1F
100
AcDbEntity
  8
AM_0
100
AcDbLine
 10
-0.0700000000000271
 20
-0.017620468025507
 30
0.0
 11
-0.5227781360679276
 21
0.138885164884915
 31
0.0
  0
LINE
  5
5DBB
330
1F
100
AcDbEntity
  8
AM_0
100
AcDbLine
 10
-0.0000000000000016
 20
0.0000000000000002
 30
0.0
 11
-0.0700000000000271
 21
-0.017620468025507
 31
0.0
  0
VIEWPORT
  5
110
330
101
100
AcDbEntity
 67
     1
  8
0
100
AcDbViewport
 10
420.5
 20
297.0
 30
0.0
 40
948.9782706766916
 41
628.452
 68
     1
 69
     1
1001
ACAD
1000
MVIEW
1002
{
1070
    16
1010
0.0
1020
0.0
1030
0.0
1010
0.0
1020
0.0
1030
1.0
1040
0.0
1040
628.452
1040
420.5
1040
297.0
1040
50.0
1040
0.0
1040
0.0
1070
     0
1070
   100
1070
     1
1070
     1
1070
     0
1070
     0
1070
     0
1070
     0
1040
0.0
1040
0.0
1040
0.0
1040
10.0
1040
10.0
1040
10.0
1040
10.0
1070
     0
1002
{
1002
}
1002
}
  0
ENDSEC
  0
SECTION
  2
OBJECTS
  0
DICTIONARY
  5
C
330
0
100
AcDbDictionary
  3
ACAD_GROUP
350
D
  3
ACAD_LAYOUT
350
1A
  3
ACAD_MLINESTYLE
350
17
  3
ACAD_PLOTSETTINGS
350
19
  3
ACAD_PLOTSTYLENAME
350
E
  3
ACDBVARIABLEDICTIONARY
350
34
  3
ACMDICTIONARY
350
43
  3
AMG
350
2B
  3
AMGSNAPSETTINGS
350
6E
  3
ASE_INDEX_DICTIONARY
350
151A
  3
DWGPROPS
350
5EA0
  3
ACDBHEADERROUNDTRIPXREC
350
5EAC
  0
DICTIONARY
  5
74
330
1F
100
AcDbDictionary
280
     1
  3
ACAD_INDEX
360
5EA2
  3
ACAD_LAYOUTSELFREF
360
5ECF
  0
DICTIONARY
  5
5ED4
330
101
100
AcDbDictionary
280
     1
  3
ACAD_LAYOUTSELFREF
360
5ED5
  0
DICTIONARY
  5
D
102
{ACAD_REACTORS
330
C
102
}
330
C
100
AcDbDictionary
  0
DICTIONARY
  5
1A
102
{ACAD_REACTORS
330
C
102
}
330
C
100
AcDbDictionary
  0
DICTIONARY
  5
17
102
{ACAD_REACTORS
330
C
102
}
330
C
100
AcDbDictionary
  3
STANDARD
350
18
  0
DICTIONARY
  5
19
102
{ACAD_REACTORS
330
C
102
}
330
C
100
AcDbDictionary
  0
ACDBDICTIONARYWDFLT
  5
E
102
{ACAD_REACTORS
330
C
102
}
330
C
100
AcDbDictionary
281
     1
  3
Normal
350
F
100
AcDbDictionaryWithDefault
340
F
  0
DICTIONARY
  5
34
102
{ACAD_REACTORS
330
C
102
}
330
C
100
AcDbDictionary
  3
INDEXCTL
350
35
  3
SORTENTS
350
B5E
  0
DICTIONARY
  5
43
102
{ACAD_REACTORS
330
C
102
}
330
C
100
AcDbDictionary
  3
ACMSTDDICTIONARY
350
260
  0
DICTIONARY
  5
2B
102
{ACAD_REACTORS
330
C
102
}
330
C
100
AcDbDictionary
  3
ACMGSETTINGS
350
2C
  0
DICTIONARY
  5
6E
102
{ACAD_REACTORS
330
C
102
}
330
C
100
AcDbDictionary
  0
DICTIONARY
  5
151A
102
{ACAD_REACTORS
330
C
102
}
330
C
100
AcDbDictionary
  3
ASEBLOCKHIERARCHYINDEXRECORD
350
151C
1001
DCO15
1040
1471862535.906
  0
XRECORD
  5
5EA0
102
{ACAD_REACTORS
330
C
102
}
330
C
100
AcDbXrecord
  1
DWGPROPS COOKIE
  2

  3

  4

  6

  7

  8

  9

300
AmdtFileType=82
301
=
302
=
303
=
304
=
305
=
306
=
307
=
308
=
309
=
 40
0.213174849537037
 41
2452838.430434386
 42
2453045.709654954
  1

 90
        1
  0
DICTIONARY
  5
5EAC
102
{ACAD_REACTORS
330
C
102
}
330
C
100
AcDbDictionary
  3
TSTACKALIGN
350
5EAD
  3
TSTACKSIZE
350
5EAE
  3
HYPERLINKBASE
350
5EAF
  3
STYLESHEET
350
5EB0
  3
LAYOUTDICT
350
5EB1
  3
PLOTSETDICT
350
5EB2
  3
PLOTSTYLNAMDICT
350
5EB3
  3
LWETCUNION
350
5EB4
  3
INSUNITS
350
5EB5
  3
CEPSNTYPE
350
5EB6
  3
FINGERPRINTGUID
350
5EB7
  3
VERSIONGUID
350
5EB8
  3
PSVPSCALE
350
5EB9
  3
DIMSTYLEDATA
350
5EBA
  3
PUCSORTHOREF
350
5EBB
  3
PUCSORTHOVIEW
350
5EBC
  3
PUCSBASE
350
5EBD
  3
PUCSORGTOP
350
5EBE
  3
PUCSORGBOTTOM
350
5EBF
  3
PUCSORGLEFT
350
5EC0
  3
PUCSORGRIGHT
350
5EC1
  3
PUCSORGFRONT
350
5EC2
  3
PUCSORGBACK
350
5EC3
  3
UCSORTHOREF
350
5EC4
  3
UCSORTHOVIEW
350
5EC5
  3
UCSBASE
350
5EC6
  3
UCSORGTOP
350
5EC7
  3
UCSORGBOTTOM
350
5EC8
  3
UCSORGLEFT
350
5EC9
  3
UCSORGRIGHT
350
5ECA
  3
UCSORGFRONT
350
5ECB
  3
UCSORGBACK
350
5ECC
  0
DICTIONARY
  5
5EA2
102
{ACAD_REACTORS
330
74
102
}
330
74
100
AcDbDictionary
  3
*A1
350
5EA3
  0
XRECORD
  5
5ECF
102
{ACAD_REACTORS
330
74
102
}
330
74
100
AcDbXrecord
340
1F
  0
XRECORD
  5
5ED5
102
{ACAD_REACTORS
330
5ED4
102
}
330
5ED4
100
AcDbXrecord
340
101
  0
MLINESTYLE
  5
18
102
{ACAD_REACTORS
330
17
102
}
330
17
100
AcDbMlineStyle
  2
STANDARD
 70
     0
  3

 62
   256
 51
90.0
 52
90.0
 71
     2
 49
0.5
 62
   256
  6
BYLAYER
 49
-0.5
 62
   256
  6
BYLAYER
  0
ACDBPLACEHOLDER
  5
F
102
{ACAD_REACTORS
330
E
102
}
330
E
100
AcDbPlaceHolder
280
     0
  0
DICTIONARYVAR
  5
35
102
{ACAD_REACTORS
330
34
102
}
330
34
100
DictionaryVariables
280
     0
  1
1
  0
DICTIONARYVAR
  5
B5E
102
{ACAD_REACTORS
330
34
102
}
330
34
100
DictionaryVariables
280
     0
  1
96
  0
DICTIONARY
  5
260
102
{ACAD_REACTORS
330
43
102
}
330
43
100
AcDbDictionary
  0
DICTIONARY
  5
2C
102
{ACAD_REACTORS
330
2B
102
}
330
2B
100
AcDbDictionary
  3
DWGSETTINGS
350
2D
  0
XRECORD
  5
151C
102
{ACAD_REACTORS
330
151A
102
}
330
151A
100
AcDbXrecord
330
0
330
0
330
0
330
0
330
0
330
0
330
0
330
0
  0
XRECORD
  5
5EAD
102
{ACAD_REACTORS
330
5EAC
102
}
330
5EAC
100
AcDbXrecord
 90
        1
  0
XRECORD
  5
5EAE
102
{ACAD_REACTORS
330
5EAC
102
}
330
5EAC
100
AcDbXrecord
 90
       70
  0
XRECORD
  5
5EAF
102
{ACAD_REACTORS
330
5EAC
102
}
330
5EAC
100
AcDbXrecord
  1

  0
XRECORD
  5
5EB0
102
{ACAD_REACTORS
330
5EAC
102
}
330
5EAC
100
AcDbXrecord
  1
ASAMI.ctb
  0
XRECORD
  5
5EB1
102
{ACAD_REACTORS
330
5EAC
102
}
330
5EAC
100
AcDbXrecord
340
1A
  0
XRECORD
  5
5EB2
102
{ACAD_REACTORS
330
5EAC
102
}
330
5EAC
100
AcDbXrecord
340
19
  0
XRECORD
  5
5EB3
102
{ACAD_REACTORS
330
5EAC
102
}
330
5EAC
100
AcDbXrecord
340
E
  0
XRECORD
  5
5EB4
102
{ACAD_REACTORS
330
5EAC
102
}
330
5EAC
100
AcDbXrecord
 90
    10781
  0
XRECORD
  5
5EB5
102
{ACAD_REACTORS
330
5EAC
102
}
330
5EAC
100
AcDbXrecord
 90
        4
  0
XRECORD
  5
5EB6
102
{ACAD_REACTORS
330
5EAC
102
}
330
5EAC
100
AcDbXrecord
 90
        0
  0
XRECORD
  5
5EB7
102
{ACAD_REACTORS
330
5EAC
102
}
330
5EAC
100
AcDbXrecord
  1
{AFB28963-8C59-40AE-9337-C84526B81ACE}
  0
XRECORD
  5
5EB8
102
{ACAD_REACTORS
330
5EAC
102
}
330
5EAC
100
AcDbXrecord
  1
{196D343D-F467-45FB-AAA2-38F5374923EE}
  0
XRECORD
  5
5EB9
102
{ACAD_REACTORS
330
5EAC
102
}
330
5EAC
100
AcDbXrecord
 40
0.0
  0
XRECORD
  5
5EBA
102
{ACAD_REACTORS
330
5EAC
102
}
330
5EAC
100
AcDbXrecord
1000
DSTYLE
1002
{
1070
    79
 70
     2
1070
   341
340
59
1070
   342
340
59
1070
   371
 70
    -1
1070
   372
 70
    -1
1002
}
  0
XRECORD
  5
5EBB
102
{ACAD_REACTORS
330
5EAC
102
}
330
5EAC
100
AcDbXrecord
340
0
  0
XRECORD
  5
5EBC
102
{ACAD_REACTORS
330
5EAC
102
}
330
5EAC
100
AcDbXrecord
 70
     0
  0
XRECORD
  5
5EBD
102
{ACAD_REACTORS
330
5EAC
102
}
330
5EAC
100
AcDbXrecord
340
0
  0
XRECORD
  5
5EBE
102
{ACAD_REACTORS
330
5EAC
102
}
330
5EAC
100
AcDbXrecord
 10
0.0
 20
0.0
 30
0.0
  0
XRECORD
  5
5EBF
102
{ACAD_REACTORS
330
5EAC
102
}
330
5EAC
100
AcDbXrecord
 10
0.0
 20
0.0
 30
0.0
  0
XRECORD
  5
5EC0
102
{ACAD_REACTORS
330
5EAC
102
}
330
5EAC
100
AcDbXrecord
 10
0.0
 20
0.0
 30
0.0
  0
XRECORD
  5
5EC1
102
{ACAD_REACTORS
330
5EAC
102
}
330
5EAC
100
AcDbXrecord
 10
0.0
 20
0.0
 30
0.0
  0
XRECORD
  5
5EC2
102
{ACAD_REACTORS
330
5EAC
102
}
330
5EAC
100
AcDbXrecord
 10
0.0
 20
0.0
 30
0.0
  0
XRECORD
  5
5EC3
102
{ACAD_REACTORS
330
5EAC
102
}
330
5EAC
100
AcDbXrecord
 10
0.0
 20
0.0
 30
0.0
  0
XRECORD
  5
5EC4
102
{ACAD_REACTORS
330
5EAC
102
}
330
5EAC
100
AcDbXrecord
340
0
  0
XRECORD
  5
5EC5
102
{ACAD_REACTORS
330
5EAC
102
}
330
5EAC
100
AcDbXrecord
 70
     0
  0
XRECORD
  5
5EC6
102
{ACAD_REACTORS
330
5EAC
102
}
330
5EAC
100
AcDbXrecord
340
0
  0
XRECORD
  5
5EC7
102
{ACAD_REACTORS
330
5EAC
102
}
330
5EAC
100
AcDbXrecord
 10
0.0
 20
0.0
 30
0.0
  0
XRECORD
  5
5EC8
102
{ACAD_REACTORS
330
5EAC
102
}
330
5EAC
100
AcDbXrecord
 10
0.0
 20
0.0
 30
0.0
  0
XRECORD
  5
5EC9
102
{ACAD_REACTORS
330
5EAC
102
}
330
5EAC
100
AcDbXrecord
 10
0.0
 20
0.0
 30
0.0
  0
XRECORD
  5
5ECA
102
{ACAD_REACTORS
330
5EAC
102
}
330
5EAC
100
AcDbXrecord
 10
0.0
 20
0.0
 30
0.0
  0
XRECORD
  5
5ECB
102
{ACAD_REACTORS
330
5EAC
102
}
330
5EAC
100
AcDbXrecord
 10
0.0
 20
0.0
 30
0.0
  0
XRECORD
  5
5ECC
102
{ACAD_REACTORS
330
5EAC
102
}
330
5EAC
100
AcDbXrecord
 10
0.0
 20
0.0
 30
0.0
  0
LAYER_INDEX
  5
5EA3
102
{ACAD_REACTORS
330
5EA2
102
}
330
5EA2
100
AcDbIndex
 40
2453152.436315925
100
AcDbLayerIndex
  8
0
360
5EA4
 90
        0
  8
AM_0
360
5EA5
 90
       33
  8
AM_11
360
5EA6
 90
        4
  8
AM_7
360
5EA7
 90
        1
  8
AM_5
360
5EA8
 90
        6
  8
Defpoints
360
5EA9
 90
        0
  8
AM_6
360
5EAA
 90
        1
  0
XRECORD
  5
2D
102
{ACAD_REACTORS
330
2C
102
}
330
2C
100
AcDbXrecord
  1
VERSION
140
15.0
  1
PRODUCT
  2
AutoCAD Mechanical 2000
  0
IDBUFFER
  5
5EA4
330
0
100
AcDbIdBuffer
  0
IDBUFFER
  5
5EA5
330
0
100
AcDbIdBuffer
330
5D83
330
5D84
330
5D85
330
5D87
330
5D88
330
5D8B
330
5D8C
330
5D8E
330
5DAE
330
5DB1
330
5DB2
330
5DB5
330
5DB6
330
5DB8
330
5DB9
330
5DBA
330
5DBB
330
4B66
330
4B67
330
4CB9
330
4F7E
330
5178
330
517B
330
517C
330
518C
330
519A
330
519D
330
570E
330
570F
330
5D7E
330
5D80
330
5D81
330
5D82
  0
IDBUFFER
  5
5EA6
330
0
100
AcDbIdBuffer
330
5D89
330
5D8A
330
5D8D
330
5DB3
  0
IDBUFFER
  5
5EA7
330
0
100
AcDbIdBuffer
330
3EE8
  0
IDBUFFER
  5
5EA8
330
0
100
AcDbIdBuffer
330
4047
330
412A
330
42F4
330
4D75
330
517D
330
58D1
  0
IDBUFFER
  5
5EA9
330
0
100
AcDbIdBuffer
  0
IDBUFFER
  5
5EAA
330
0
100
AcDbIdBuffer
330
1500
  0
ENDSEC
  0
EOF
