  0
SECTION
  2
HEADER
  9
$ACADVER
  1
AC1014
  9
$ACADMAINTVER
 70
     9
  9
$DWGCODEPAGE
  3
ANSI_932
  9
$INSBASE
 10
0.0
 20
0.0
 30
0.0
  9
$EXTMIN
 10
-91.4060202293305
 20
-32.25000100000006
 30
-0.00000001
  9
$EXTMAX
 10
8.805802841193788
 20
4.49999999999988
 30
0.00000001
  9
$LIMMIN
 10
-95.2507702155116
 20
-44.33043132995016
  9
$LIMMAX
 10
12.85960980109069
 20
16.96123439037171
  9
$ORTHOMODE
 70
     0
  9
$REGENMODE
 70
     1
  9
$FILLMODE
 70
     1
  9
$QTEXTMODE
 70
     0
  9
$MIRRTEXT
 70
     0
  9
$DRAGMODE
 70
     2
  9
$LTSCALE
 40
1.0
  9
$OSMODE
 70
    55
  9
$ATTMODE
 70
     1
  9
$TEXTSIZE
 40
2.5
  9
$TRACEWID
 40
1.0
  9
$TEXTSTYLE
  7
STANDARD
  9
$CLAYER
  8
AM_0
  9
$CELTYPE
  6
BYLAYER
  9
$CECOLOR
 62
   256
  9
$CELTSCALE
 40
1.0
  9
$DELOBJ
 70
     1
  9
$DISPSILH
 70
     0
  9
$DIMSCALE
 40
0.5
  9
$DIMASZ
 40
2.5
  9
$DIMEXO
 40
1.0
  9
$DIMDLI
 40
12.0
  9
$DIMRND
 40
0.0
  9
$DIMDLE
 40
0.0
  9
$DIMEXE
 40
1.0
  9
$DIMTP
 40
0.1
  9
$DIMTM
 40
0.1
  9
$DIMTXT
 40
3.2
  9
$DIMCEN
 40
0.0
  9
$DIMTSZ
 40
0.0
  9
$DIMTOL
 70
     0
  9
$DIMLIM
 70
     0
  9
$DIMTIH
 70
     0
  9
$DIMTOH
 70
     0
  9
$DIMSE1
 70
     0
  9
$DIMSE2
 70
     0
  9
$DIMTAD
 70
     3
  9
$DIMZIN
 70
     8
  9
$DIMBLK
  1
OPEN30
  9
$DIMASO
 70
     1
  9
$DIMSHO
 70
     1
  9
$DIMPOST
  1

  9
$DIMAPOST
  1
"
  9
$DIMALT
 70
     0
  9
$DIMALTD
 70
     2
  9
$DIMALTF
 40
0.0393701
  9
$DIMLFAC
 40
1.0
  9
$DIMTOFL
 70
     1
  9
$DIMTVP
 40
0.0
  9
$DIMTIX
 70
     0
  9
$DIMSOXD
 70
     0
  9
$DIMSAH
 70
     0
  9
$DIMBLK1
  1

  9
$DIMBLK2
  1

  9
$DIMSTYLE
  2
AM_JIS
  9
$DIMCLRD
 70
   256
  9
$DIMCLRE
 70
   256
  9
$DIMCLRT
 70
     2
  9
$DIMTFAC
 40
0.71
  9
$DIMGAP
 40
1.5
  9
$DIMJUST
 70
     0
  9
$DIMSD1
 70
     0
  9
$DIMSD2
 70
     0
  9
$DIMTOLJ
 70
     0
  9
$DIMTZIN
 70
     0
  9
$DIMALTZ
 70
     0
  9
$DIMALTTZ
 70
     0
  9
$DIMFIT
 70
     3
  9
$DIMUPT
 70
     0
  9
$DIMUNIT
 70
     2
  9
$DIMDEC
 70
     3
  9
$DIMTDEC
 70
     3
  9
$DIMALTU
 70
     2
  9
$DIMALTTD
 70
     2
  9
$DIMTXSTY
  7
ASAMI
  9
$DIMAUNIT
 70
     0
  9
$LUNITS
 70
     2
  9
$LUPREC
 70
     2
  9
$SKETCHINC
 40
1.0
  9
$FILLETRAD
 40
2.5
  9
$AUNITS
 70
     0
  9
$AUPREC
 70
     0
  9
$MENU
  1
.
  9
$ELEVATION
 40
0.0
  9
$PELEVATION
 40
0.0
  9
$THICKNESS
 40
0.0
  9
$LIMCHECK
 70
     0
  9
$BLIPMODE
 70
     0
  9
$CHAMFERA
 40
0.5
  9
$CHAMFERB
 40
0.5
  9
$CHAMFERC
 40
20.0
  9
$CHAMFERD
 40
0.0
  9
$SKPOLY
 70
     0
  9
$TDCREATE
 40
2452838.430434386
  9
$TDUPDATE
 40
2453152.436464224
  9
$TDINDWG
 40
0.2005150810
  9
$TDUSRTIMER
 40
0.2005150810
  9
$USRTIMER
 70
     1
  9
$ANGBASE
 50
0.0
  9
$ANGDIR
 70
     0
  9
$PDMODE
 70
     0
  9
$PDSIZE
 40
0.0
  9
$PLINEWID
 40
0.0
  9
$COORDS
 70
     1
  9
$SPLFRAME
 70
     0
  9
$SPLINETYPE
 70
     6
  9
$SPLINESEGS
 70
     8
  9
$ATTDIA
 70
     1
  9
$ATTREQ
 70
     1
  9
$HANDLING
 70
 12289
  9
$HANDSEED
  5
59A2
  9
$SURFTAB1
 70
     6
  9
$SURFTAB2
 70
     6
  9
$SURFTYPE
 70
     6
  9
$SURFU
 70
     6
  9
$SURFV
 70
     6
  9
$UCSNAME
  2

  9
$UCSORG
 10
0.0
 20
0.0
 30
0.0
  9
$UCSXDIR
 10
1.0
 20
0.0
 30
0.0
  9
$UCSYDIR
 10
0.0
 20
1.0
 30
0.0
  9
$PUCSNAME
  2

  9
$PUCSORG
 10
0.0
 20
0.0
 30
0.0
  9
$PUCSXDIR
 10
1.0
 20
0.0
 30
0.0
  9
$PUCSYDIR
 10
0.0
 20
1.0
 30
0.0
  9
$USERI1
 70
     0
  9
$USERI2
 70
     0
  9
$USERI3
 70
     0
  9
$USERI4
 70
     0
  9
$USERI5
 70
     0
  9
$USERR1
 40
0.0
  9
$USERR2
 40
0.0
  9
$USERR3
 40
0.0
  9
$USERR4
 40
0.0
  9
$USERR5
 40
0.0
  9
$WORLDVIEW
 70
     1
  9
$SHADEDGE
 70
     3
  9
$SHADEDIF
 70
    70
  9
$TILEMODE
 70
     1
  9
$MAXACTVP
 70
    64
  9
$PINSBASE
 10
0.0
 20
0.0
 30
0.0
  9
$PLIMCHECK
 70
     0
  9
$PEXTMIN
 10
1.000000000000000E+20
 20
1.000000000000000E+20
 30
1.000000000000000E+20
  9
$PEXTMAX
 10
-1.000000000000000E+20
 20
-1.000000000000000E+20
 30
-1.000000000000000E+20
  9
$PLIMMIN
 10
0.0
 20
0.0
  9
$PLIMMAX
 10
841.0
 20
594.0
  9
$UNITMODE
 70
     0
  9
$VISRETAIN
 70
     1
  9
$PLINEGEN
 70
     0
  9
$PSLTSCALE
 70
     0
  9
$TREEDEPTH
 70
  3020
  9
$PICKSTYLE
 70
     0
  9
$CMLSTYLE
  2
STANDARD
  9
$CMLJUST
 70
     0
  9
$CMLSCALE
 40
20.0
  9
$PROXYGRAPHICS
 70
     1
  9
$MEASUREMENT
 70
     1
  0
ENDSEC
  0
SECTION
  2
CLASSES
  0
CLASS
  1
ACDBDICTIONARYWDFLT
  2
AcDbDictionaryWithDefault
  3
AutoCAD 2000
 90
        0
280
     0
281
     0
  0
CLASS
  1
ACDBPLACEHOLDER
  2
AcDbPlaceHolder
  3
AutoCAD 2000
 90
        0
280
     0
281
     0
  0
CLASS
  1
LAYOUT
  2
AcDbLayout
  3
AutoCAD 2000
 90
        0
280
     0
281
     0
  0
CLASS
  1
AMGSETTINGSOBJ
  2
AmgSettingsObj
  3
"AcadM|Product Description: AutoCAD Mechanical 2000|Company: Autodesk"
 90
        0
280
     0
281
     0
  0
CLASS
  1
ACME_DOCUMENT
  2
AcMeDbDoc
  3
AcMeServices
 90
        0
280
     0
281
     0
  0
CLASS
  1
ACMESCOPE
  2
AcMeScope
  3
AcMeServices
 90
        0
280
     0
281
     0
  0
CLASS
  1
ACMECOMMANDHISTORY
  2
AcMeCommandHistory
  3
AcMeServices
 90
        0
280
     0
281
     0
  0
CLASS
  1
DICTIONARYVAR
  2
AcDbDictionaryVar
  3
AutoCAD 2000
 90
        0
280
     0
281
     0
  0
CLASS
  1
ACIMSYSVARMAN
  2
AcImSysVarManager
  3
AcMeServices
 90
        0
280
     0
281
     0
  0
CLASS
  1
ACIMREALSYSVAR
  2
AcImRealSysVar
  3
AcMeServices
 90
        0
280
     0
281
     0
  0
CLASS
  1
ACIMINTSYSVAR
  2
AcImIntSysVar
  3
AcMeServices
 90
        0
280
     0
281
     0
  0
CLASS
  1
ACMEDRAWINGMAN
  2
AcMeDrawingMan
  3
AcMeServices
 90
        0
280
     0
281
     0
  0
CLASS
  1
ACMEVIEW
  2
AcMeView
  3
AcMeServices
 90
        0
280
     0
281
     0
  0
CLASS
  1
ACDBENTITYCACHE
  2
AcMeEntityCache
  3
AcMeServices
 90
        0
280
     0
281
     0
  0
CLASS
  1
GSMANAGER
  2
AcMeGSManager
  3
AcMeServices
 90
        0
280
     0
281
     0
  0
CLASS
  1
AmdtInternalReactor
  2
AmdtInternalReactor
  3
AcMeServices
 90
        0
280
     0
281
     0
  0
CLASS
  1
ACMESTATEMGR
  2
AcMeStateMgr
  3
AcMeServices
 90
        0
280
     0
281
     0
  0
CLASS
  1
ACME_DATABASE
  2
AcMeDbDatabase
  3
AcMeServices
 90
        0
280
     0
281
     0
  0
CLASS
  1
ACRFINSADJUSTERMGR
  2
AcRfInsAdjusterMgr
  3
AcMeServices
 90
        0
280
     0
281
     0
  0
CLASS
  1
ACMDATADICTIONARY
  2
AcmDataDictionary
  3
"AcmSymBB|Product Description: AutoCAD Mechanical 2000|Company: Autodesk"
 90
        0
280
     0
281
     0
  0
CLASS
  1
ACMDATAENTRYBLOCK
  2
AcmDataEntryBlock
  3
"AcmSymBB|Product Description: AutoCAD Mechanical 2000|Company: Autodesk"
 90
        0
280
     0
281
     0
  0
CLASS
  1
AMGOBJPROPCFG
  2
AmgObjPropCfg
  3
"AmgLay|Product Description: AutoCAD Mechanical 2000|Company: Autodesk"
 90
        1
280
     0
281
     0
  0
CLASS
  1
ACAMGFILTERDAT
  2
AcAmgFilterDat
  3
"AcadM|Product Description: AutoCAD Mechanical 2000|Company: Autodesk"
 90
        0
280
     0
281
     0
  0
CLASS
  1
LAYER_INDEX
  2
AcDbLayerIndex
  3
AutoCAD 2000
 90
        0
280
     0
281
     0
  0
CLASS
  1
IDBUFFER
  2
AcDbIdBuffer
  3
AutoCAD 2000
 90
        0
280
     0
281
     0
  0
CLASS
  1
ACIMSTRSYSVAR
  2
AcImStrSysVar
  3
AcMeServices
 90
        0
280
     0
281
     0
  0
CLASS
  1
ACMSTANDARDJIS
  2
AcmStandardJIS
  3
"AcmSymBB|Product Description: AutoCAD Mechanical 2000|Company: Autodesk"
 90
        0
280
     0
281
     0
  0
CLASS
  1
ACMSURFSTANDARDJIS
  2
AcmSurfTextStdJIS
  3
"AcmSymBB|Product Description: AutoCAD Mechanical 2000|Company: Autodesk"
 90
        0
280
     0
281
     0
  0
CLASS
  1
ACMFCFSTANDARDJIS
  2
AcmFCFStdJIS
  3
"AcmSymBB|Product Description: AutoCAD Mechanical 2000|Company: Autodesk"
 90
        0
280
     0
281
     0
  0
CLASS
  1
ACMWELDSTANDARDJIS
  2
AcmWeldingStdJIS
  3
"AcmSymBB|Product Description: AutoCAD Mechanical 2000|Company: Autodesk"
 90
        0
280
     0
281
     0
  0
CLASS
  1
ACMIDSTANDARDJIS
  2
AcmIdStdJIS
  3
"AcmSymBB|Product Description: AutoCAD Mechanical 2000|Company: Autodesk"
 90
        0
280
     0
281
     0
  0
CLASS
  1
ACMDATUMSTANDARDJIS
  2
AcmDatumStdJIS
  3
"AcmSymBB|Product Description: AutoCAD Mechanical 2000|Company: Autodesk"
 90
        0
280
     0
281
     0
  0
CLASS
  1
ACMBOMSTANDARDJIS
  2
AcmBOMStdJIS
  3
"AcmSymBB|Product Description: AutoCAD Mechanical 2000|Company: Autodesk"
 90
        0
280
     0
281
     0
  0
CLASS
  1
ACMSTANDARDANSI
  2
AcmStandardANSI
  3
"AcmSymBB|Product Description: AutoCAD Mechanical 2000|Company: Autodesk"
 90
        0
280
     0
281
     0
  0
CLASS
  1
ACMSURFSTANDARDANSI
  2
AcmSurfTextStdANSI
  3
"AcmSymBB|Product Description: AutoCAD Mechanical 2000|Company: Autodesk"
 90
        0
280
     0
281
     0
  0
CLASS
  1
ACMFCFSTANDARDANSI
  2
AcmFCFStdANSI
  3
"AcmSymBB|Product Description: AutoCAD Mechanical 2000|Company: Autodesk"
 90
        0
280
     0
281
     0
  0
CLASS
  1
ACMWELDSTANDARDANSI
  2
AcmWeldingStdANSI
  3
"AcmSymBB|Product Description: AutoCAD Mechanical 2000|Company: Autodesk"
 90
        0
280
     0
281
     0
  0
CLASS
  1
ACMIDSTANDARDANSI
  2
AcmIdStdANSI
  3
"AcmSymBB|Product Description: AutoCAD Mechanical 2000|Company: Autodesk"
 90
        0
280
     0
281
     0
  0
CLASS
  1
ACMDATUMSTANDARDANSI
  2
AcmDatumStdANSI
  3
"AcmSymBB|Product Description: AutoCAD Mechanical 2000|Company: Autodesk"
 90
        0
280
     0
281
     0
  0
CLASS
  1
ACMBOMSTANDARDANSI
  2
AcmBOMStdANSI
  3
"AcmSymBB|Product Description: AutoCAD Mechanical 2000|Company: Autodesk"
 90
        0
280
     0
281
     0
  0
CLASS
  1
ACMSTANDARDBSI
  2
AcmStandardBSI
  3
"AcmSymBB|Product Description: AutoCAD Mechanical 2000|Company: Autodesk"
 90
        0
280
     0
281
     0
  0
CLASS
  1
ACMSURFSTANDARDBSI
  2
AcmSurfTextStdBSI
  3
"AcmSymBB|Product Description: AutoCAD Mechanical 2000|Company: Autodesk"
 90
        0
280
     0
281
     0
  0
CLASS
  1
ACMFCFSTANDARDBSI
  2
AcmFCFStdBSI
  3
"AcmSymBB|Product Description: AutoCAD Mechanical 2000|Company: Autodesk"
 90
        0
280
     0
281
     0
  0
CLASS
  1
ACMWELDSTANDARDBSI
  2
AcmWeldingStdBSI
  3
"AcmSymBB|Product Description: AutoCAD Mechanical 2000|Company: Autodesk"
 90
        0
280
     0
281
     0
  0
CLASS
  1
ACMIDSTANDARDBSI
  2
AcmIdStdBSI
  3
"AcmSymBB|Product Description: AutoCAD Mechanical 2000|Company: Autodesk"
 90
        0
280
     0
281
     0
  0
CLASS
  1
ACMDATUMSTANDARDBSI
  2
AcmDatumStdBSI
  3
"AcmSymBB|Product Description: AutoCAD Mechanical 2000|Company: Autodesk"
 90
        0
280
     0
281
     0
  0
CLASS
  1
ACMBOMSTANDARDBSI
  2
AcmBOMStdBSI
  3
"AcmSymBB|Product Description: AutoCAD Mechanical 2000|Company: Autodesk"
 90
        0
280
     0
281
     0
  0
CLASS
  1
LONG_TRANSACTION
  2
AcDbLongTransaction
  3
AutoCAD 2000
 90
        0
280
     0
281
     0
  0
CLASS
  1
LWPOLYLINE
  2
AcDbPolyline
  3
AutoCAD 2000
 90
        0
280
     0
281
     1
  0
CLASS
  1
HATCH
  2
AcDbHatch
  3
AutoCAD 2000
 90
        0
280
     0
281
     1
  0
CLASS
  1
XRECORD
  2
AcDbXrecord
  3
AutoCAD 2000
 90
        0
280
     0
281
     0
  0
ENDSEC
  0
SECTION
  2
TABLES
  0
TABLE
  2
VPORT
  5
8
330
0
100
AcDbSymbolTable
 70
     3
  0
VPORT
  5
5971
330
8
100
AcDbSymbolTableRecord
100
AcDbViewportTableRecord
  2
*ACTIVE
 70
     0
 10
0.0
 20
0.0
 11
1.0
 21
1.0
 12
-38.09204135595041
 22
-6.516119940134444
 13
0.0
 23
0.0
 14
2.5
 24
2.5
 15
10.0
 25
10.0
 16
0.0
 26
0.0
 36
1.0
 17
0.0
 27
0.0
 37
0.0
 40
75.83747400308308
 41
1.56570841889117
 42
50.0
 43
0.0
 44
0.0
 50
0.0
 51
0.0
 71
     0
 72
   100
 73
     1
 74
     3
 75
     0
 76
     0
 77
     0
 78
     0
  0
ENDTAB
  0
TABLE
  2
LTYPE
  5
5
330
0
100
AcDbSymbolTable
 70
    10
  0
LTYPE
  5
14
330
5
100
AcDbSymbolTableRecord
100
AcDbLinetypeTableRecord
  2
BYBLOCK
 70
     0
  3

 72
    65
 73
     0
 40
0.0
  0
LTYPE
  5
15
330
5
100
AcDbSymbolTableRecord
100
AcDbLinetypeTableRecord
  2
BYLAYER
 70
     0
  3

 72
    65
 73
     0
 40
0.0
  0
LTYPE
  5
16
330
5
100
AcDbSymbolTableRecord
100
AcDbLinetypeTableRecord
  2
CONTINUOUS
 70
     0
  3
Solid line
 72
    65
 73
     0
 40
0.0
  0
LTYPE
  5
4B
330
5
100
AcDbSymbolTableRecord
100
AcDbLinetypeTableRecord
  2
AM_ISO02W050
 70
     0
  3
__ __ __ __ __ __ __ __ __ __ __ __ __ __ __
 72
    65
 73
     2
 40
7.5
 49
6.0
 74
     0
 49
-1.5
 74
     0
  0
LTYPE
  5
4C
330
5
100
AcDbSymbolTableRecord
100
AcDbLinetypeTableRecord
  2
AM_ISO08W050
 70
     0
  3
____ . ____ . ____ . ____ . ____ . ____ . ____
 72
    65
 73
     4
 40
18.0
 49
12.0
 74
     0
 49
-1.5
 74
     0
 49
3.0
 74
     0
 49
-1.5
 74
     0
  0
LTYPE
  5
4D
330
5
100
AcDbSymbolTableRecord
100
AcDbLinetypeTableRecord
  2
AM_ISO09W050
 70
     0
  3
_____ . . _____ . . _____ . . ____ .. ____
 72
    65
 73
     6
 40
22.5
 49
12.0
 74
     0
 49
-1.5
 74
     0
 49
3.0
 74
     0
 49
-1.5
 74
     0
 49
3.0
 74
     0
 49
-1.5
 74
     0
  0
LTYPE
  5
4E
330
5
100
AcDbSymbolTableRecord
100
AcDbLinetypeTableRecord
  2
AMCONSTR
 70
     0
  3
_______________________
 72
    65
 73
     2
 40
9999.0
 49
9999.0
 74
     0
 49
0.0
 74
     0
  0
LTYPE
  5
4F
330
5
100
AcDbSymbolTableRecord
100
AcDbLinetypeTableRecord
  2
AM_ISO02W050X2
 70
     0
  3
 _ _ _ _ _ _ _ _ _ _ _ _
 72
    65
 73
     2
 40
3.75
 49
3.0
 74
     0
 49
-0.75
 74
     0
  0
LTYPE
  5
50
330
5
100
AcDbSymbolTableRecord
100
AcDbLinetypeTableRecord
  2
AM_ISO08W050X2
 70
     0
  3
__ . __ . __ . __ . __ . __
 72
    65
 73
     4
 40
9.0
 49
6.0
 74
     0
 49
-0.75
 74
     0
 49
1.5
 74
     0
 49
-0.75
 74
     0
  0
LTYPE
  5
53
330
5
100
AcDbSymbolTableRecord
100
AcDbLinetypeTableRecord
  2
AMZIGZAG
 70
     0
  3
/\/-/\/-/\/-/\/-/\/-/\/
 72
    65
 73
     2
 40
11.00009999999999
 49
0.0001
 74
     4
 75
   135
340
52
 46
0.04
 50
0.0
 44
0.0
 45
0.0
 49
-11.0
 74
     0
  0
LTYPE
  5
166
330
5
100
AcDbSymbolTableRecord
100
AcDbLinetypeTableRecord
  2
ACJISTGL
 70
     0
  3
_ _ _ _ _
 72
    65
 73
     2
 40
3.0
 49
2.0
 74
     0
 49
-1.0
 74
     0
  0
LTYPE
  5
26A
330
5
100
AcDbSymbolTableRecord
100
AcDbLinetypeTableRecord
  2
ACJISTGB
 70
     0
  3
__ . . __ . .
 72
    65
 73
     6
 40
9.0
 49
4.0
 74
     0
 49
-1.0
 74
     0
 49
1.0
 74
     0
 49
-1.0
 74
     0
 49
1.0
 74
     0
 49
-1.0
 74
     0
  0
ENDTAB
  0
TABLE
  2
LAYER
  5
2
330
0
100
AcDbSymbolTable
 70
     7
  0
LAYER
  5
10
330
2
100
AcDbSymbolTableRecord
100
AcDbLayerTableRecord
  2
0
 70
     0
 62
     7
  6
CONTINUOUS
  0
LAYER
  5
3F9
330
2
100
AcDbSymbolTableRecord
100
AcDbLayerTableRecord
  2
AM_0
 70
     0
 62
     7
  6
CONTINUOUS
  0
LAYER
  5
BDD
330
2
100
AcDbSymbolTableRecord
100
AcDbLayerTableRecord
  2
AM_11
 70
     0
 62
     3
  6
AM_ISO09W050
  0
LAYER
  5
BDE
330
2
100
AcDbSymbolTableRecord
100
AcDbLayerTableRecord
  2
AM_7
 70
     0
 62
     4
  6
AM_ISO08W050
  0
LAYER
  5
BDF
330
2
100
AcDbSymbolTableRecord
100
AcDbLayerTableRecord
  2
AM_5
 70
     0
 62
     3
  6
CONTINUOUS
  0
LAYER
  5
BE0
330
2
100
AcDbSymbolTableRecord
100
AcDbLayerTableRecord
  2
DEFPOINTS
 70
     0
 62
     7
  6
CONTINUOUS
  0
LAYER
  5
14FF
330
2
100
AcDbSymbolTableRecord
100
AcDbLayerTableRecord
  2
AM_6
 70
     0
 62
     2
  6
CONTINUOUS
  0
ENDTAB
  0
TABLE
  2
STYLE
  5
3
330
0
100
AcDbSymbolTable
 70
     5
  0
STYLE
  5
11
330
3
100
AcDbSymbolTableRecord
100
AcDbTextStyleTableRecord
  2
STANDARD
 70
     0
 40
0.0
 41
1.0
 50
0.0
 71
     0
 42
2.5
  3
simplex.shx
  4
EXTFONT.SHX
  0
STYLE
  5
52
330
3
100
AcDbSymbolTableRecord
100
AcDbTextStyleTableRecord
  2

 70
     1
 40
0.0
 41
1.0
 50
0.0
 71
     0
 42
2.5
  3
ltypeshp.shx
  4

  0
STYLE
  5
6B
330
3
100
AcDbSymbolTableRecord
100
AcDbTextStyleTableRecord
  2
ASAMI
 70
     0
 40
0.0
 41
1.0
 50
0.0
 71
     0
 42
2.5
  3
simplex.shx
  4
EXTFONT.SHX
  0
STYLE
  5
262
330
3
100
AcDbSymbolTableRecord
100
AcDbTextStyleTableRecord
  2
ACJISTS
 70
     0
 40
1.0
 41
1.0
 50
0.0
 71
     0
 42
2.5
  3
simplex.shx
  4
bigfont.shx
  0
STYLE
  5
269
330
3
100
AcDbSymbolTableRecord
100
AcDbTextStyleTableRecord
  2
ACJISGDT
 70
     0
 40
0.0
 41
1.0
 50
0.0
 71
     0
 42
2.5
  3
amgdtans.shx
  4

  0
ENDTAB
  0
TABLE
  2
VIEW
  5
6
330
0
100
AcDbSymbolTable
 70
     0
  0
ENDTAB
  0
TABLE
  2
UCS
  5
7
330
0
100
AcDbSymbolTable
 70
     0
  0
ENDTAB
  0
TABLE
  2
APPID
  5
9
330
0
100
AcDbSymbolTable
 70
    14
  0
APPID
  5
12
330
9
100
AcDbSymbolTableRecord
100
AcDbRegAppTableRecord
  2
ACAD
 70
     0
  0
APPID
  5
30
330
9
100
AcDbSymbolTableRecord
100
AcDbRegAppTableRecord
  2
MCAD_NO_VIS
 70
     0
  0
APPID
  5
31
330
9
100
AcDbSymbolTableRecord
100
AcDbRegAppTableRecord
  2
ACAD_TEMP_GRAPHIC
 70
     0
  0
APPID
  5
2C2
330
9
100
AcDbSymbolTableRecord
100
AcDbRegAppTableRecord
  2
GENIUS_GENDTOL_13
 70
     0
  0
APPID
  5
339
330
9
100
AcDbSymbolTableRecord
100
AcDbRegAppTableRecord
  2
GENIUS_GENODEF_13
 70
     0
  0
APPID
  5
33A
330
9
100
AcDbSymbolTableRecord
100
AcDbRegAppTableRecord
  2
GENIUS_GENOBJ-N-RSBK_13
 70
     0
  0
APPID
  5
33B
330
9
100
AcDbSymbolTableRecord
100
AcDbRegAppTableRecord
  2
GENIUS_GENOBJ-N-LIB_13
 70
     0
  0
APPID
  5
33C
330
9
100
AcDbSymbolTableRecord
100
AcDbRegAppTableRecord
  2
GENIUS_GENSCALE_13
 70
     0
  0
APPID
  5
378
330
9
100
AcDbSymbolTableRecord
100
AcDbRegAppTableRecord
  2
GENIUS_GENDIMSH_14
 70
     0
  0
APPID
  5
BE1
330
9
100
AcDbSymbolTableRecord
100
AcDbRegAppTableRecord
  2
GENIUS_GENFIL_13
 70
     0
  0
APPID
  5
BE2
330
9
100
AcDbSymbolTableRecord
100
AcDbRegAppTableRecord
  2
GENIUS_GENOBJ-N-CHA_13
 70
     0
  0
APPID
  5
151B
330
9
100
AcDbSymbolTableRecord
100
AcDbRegAppTableRecord
  2
DCO15
 70
     0
  0
APPID
  5
1860
330
9
100
AcDbSymbolTableRecord
100
AcDbRegAppTableRecord
  2
GENIUS_GENOBJ-N-CEN_13
 70
     0
  0
APPID
  5
359C
330
9
100
AcDbSymbolTableRecord
100
AcDbRegAppTableRecord
  2
GENIUS_GENOBJ-N-FIL_13
 70
     0
  0
ENDTAB
  0
TABLE
  2
DIMSTYLE
  5
A
330
0
100
AcDbSymbolTable
 70
     8
  0
DIMSTYLE
105
58
102
{ACAD_REACTORS
330
4047
330
412A
330
42F4
330
4D75
330
517D
102
}
330
A
100
AcDbSymbolTableRecord
100
AcDbDimStyleTableRecord
  2
AM_JIS
 70
     0
  3

  4
"
  5
OPEN30
  6

  7

 40
0.5
 41
2.5
 42
1.0
 43
12.0
 44
1.0
 45
0.0
 46
0.0
 47
0.1
 48
0.1
140
3.2
141
0.0
142
0.0
143
0.0393701
144
1.0
145
0.0
146
0.71
147
1.5
 71
     0
 72
     0
 73
     0
 74
     0
 75
     0
 76
     0
 77
     3
 78
     8
170
     0
171
     2
172
     1
173
     0
174
     0
175
     0
176
   256
177
   256
178
     2
270
     2
271
     3
272
     3
273
     2
274
     2
340
6B
275
     0
280
     0
281
     0
282
     0
283
     0
284
     0
285
     0
286
     0
287
     3
288
     0
  0
DIMSTYLE
105
5F
330
A
100
AcDbSymbolTableRecord
100
AcDbDimStyleTableRecord
  2
AM_JIS$3
 70
     0
  3

  4
"
  5
OPEN30
  6

  7

 40
0.5
 41
2.5
 42
1.0
 43
10.0
 44
1.0
 45
0.0
 46
0.0
 47
0.1
 48
0.1
140
3.2
141
0.0
142
0.0
143
0.0393701
144
1.0
145
0.0
146
0.71
147
1.5
 71
     0
 72
     0
 73
     0
 74
     1
 75
     0
 76
     0
 77
     3
 78
     8
170
     0
171
     2
172
     0
173
     0
174
     0
175
     0
176
   256
177
   256
178
     2
270
     2
271
     2
272
     3
273
     2
274
     2
340
6B
275
     0
280
     0
281
     0
282
     0
283
     0
284
     0
285
     0
286
     0
287
     0
288
     1
  0
DIMSTYLE
105
60
102
{ACAD_REACTORS
330
5679
102
}
330
A
100
AcDbSymbolTableRecord
100
AcDbDimStyleTableRecord
  2
AM_JIS$4
 70
     0
  3

  4
"
  5
OPEN30
  6

  7

 40
0.5
 41
2.5
 42
1.0
 43
10.0
 44
1.0
 45
0.0
 46
0.0
 47
0.1
 48
0.1
140
3.2
141
0.0
142
0.0
143
0.0393701
144
1.0
145
0.0
146
0.71
147
1.5
 71
     0
 72
     0
 73
     0
 74
     1
 75
     0
 76
     0
 77
     3
 78
     8
170
     0
171
     2
172
     0
173
     0
174
     0
175
     0
176
   256
177
   256
178
     2
270
     2
271
     2
272
     3
273
     2
274
     2
340
6B
275
     0
280
     0
281
     0
282
     0
283
     0
284
     0
285
     0
286
     0
287
     0
288
     1
  0
DIMSTYLE
105
61
330
A
100
AcDbSymbolTableRecord
100
AcDbDimStyleTableRecord
  2
AM_JIS$6
 70
     0
  3

  4
"
  5
OPEN30
  6

  7

 40
0.5
 41
2.5
 42
1.0
 43
10.0
 44
1.0
 45
0.0
 46
0.0
 47
0.1
 48
0.1
140
3.2
141
0.0
142
0.0
143
0.0393701
144
1.0
145
0.0
146
0.71
147
1.5
 71
     0
 72
     0
 73
     0
 74
     0
 75
     0
 76
     0
 77
     0
 78
     8
170
     0
171
     2
172
     1
173
     0
174
     0
175
     0
176
   256
177
   256
178
     2
270
     2
271
     2
272
     2
273
     2
274
     2
340
6B
275
     0
280
     0
281
     0
282
     0
283
     0
284
     0
285
     0
286
     0
287
     3
288
     0
  0
DIMSTYLE
105
62
330
A
100
AcDbSymbolTableRecord
100
AcDbDimStyleTableRecord
  2
AM_JIS$7
 70
     0
  3

  4
"
  5
OPEN30
  6

  7

 40
0.5
 41
2.5
 42
1.0
 43
10.0
 44
1.0
 45
0.0
 46
0.0
 47
0.1
 48
0.1
140
3.2
141
0.0
142
0.0
143
0.0393701
144
1.0
145
0.0
146
0.71
147
1.5
 71
     0
 72
     0
 73
     0
 74
     0
 75
     0
 76
     0
 77
     3
 78
     8
170
     0
171
     2
172
     1
173
     0
174
     0
175
     0
176
   256
177
   256
178
     2
270
     2
271
     2
272
     3
273
     2
274
     2
340
6B
275
     0
280
     0
281
     0
282
     0
283
     0
284
     0
285
     0
286
     0
287
     3
288
     0
  0
DIMSTYLE
105
63
330
A
100
AcDbSymbolTableRecord
100
AcDbDimStyleTableRecord
  2
AM_JIS$SF
 70
     0
  3

  4
"
  5
OPEN30
  6

  7

 40
0.5
 41
2.5
 42
1.0
 43
10.0
 44
1.0
 45
0.0
 46
0.0
 47
0.1
 48
0.1
140
3.2
141
0.0
142
0.0
143
0.0393701
144
1.0
145
0.0
146
0.71
147
1.5
 71
     0
 72
     0
 73
     0
 74
     0
 75
     1
 76
     1
 77
     3
 78
     8
170
     0
171
     2
172
     1
173
     0
174
     0
175
     0
176
   256
177
   256
178
     2
270
     2
271
     2
272
     2
273
     2
274
     2
340
6B
275
     0
280
     0
281
     0
282
     0
283
     0
284
     0
285
     0
286
     0
287
     3
288
     0
  0
DIMSTYLE
105
68
330
A
100
AcDbSymbolTableRecord
100
AcDbDimStyleTableRecord
  2
AM_JIS$SH
 70
     0
  3

  4
"
  5

  6
GENAXEH
  7
OPEN30
 40
0.5
 41
2.5
 42
1.0
 43
10.0
 44
1.0
 45
0.0
 46
0.0
 47
0.1
 48
0.1
140
3.2
141
0.0
142
0.0
143
0.0393701
144
2.0
145
0.0
146
0.71
147
1.5
 71
     0
 72
     0
 73
     0
 74
     0
 75
     1
 76
     1
 77
     3
 78
     8
170
     0
171
     2
172
     1
173
     1
174
     0
175
     0
176
   256
177
   256
178
     2
270
     2
271
     2
272
     2
273
     2
274
     2
340
6B
275
     0
280
     0
281
     0
282
     0
283
     0
284
     0
285
     0
286
     0
287
     3
288
     0
  0
DIMSTYLE
105
B34
330
A
100
AcDbSymbolTableRecord
100
AcDbDimStyleTableRecord
  2
AM_JIS$2
 70
     0
  3

  4
"
  5
OPEN30
  6

  7

 40
0.5
 41
2.5
 42
1.0
 43
12.0
 44
1.0
 45
0.0
 46
0.0
 47
0.1
 48
0.1
140
3.2
141
0.0
142
0.0
143
0.0393701
144
1.0
145
0.0
146
0.71
147
1.5
 71
     0
 72
     0
 73
     0
 74
     0
 75
     0
 76
     0
 77
     3
 78
     8
170
     0
171
     2
172
     1
173
     0
174
     0
175
     0
176
   256
177
   256
178
     2
270
     2
271
     3
272
     3
273
     2
274
     2
340
6B
275
     0
280
     0
281
     0
282
     0
283
     0
284
     0
285
     0
286
     0
287
     3
288
     0
  0
ENDTAB
  0
TABLE
  2
BLOCK_RECORD
  5
1
330
0
100
AcDbSymbolTable
 70
    11
  0
BLOCK_RECORD
  5
1F
102
{ACAD_XDICTIONARY
360
74
102
}
330
1
100
AcDbSymbolTableRecord
100
AcDbBlockTableRecord
  2
*MODEL_SPACE
  0
BLOCK_RECORD
  5
101
102
{ACAD_XDICTIONARY
360
599A
102
}
330
1
100
AcDbSymbolTableRecord
100
AcDbBlockTableRecord
  2
*PAPER_SPACE
  0
BLOCK_RECORD
  5
59
330
1
100
AcDbSymbolTableRecord
100
AcDbBlockTableRecord
  2
_OPEN30
  0
BLOCK_RECORD
  5
64
330
1
100
AcDbSymbolTableRecord
100
AcDbBlockTableRecord
  2
GENAXEH
  0
BLOCK_RECORD
  5
4048
330
1
100
AcDbSymbolTableRecord
100
AcDbBlockTableRecord
  2
*D5
  0
BLOCK_RECORD
  5
412B
330
1
100
AcDbSymbolTableRecord
100
AcDbBlockTableRecord
  2
*D6
  0
BLOCK_RECORD
  5
42F5
330
1
100
AcDbSymbolTableRecord
100
AcDbBlockTableRecord
  2
*D7
  0
BLOCK_RECORD
  5
4D76
330
1
100
AcDbSymbolTableRecord
100
AcDbBlockTableRecord
  2
*D8
  0
BLOCK_RECORD
  5
517E
330
1
100
AcDbSymbolTableRecord
100
AcDbBlockTableRecord
  2
*D9
  0
BLOCK_RECORD
  5
567A
330
1
100
AcDbSymbolTableRecord
100
AcDbBlockTableRecord
  2
*D10
  0
ENDTAB
  0
ENDSEC
  0
SECTION
  2
BLOCKS
  0
BLOCK
  5
20
330
1F
100
AcDbEntity
  8
0
100
AcDbBlockBegin
  2
*MODEL_SPACE
 70
     0
 10
0.0
 20
0.0
 30
0.0
  3
*MODEL_SPACE
  1

  0
ENDBLK
  5
21
330
1F
100
AcDbEntity
  8
0
100
AcDbBlockEnd
  0
BLOCK
  5
103
330
101
100
AcDbEntity
 67
     1
  8
0
100
AcDbBlockBegin
  2
*PAPER_SPACE
 70
     0
 10
0.0
 20
0.0
 30
0.0
  3
*PAPER_SPACE
  1

  0
ENDBLK
  5
104
330
101
100
AcDbEntity
 67
     1
  8
0
100
AcDbBlockEnd
  0
BLOCK
  5
5D
330
59
100
AcDbEntity
  8
0
100
AcDbBlockBegin
  2
_OPEN30
 70
     0
 10
0.0
 20
0.0
 30
0.0
  3
_OPEN30
  1

  0
LINE
  5
5A
330
59
100
AcDbEntity
  8
0
 62
     0
100
AcDbLine
 10
-1.0
 20
0.26794919
 30
0.0
 11
0.0
 21
0.0
 31
0.0
  0
LINE
  5
5B
330
59
100
AcDbEntity
  8
0
 62
     0
100
AcDbLine
 10
0.0
 20
0.0
 30
0.0
 11
-1.0
 21
-0.26794919
 31
0.0
  0
LINE
  5
5C
330
59
100
AcDbEntity
  8
0
 62
     0
100
AcDbLine
 10
0.0
 20
0.0
 30
0.0
 11
-1.0
 21
0.0
 31
0.0
  0
ENDBLK
  5
5E
330
59
100
AcDbEntity
  8
0
100
AcDbBlockEnd
  0
BLOCK
  5
66
330
64
100
AcDbEntity
  8
0
100
AcDbBlockBegin
  2
GENAXEH
 70
     0
 10
0.0
 20
0.0
 30
0.0
  3
GENAXEH
  1

  0
LINE
  5
65
330
64
100
AcDbEntity
  8
0
100
AcDbLine
 10
-1.0
 20
0.0
 30
0.0
 11
1.0
 21
0.0
 31
0.0
  0
ENDBLK
  5
67
330
64
100
AcDbEntity
  8
0
100
AcDbBlockEnd
  0
BLOCK
  5
4052
330
4048
100
AcDbEntity
  8
0
100
AcDbBlockBegin
  2
*D5
 70
     1
 10
0.0
 20
0.0
 30
0.0
  3
*D5
  1

  0
LINE
  5
5645
330
4048
100
AcDbEntity
  8
AM_5
100
AcDbLine
 10
-79.9998250993709
 20
-2.000000000000078
 30
0.0
 11
-79.9998250993709
 21
-21.50000100000004
 31
0.0
  0
LINE
  5
5646
330
4048
100
AcDbEntity
  8
AM_5
100
AcDbLine
 10
0.0
 20
-0.4999999999999991
 30
0.0
 11
-0.0000000000000013
 21
-21.50000100000004
 31
0.0
  0
LINE
  5
5647
330
4048
100
AcDbEntity
  8
AM_5
100
AcDbLine
 10
-78.7498250993709
 20
-21.00000100000003
 30
0.0
 11
-1.250000000000001
 21
-21.00000100000003
 31
0.0
  0
INSERT
  5
5648
330
4048
100
AcDbEntity
  8
AM_5
100
AcDbBlockReference
  2
_OPEN30
 10
-79.9998250993709
 20
-21.00000100000003
 30
0.0
 41
1.25
 42
1.25
 43
1.25
 50
180.0
  0
INSERT
  5
5649
330
4048
100
AcDbEntity
  8
AM_5
100
AcDbBlockReference
  2
_OPEN30
 10
-0.0000000000000013
 20
-21.00000100000003
 30
0.0
 41
1.25
 42
1.25
 43
1.25
  0
MTEXT
  5
564A
330
4048
100
AcDbEntity
  8
AM_5
 62
     2
100
AcDbMText
 10
-39.99991254968545
 20
-19.45000100000004
 30
0.0
 40
1.6
 41
0.0
 71
     5
 72
     1
  1
80
  7
ASAMI
1001
ACAD
1000
MTEXTBEGIN
1070
    73
1070
     1
1070
    44
1040
1.0
1070
    74
1070
     0
1000
MTEXTEND
  0
POINT
  5
564B
330
4048
100
AcDbEntity
  8
DEFPOINTS
 62
     0
100
AcDbPoint
 10
-79.9998250993709
 20
-1.500000000000078
 30
0.0
  0
POINT
  5
564C
330
4048
100
AcDbEntity
  8
DEFPOINTS
 62
     0
100
AcDbPoint
 10
0.0
 20
0.0000000000000009
 30
0.0
  0
POINT
  5
564D
330
4048
100
AcDbEntity
  8
DEFPOINTS
 62
     0
100
AcDbPoint
 10
-0.0000000000000013
 20
-21.00000100000003
 30
0.0
  0
ENDBLK
  5
4053
330
4048
100
AcDbEntity
  8
0
100
AcDbBlockEnd
  0
BLOCK
  5
4135
330
412B
100
AcDbEntity
  8
0
100
AcDbBlockBegin
  2
*D6
 70
     1
 10
0.0
 20
0.0
 30
0.0
  3
*D6
  1

  0
LINE
  5
5657
330
412B
100
AcDbEntity
  8
AM_5
100
AcDbLine
 10
-0.0000000000000149
 20
-0.5000000000000097
 30
0.0
 11
-0.0000000000000155
 21
-9.500001000000045
 31
0.0
  0
LINE
  5
5658
330
412B
100
AcDbEntity
  8
AM_5
100
AcDbLine
 10
-4.000140803248916
 20
-1.500067222323733
 30
0.0
 11
-4.000140803248917
 21
-9.500001000000045
 31
0.0
  0
LINE
  5
5659
330
412B
100
AcDbEntity
  8
AM_5
100
AcDbLine
 10
-1.250000000000015
 20
-9.000001000000045
 30
0.0
 11
-2.750140803248917
 21
-9.000001000000045
 31
0.0
  0
INSERT
  5
565A
330
412B
100
AcDbEntity
  8
AM_5
100
AcDbBlockReference
  2
_OPEN30
 10
-0.0000000000000154
 20
-9.000001000000045
 30
0.0
 41
1.25
 42
1.25
 43
1.25
  0
INSERT
  5
565B
330
412B
100
AcDbEntity
  8
AM_5
100
AcDbBlockReference
  2
_OPEN30
 10
-4.000140803248917
 20
-9.000001000000045
 30
0.0
 41
1.25
 42
1.25
 43
1.25
 50
180.0
  0
MTEXT
  5
565C
330
412B
100
AcDbEntity
  8
AM_5
 62
     2
100
AcDbMText
 10
-2.000070401624466
 20
-7.450001000000045
 30
0.0
 40
1.6
 41
0.0
 71
     5
 72
     1
  1
4
  7
ASAMI
1001
ACAD
1000
MTEXTBEGIN
1070
    73
1070
     1
1070
    44
1040
1.0
1070
    74
1070
     0
1000
MTEXTEND
  0
POINT
  5
565D
330
412B
100
AcDbEntity
  8
DEFPOINTS
 62
     0
100
AcDbPoint
 10
-0.0000000000000149
 20
-0.0000000000000097
 30
0.0
  0
POINT
  5
565E
330
412B
100
AcDbEntity
  8
DEFPOINTS
 62
     0
100
AcDbPoint
 10
-4.000140803248916
 20
-1.000067222323733
 30
0.0
  0
POINT
  5
565F
330
412B
100
AcDbEntity
  8
DEFPOINTS
 62
     0
100
AcDbPoint
 10
-4.000140803248917
 20
-9.000001000000045
 30
0.0
  0
ENDBLK
  5
4136
330
412B
100
AcDbEntity
  8
0
100
AcDbBlockEnd
  0
BLOCK
  5
42FF
330
42F5
100
AcDbEntity
  8
0
100
AcDbBlockBegin
  2
*D7
 70
     1
 10
0.0
 20
0.0
 30
0.0
  3
*D7
  1

  0
LINE
  5
5660
330
42F5
100
AcDbEntity
  8
AM_5
100
AcDbLine
 10
-0.4999999999999653
 20
1.000089459960078
 30
0.0
 11
8.805802841193788
 21
1.000089459960075
 31
0.0
  0
LINE
  5
5661
330
42F5
100
AcDbEntity
  8
AM_5
100
AcDbLine
 10
-0.4999999999999682
 20
-1.000067222323733
 30
0.0
 11
8.805802841193788
 21
-1.000067222323736
 31
0.0
  0
LINE
  5
5662
330
42F5
100
AcDbEntity
  8
AM_5
100
AcDbLine
 10
8.305802841193788
 20
2.250089459960075
 30
0.0
 11
8.305802841193788
 21
3.500089459960075
 31
0.0
  0
LINE
  5
5663
330
42F5
100
AcDbEntity
  8
AM_5
100
AcDbLine
 10
8.305802841193788
 20
-2.250067222323736
 30
0.0
 11
8.305802841193786
 21
-7.514352936609451
 31
0.0
  0
LINE
  5
5664
330
42F5
100
AcDbEntity
  8
AM_5
100
AcDbLine
 10
8.305802841193788
 20
1.000089459960075
 30
0.0
 11
8.305802841193788
 21
-1.000067222323736
 31
0.0
  0
INSERT
  5
5665
330
42F5
100
AcDbEntity
  8
AM_5
100
AcDbBlockReference
  2
_OPEN30
 10
8.305802841193788
 20
1.000089459960075
 30
0.0
 41
1.25
 42
1.25
 43
1.25
 50
270.0
  0
INSERT
  5
5666
330
42F5
100
AcDbEntity
  8
AM_5
100
AcDbBlockReference
  2
_OPEN30
 10
8.305802841193788
 20
-1.000067222323736
 30
0.0
 41
1.25
 42
1.25
 43
1.25
 50
90.0
  0
MTEXT
  5
5667
330
42F5
100
AcDbEntity
  8
AM_5
 62
     2
100
AcDbMText
 10
6.755802841193787
 20
-5.507210079466592
 30
0.0
 40
1.6
 41
0.0
 71
     5
 72
     1
  1
%%c2
  7
ASAMI
 11
0.0000000000000001
 21
1.0
 31
0.0
1001
ACAD
1000
MTEXTBEGIN
1070
    73
1070
     1
1070
    44
1040
1.0
1070
    74
1070
     0
1000
MTEXTEND
  0
POINT
  5
5668
330
42F5
100
AcDbEntity
  8
DEFPOINTS
 62
     0
100
AcDbPoint
 10
-0.9999999999999651
 20
1.000089459960078
 30
0.0
  0
POINT
  5
5669
330
42F5
100
AcDbEntity
  8
DEFPOINTS
 62
     0
100
AcDbPoint
 10
-0.9999999999999682
 20
-1.000067222323733
 30
0.0
  0
POINT
  5
566A
330
42F5
100
AcDbEntity
  8
DEFPOINTS
 62
     0
100
AcDbPoint
 10
8.305802841193788
 20
-1.000067222323736
 30
0.0
  0
ENDBLK
  5
4300
330
42F5
100
AcDbEntity
  8
0
100
AcDbBlockEnd
  0
BLOCK
  5
4D80
330
4D76
100
AcDbEntity
  8
0
100
AcDbBlockBegin
  2
*D8
 70
     1
 10
0.0
 20
0.0
 30
0.0
  3
*D8
  1

  0
LINE
  5
564E
330
4D76
100
AcDbEntity
  8
AM_5
100
AcDbLine
 10
-0.0000000000000098
 20
-0.4999999999999996
 30
0.0
 11
-0.0000000000000107
 21
-15.50000100000005
 31
0.0
  0
LINE
  5
564F
330
4D76
100
AcDbEntity
  8
AM_5
100
AcDbLine
 10
-7.999825099370923
 20
-1.500067222323955
 30
0.0
 11
-7.999825099370924
 21
-15.50000100000005
 31
0.0
  0
LINE
  5
5650
330
4D76
100
AcDbEntity
  8
AM_5
100
AcDbLine
 10
-1.25000000000001
 20
-15.00000100000005
 30
0.0
 11
-6.749825099370924
 21
-15.00000100000005
 31
0.0
  0
INSERT
  5
5651
330
4D76
100
AcDbEntity
  8
AM_5
100
AcDbBlockReference
  2
_OPEN30
 10
-0.0000000000000107
 20
-15.00000100000005
 30
0.0
 41
1.25
 42
1.25
 43
1.25
  0
INSERT
  5
5652
330
4D76
100
AcDbEntity
  8
AM_5
100
AcDbBlockReference
  2
_OPEN30
 10
-7.999825099370924
 20
-15.00000100000005
 30
0.0
 41
1.25
 42
1.25
 43
1.25
 50
180.0
  0
MTEXT
  5
5653
330
4D76
100
AcDbEntity
  8
AM_5
 62
     2
100
AcDbMText
 10
-3.999912549685467
 20
-13.45000100000005
 30
0.0
 40
1.6
 41
0.0
 71
     5
 72
     1
  1
8
  7
ASAMI
1001
ACAD
1000
MTEXTBEGIN
1070
    73
1070
     1
1070
    44
1040
1.0
1070
    74
1070
     0
1000
MTEXTEND
  0
POINT
  5
5654
330
4D76
100
AcDbEntity
  8
DEFPOINTS
 62
     0
100
AcDbPoint
 10
-0.0000000000000098
 20
0.0000000000000005
 30
0.0
  0
POINT
  5
5655
330
4D76
100
AcDbEntity
  8
DEFPOINTS
 62
     0
100
AcDbPoint
 10
-7.999825099370923
 20
-1.000067222323955
 30
0.0
  0
POINT
  5
5656
330
4D76
100
AcDbEntity
  8
DEFPOINTS
 62
     0
100
AcDbPoint
 10
-7.999825099370924
 20
-15.00000100000005
 30
0.0
  0
ENDBLK
  5
4D81
330
4D76
100
AcDbEntity
  8
0
100
AcDbBlockEnd
  0
BLOCK
  5
518A
330
517E
100
AcDbEntity
  8
0
100
AcDbBlockBegin
  2
*D9
 70
     1
 10
0.0
 20
0.0
 30
0.0
  3
*D9
  1

  0
LINE
  5
54F0
330
517E
100
AcDbEntity
  8
AM_5
100
AcDbLine
 10
-79.9998250993709
 20
1.999999999999878
 30
0.0
 11
-89.55602022933051
 21
1.99999999999988
 31
0.0
  0
LINE
  5
54F1
330
517E
100
AcDbEntity
  8
AM_5
100
AcDbLine
 10
-79.99982509937088
 20
-2.000000000000077
 30
0.0
 11
-89.55602022933051
 21
-2.000000000000075
 31
0.0
  0
LINE
  5
54F2
330
517E
100
AcDbEntity
  8
AM_5
100
AcDbLine
 10
-89.05602022933051
 20
3.24999999999988
 30
0.0
 11
-89.05602022933051
 21
4.49999999999988
 31
0.0
  0
LINE
  5
54F3
330
517E
100
AcDbEntity
  8
AM_5
100
AcDbLine
 10
-89.05602022933051
 20
-3.250000000000075
 30
0.0
 11
-89.05602022933051
 21
-8.590476190476264
 31
0.0
  0
LINE
  5
54F4
330
517E
100
AcDbEntity
  8
AM_5
100
AcDbLine
 10
-89.05602022933051
 20
1.99999999999988
 30
0.0
 11
-89.05602022933051
 21
-2.000000000000075
 31
0.0
  0
INSERT
  5
54F5
330
517E
100
AcDbEntity
  8
AM_5
100
AcDbBlockReference
  2
_OPEN30
 10
-89.05602022933051
 20
1.99999999999988
 30
0.0
 41
1.25
 42
1.25
 43
1.25
 50
270.0
  0
INSERT
  5
54F6
330
517E
100
AcDbEntity
  8
AM_5
100
AcDbBlockReference
  2
_OPEN30
 10
-89.05602022933051
 20
-2.000000000000075
 30
0.0
 41
1.25
 42
1.25
 43
1.25
 50
90.0
  0
MTEXT
  5
54F7
330
517E
100
AcDbEntity
  8
AM_5
 62
     2
100
AcDbMText
 10
-90.60602022933052
 20
-6.545238095238184
 30
0.0
 40
1.6
 41
0.0
 71
     5
 72
     1
  1
%%c4
  7
ASAMI
 11
0.0000000000000001
 21
1.0
 31
0.0
1001
ACAD
1000
MTEXTBEGIN
1070
    73
1070
     1
1070
    44
1040
1.0
1070
    74
1070
     0
1000
MTEXTEND
  0
POINT
  5
54F8
330
517E
100
AcDbEntity
  8
DEFPOINTS
 62
     0
100
AcDbPoint
 10
-79.49982509937091
 20
1.999999999999877
 30
0.0
  0
POINT
  5
54F9
330
517E
100
AcDbEntity
  8
DEFPOINTS
 62
     0
100
AcDbPoint
 10
-79.49982509937088
 20
-2.000000000000077
 30
0.0
  0
POINT
  5
54FA
330
517E
100
AcDbEntity
  8
DEFPOINTS
 62
     0
100
AcDbPoint
 10
-89.05602022933051
 20
-2.000000000000075
 30
0.0
  0
ENDBLK
  5
518B
330
517E
100
AcDbEntity
  8
0
100
AcDbBlockEnd
  0
BLOCK
  5
5680
330
567A
100
AcDbEntity
  8
0
100
AcDbBlockBegin
  2
*D10
 70
     1
 10
0.0
 20
0.0
 30
0.0
  3
*D10
  1

  0
LINE
  5
599C
330
567A
100
AcDbEntity
  8
AM_5
100
AcDbLine
 10
2.963619202715273
 20
-5.731408396958239
 30
0.0
 11
0.2774966393471186
 21
-1.836969283889003
 31
0.0
  0
MTEXT
  5
599D
330
567A
100
AcDbEntity
  8
AM_5
 62
     2
100
AcDbMText
 10
3.25135159767549
 20
-3.418624914116628
 30
0.0
 40
1.6
 41
0.0
 71
     5
 72
     1
  1
R1
  7
ASAMI
 11
0.5677762841543157
 21
-0.8231829026115143
 31
0.0
  0
LINE
  5
599E
330
567A
100
AcDbEntity
  8
AM_5
100
AcDbLine
 10
-1.000000000000092
 20
0.0151922469869059
 30
0.0
 11
-0.4322237158457761
 21
-0.8079906556246102
 31
0.0
  0
INSERT
  5
599F
330
567A
100
AcDbEntity
  8
AM_5
100
AcDbBlockReference
  2
_OPEN30
 10
-0.4322237158457761
 20
-0.8079906556246102
 30
0.0
 41
1.25
 42
1.25
 43
1.25
 50
124.5953044043787
  0
POINT
  5
59A0
330
567A
100
AcDbEntity
  8
DEFPOINTS
 62
     0
100
AcDbPoint
 10
-0.4322237158457761
 20
-0.8079906556246102
 30
0.0
  0
POINT
  5
59A1
330
567A
100
AcDbEntity
  8
DEFPOINTS
 62
     0
100
AcDbPoint
 10
-1.000000000000092
 20
0.0151922469869059
 30
0.0
  0
ENDBLK
  5
5681
330
567A
100
AcDbEntity
  8
0
100
AcDbBlockEnd
  0
ENDSEC
  0
SECTION
  2
ENTITIES
  0
TEXT
  5
1500
330
1F
100
AcDbEntity
  8
AM_6
100
AcDbText
 10
-49.04753159730448
 20
-32.25000100000004
 30
0.0
 40
2.5
  1
LSSB2020
 72
     4
 11
-39.99991254968544
 21
-31.00000100000004
 31
0.0
100
AcDbText
  0
LINE
  5
3EE8
330
1F
100
AcDbEntity
  8
AM_7
  6
AM_ISO08W050X2
100
AcDbLine
 10
1.305801841193792
 20
0.0000000000000014
 30
0.0
 11
-82.05601922933052
 21
-0.0000000000000874
 31
0.0
1001
GENIUS_GENODEF_13
1002
{
1000
HIER
1070
     0
1002
}
1002
{
1000
MANEDIT
1070
     0
1002
}
1002
{
1000
NOSEL
1070
     0
1002
}
1002
{
1000
BEHIND
1070
     0
1002
}
1002
{
1000
REACTOR
1002
}
1001
GENIUS_GENOBJ-N-CEN_13
1002
{
1000
OWNER
1000
GEN
1002
}
  0
DIMENSION
  5
4047
330
1F
100
AcDbEntity
  8
AM_5
100
AcDbDimension
  2
*D5
 10
-0.0000000000000013
 20
-21.00000100000003
 30
0.0
 11
-39.99991254968545
 21
-19.45000100000004
 31
0.0
 70
    32
  1
<>
  3
AM_JIS
100
AcDbAlignedDimension
 13
-79.9998250993709
 23
-1.500000000000078
 33
0.0
 14
0.0
 24
0.0000000000000009
 34
0.0
 50
0.0000000000001132
100
AcDbRotatedDimension
1001
GENIUS_GENDTOL_13
1000

1000
h7
1000

1040
0.0
  0
DIMENSION
  5
412A
330
1F
100
AcDbEntity
  8
AM_5
100
AcDbDimension
  2
*D6
 10
-4.000140803248917
 20
-9.000001000000045
 30
0.0
 11
-2.000070401624466
 21
-7.450001000000045
 31
0.0
 70
    32
  1
<>
  3
AM_JIS
100
AcDbAlignedDimension
 13
-0.0000000000000149
 23
-0.0000000000000097
 33
0.0
 14
-4.000140803248916
 24
-1.000067222323733
 34
0.0
 50
0.0000000000001132
100
AcDbRotatedDimension
1001
GENIUS_GENDTOL_13
1000

1000
h7
1000

1040
0.0
  0
DIMENSION
  5
42F4
330
1F
100
AcDbEntity
  8
AM_5
100
AcDbDimension
  2
*D7
 10
8.305802841193788
 20
-1.000067222323736
 30
0.0
 11
6.755802841193787
 21
-5.507210079466592
 31
0.0
 70
    32
  1
%%c<>
  3
AM_JIS
100
AcDbAlignedDimension
 13
-0.9999999999999651
 23
1.000089459960078
 33
0.0
 14
-0.9999999999999682
 24
-1.000067222323733
 34
0.0
 50
90.0
100
AcDbRotatedDimension
1001
GENIUS_GENDTOL_13
1000

1000
h7
1000

1040
0.0
  0
LINE
  5
4B66
330
1F
100
AcDbEntity
  8
AM_0
100
AcDbLine
 10
-5.652318798671082
 20
0.999932777676245
 30
0.0
 11
-7.999825099371028
 21
0.9999327776762433
 31
0.0
  0
LINE
  5
4B67
330
1F
100
AcDbEntity
  8
AM_0
100
AcDbLine
 10
-5.744202579235686
 20
-1.000067222323953
 30
0.0
 11
-7.999825099370924
 21
-1.000067222323955
 31
0.0
  0
LINE
  5
4CB9
330
1F
100
AcDbEntity
  8
AM_0
100
AcDbLine
 10
-7.999825099370972
 20
0.9999327776762234
 30
0.0
 11
-7.999825099370924
 21
-1.000067222323955
 31
0.0
  0
DIMENSION
  5
4D75
330
1F
100
AcDbEntity
  8
AM_5
100
AcDbDimension
  2
*D8
 10
-7.999825099370924
 20
-15.00000100000005
 30
0.0
 11
-3.999912549685467
 21
-13.45000100000005
 31
0.0
 70
    32
  1
<>
  3
AM_JIS
100
AcDbAlignedDimension
 13
-0.0000000000000098
 23
0.0000000000000005
 33
0.0
 14
-7.999825099370923
 24
-1.000067222323955
 34
0.0
 50
0.0000000000001641
100
AcDbRotatedDimension
1001
GENIUS_GENDTOL_13
1000

1000
h7
1000

1040
0.0
  0
LINE
  5
4F7E
330
1F
100
AcDbEntity
  8
AM_0
100
AcDbLine
 10
-13.67140201707856
 20
1.999999999999893
 30
0.0
 11
-13.67072568224525
 21
-2.00000000000006
 31
0.0
  0
LINE
  5
5178
330
1F
100
AcDbEntity
  8
AM_0
100
AcDbLine
 10
-13.67072568224525
 20
-2.00000000000006
 30
0.0
 11
-79.4998250993709
 21
-2.000000000000078
 31
0.0
  0
LINE
  5
517B
330
1F
100
AcDbEntity
  8
AM_0
100
AcDbLine
 10
-79.99982509937092
 20
1.499999999999877
 30
0.0
 11
-79.9998250993709
 21
-1.500000000000078
 31
0.0
  0
LINE
  5
517C
330
1F
100
AcDbEntity
  8
AM_0
100
AcDbLine
 10
-79.49982509937091
 20
1.999999999999877
 30
0.0
 11
-79.49982509937088
 21
-2.000000000000081
 31
0.0
  0
DIMENSION
  5
517D
330
1F
100
AcDbEntity
  8
AM_5
100
AcDbDimension
  2
*D9
 10
-89.05602022933051
 20
-2.000000000000075
 30
0.0
 11
-90.60602022933052
 21
-6.545238095238184
 31
0.0
 70
    32
  1
%%c<>
  3
AM_JIS
100
AcDbAlignedDimension
 13
-79.49982509937091
 23
1.999999999999877
 33
0.0
 14
-79.49982509937088
 24
-2.000000000000077
 34
0.0
 50
270.0
100
AcDbRotatedDimension
1001
GENIUS_GENDTOL_13
1000

1000
h7
1000

1040
0.0
  0
LINE
  5
518C
330
1F
100
AcDbEntity
  8
AM_0
100
AcDbLine
 10
-13.67140201707856
 20
1.999999999999893
 30
0.0
 11
-79.49982509937092
 21
1.999999999999877
 31
0.0
  0
LINE
  5
519A
330
1F
100
AcDbEntity
  8
AM_0
100
AcDbLine
 10
-79.99982509937092
 20
1.499999999999877
 30
0.0
 11
-79.49982509937092
 21
1.999999999999877
 31
0.0
1001
GENIUS_GENFIL_13
1070
     0
1040
0.5
1040
0.5
1040
20.0
1040
0.0
1002
{
1002
}
1001
GENIUS_GENODEF_13
1002
{
1000
HIER
1070
     0
1002
}
1002
{
1000
MANEDIT
1070
     0
1002
}
1002
{
1000
NOSEL
1070
     0
1002
}
1002
{
1000
BEHIND
1070
     0
1002
}
1002
{
1000
REACTOR
1002
}
1001
GENIUS_GENOBJ-N-CHA_13
1002
{
1000
OWNER
1000
GEN
1002
}
  0
LINE
  5
519D
330
1F
100
AcDbEntity
  8
AM_0
100
AcDbLine
 10
-79.9998250993709
 20
-1.500000000000078
 30
0.0
 11
-79.4998250993709
 21
-2.000000000000078
 31
0.0
1001
GENIUS_GENFIL_13
1070
     0
1040
0.5
1040
0.5
1040
20.0
1040
0.0
1002
{
1002
}
1001
GENIUS_GENODEF_13
1002
{
1000
HIER
1070
     0
1002
}
1002
{
1000
MANEDIT
1070
     0
1002
}
1002
{
1000
NOSEL
1070
     0
1002
}
1002
{
1000
BEHIND
1070
     0
1002
}
1002
{
1000
REACTOR
1002
}
1001
GENIUS_GENOBJ-N-CHA_13
1002
{
1000
OWNER
1000
GEN
1002
}
  0
SPLINE
  5
526B
330
1F
100
AcDbEntity
  8
AM_0
100
AcDbSpline
210
0.0
220
0.0
230
1.0
 70
     8
 71
     3
 72
     8
 73
     4
 74
     0
 42
0.0000000001
 43
0.0000000001
 40
1.794922859432252
 40
1.794922859432252
 40
1.794922859432252
 40
1.794922859432252
 40
8.217791785374707
 40
8.217791785374707
 40
8.217791785374707
 40
8.217791785374707
 10
-0.9999999999999687
 20
0.9847405306884292
 30
0.0
 10
-1.407899043290499
 20
0.9491387769155418
 30
0.0
 10
-1.807334450435001
 20
0.8532765666778511
 30
0.0
 10
-2.201761357183024
 20
0.7217542081424521
 30
0.0
  0
SPLINE
  5
526C
330
1F
100
AcDbEntity
  8
AM_0
100
AcDbSpline
210
0.0
220
0.0
230
1.0
 70
     8
 71
     3
 72
     8
 73
     4
 74
     0
 42
0.0000000001
 43
0.0000000001
 40
0.0
 40
0.0
 40
0.0
 40
0.0
 40
3.020429804461161
 40
3.020429804461161
 40
3.020429804461161
 40
3.020429804461161
 10
-1.043929328960303
 20
0.2777031074460959
 30
0.0
 10
-1.165828535623163
 20
0.346307897644993
 30
0.0
 10
-1.318958661082317
 20
0.6782997004637986
 30
0.0
 10
-1.180430202160043
 20
0.6853125099660554
 30
0.0
  0
SPLINE
  5
526D
330
1F
100
AcDbEntity
  8
AM_0
100
AcDbSpline
210
0.0
220
0.0
230
1.0
 70
     8
 71
     3
 72
     8
 73
     4
 74
     0
 42
0.0000000001
 43
0.0000000001
 40
0.0
 40
0.0
 40
0.0
 40
0.0
 40
2.47158723905282
 40
2.47158723905282
 40
2.47158723905282
 40
2.47158723905282
 10
-0.9999999999999687
 20
0.9847405306884292
 30
0.0
 10
-0.9521414969361224
 20
0.8780222410557763
 30
0.0
 10
-1.067755396854821
 20
0.6994059429414344
 30
0.0
 10
-1.180430202169515
 20
0.6853125099656007
 30
0.0
  0
SPLINE
  5
5270
330
1F
100
AcDbEntity
  8
AM_0
100
AcDbSpline
210
0.0
220
0.0
230
1.0
 70
     8
 71
     3
 72
     9
 73
     5
 74
     0
 42
0.0000000001
 43
0.0000000001
 40
0.0
 40
0.0
 40
0.0
 40
0.0
 40
0.6272184563385361
 40
1.868527334522296
 40
1.868527334522296
 40
1.868527334522296
 40
1.868527334522296
 10
-0.8816653600484805
 20
-0.6085870561994304
 30
0.0
 10
-0.8647669407376817
 20
-0.6327732213124952
 30
0.0
 10
-0.7918735213944652
 20
-0.719246519165329
 30
0.0
 10
-0.9487295016389552
 20
-0.7809646517219355
 30
0.0
 10
-0.9999999999999687
 20
-0.7551381411957129
 30
0.0
  0
ELLIPSE
  5
5272
330
1F
100
AcDbEntity
  8
AM_0
100
AcDbEllipse
 10
-0.0752757752867205
 20
0.0093060603003914
 30
0.0
 11
0.0000000000000004
 21
1.039766155271039
 31
0.0
210
0.0
220
0.0
230
1.0
 40
0.9642871749763044
 41
1.309708023350012
 42
2.207143587037294
  0
LINE
  5
5277
330
1F
100
AcDbEntity
  8
AM_11
100
AcDbLine
 10
-4.000140803248916
 20
-1.000067222323732
 30
0.0
 11
-0.9999999999999651
 21
-1.000067222323726
 31
0.0
  0
LINE
  5
5278
330
1F
100
AcDbEntity
  8
AM_11
100
AcDbLine
 10
-0.9999999999999651
 20
0.9999327776762521
 30
0.0
 11
-4.000140803248913
 21
0.9999327776762461
 31
0.0
  0
LINE
  5
528F
330
1F
100
AcDbEntity
  8
AM_0
100
AcDbLine
 10
-0.9999999999987256
 20
-0.984807753013094
 30
0.0
 11
-1.000000000000054
 21
-0.7551381411957058
 31
0.0
  0
LINE
  5
5444
330
1F
100
AcDbEntity
  8
AM_0
100
AcDbLine
 10
-4.000140803248913
 20
0.381658573757164
 30
0.0
 11
-4.000140803248913
 21
0.5615854409490906
 31
0.0
  0
ARC
  5
5469
330
1F
100
AcDbEntity
  8
AM_0
100
AcDbCircle
 10
-1.00000000000009
 20
0.015192246986906
 30
0.0
 40
1.0
100
AcDbArc
 50
270.0000000000782
 51
359.1295148788724
  0
ARC
  5
546A
330
1F
100
AcDbEntity
  8
AM_11
100
AcDbCircle
 10
-1.0
 20
0.0000000000001346
 30
0.0
 40
1.0
100
AcDbArc
 50
270.0
 51
90.00000000000005
  0
ARC
  5
546B
330
1F
100
AcDbEntity
  8
AM_0
100
AcDbCircle
 10
-1.0
 20
-0.015192246987683
 30
0.0
 40
1.0
100
AcDbArc
 50
0.870485121205805
 51
90.00000000000005
  0
SPLINE
  5
5597
330
1F
100
AcDbEntity
  8
AM_0
100
AcDbSpline
210
0.0
220
0.0
230
1.0
 70
     8
 71
     3
 72
     8
 73
     4
 74
     0
 42
0.0000000001
 43
0.0000000001
 40
15.74911629437282
 40
15.74911629437282
 40
15.74911629437282
 40
15.74911629437282
 40
17.52826289168434
 40
17.52826289168434
 40
17.52826289168434
 40
17.52826289168434
 10
-4.000140803248914
 20
0.2196715862998822
 30
0.0
 10
-3.761959122221131
 20
0.1014343701789023
 30
0.0
 10
-3.663855782445716
 20
0.0506835739275844
 30
0.0
 10
-3.565752442670302
 20
-0.0000672223237336
 30
0.0
  0
SPLINE
  5
5599
330
1F
100
AcDbEntity
  8
AM_0
100
AcDbSpline
210
0.0
220
0.0
230
1.0
 70
     8
 71
     3
 72
     8
 73
     4
 74
     0
 42
0.0000000001
 43
0.0000000001
 40
1.794922859428793
 40
1.794922859428793
 40
1.794922859428793
 40
1.794922859428793
 40
17.5282628916844
 40
17.5282628916844
 40
17.5282628916844
 40
17.5282628916844
 10
-0.9999634484171215
 20
-0.984807752345085
 30
0.0
 10
-1.83065854392234
 20
-0.8976655827248526
 30
0.0
 10
-2.698205493296279
 20
-0.4488664025242932
 30
0.0
 10
-3.565752442670302
 20
-0.0000672223237336
 30
0.0
  0
SPLINE
  5
559B
330
1F
100
AcDbEntity
  8
AM_0
100
AcDbSpline
210
0.0
220
0.0
230
1.0
 70
     8
 71
     3
 72
     8
 73
     4
 74
     0
 42
0.0000000001
 43
0.0000000001
 40
6.513172597598655
 40
6.513172597598655
 40
6.513172597598655
 40
6.513172597598655
 40
17.4246383984571
 40
17.4246383984571
 40
17.4246383984571
 40
17.4246383984571
 10
-0.9999999999999651
 20
-0.755138141195713
 30
0.0
 10
-1.537336960207738
 20
-0.5791399217294332
 30
0.0
 10
-2.14448859620485
 20
-0.2896035720265834
 30
0.0
 10
-2.751640232201959
 20
-0.0000672223237336
 30
0.0
  0
LINE
  5
559D
330
1F
100
AcDbEntity
  8
AM_0
100
AcDbLine
 10
-4.904748597281322
 20
-0.8539210255192463
 30
0.0
 11
-1.984509601448159
 21
-0.7400148481243829
 31
0.0
  0
SPLINE
  5
559E
330
1F
100
AcDbEntity
  8
AM_0
100
AcDbSpline
210
0.0
220
0.0
230
1.0
 70
     8
 71
     3
 72
     8
 73
     4
 74
     0
 42
0.0000000001
 43
0.0000000001
 40
0.4192477751875368
 40
0.4192477751875368
 40
0.4192477751875368
 40
0.4192477751875368
 40
4.656267981793611
 40
4.656267981793611
 40
4.656267981793611
 40
4.656267981793611
 10
-5.728223463212536
 20
-1.000067222323953
 30
0.0
 10
-5.393049011393018
 20
-0.9380062526509908
 30
0.0
 10
-5.147705164129738
 20
-0.9059802083480951
 30
0.0
 10
-4.904748597281322
 20
-0.8539210255192463
 30
0.0
  0
POLYLINE
  5
559F
330
1F
100
AcDbEntity
  8
AM_0
100
AcDb2dPolyline
 66
     1
 10
0.0
 20
0.0
 30
0.0
 70
     2
  0
VERTEX
  5
55A0
330
559F
100
AcDbEntity
  8
AM_0
100
AcDbVertex
100
AcDb2dVertex
 10
-4.000140803248914
 20
0.2196715862998824
 30
0.0
 42
0.0166214393293279
  0
VERTEX
  5
55A1
330
559F
100
AcDbEntity
  8
AM_0
100
AcDbVertex
100
AcDb2dVertex
 10
-4.328662439669929
 20
0.1451212354740372
 30
0.0
 42
0.0266427629234881
 70
     1
  0
VERTEX
  5
55A2
330
559F
100
AcDbEntity
  8
AM_0
100
AcDbVertex
100
AcDb2dVertex
 10
-4.529390705497736
 20
0.0786809462147824
 30
0.0
 42
0.0136831503593793
  0
VERTEX
  5
55A3
330
559F
100
AcDbEntity
  8
AM_0
100
AcDbVertex
100
AcDb2dVertex
 10
-5.02562667692854
 20
-0.1023193387562897
 30
0.0
 42
0.0500959423555759
 70
     1
  0
VERTEX
  5
55A4
330
559F
100
AcDbEntity
  8
AM_0
100
AcDbVertex
100
AcDb2dVertex
 10
-5.148349373114849
 20
-0.1909394796932409
 30
0.0
 42
0.0608253181202686
  0
VERTEX
  5
55A5
330
559F
100
AcDbEntity
  8
AM_0
100
AcDbVertex
100
AcDb2dVertex
 10
-5.286127243270689
 20
-0.3381582828832697
 30
0.0
 42
0.1124288503526285
 70
     1
  0
VERTEX
  5
55A6
330
559F
100
AcDbEntity
  8
AM_0
100
AcDbVertex
100
AcDb2dVertex
 10
-5.307207080407902
 20
-0.4588607854543545
 30
0.0
 42
0.2320489978593618
  0
VERTEX
  5
55A7
330
559F
100
AcDbEntity
  8
AM_0
100
AcDbVertex
100
AcDb2dVertex
 10
-5.281690581771361
 20
-0.5119140745796776
 30
0.0
 42
0.0681917644752312
 70
     1
  0
VERTEX
  5
55A8
330
559F
100
AcDbEntity
  8
AM_0
100
AcDbVertex
100
AcDb2dVertex
 10
-5.134917242610026
 20
-0.6091829637089124
 30
0.0
 42
0.0364758264119263
  0
VERTEX
  5
55A9
330
559F
100
AcDbEntity
  8
AM_0
100
AcDbVertex
100
AcDb2dVertex
 10
-5.028802568951331
 20
-0.6676936577245618
 30
0.0
 42
0.015309379493102
 70
     1
  0
VERTEX
  5
55AA
330
559F
100
AcDbEntity
  8
AM_0
100
AcDbVertex
100
AcDb2dVertex
 10
-4.524685539939581
 20
-0.8024319928295815
 30
0.0
 42
0.0278025959802376
  0
VERTEX
  5
55AB
330
559F
100
AcDbEntity
  8
AM_0
100
AcDbVertex
100
AcDb2dVertex
 10
-4.317063993573574
 20
-0.8208303698408974
 30
0.0
 42
0.0182596520050883
 70
     1
  0
VERTEX
  5
55AC
330
559F
100
AcDbEntity
  8
AM_0
100
AcDbVertex
100
AcDb2dVertex
 10
-4.000140803248916
 20
-0.8186360998652647
 30
0.0
  0
SEQEND
  5
55AD
330
559F
100
AcDbEntity
  8
AM_0
  0
LINE
  5
55AE
330
1F
100
AcDbEntity
  8
AM_0
100
AcDbLine
 10
-4.786288008726406
 20
0.8298126633957872
 30
0.0
 11
-1.186143700168538
 21
0.6848203845898896
 31
0.0
  0
SPLINE
  5
55AF
330
1F
100
AcDbEntity
  8
AM_0
100
AcDbSpline
210
0.0
220
0.0
230
1.0
 70
     8
 71
     3
 72
     8
 73
     4
 74
     0
 42
0.0000000001
 43
0.0000000001
 40
0.7484745895110383
 40
0.7484745895110383
 40
0.7484745895110383
 40
0.7484745895110383
 40
17.4246383984571
 40
17.4246383984571
 40
17.4246383984571
 40
17.4246383984571
 10
-5.652318798671082
 20
0.999932777676245
 30
0.0
 10
-4.607478911174332
 20
0.8849386392918697
 30
0.0
 10
-3.679559571688148
 20
0.4424357084840575
 30
0.0
 10
-2.751640232201959
 20
-0.0000672223237336
 30
0.0
  0
LINE
  5
55BB
330
1F
100
AcDbEntity
  8
AM_11
100
AcDbLine
 10
-4.000140803248912
 20
0.999932777676245
 30
0.0
 11
-4.000140803248916
 21
-1.000067222323733
 31
0.0
  0
DIMENSION
  5
5679
330
1F
100
AcDbEntity
  8
AM_5
100
AcDbDimension
  2
*D10
 10
-1.000000000000092
 20
0.0151922469869059
 30
0.0
 11
3.25135159767549
 21
-3.418624914116628
 31
0.0
 70
    36
  1
<>
  3
AM_JIS$4
100
AcDbRadialDimension
 15
-0.4322237158457761
 25
-0.8079906556246102
 35
0.0
 40
0.0
1001
GENIUS_GENDTOL_13
1000

1000
h7
1000

1040
0.0
1001
ACAD
1000
DSTYLE
1002
{
1070
   287
1070
     3
1070
   271
1070
     3
1070
   288
1070
     1
1070
   289
1070
     3
1070
   172
1070
     1
1070
    74
1070
     0
1002
}
  0
LINE
  5
570E
330
1F
100
AcDbEntity
  8
AM_0
100
AcDbLine
 10
-13.67148815573078
 20
1.999999999999894
 30
0.0
 11
-7.999825099370972
 21
0.9999327776762228
 31
0.0
  0
LINE
  5
570F
330
1F
100
AcDbEntity
  8
AM_0
100
AcDbLine
 10
-7.999825099370924
 20
-1.000067222323955
 30
0.0
 11
-13.67072568224525
 21
-2.00000000000006
 31
0.0
  0
LINE
  5
5886
330
1F
100
AcDbEntity
  8
AM_0
100
AcDbLine
 10
-0.1400000000002877
 20
-0.0352409360508759
 30
0.0
 11
-1.045556272136088
 21
0.2777703297699645
 31
0.0
  0
LINE
  5
5887
330
1F
100
AcDbEntity
  8
AM_0
100
AcDbLine
 10
-0.0000000000002338
 20
0.000000000000135
 30
0.0
 11
-1.186143700168538
 21
0.6848203845898896
 31
0.0
  0
ARC
  5
5888
330
1F
100
AcDbEntity
  8
AM_0
100
AcDbCircle
 10
-0.9678131097818145
 20
0.2686513849624141
 30
0.0
 40
0.881830532186926
100
AcDbArc
 50
275.8924707062757
 51
339.8416840647175
  0
LINE
  5
588A
330
1F
100
AcDbEntity
  8
AM_0
100
AcDbLine
 10
-0.0001164324800941
 20
0.0000672223237248
 30
0.0
 11
-0.1400000000002877
 21
-0.0352409360508759
 31
0.0
  0
VIEWPORT
  5
110
330
101
100
AcDbEntity
 67
     1
  8
0
100
AcDbViewport
 10
420.5
 20
297.0
 30
0.0
 40
948.9782706766916
 41
628.452
 68
     1
 69
     1
1001
ACAD
1000
MVIEW
1002
{
1070
    16
1010
0.0
1020
0.0
1030
0.0
1010
0.0
1020
0.0
1030
1.0
1040
0.0
1040
628.452
1040
420.5
1040
297.0
1040
50.0
1040
0.0
1040
0.0
1070
     0
1070
   100
1070
     1
1070
     1
1070
     0
1070
     0
1070
     0
1070
     0
1040
0.0
1040
0.0
1040
0.0
1040
10.0
1040
10.0
1040
10.0
1040
10.0
1070
     0
1002
{
1002
}
1002
}
  0
ENDSEC
  0
SECTION
  2
OBJECTS
  0
DICTIONARY
  5
C
330
0
100
AcDbDictionary
  3
ACAD_GROUP
350
D
  3
ACAD_LAYOUT
350
1A
  3
ACAD_MLINESTYLE
350
17
  3
ACAD_PLOTSETTINGS
350
19
  3
ACAD_PLOTSTYLENAME
350
E
  3
ACDBVARIABLEDICTIONARY
350
34
  3
ACMDICTIONARY
350
43
  3
AMG
350
2B
  3
AMGSNAPSETTINGS
350
6E
  3
ASE_INDEX_DICTIONARY
350
151A
  3
DWGPROPS
350
5966
  3
ACDBHEADERROUNDTRIPXREC
350
5972
  0
DICTIONARY
  5
74
330
1F
100
AcDbDictionary
280
     1
  3
ACAD_INDEX
360
5968
  3
ACAD_LAYOUTSELFREF
360
5995
  0
DICTIONARY
  5
599A
330
101
100
AcDbDictionary
280
     1
  3
ACAD_LAYOUTSELFREF
360
599B
  0
DICTIONARY
  5
D
102
{ACAD_REACTORS
330
C
102
}
330
C
100
AcDbDictionary
  0
DICTIONARY
  5
1A
102
{ACAD_REACTORS
330
C
102
}
330
C
100
AcDbDictionary
  0
DICTIONARY
  5
17
102
{ACAD_REACTORS
330
C
102
}
330
C
100
AcDbDictionary
  3
STANDARD
350
18
  0
DICTIONARY
  5
19
102
{ACAD_REACTORS
330
C
102
}
330
C
100
AcDbDictionary
  0
ACDBDICTIONARYWDFLT
  5
E
102
{ACAD_REACTORS
330
C
102
}
330
C
100
AcDbDictionary
281
     1
  3
Normal
350
F
100
AcDbDictionaryWithDefault
340
F
  0
DICTIONARY
  5
34
102
{ACAD_REACTORS
330
C
102
}
330
C
100
AcDbDictionary
  3
INDEXCTL
350
35
  3
SORTENTS
350
B5E
  0
DICTIONARY
  5
43
102
{ACAD_REACTORS
330
C
102
}
330
C
100
AcDbDictionary
  3
ACMSTDDICTIONARY
350
260
  0
DICTIONARY
  5
2B
102
{ACAD_REACTORS
330
C
102
}
330
C
100
AcDbDictionary
  3
ACMGSETTINGS
350
2C
  0
DICTIONARY
  5
6E
102
{ACAD_REACTORS
330
C
102
}
330
C
100
AcDbDictionary
  0
DICTIONARY
  5
151A
102
{ACAD_REACTORS
330
C
102
}
330
C
100
AcDbDictionary
  3
ASEBLOCKHIERARCHYINDEXRECORD
350
151C
1001
DCO15
1040
1471862535.906
  0
XRECORD
  5
5966
102
{ACAD_REACTORS
330
C
102
}
330
C
100
AcDbXrecord
  1
DWGPROPS COOKIE
  2

  3

  4

  6

  7

  8

  9

300
AmdtFileType=82
301
=
302
=
303
=
304
=
305
=
306
=
307
=
308
=
309
=
 40
0.2003986226851852
 41
2452838.430434386
 42
2453045.709635023
  1

 90
        1
  0
DICTIONARY
  5
5972
102
{ACAD_REACTORS
330
C
102
}
330
C
100
AcDbDictionary
  3
TSTACKALIGN
350
5973
  3
TSTACKSIZE
350
5974
  3
HYPERLINKBASE
350
5975
  3
STYLESHEET
350
5976
  3
LAYOUTDICT
350
5977
  3
PLOTSETDICT
350
5978
  3
PLOTSTYLNAMDICT
350
5979
  3
LWETCUNION
350
597A
  3
INSUNITS
350
597B
  3
CEPSNTYPE
350
597C
  3
FINGERPRINTGUID
350
597D
  3
VERSIONGUID
350
597E
  3
PSVPSCALE
350
597F
  3
DIMSTYLEDATA
350
5980
  3
PUCSORTHOREF
350
5981
  3
PUCSORTHOVIEW
350
5982
  3
PUCSBASE
350
5983
  3
PUCSORGTOP
350
5984
  3
PUCSORGBOTTOM
350
5985
  3
PUCSORGLEFT
350
5986
  3
PUCSORGRIGHT
350
5987
  3
PUCSORGFRONT
350
5988
  3
PUCSORGBACK
350
5989
  3
UCSORTHOREF
350
598A
  3
UCSORTHOVIEW
350
598B
  3
UCSBASE
350
598C
  3
UCSORGTOP
350
598D
  3
UCSORGBOTTOM
350
598E
  3
UCSORGLEFT
350
598F
  3
UCSORGRIGHT
350
5990
  3
UCSORGFRONT
350
5991
  3
UCSORGBACK
350
5992
  0
DICTIONARY
  5
5968
102
{ACAD_REACTORS
330
74
102
}
330
74
100
AcDbDictionary
  3
*A1
350
5969
  0
XRECORD
  5
5995
102
{ACAD_REACTORS
330
74
102
}
330
74
100
AcDbXrecord
340
1F
  0
XRECORD
  5
599B
102
{ACAD_REACTORS
330
599A
102
}
330
599A
100
AcDbXrecord
340
101
  0
MLINESTYLE
  5
18
102
{ACAD_REACTORS
330
17
102
}
330
17
100
AcDbMlineStyle
  2
STANDARD
 70
     0
  3

 62
   256
 51
90.0
 52
90.0
 71
     2
 49
0.5
 62
   256
  6
BYLAYER
 49
-0.5
 62
   256
  6
BYLAYER
  0
ACDBPLACEHOLDER
  5
F
102
{ACAD_REACTORS
330
E
102
}
330
E
100
AcDbPlaceHolder
280
     0
  0
DICTIONARYVAR
  5
35
102
{ACAD_REACTORS
330
34
102
}
330
34
100
DictionaryVariables
280
     0
  1
1
  0
DICTIONARYVAR
  5
B5E
102
{ACAD_REACTORS
330
34
102
}
330
34
100
DictionaryVariables
280
     0
  1
96
  0
DICTIONARY
  5
260
102
{ACAD_REACTORS
330
43
102
}
330
43
100
AcDbDictionary
  0
DICTIONARY
  5
2C
102
{ACAD_REACTORS
330
2B
102
}
330
2B
100
AcDbDictionary
  3
DWGSETTINGS
350
2D
  0
XRECORD
  5
151C
102
{ACAD_REACTORS
330
151A
102
}
330
151A
100
AcDbXrecord
330
0
330
0
330
0
330
0
330
0
330
0
330
0
330
0
  0
XRECORD
  5
5973
102
{ACAD_REACTORS
330
5972
102
}
330
5972
100
AcDbXrecord
 90
        1
  0
XRECORD
  5
5974
102
{ACAD_REACTORS
330
5972
102
}
330
5972
100
AcDbXrecord
 90
       70
  0
XRECORD
  5
5975
102
{ACAD_REACTORS
330
5972
102
}
330
5972
100
AcDbXrecord
  1

  0
XRECORD
  5
5976
102
{ACAD_REACTORS
330
5972
102
}
330
5972
100
AcDbXrecord
  1
ASAMI.ctb
  0
XRECORD
  5
5977
102
{ACAD_REACTORS
330
5972
102
}
330
5972
100
AcDbXrecord
340
1A
  0
XRECORD
  5
5978
102
{ACAD_REACTORS
330
5972
102
}
330
5972
100
AcDbXrecord
340
19
  0
XRECORD
  5
5979
102
{ACAD_REACTORS
330
5972
102
}
330
5972
100
AcDbXrecord
340
E
  0
XRECORD
  5
597A
102
{ACAD_REACTORS
330
5972
102
}
330
5972
100
AcDbXrecord
 90
    10781
  0
XRECORD
  5
597B
102
{ACAD_REACTORS
330
5972
102
}
330
5972
100
AcDbXrecord
 90
        4
  0
XRECORD
  5
597C
102
{ACAD_REACTORS
330
5972
102
}
330
5972
100
AcDbXrecord
 90
        0
  0
XRECORD
  5
597D
102
{ACAD_REACTORS
330
5972
102
}
330
5972
100
AcDbXrecord
  1
{AFB28963-8C59-40AE-9337-C84526B81ACE}
  0
XRECORD
  5
597E
102
{ACAD_REACTORS
330
5972
102
}
330
5972
100
AcDbXrecord
  1
{449FC220-EB50-41A7-9A3E-72935B8E211B}
  0
XRECORD
  5
597F
102
{ACAD_REACTORS
330
5972
102
}
330
5972
100
AcDbXrecord
 40
0.0
  0
XRECORD
  5
5980
102
{ACAD_REACTORS
330
5972
102
}
330
5972
100
AcDbXrecord
1000
DSTYLE
1002
{
1070
    79
 70
     2
1070
   341
340
59
1070
   342
340
59
1070
   371
 70
    -1
1070
   372
 70
    -1
1002
}
  0
XRECORD
  5
5981
102
{ACAD_REACTORS
330
5972
102
}
330
5972
100
AcDbXrecord
340
0
  0
XRECORD
  5
5982
102
{ACAD_REACTORS
330
5972
102
}
330
5972
100
AcDbXrecord
 70
     0
  0
XRECORD
  5
5983
102
{ACAD_REACTORS
330
5972
102
}
330
5972
100
AcDbXrecord
340
0
  0
XRECORD
  5
5984
102
{ACAD_REACTORS
330
5972
102
}
330
5972
100
AcDbXrecord
 10
0.0
 20
0.0
 30
0.0
  0
XRECORD
  5
5985
102
{ACAD_REACTORS
330
5972
102
}
330
5972
100
AcDbXrecord
 10
0.0
 20
0.0
 30
0.0
  0
XRECORD
  5
5986
102
{ACAD_REACTORS
330
5972
102
}
330
5972
100
AcDbXrecord
 10
0.0
 20
0.0
 30
0.0
  0
XRECORD
  5
5987
102
{ACAD_REACTORS
330
5972
102
}
330
5972
100
AcDbXrecord
 10
0.0
 20
0.0
 30
0.0
  0
XRECORD
  5
5988
102
{ACAD_REACTORS
330
5972
102
}
330
5972
100
AcDbXrecord
 10
0.0
 20
0.0
 30
0.0
  0
XRECORD
  5
5989
102
{ACAD_REACTORS
330
5972
102
}
330
5972
100
AcDbXrecord
 10
0.0
 20
0.0
 30
0.0
  0
XRECORD
  5
598A
102
{ACAD_REACTORS
330
5972
102
}
330
5972
100
AcDbXrecord
340
0
  0
XRECORD
  5
598B
102
{ACAD_REACTORS
330
5972
102
}
330
5972
100
AcDbXrecord
 70
     0
  0
XRECORD
  5
598C
102
{ACAD_REACTORS
330
5972
102
}
330
5972
100
AcDbXrecord
340
0
  0
XRECORD
  5
598D
102
{ACAD_REACTORS
330
5972
102
}
330
5972
100
AcDbXrecord
 10
0.0
 20
0.0
 30
0.0
  0
XRECORD
  5
598E
102
{ACAD_REACTORS
330
5972
102
}
330
5972
100
AcDbXrecord
 10
0.0
 20
0.0
 30
0.0
  0
XRECORD
  5
598F
102
{ACAD_REACTORS
330
5972
102
}
330
5972
100
AcDbXrecord
 10
0.0
 20
0.0
 30
0.0
  0
XRECORD
  5
5990
102
{ACAD_REACTORS
330
5972
102
}
330
5972
100
AcDbXrecord
 10
0.0
 20
0.0
 30
0.0
  0
XRECORD
  5
5991
102
{ACAD_REACTORS
330
5972
102
}
330
5972
100
AcDbXrecord
 10
0.0
 20
0.0
 30
0.0
  0
XRECORD
  5
5992
102
{ACAD_REACTORS
330
5972
102
}
330
5972
100
AcDbXrecord
 10
0.0
 20
0.0
 30
0.0
  0
LAYER_INDEX
  5
5969
102
{ACAD_REACTORS
330
5968
102
}
330
5968
100
AcDbIndex
 40
2453152.436464224
100
AcDbLayerIndex
  8
0
360
596A
 90
        0
  8
AM_0
360
596B
 90
       33
  8
AM_11
360
596C
 90
        4
  8
AM_7
360
596D
 90
        1
  8
AM_5
360
596E
 90
        6
  8
Defpoints
360
596F
 90
        0
  8
AM_6
360
5970
 90
        1
  0
XRECORD
  5
2D
102
{ACAD_REACTORS
330
2C
102
}
330
2C
100
AcDbXrecord
  1
VERSION
140
15.0
  1
PRODUCT
  2
AutoCAD Mechanical 2000
  0
IDBUFFER
  5
596A
330
0
100
AcDbIdBuffer
  0
IDBUFFER
  5
596B
330
0
100
AcDbIdBuffer
330
5444
330
5469
330
546B
330
5597
330
5599
330
559B
330
559D
330
559E
330
559F
330
55AE
330
55AF
330
570E
330
570F
330
5886
330
5887
330
5888
330
588A
330
4B66
330
4B67
330
4CB9
330
4F7E
330
5178
330
517B
330
517C
330
518C
330
519A
330
519D
330
526B
330
526C
330
526D
330
5270
330
5272
330
528F
  0
IDBUFFER
  5
596C
330
0
100
AcDbIdBuffer
330
5277
330
5278
330
546A
330
55BB
  0
IDBUFFER
  5
596D
330
0
100
AcDbIdBuffer
330
3EE8
  0
IDBUFFER
  5
596E
330
0
100
AcDbIdBuffer
330
4047
330
412A
330
42F4
330
4D75
330
517D
330
5679
  0
IDBUFFER
  5
596F
330
0
100
AcDbIdBuffer
  0
IDBUFFER
  5
5970
330
0
100
AcDbIdBuffer
330
1500
  0
ENDSEC
  0
EOF
